osu file format v14

[General]
AudioFilename: audio.mp3
AudioLeadIn: 0
PreviewTime: 64679
Countdown: 0
SampleSet: Soft
StackLeniency: 0.7
Mode: 0
LetterboxInBreaks: 0
WidescreenStoryboard: 1

[Editor]
DistanceSpacing: 1
BeatDivisor: 3
GridSize: 8
TimelineZoom: 4.699998

[Metadata]
Title:Touch off (TV Size)
TitleUnicode:Touch off (TV Size)
Artist:UVERworld
ArtistUnicode:UVERworld
Creator:Monstrata
Version:Average Quality Normal
Source:約束のネバーランド
Tags:promised neverland yakusoku never emma ray norman doormat agatsu musty lit120 anime children habiholic seinen -hakurei- haruto haruto- haruto_aizawa japanese the
BeatmapID:1896731
BeatmapSetID:908896

[Difficulty]
HPDrainRate:3
CircleSize:2.8
OverallDifficulty:4.5
ApproachRate:5.5
SliderMultiplier:1
SliderTickRate:1

[Events]
//Background and Video events
0,0,"720891.jpg",0,0
Video,0,"neverland_op.avi"
//Break Periods
//Storyboard Layer 0 (Background)
//Storyboard Layer 1 (Fail)
//Storyboard Layer 2 (Pass)
//Storyboard Layer 3 (Foreground)
//Storyboard Sound Samples

[TimingPoints]
404,300,4,2,1,40,1,0
404,-100,4,2,1,40,0,0
2654,-100,4,2,1,50,0,0
2804,-100,4,2,1,50,0,0
7604,-100,4,2,1,60,0,0
8654,-100,4,2,1,60,0,0
9404,-100,4,2,1,40,0,0
11804,-100,4,2,1,60,0,0
12404,-100,4,2,1,75,0,0
22004,-100,4,2,1,50,0,0
26054,-100,4,2,1,60,0,0
26804,-100,4,2,1,60,0,0
46004,-100,4,2,1,60,0,0
63404,-100,4,2,1,60,0,0
64004,-100,4,2,1,60,0,0
64754,-100,4,2,1,50,0,0
65204,-100,4,2,1,75,0,1
86804,-100,4,2,1,50,0,0
87854,-100,4,2,1,50,0,0

[Colours]
Combo1 : 153,206,128
Combo2 : 114,177,160
Combo3 : 178,178,178
Combo4 : 255,128,64

[HitObjects]
256,192,404,12,2,2204,0:0:0:0:
274,92,2804,6,0,P|320:72|369:66,1,100,0|0,3:2|0:0,0:0:0:0:
398,161,3404,2,0,P|351:180|302:186,1,100,8|0,0:0|3:2,0:0:0:0:
204,167,4004,6,0,P|154:173|108:192,1,100,0|0,0:0|0:0,0:0:0:0:
137,287,4604,2,0,P|186:280|232:261,1,100,8|0,0:0|0:0,0:0:0:0:
328,232,5204,6,0,L|313:344,2,100,0|0|8,3:2|0:0|0:2,0:0:0:0:
411,176,6104,2,0,L|417:126,1,50,0|0,3:2|3:2,0:0:0:0:
399,79,6404,6,0,P|353:58|304:63,1,100,0|0,0:0|0:0,0:0:0:0:
229,129,7004,1,10,0:0:0:0:
132,102,7304,1,2,0:0:0:0:
56,167,7604,6,0,L|75:327,2,150,6|8|4,3:2|0:3|0:3,0:0:0:0:
50,116,8654,5,2,3:2:0:0:
141,76,8954,1,2,3:2:0:0:
270,150,9404,6,0,P|247:195|244:245,1,100,2|2,0:0|0:0,0:0:0:0:
340,271,10004,2,0,P|362:226|365:176,1,100,2|2,0:0|0:0,0:0:0:0:
378,128,10454,2,0,B|478:107|478:107|502:128|498:159,1,150,2|0,0:0|0:0,0:0:0:0:
473,192,11054,2,0,P|447:242|461:337,1,150,2|0,0:0|0:0,0:0:0:0:
358,336,11804,6,0,B|334:344|318:336|318:336|294:344|278:336|278:336|254:344|238:336|238:336|214:344|198:336|198:336,1,150,4|8,3:2|0:0,0:0:0:0:
166,317,12404,6,0,P|136:249|163:181,1,150,4|2,3:2|3:2,0:0:0:0:
202,151,13004,2,0,L|309:159,1,100,10|2,0:0|3:2,0:0:0:0:
347,139,13454,2,0,P|367:94|356:46,1,100,2|10,3:2|0:0,0:0:0:0:
326,5,13904,1,2,3:2:0:0:
235,44,14204,2,0,L|119:29,1,100,10|2,0:0|0:0,0:0:0:0:
40,64,14804,6,0,P|90:119|100:192,1,150,2|2,3:2|3:2,0:0:0:0:
76,237,15404,1,10,0:0:0:0:
144,309,15704,1,10,0:0:0:0:
233,263,16004,2,0,P|280:251|379:297,2,150,2|2|0,0:0|3:2|0:0,0:0:0:0:
144,309,17204,5,6,3:2:0:0:
82,229,17504,2,0,L|27:217,1,50,0|2,0:0|3:2,0:0:0:0:
5,176,17804,2,0,P|0:127|29:87,1,100,10|2,0:0|3:2,0:0:0:0:
125,59,18404,2,0,L|180:47,1,50,2|10,0:0|0:0,0:0:0:0:
222,35,18704,1,2,0:0:0:0:
297,100,19004,2,0,L|352:88,2,50,10|2|2,0:0|3:2|0:0,0:0:0:0:
213,154,19604,6,0,P|147:97|70:98,1,150,2|2,3:2|3:2,0:0:0:0:
40,74,20204,2,0,L|64:179,1,100,10|10,0:0|0:0,0:0:0:0:
101,202,20654,2,0,L|77:307,1,100,2|10,3:2|0:0,0:0:0:0:
80,349,21104,2,0,P|145:292|222:293,1,150,2|2,3:2|3:2,0:0:0:0:
351,327,22004,6,0,L|463:312,2,100,6|2|2,3:2|0:0|0:0,0:0:0:0:
277,258,22904,2,0,L|177:271,2,100,2|2|2,0:0|0:0|0:0,0:0:0:0:
343,182,23804,2,0,P|357:135|342:88,1,100,2|2,0:0|0:0,0:0:0:0:
273,16,24404,6,0,L|173:2,2,100,2|2|2,0:0|0:0|0:0,0:0:0:0:
342,88,25304,2,0,L|441:101,2,100,2|2|2,0:0|0:0|0:0,0:0:0:0:
264,151,26204,2,0,P|217:165|169:151,1,100,8|2,0:0|3:2,0:0:0:0:
84,99,26804,5,6,3:2:0:0:
80,198,27104,2,0,L|76:314,1,100,2|8,3:2|0:0,0:0:0:0:
110,334,27554,2,0,P|154:312|204:310,1,100,2|10,3:2|0:0,0:0:0:0:
249,331,28004,1,2,3:2:0:0:
245,232,28304,2,0,L|241:116,1,100,2|8,0:0|0:0,0:0:0:0:
275,96,28754,2,0,P|319:117|369:119,1,100,2|2,0:0|0:0,0:0:0:0:
415,98,29204,5,2,3:2:0:0:
419,197,29504,2,0,L|423:313,1,100,2|8,3:2|0:0,0:0:0:0:
389,333,29954,2,0,P|344:311|294:309,1,100,2|10,3:2|0:0,0:0:0:0:
247,324,30404,1,2,3:2:0:0:
251,225,30704,2,0,L|255:109,1,100,2|8,0:0|0:0,0:0:0:0:
177,60,31304,1,10,0:0:0:0:
81,90,31604,6,0,P|57:133|53:183,1,100,6|2,3:2|3:2,0:0:0:0:
93,275,32204,2,0,L|155:265,1,50,10|2,0:0|3:2,0:0:0:0:
196,183,32654,2,0,L|296:166,1,100,10|2,0:0|0:0,0:0:0:0:
344,173,33104,2,0,P|369:200|376:279,2,100,2|8|0,0:0|0:0|0:0,0:0:0:0:
368,75,34004,6,0,P|395:50|474:43,2,100,2|2|10,3:2|3:2|0:0,0:0:0:0:
344,173,34904,1,2,0:0:0:0:
248,202,35204,1,0,3:2:0:0:
174,133,35504,2,0,P|125:126|79:145,2,100,2|10|10,3:2|0:0|0:0,0:0:0:0:
248,202,36404,5,6,3:2:0:0:
203,291,36704,2,0,P|157:310|108:303,1,100,2|8,3:2|0:0,0:0:0:0:
64,281,37154,2,0,L|77:174,1,100,2|10,3:2|0:0,0:0:0:0:
42,144,37604,1,2,3:2:0:0:
87,55,37904,2,0,P|132:35|181:42,1,100,2|8,0:0|0:0,0:0:0:0:
226,65,38354,2,0,L|213:172,1,100,2|2,0:0|0:0,0:0:0:0:
245,203,38804,5,2,3:2:0:0:
342,181,39104,1,2,3:2:0:0:
392,266,39404,1,10,0:0:0:0:
326,340,39704,1,2,0:0:0:0:
236,301,40004,6,0,P|188:288|140:299,1,100,2|2,3:2|0:0,0:0:0:0:
96,209,40604,2,0,P|47:220|0:207,1,100,8|10,0:0|0:0,0:0:0:0:
50,120,41204,5,6,3:2:0:0:
104,35,41504,1,2,3:2:0:0:
204,39,41804,1,10,0:0:0:0:
250,128,42104,1,2,0:0:0:0:
197,211,42404,2,0,P|208:262|253:305,2,100,2|2|10,3:2|0:0|0:0,0:0:0:0:
250,128,43304,1,2,0:0:0:0:
297,215,43604,6,0,L|408:218,2,100,2|2|10,3:2|0:0|0:0,0:0:0:0:
244,300,44504,1,2,0:0:0:0:
157,251,44804,2,0,P|84:232|18:271,1,150,10|2,0:0|3:2,0:0:0:0:
97,336,45554,1,2,0:0:0:0:
186,375,45854,1,10,0:0:0:0:
244,299,46154,6,0,L|391:269,1,150,0|8,3:2|0:0,0:0:0:0:
431,297,46754,2,0,P|457:227|445:131,1,150,0|2,3:2|3:2,0:0:0:0:
423,112,47354,1,2,3:2:0:0:
334,157,47654,1,2,3:2:0:0:
241,119,47954,1,2,3:2:0:0:
152,164,48254,1,2,0:0:0:0:
58,128,48554,6,0,P|55:196|119:264,1,150,2|10,3:2|0:0,0:0:0:0:
149,279,49154,2,0,L|255:259,1,100,0|0,3:2|0:0,0:0:0:0:
296,250,49604,1,2,3:2:0:0:
296,250,49754,2,0,P|345:252|416:319,1,150,2|8,3:2|0:0,0:0:0:0:
423,368,50354,1,2,3:2:0:0:
509,318,50654,5,2,0:2:0:0:
500,218,50954,2,0,L|447:226,2,50,2|2|2,3:2|0:0|3:2,0:0:0:0:
509,168,51404,2,0,P|507:119|480:76,1,100,8|2,0:0|0:0,0:0:0:0:
435,55,51854,1,2,0:0:0:0:
354,113,52154,2,0,L|196:95,1,150,2|8,3:2|0:0,0:0:0:0:
158,114,52754,2,0,P|122:177|145:247,1,150,2|0,3:2|3:2,0:0:0:0:
179,284,53354,6,0,P|249:266|322:288,1,150,0|10,3:2|0:0,0:0:0:0:
335,240,53954,2,0,L|436:223,1,100,0|2,3:2|0:0,0:0:0:0:
482,214,54404,1,2,3:2:0:0:
495,314,54704,1,2,0:0:0:0:
403,357,55004,2,0,B|370:357|340:379|340:379|313:355|267:355,1,133.333333333333,10|2,0:0|0:0,0:0:0:0:
236,304,55604,6,0,P|186:304|115:374,1,150,6|2,3:2|3:2,0:0:0:0:
66,377,56204,2,0,L|49:266,1,100,8|0,0:0|0:0,0:0:0:0:
38,178,56804,2,0,P|85:121|157:111,1,150,2|2,3:2|3:2,0:0:0:0:
204,129,57404,2,0,L|187:240,1,100,8|0,0:0|0:0,0:0:0:0:
180,277,57854,5,2,0:0:0:0:
257,339,58154,2,0,P|305:348|396:304,1,150,2|10,3:2|0:0,0:0:0:0:
395,257,58754,2,0,L|369:146,1,100,0|2,3:2|0:0,0:0:0:0:
344,117,59204,2,0,P|270:110|234:132,1,100,2|2,3:2|0:0,0:0:0:0:
207,149,59654,1,2,3:2:0:0:
248,240,59954,1,2,3:2:0:0:
176,309,60254,6,0,L|68:302,1,100,2|2,0:0|3:2,0:0:0:0:
51,205,60854,2,0,L|150:211,1,100,2|2,3:2|3:2,0:0:0:0:
224,143,61454,1,2,0:0:0:0:
323,149,61754,1,2,3:2:0:0:
377,234,62054,2,0,P|378:283|356:327,1,100,2|2,3:2|0:0,0:0:0:0:
312,350,62504,1,10,0:0:0:0:
231,288,62804,6,0,P|137:266|55:318,2,200,2|2|2,3:2|3:2|3:2,0:0:0:0:
419,102,64754,2,0,L|409:218,1,100,2|2,0:0|0:0,0:0:0:0:
407,251,65204,6,0,P|365:276|316:278,1,100,6|2,3:2|0:0,0:0:0:0:
226,233,65804,2,0,P|201:227|176:225,1,50,10|2,0:0|0:0,0:0:0:0:
102,293,66254,2,0,P|77:249|79:200,1,100,2|2,3:2|3:2,0:0:0:0:
103,156,66704,1,2,3:2:0:0:
187,102,67004,2,0,L|171:45,2,50,10|2|2,0:0|0:0|0:0,0:0:0:0:
273,149,67604,6,0,P|318:170|369:165,1,100,2|2,3:2|0:0,0:0:0:0:
463,135,68204,2,0,P|494:137|519:149,1,50,10|2,0:0|0:0,0:0:0:0:
469,234,68654,2,0,L|454:336,1,100,2|0,3:2|3:2,0:0:0:0:
446,382,69104,1,2,3:2:0:0:
355,339,69404,1,10,0:0:0:0:
259,368,69704,1,2,0:0:0:0:
168,325,70004,6,0,L|105:334,2,50,2|0|2,3:2|0:0|0:0,0:0:0:0:
208,233,70604,2,0,L|328:215,1,100,10|2,0:0|0:0,0:0:0:0:
355,211,71054,2,0,P|386:144|356:78,1,150,2|0,3:2|3:2,0:0:0:0:
268,27,71804,6,0,L|169:41,1,100,10|2,0:0|0:0,0:0:0:0:
119,48,72254,1,2,0:0:0:0:
119,47,72404,2,0,P|103:105|121:152,1,100,2|2,3:2|0:0,0:0:0:0:
152,175,72854,2,0,L|318:151,1,150,2|2,0:0|0:0,0:0:0:0:
342,180,73454,2,0,P|375:245|357:317,1,150,2|0,3:2|3:2,0:0:0:0:
276,257,74204,2,0,L|172:245,1,100,8|2,0:0|0:0,0:0:0:0:
104,168,74804,6,0,P|146:142|195:140,1,100,6|0,3:2|0:0,0:0:0:0:
292,164,75404,2,0,P|316:169|341:171,1,50,10|2,0:0|0:0,0:0:0:0:
416,103,75854,2,0,P|440:146|438:195,1,100,2|2,3:2|3:2,0:0:0:0:
415,241,76304,1,2,3:2:0:0:
334,300,76604,2,0,L|350:357,2,50,10|2|2,0:0|0:0|0:0,0:0:0:0:
238,269,77204,6,0,P|193:248|142:253,1,100,2|2,3:2|0:0,0:0:0:0:
48,284,77804,2,0,P|16:281|-8:270,1,50,10|2,0:0|0:0,0:0:0:0:
42,185,78254,2,0,L|57:83,1,100,2|0,3:2|3:2,0:0:0:0:
65,37,78704,1,2,3:2:0:0:
156,80,79004,1,10,0:0:0:0:
252,51,79304,1,2,0:0:0:0:
343,94,79604,6,0,L|406:85,2,50,6|2|0,3:2|0:0|0:0,0:0:0:0:
303,186,80204,2,0,L|182:203,1,100,10|2,0:0|0:0,0:0:0:0:
155,208,80654,2,0,P|124:274|154:340,1,150,2|0,3:2|3:2,0:0:0:0:
248,379,81404,6,0,L|346:364,1,100,10|2,0:2|0:0,0:0:0:0:
397,358,81854,1,2,0:0:0:0:
397,358,82004,2,0,P|412:299|394:252,1,100,2|2,3:2|0:0,0:0:0:0:
364,231,82454,2,0,L|197:254,1,150,2|2,0:0|0:0,0:0:0:0:
174,226,83054,2,0,P|140:160|158:88,1,150,2|0,3:2|3:2,0:0:0:0:
255,62,83804,2,0,L|359:74,1,100,10|2,0:0|3:2,0:0:0:0:
411,156,84404,5,6,3:2:0:0:
346,232,84704,1,2,0:0:0:0:
379,326,85004,2,0,L|478:337,1,100,10|2,0:0|0:0,0:0:0:0:
505,296,85454,2,0,P|532:228|506:157,1,150,2|0,3:2|3:2,0:0:0:0:
423,102,86204,6,0,L|324:116,1,100,10|2,0:0|0:0,0:0:0:0:
274,123,86654,1,2,0:0:0:0:
274,123,86804,2,0,P|258:181|276:228,1,100,2|0,0:0|0:0,0:0:0:0:
316,237,87254,2,0,L|167:258,1,150,2|0,0:0|0:0,0:0:0:0:
118,266,87854,6,0,B|200:178|50:121|128:33,1,250,2|0,0:0|0:0,0:0:0:0:
