osu file format v14

[General]
AudioFilename: audio.mp3
AudioLeadIn: 0
PreviewTime: 42328
Countdown: 0
SampleSet: Soft
StackLeniency: 0.7
Mode: 0
LetterboxInBreaks: 0
WidescreenStoryboard: 0

[Editor]
DistanceSpacing: 0.2
BeatDivisor: 4
GridSize: 16
TimelineZoom: 1.2

[Metadata]
Title:ROB THE FRONTIER
TitleUnicode:ROB THE FRONTIER
Artist:UVERworld
ArtistUnicode:UVERworld
Creator:Yudragen
Version:Definition of reality
Source:七つの大罪 神々の逆鱗
Tags:Nanatsu no taizai kamigami no gekirin seven deadly sins wrath of the gods meliodas elizabeth revival of the commandments frontier synderes kowari chaoticred -zeraora -harpuia- Saronk frostwich ShockoLatte -_Frontier_-
BeatmapID:2235536
BeatmapSetID:1067794

[Difficulty]
HPDrainRate:5.8
CircleSize:4.6
OverallDifficulty:8.5
ApproachRate:9.5
SliderMultiplier:1.7
SliderTickRate:1

[Events]
//Background and Video events
0,0,"meliodas.jpg",0,0
//Break Periods
//Storyboard Layer 0 (Background)
//Storyboard Layer 1 (Fail)
//Storyboard Layer 2 (Pass)
//Storyboard Layer 3 (Foreground)
//Storyboard Layer 4 (Overlay)
//Storyboard Sound Samples

[TimingPoints]
947,272.727272727273,4,2,1,60,1,0
947,-133.333333333333,4,2,1,60,0,0
2583,-76.9230769230769,4,2,1,80,0,0
2719,-142.857142857143,4,2,1,80,0,0
3128,-125,4,2,1,70,0,0
9674,-105.263157894737,4,2,1,80,0,0
27128,-133.333333333334,4,2,1,60,0,0
35856,-100,4,2,1,85,0,0
40219,-142.857142857143,4,2,1,85,0,0
40356,-142.857142857143,4,2,1,70,0,0
44583,-86.9565217391304,4,2,1,100,0,1
62037,-166.666666666667,4,2,1,60,0,0
65310,-133.333333333333,4,2,1,85,0,0
66401,-111.111111111111,4,2,1,80,0,0
83856,-133.333333333333,4,2,1,60,0,0
88219,-120.481927710843,4,2,1,80,0,0
90401,-105.263157894737,4,2,1,85,0,0
92583,-86.9565217391306,4,2,1,100,0,1
107856,-76.9230769230769,4,2,1,85,0,0
110037,-86.9565217391306,4,2,1,100,0,1
125310,-117.647058823529,4,2,1,80,0,0
127492,-200,4,2,1,60,0,0
134037,563.380281690141,3,2,1,70,1,0
134037,-43.4782608695652,3,2,1,70,0,0
134130,-43.4782608695652,3,2,1,5,0,0
134224,-43.4782608695652,3,2,1,70,0,0
134318,-43.4782608695652,3,2,1,5,0,0
134412,-43.4782608695652,3,2,1,70,0,0
134506,-43.4782608695652,3,2,1,5,0,0
134600,618.556701030928,3,2,1,70,1,0
134600,-62.5,3,2,1,70,0,0
134703,-62.5,3,2,1,5,0,0
134806,-62.5,3,2,1,70,0,0
134909,-62.5,3,2,1,5,0,0
135012,-62.5,3,2,1,70,0,0
135115,-62.5,3,2,1,5,0,0
135218,545.454545454546,3,2,1,70,1,0
135218,-87.719298245614,3,2,1,70,0,0
135399,-87.719298245614,3,2,1,5,0,0
135490,652.173913043478,3,2,1,70,1,0
135490,-84.7457627118644,3,2,1,70,0,0
135707,-84.7457627118644,3,2,1,5,0,0
135816,779.220779220779,3,2,1,70,1,0
135816,-129.87012987013,3,2,1,70,0,0
136205,555.555555555556,4,2,1,70,1,0
136760,272.727272727273,4,2,1,80,1,0
136760,-111.111111111111,4,2,1,80,0,0
140578,-76.9230769230769,4,2,1,100,0,0
141123,-111.111111111111,4,2,1,80,0,0
154214,-133.333333333333,4,2,1,60,0,0
167305,-100,4,2,1,80,0,0
171669,-83.3333333333333,4,2,1,100,0,1
189123,-100,4,2,1,65,0,0
192123,-153.846153846153,4,2,1,70,0,0
197032,-125,4,2,1,75,0,0
197850,-100,4,2,1,80,0,0
206850,-90.9090909090909,4,2,1,90,0,0
215305,-105.263157894737,4,2,1,90,0,0
221850,-86.9565217391306,4,2,1,100,0,0

[Colours]
Combo1 : 204,213,217
Combo2 : 191,104,84
Combo3 : 242,80,80
Combo4 : 242,163,65

[HitObjects]
373,101,947,5,2,0:0:0:0:
315,153,1083,1,2,0:0:0:0:
366,211,1219,1,2,0:0:0:0:
418,158,1356,2,0,P|403:89|387:8,1,127.500004863739,2|0,0:0|0:0,0:0:0:0:
175,47,1765,1,2,0:0:0:0:
244,94,1901,1,2,0:0:0:0:
183,146,2037,5,2,0:0:0:0:
183,146,2174,2,0,P|170:210|158:271,1,127.500004863739,2|0,0:0|0:0,0:0:0:0:
278,367,2583,2,0,P|306:327|296:300,1,55.2499974708558,8|0,3:2|0:0,0:0:0:0:
253,260,2719,6,0,B|322:255|306:326|384:323,1,148.74999546051,4|0,3:2|0:0,0:0:0:0:
442,280,3128,6,0,P|431:228|409:132,1,136,2|0,3:2|0:0,0:0:0:0:
334,27,3537,2,0,P|318:93|304:159,1,136,2|0,3:2|0:0,0:0:0:0:
214,221,3947,2,0,B|129:201|162:158|87:138,1,136,2|0,3:2|0:0,0:0:0:0:
0,83,4356,2,0,B|85:63|52:20|127:0,1,136,2|0,3:2|0:0,0:0:0:0:
219,132,4765,5,8,3:0:0:0:
174,200,4901,1,8,3:0:0:0:
244,311,5037,5,8,3:0:0:0:
81,242,5174,1,8,3:0:0:0:
229,122,5310,5,4,3:0:0:0:
231,131,5378,1,4,3:0:0:0:
233,141,5447,1,4,3:0:0:0:
235,150,5515,1,4,3:0:0:0:
237,159,5583,2,4,L|249:214,1,34,4|4,3:0|3:0,0:0:0:0:
282,384,5719,1,4,3:2:0:0:
428,325,6128,5,4,3:0:0:0:
419,323,6197,1,4,3:0:0:0:
409,321,6265,1,4,3:0:0:0:
400,319,6333,1,4,3:0:0:0:
391,317,6401,2,4,L|336:305,1,34,4|4,3:0|3:0,0:0:0:0:
166,272,6537,1,4,3:2:0:0:
78,329,6947,5,8,3:2:0:0:
30,268,7083,2,0,P|44:184|54:123,1,136,4|0,3:2|0:0,0:0:0:0:
196,11,7492,5,8,3:2:0:0:
179,87,7628,1,0,3:0:0:0:
159,161,7765,1,0,3:0:0:0:
315,67,7901,5,8,3:2:0:0:
243,147,8037,1,0,3:0:0:0:
325,215,8174,1,0,3:0:0:0:
305,59,8310,5,8,3:2:0:0:
398,128,8447,1,0,3:0:0:0:
318,225,8583,1,0,3:0:0:0:
296,70,8719,5,8,3:2:0:0:
313,146,8856,1,0,3:0:0:0:
333,220,8992,1,0,3:0:0:0:
342,326,9128,5,4,0:3:0:0:
331,316,9219,1,4,0:3:0:0:
314,313,9310,1,4,0:3:0:0:
239,345,9401,5,4,0:3:0:0:
225,351,9492,1,4,0:3:0:0:
209,348,9583,1,4,0:3:0:0:
158,272,9674,6,0,P|170:198|182:127,1,121.124996765614,4|0,3:2|0:0,0:0:0:0:
190,141,9947,2,0,L|215:229,1,80.7499978437424,8|0,3:2|3:0,0:0:0:0:
343,47,10219,1,2,3:2:0:0:
284,99,10356,1,0,3:0:0:0:
393,147,10492,2,0,P|452:132|499:117,1,80.7499978437424,8|0,3:2|0:0,0:0:0:0:
352,313,10765,5,2,3:2:0:0:
314,253,10901,2,0,P|381:235|434:325,1,161.499995687485,2|2,3:2|3:2,0:0:0:0:
250,382,11310,1,0,3:2:0:0:
206,323,11447,2,0,L|224:235,1,80.7499978437424,2|8,3:2|3:2,0:0:0:0:
101,82,11719,1,2,0:0:0:0:
101,82,11787,1,8,0:1:0:0:
101,82,11856,5,0,3:2:0:0:
162,138,11992,2,0,P|200:121|249:119,1,80.7499978437424,2|8,0:0|3:2,0:0:0:0:
372,65,12265,2,0,P|286:53|212:-14,1,161.499995687485,2|2,3:2|3:2,0:0:0:0:
321,140,12674,2,0,L|302:227,1,80.7499978437424,8|0,3:2|0:0,0:0:0:0:
482,350,12947,5,0,3:0:0:0:
409,286,13083,1,0,3:0:0:0:
495,248,13219,1,8,3:2:0:0:
432,173,13356,1,4,0:3:0:0:
432,173,13424,1,4,0:3:0:0:
432,173,13492,1,4,0:3:0:0:
491,364,13628,1,0,3:0:0:0:
397,286,13765,1,8,3:2:0:0:
502,238,13901,1,0,3:0:0:0:
349,384,14037,6,0,B|264:375|301:316|207:306,2,161.499995687485,4|8|2,3:2|3:2|3:2,0:0:0:0:
420,355,14719,1,0,3:0:0:0:
275,213,14856,1,8,3:2:0:0:
337,171,14992,1,0,3:2:0:0:
202,304,15128,6,0,P|207:344|214:384,1,80.7499978437424,2|0,3:2|0:0,0:0:0:0:
94,190,15401,1,8,3:2:0:0:
44,246,15537,2,0,P|38:286|32:325,1,80.7499978437424,2|0,3:2|3:0,0:0:0:0:
288,230,15810,2,0,P|211:220|165:148,1,161.499995687485,2|2,3:2|0:0,0:0:0:0:
170,147,16151,1,8,0:1:0:0:
174,140,16219,5,4,3:0:0:0:
322,98,16356,2,0,P|265:87|216:75,1,80.7499978437424,2|8,0:0|3:2,0:0:0:0:
400,26,16628,2,0,P|411:105|421:185,1,161.499995687485,2|0,3:2|3:0,0:0:0:0:
486,319,17037,2,0,P|492:262|501:206,1,80.7499978437424,8|0,3:2|0:0,0:0:0:0:
299,219,17310,5,0,3:0:0:0:
364,384,17447,1,0,3:0:0:0:
355,274,17583,1,8,3:2:0:0:
303,336,17719,1,0,3:0:0:0:
298,345,17992,5,0,3:0:0:0:
234,299,18128,2,0,P|166:309|91:322,1,121.124996765614,8|0,3:2|0:0,0:0:0:0:
104,325,18401,6,0,P|80:292|95:237,1,80.7499978437424,4|0,3:2|0:0,0:0:0:0:
184,168,18674,2,0,P|139:157|81:141,1,80.7499978437424,8|0,3:2|3:0,0:0:0:0:
262,91,18947,2,0,P|301:80|340:71,1,80.7499978437424,2|0,3:2|3:0,0:0:0:0:
453,211,19219,1,8,3:2:0:0:
436,138,19356,1,8,0:1:0:0:
436,138,19424,1,2,0:2:0:0:
436,138,19492,6,0,P|421:212|413:330,1,161.499995687485,2|8,3:2|3:2,0:0:0:0:
453,365,19901,1,0,3:0:0:0:
260,203,20037,1,2,0:2:0:0:
322,268,20174,2,0,P|272:281|223:301,1,80.7499978437424,2|8,3:2|3:2,0:0:0:0:
115,370,20447,1,2,0:0:0:0:
115,370,20515,1,8,0:1:0:0:
115,370,20583,6,0,P|128:318|138:282,1,80.7499978437424,0|2,3:2|0:0,0:0:0:0:
43,126,20856,1,8,3:2:0:0:
0,187,20992,2,0,P|39:210|136:122,1,161.499995687485,2|2,3:2|3:2,0:0:0:0:
204,23,21401,2,0,P|214:61|224:101,1,80.7499978437424,8|0,3:2|0:0,0:0:0:0:
331,224,21674,5,0,3:0:0:0:
391,160,21810,1,0,3:0:0:0:
324,105,21947,1,8,3:2:0:0:
434,285,22083,2,0,P|500:267|549:253,1,80.7499978437424,0|0,3:2|0:0,0:0:0:0:
321,219,22356,1,0,3:0:0:0:
382,384,22492,2,0,P|315:366|266:352,1,80.7499978437424,8|0,3:2|0:0,0:0:0:0:
170,188,22765,6,0,P|215:227|221:292,1,121.124996765614,4|0,3:2|0:0,0:0:0:0:
212,300,23037,1,8,3:2:0:0:
141,261,23174,1,0,3:0:0:0:
254,144,23310,1,2,0:0:0:0:
182,95,23447,2,0,P|122:118|79:134,1,80.7499978437424,2|8,3:2|3:2,0:0:0:0:
278,18,23719,6,0,P|338:41|381:57,1,80.7499978437424,2|2,0:0|3:2,0:0:0:0:
416,276,23992,1,2,0:0:0:0:
374,210,24128,1,8,3:2:0:0:
477,207,24265,2,0,B|389:193|411:279|311:271,1,161.499995687485,2|2,3:2|3:2,0:0:0:0:
255,239,24674,1,8,3:2:0:0:
131,379,24810,1,2,0:0:0:0:
131,379,24878,1,8,0:1:0:0:
131,379,24947,5,0,3:2:0:0:
182,323,25083,2,0,P|182:283|161:249,1,80.7499978437424,2|8,0:0|3:2,0:0:0:0:
0,192,25356,2,0,P|100:171|190:150,1,161.499995687485,2|2,3:2|3:2,0:0:0:0:
258,20,25765,2,0,P|237:53|237:93,1,80.7499978437424,8|2,3:2|0:0,0:0:0:0:
331,287,26037,5,4,3:2:0:0:
381,227,26174,2,0,P|372:182|347:47,2,161.499995687485,2|2|2,3:2|3:2|3:2,0:0:0:0:
438,128,26856,1,0,3:0:0:0:
300,213,26992,1,2,3:2:0:0:
450,279,27128,6,0,L|470:200,2,63.7500024318696,2|2|8,3:2|0:0|3:2,0:0:0:0:
501,347,27537,1,2,0:0:0:0:
501,347,27674,2,0,P|452:362|435:385,1,63.7500024318696,2|0,0:0|3:0,0:0:0:0:
369,344,27947,2,0,P|307:333|267:274,1,127.500004863739,8|0,3:2|3:0,0:0:0:0:
278,280,28492,5,8,3:2:0:0:
223,221,28628,1,2,0:0:0:0:
223,221,28765,2,0,P|231:182|234:152,1,63.7500024318696,0|2,3:2|3:2,0:0:0:0:
303,101,29037,2,0,P|306:132|313:163,1,63.7500024318696,8|2,3:2|0:0,0:0:0:0:
215,18,29310,5,2,3:2:0:0:
160,70,29447,2,0,P|106:59|68:50,1,63.7500024318696,2|8,3:2|3:2,0:0:0:0:
34,95,29719,2,0,P|47:142|60:236,1,127.500004863739,2|2,0:0|3:2,0:0:0:0:
36,289,30128,2,0,P|83:301|145:230,1,127.500004863739,8|0,3:2|3:0,0:0:0:0:
141,248,30674,5,8,3:2:0:0:
208,300,30810,2,0,P|250:292|279:285,1,63.7500024318696,2|2,0:0|0:0,0:0:0:0:
386,211,31083,1,0,3:2:0:0:
320,158,31219,2,0,P|313:215|308:248,1,63.7500024318696,8|2,3:2|0:0,0:0:0:0:
373,368,31492,5,2,3:2:0:0:
349,295,31628,1,2,0:0:0:0:
369,376,31765,1,8,3:2:0:0:
355,289,31901,1,2,3:2:0:0:
441,320,32037,2,0,P|483:310|513:301,2,63.7500024318696,2|0|8,0:0|3:0|3:2,0:0:0:0:
433,312,32583,6,0,P|444:211|449:159,1,127.500004863739,0|8,3:0|3:2,0:0:0:0:
346,60,32992,1,2,0:0:0:0:
364,140,33128,2,0,P|327:127|284:120,1,63.7500024318696,2|2,0:0|3:2,0:0:0:0:
200,36,33401,2,0,P|231:28|261:18,1,63.7500024318696,8|2,3:2|0:0,0:0:0:0:
166,189,33674,6,0,P|141:140|154:110,2,63.7500024318696,2|0|10,3:2|0:0|3:2,0:0:0:0:
277,239,34083,2,0,P|245:245|145:303,1,127.500004863739,2|2,3:2|3:2,0:0:0:0:
62,359,34492,2,0,P|87:310|74:280,1,63.7500024318696,8|2,3:2|0:0,0:0:0:0:
47,233,34765,5,0,3:0:0:0:
47,233,34901,1,0,3:0:0:0:
156,128,35037,2,0,P|90:101|76:87,1,63.7500024318696,8|2,3:2|0:0,0:0:0:0:
268,227,35310,2,0,P|202:253|188:267,1,63.7500024318696,8|0,3:2|0:0,0:0:0:0:
351,133,35583,5,8,3:2:0:0:
270,95,35719,1,8,3:2:0:0:
491,181,35856,6,0,B|401:202|455:267|361:294,1,170,6|8,3:2|3:2,0:0:0:0:
511,270,36265,1,2,0:0:0:0:
511,270,36333,1,8,0:1:0:0:
511,270,36401,1,2,0:0:0:0:
349,211,36537,1,0,3:0:0:0:
482,89,36674,2,0,P|490:130|502:171,1,85,8|0,3:2|0:0,0:0:0:0:
241,28,36947,5,0,3:0:0:0:
293,90,37083,1,0,3:0:0:0:
140,166,37219,1,8,3:2:0:0:
222,204,37356,2,0,P|208:138|201:89,1,85,0|0,3:0|0:0,0:0:0:0:
201,353,37628,1,0,3:0:0:0:
132,334,37765,2,0,P|176:324|263:303,1,127.5,8|0,3:2|0:0,0:0:0:0:
265,313,38037,5,2,3:2:0:0:
361,168,38174,2,0,P|333:218|345:266,1,85,2|8,3:2|3:2,0:0:0:0:
512,129,38447,2,0,B|424:111|469:49|362:32,1,170,2|2,3:2|0:0,0:0:0:0:
317,88,38856,1,8,3:2:0:0:
176,11,38992,1,2,0:0:0:0:
176,11,39060,1,8,0:1:0:0:
176,11,39128,5,6,3:2:0:0:
205,80,39265,2,0,P|196:121|188:163,1,85,2|8,3:2|3:2,0:0:0:0:
26,231,39537,2,0,P|91:228|134:331,1,170,2|2,3:2|3:2,0:0:0:0:
270,361,39947,2,0,P|262:319|253:277,1,85,8|2,3:2|0:0,0:0:0:0:
384,113,40219,5,2,3:2:0:0:
444,178,40356,2,0,P|397:189|330:219,1,118.999996368408,0|2,3:2|3:2,0:0:0:0:
448,66,40765,2,0,P|476:74|505:80,1,59.4999981842042,8|2,3:2|0:0,0:0:0:0:
388,270,41037,1,6,3:2:0:0:
209,81,41310,5,6,0:3:0:0:
212,89,41378,1,4,0:3:0:0:
215,97,41447,1,4,0:3:0:0:
218,105,41515,1,4,0:3:0:0:
221,113,41583,2,0,L|147:94,2,39.6666654561361,4|4|4,0:3|0:3|0:3,0:0:0:0:
293,164,41856,2,4,L|367:145,2,39.6666654561361,4|4|4,0:3|0:3|0:3,0:0:0:0:
244,234,42128,2,4,L|170:215,2,39.6666654561361,4|4|4,0:3|0:3|0:3,0:0:0:0:
308,296,42401,5,2,1:2:0:0:
209,141,44583,6,0,B|114:122|164:79|59:58,1,146.62500279665,6|0,3:2|0:0,0:0:0:0:
78,69,44856,1,8,3:2:0:0:
53,246,44992,2,0,P|99:232|146:218,1,97.7500018644333,2|0,3:2|0:0,0:0:0:0:
272,71,45265,2,0,P|318:84|365:98,1,97.7500018644333,2|8,3:2|3:2,0:0:0:0:
437,252,45537,1,2,0:0:0:0:
437,252,45674,5,0,3:2:0:0:
507,93,45810,2,0,P|526:137|510:182,1,97.7500018644333,2|8,0:0|3:2,0:0:0:0:
372,384,46083,2,0,P|354:288|325:195,1,195.500003728867,2|2,3:2|3:2,0:0:0:0:
427,236,46492,1,8,3:2:0:0:
278,337,46628,6,0,P|226:314|169:334,1,97.7500018644333,2|4,0:0|3:2,0:0:0:0:
180,328,46833,1,2,0:0:0:0:
171,335,46901,1,2,0:0:0:0:
75,161,47037,1,8,3:2:0:0:
43,231,47174,2,0,P|132:227|149:111,1,195.500003728867,2|0,3:2|3:2,0:0:0:0:
0,63,47583,2,0,P|51:54|108:46,1,97.7500018644333,8|2,3:2|0:0,0:0:0:0:
339,107,47856,5,0,3:0:0:0:
274,163,47992,1,0,3:0:0:0:
415,261,48128,2,2,P|429:184|435:129,1,97.7500018644333,8|0,3:2|0:0,0:0:0:0:
296,339,48401,2,2,B|202:336|226:233|123:243,1,195.500003728867,2|8,3:2|3:2,0:0:0:0:
74,294,48810,1,0,0:0:0:0:
234,98,48947,5,4,3:2:0:0:
160,144,49083,1,2,0:2:0:0:
137,61,49219,1,8,3:2:0:0:
137,61,49356,1,0,3:0:0:0:
268,178,49492,2,0,P|331:159|388:146,1,97.7500018644333,2|0,0:2|3:0,0:0:0:0:
220,247,49765,1,8,3:2:0:0:
288,301,49901,1,2,0:0:0:0:
288,301,49969,1,8,0:1:0:0:
288,301,50037,6,0,P|219:278|139:377,1,195.500003728867,2|8,3:2|3:2,0:0:0:0:
0,221,50447,1,0,3:0:0:0:
60,171,50583,2,0,P|117:187|171:201,1,97.7500018644333,2|0,0:0|3:0,0:0:0:0:
267,55,50856,2,0,P|220:90|225:155,1,97.7500018644333,8|0,3:2|0:0,0:0:0:0:
447,153,51128,6,0,B|361:144|399:216|288:218,1,146.62500279665,6|0,3:2|0:0,0:0:0:0:
307,209,51401,1,8,3:2:0:0:
484,317,51537,1,0,3:0:0:0:
413,380,51674,2,0,P|399:315|392:271,1,97.7500018644333,2|0,0:0|3:0,0:0:0:0:
227,136,51947,2,0,P|218:184|207:231,1,97.7500018644333,8|0,3:2|0:0,0:0:0:0:
65,62,52219,5,2,3:2:0:0:
121,118,52356,1,0,3:0:0:0:
42,182,52492,1,8,3:2:0:0:
180,53,52628,1,0,3:0:0:0:
21,0,52765,2,0,P|45:88|52:123,1,97.7500018644333,2|0,0:0|3:0,0:0:0:0:
192,231,53037,2,0,P|202:183|211:135,1,97.7500018644333,8|2,3:2|0:2,0:0:0:0:
231,384,53310,5,6,3:2:0:0:
175,329,53447,2,0,P|98:356|85:385,1,97.7500018644333,2|8,0:2|3:2,0:0:0:0:
279,260,53719,2,0,B|352:258|320:326|426:339,1,146.62500279665,2|0,3:2|0:0,0:0:0:0:
410,329,53992,1,2,3:2:0:0:
512,167,54128,1,8,3:2:0:0:
420,132,54265,6,0,P|438:214|451:270,1,97.7500018644333,2|0,0:0|3:0,0:0:0:0:
314,68,54537,1,0,3:0:0:0:
386,18,54674,1,8,3:2:0:0:
309,175,54810,2,0,B|201:160|255:81|147:70,1,195.500003728867,2|2,3:2|3:2,0:0:0:0:
43,243,55219,2,0,P|76:194|63:134,1,97.7500018644333,8|2,3:2|0:0,0:0:0:0:
70,149,55424,1,8,0:1:0:0:
65,140,55492,5,4,3:2:0:0:
148,288,55628,2,0,P|195:274|242:264,1,97.7500018644333,2|8,0:0|3:2,0:0:0:0:
367,122,55901,2,0,P|355:182|331:308,1,146.62500279665,2|0,3:2|0:0,0:0:0:0:
344,276,56174,1,0,3:0:0:0:
468,371,56310,2,0,P|459:329|442:240,1,97.7500018644333,8|0,3:2|0:0,0:0:0:0:
275,106,56583,5,0,3:0:0:0:
335,38,56719,1,0,3:0:0:0:
160,0,56856,2,2,L|188:126,1,97.7500018644333,8|0,3:2|0:0,0:0:0:0:
38,53,57128,2,2,L|-4:269,1,195.500003728867,2|8,0:0|3:2,0:0:0:0:
61,353,57537,1,4,0:3:0:0:
61,353,57606,1,4,0:3:0:0:
61,353,57674,5,4,3:2:0:0:
122,301,57810,2,0,P|169:295|207:324,1,97.7500018644333,2|8,0:0|3:2,0:0:0:0:
289,209,58083,1,0,0:0:0:0:
309,366,58219,2,0,P|323:319|337:273,1,97.7500018644333,2|0,3:2|3:0,0:0:0:0:
507,173,58492,1,8,3:2:0:0:
404,92,58628,6,0,P|418:159|451:301,1,195.500003728867,6|0,3:2|0:0,0:0:0:0:
303,128,59037,2,0,B|232:114|246:189|154:201,1,146.62500279665,8|0,3:2|0:0,0:0:0:0:
168,190,59310,1,2,3:2:0:0:
249,245,59447,1,0,3:2:0:0:
158,108,59583,2,0,P|140:53|171:-8,1,97.7500018644333,8|0,3:2|0:0,0:0:0:0:
0,168,59856,6,0,P|15:230|30:342,1,146.62500279665,2|0,3:2|0:0,0:0:0:0:
24,324,60128,2,0,P|65:284|132:295,1,97.7500018644333,8|0,3:2|0:0,0:0:0:0:
166,368,60401,1,2,3:2:0:0:
235,306,60537,1,0,3:0:0:0:
145,168,60674,1,8,3:2:0:0:
319,332,60810,6,0,P|380:319|378:178,1,195.500003728867,2|0,3:2|3:0,0:0:0:0:
259,72,61219,2,0,P|240:142|224:214,1,146.62500279665,8|0,3:2|0:0,0:0:0:0:
229,221,61492,1,2,3:2:0:0:
156,158,61628,1,0,3:0:0:0:
330,138,61765,5,4,3:0:0:0:
210,306,61901,1,4,3:0:0:0:
100,82,62037,5,6,1:2:0:0:
100,82,62447,1,2,0:0:0:0:
100,82,62856,1,2,0:0:0:0:
176,6,63128,5,2,0:0:0:0:
231,48,63265,2,2,P|261:53|288:60,1,50.9999984436036,2|0,0:0|0:0,0:0:0:0:
421,14,63674,6,0,P|396:39|387:114,1,101.999996887207,2|2,0:0|0:0,0:0:0:0:
467,169,64219,5,2,0:0:0:0:
489,237,64356,1,2,0:0:0:0:
427,282,64492,1,2,0:0:0:0:
447,350,64628,1,2,0:0:0:0:
473,162,65037,5,2,0:0:0:0:
240,295,65310,6,0,P|227:277|224:258,1,31.8750012159348,8|0,3:2|3:0,0:0:0:0:
288,233,65447,2,0,P|271:328|268:388,1,127.500004863739,0|0,3:2|3:0,0:0:0:0:
350,269,65856,1,8,3:2:0:0:
281,126,65992,1,0,3:0:0:0:
412,75,66128,1,4,0:3:0:0:
408,84,66197,1,4,0:3:0:0:
404,93,66265,1,4,0:3:0:0:
401,102,66333,1,4,0:3:0:0:
399,109,66401,6,0,L|411:132,6,19.1249994163513,6|0|0|0|0|0|0,3:2|0:0|0:0|0:0|0:0|0:0|0:0,0:0:0:0:
394,203,66674,2,0,P|336:190|275:253,2,152.999995330811,8|2|8,3:2|3:2|3:2,0:0:0:0:
263,347,67492,6,0,P|224:333|137:308,1,114.749996498108,2|0,3:2|0:0,0:0:0:0:
145,317,67765,1,8,3:2:0:0:
49,152,68037,5,2,3:2:0:0:
106,215,68174,1,2,3:2:0:0:
185,40,68310,1,8,3:2:0:0:
134,111,68447,1,2,0:0:0:0:
134,111,68515,1,8,0:1:0:0:
134,111,68583,6,0,B|210:113|196:194|277:182,1,152.999995330811,0|8,3:0|3:2,0:0:0:0:
330,285,68992,2,0,P|350:185|366:112,1,152.999995330811,2|2,3:2|0:0,0:0:0:0:
433,73,69401,2,0,P|443:123|451:159,1,76.4999976654053,8|0,3:2|0:0,0:0:0:0:
432,303,69674,5,0,3:0:0:0:
492,266,69810,1,0,3:0:0:0:
512,356,69947,5,8,3:2:0:0:
346,273,70083,2,0,B|270:267|284:327|191:341,1,152.999995330811,0|0,3:0|3:0,0:0:0:0:
149,384,70492,2,0,P|92:371|39:358,1,76.4999976654053,8|0,3:2|0:0,0:0:0:0:
13,308,70765,6,0,L|44:299,6,19.1249994163513,0|0|0|0|0|0|0,3:0|0:0|0:0|0:0|0:0|0:0|0:0,0:0:0:0:
85,248,71037,2,0,P|74:198|53:108,1,114.749996498108,8|0,3:2|0:0,0:0:0:0:
50,125,71310,2,0,P|58:85|74:15,1,76.4999976654053,2|0,3:2|3:0,0:0:0:0:
215,0,71583,2,0,P|249:52|213:118,1,114.749996498108,8|0,3:2|0:0,0:0:0:0:
228,92,71856,6,0,B|309:90|269:169|368:163,1,152.999995330811,0|8,3:0|3:2,0:0:0:0:
502,90,72265,2,0,P|449:128|460:227,1,152.999995330811,2|2,3:2|3:2,0:0:0:0:
505,266,72674,1,8,3:2:0:0:
427,322,72810,6,0,P|383:314|321:303,1,76.4999976654053,2|0,0:0|3:0,0:0:0:0:
346,302,73015,1,2,0:0:0:0:
340,296,73083,1,2,3:2:0:0:
227,384,73219,1,8,3:2:0:0:
168,331,73356,2,0,P|158:284|186:247,1,76.4999976654053,2|0,0:0|3:0,0:0:0:0:
270,203,73628,2,0,P|211:188|91:158,1,152.999995330811,8|0,3:2|0:0,0:0:0:0:
0,136,74037,6,0,B|101:112|36:75|158:48,1,152.999995330811,8|0,3:2|3:0,0:0:0:0:
266,125,74447,1,8,3:2:0:0:
321,63,74583,2,0,P|274:50|228:35,1,76.4999976654053,0|0,3:0|0:0,0:0:0:0:
362,174,74856,2,0,P|399:163|436:153,1,76.4999976654053,0|0,3:0|0:0,0:0:0:0:
492,60,75128,5,0,3:0:0:0:
290,264,75401,2,0,P|272:333|263:371,1,76.4999976654053,8|2,3:2|0:0,0:0:0:0:
192,384,75674,2,0,P|182:346|172:309,1,76.4999976654053,2|0,3:2|0:0,0:0:0:0:
81,183,75947,1,8,3:2:0:0:
141,219,76083,1,2,0:0:0:0:
41,252,76219,5,2,3:2:0:0:
164,135,76356,2,0,P|211:145|238:151,1,76.4999976654053,2|8,3:2|3:2,0:0:0:0:
41,22,76628,2,0,P|57:87|75:200,1,152.999995330811,2|2,3:2|3:2,0:0:0:0:
166,307,77037,2,0,P|157:271|147:209,1,76.4999976654053,8|2,3:2|0:0,0:0:0:0:
152,225,77242,1,8,0:1:0:0:
154,217,77310,5,2,3:2:0:0:
312,293,77447,1,2,0:0:0:0:
256,352,77583,1,8,3:2:0:0:
375,211,77719,2,0,P|360:268|344:367,1,152.999995330811,2|2,3:2|3:2,0:0:0:0:
504,251,78128,2,0,P|478:221|472:161,1,76.4999976654053,8|0,3:2|0:0,0:0:0:0:
329,28,78401,5,0,3:0:0:0:
286,97,78537,1,0,3:0:0:0:
379,86,78674,2,0,P|326:74|229:54,1,152.999995330811,8|0,3:2|3:2,0:0:0:0:
138,247,79083,1,2,0:0:0:0:
74,184,79219,2,0,P|119:171|170:148,1,76.4999976654053,8|0,3:2|0:0,0:0:0:0:
248,326,79492,6,0,L|237:352,6,19.1249994163513,0|0|0|0|0|0|0,3:0|0:0|0:0|0:0|0:0|0:0|0:0,0:0:0:0:
306,280,79765,2,0,P|360:267|421:336,1,152.999995330811,8|2,3:2|3:2,0:0:0:0:
482,268,80174,1,2,0:2:0:0:
342,156,80310,5,8,3:2:0:0:
405,114,80447,1,2,3:2:0:0:
273,111,80583,5,2,3:2:0:0:
421,201,80719,2,0,P|491:185|527:175,1,76.4999976654053,2|8,3:2|3:2,0:0:0:0:
325,45,80992,2,0,B|254:35|261:132|175:122,1,152.999995330811,2|2,3:2|0:0,0:0:0:0:
73,23,81401,2,0,P|106:57|110:102,1,76.4999976654053,8|2,3:2|0:0,0:0:0:0:
108,91,81606,1,8,0:1:0:0:
104,97,81674,5,2,3:2:0:0:
30,145,81810,1,2,0:0:0:0:
181,245,81947,1,8,3:2:0:0:
107,293,82083,2,0,P|93:233|83:191,1,76.4999976654053,2|0,3:2|3:0,0:0:0:0:
232,339,82356,2,0,B|314:314|275:269|357:242,1,152.999995330811,8|0,3:2|3:0,0:0:0:0:
441,103,82765,5,8,3:2:0:0:
498,179,82901,1,4,0:3:0:0:
498,179,82969,1,4,0:3:0:0:
498,179,83037,1,4,0:3:0:0:
372,170,83174,5,8,3:2:0:0:
424,103,83310,1,0,3:0:0:0:
359,50,83447,1,0,3:0:0:0:
427,238,83583,5,8,3:2:0:0:
219,148,83719,1,8,3:2:0:0:
303,112,83856,6,0,P|289:174|277:236,1,127.500004863739,6|2,3:2|0:0,0:0:0:0:
324,301,84265,1,2,3:2:0:0:
239,354,84401,2,0,P|196:343|158:335,1,63.7500024318696,8|0,3:2|0:0,0:0:0:0:
91,384,84674,2,0,P|99:330|45:277,2,127.500004863739,2|2|2,0:0|3:2|3:2,0:0:0:0:
145,107,85492,5,8,3:2:0:0:
205,153,85628,1,0,3:0:0:0:
142,192,85765,2,0,P|156:239|163:276,1,63.7500024318696,2|0,3:2|0:0,0:0:0:0:
312,150,86037,5,2,3:2:0:0:
274,209,86174,2,0,P|333:225|382:188,1,127.500004863739,2|0,3:2|0:0,0:0:0:0:
505,289,86583,1,8,3:2:0:0:
439,340,86719,2,0,P|431:309|421:278,1,63.7500024318696,2|0,3:2|3:2,0:0:0:0:
505,93,86992,6,0,P|485:153|470:215,2,127.500004863739,2|2|2,0:0|3:2|0:0,0:0:0:0:
512,297,87674,1,8,3:2:0:0:
333,342,87947,5,8,3:2:0:0:
487,226,88083,1,8,3:2:0:0:
354,153,88219,5,6,3:2:0:0:
297,215,88356,2,0,P|331:225|365:236,1,70.5500010226822,2|0,3:2|0:0,0:0:0:0:
174,73,88628,1,0,3:0:0:0:
174,73,88765,2,0,P|211:118|198:184,1,105.825001534023,8|0,3:2|0:0,0:0:0:0:
205,171,89037,1,8,3:2:0:0:
82,299,89174,6,0,P|140:284|224:264,1,141.100002045364,4|0,0:2|3:0,0:0:0:0:
392,348,89583,1,8,3:2:0:0:
392,348,89856,1,8,3:2:0:0:
392,348,90128,1,8,3:2:0:0:
347,276,90265,1,8,3:2:0:0:
456,273,90401,6,0,B|380:267|392:329|309:341,1,161.499995687485,6|2,3:2|0:2,0:0:0:0:
409,199,90810,1,2,0:0:0:0:
409,199,90878,1,2,0:0:0:0:
409,199,90947,2,0,P|389:137|384:95,1,80.7499978437424,8|0,3:2|0:0,0:0:0:0:
240,286,91219,2,0,P|231:325|217:363,1,80.7499978437424,8|0,3:2|0:0,0:0:0:0:
208,169,91492,6,0,P|247:178|286:188,1,80.7499978437424,6|0,0:0|3:0,0:0:0:0:
122,84,91765,1,4,0:3:0:0:
117,95,91833,1,4,0:3:0:0:
113,106,91901,1,4,0:3:0:0:
109,117,91969,1,4,0:3:0:0:
104,128,92037,2,0,L|124:172,1,40.3749989218712,2|4,3:2|0:3,0:0:0:0:
58,212,92174,2,4,L|38:256,1,40.3749989218712,2|4,3:2|0:3,0:0:0:0:
72,324,92310,1,4,0:3:0:0:
91,318,92378,1,4,0:3:0:0:
110,312,92447,1,4,0:3:0:0:
129,306,92515,1,4,0:3:0:0:
151,297,92583,6,0,B|233:283|218:374|305:355,1,146.62500279665,6|0,3:2|0:0,0:0:0:0:
289,352,92856,1,8,3:2:0:0:
429,180,92992,2,0,P|400:261|386:332,1,146.62500279665,2|0,3:2|0:0,0:0:0:0:
397,333,93265,2,0,P|384:278|357:222,1,97.7500018644333,2|8,3:2|3:2,0:0:0:0:
512,125,93537,1,2,0:0:0:0:
512,125,93674,5,0,3:2:0:0:
353,92,93810,2,0,P|401:86|437:55,1,97.7500018644333,2|8,0:0|3:2,0:0:0:0:
161,0,94083,2,0,P|247:34|252:127,1,195.500003728867,2|2,3:2|3:2,0:0:0:0:
81,34,94492,1,8,3:2:0:0:
151,252,94628,6,0,P|163:177|168:138,1,97.7500018644333,2|4,0:0|3:2,0:0:0:0:
161,146,94833,1,8,0:1:0:0:
156,137,94901,1,2,0:0:0:0:
226,315,95037,1,8,3:2:0:0:
64,194,95174,2,0,P|12:206|6:334,1,195.500003728867,2|0,3:2|3:2,0:0:0:0:
143,261,95583,2,0,P|151:212|158:164,1,97.7500018644333,8|2,3:2|0:0,0:0:0:0:
318,326,95856,5,0,3:0:0:0:
280,241,95992,1,0,3:0:0:0:
403,336,96128,2,2,B|470:306|433:243|508:221,1,146.62500279665,8|0,3:2|0:0,0:0:0:0:
503,233,96401,2,2,P|524:185|497:133,1,97.7500018644333,2|0,3:2|3:0,0:0:0:0:
361,19,96674,2,2,P|348:97|334:179,1,146.62500279665,8|0,3:2|0:0,0:0:0:0:
343,170,96947,5,4,3:2:0:0:
187,102,97083,2,0,P|127:108|97:158,1,97.7500018644333,2|8,0:2|3:2,0:0:0:0:
258,213,97356,1,0,3:0:0:0:
194,274,97492,2,0,P|178:204|166:143,1,97.7500018644333,2|0,0:2|3:0,0:0:0:0:
139,335,97765,1,8,3:2:0:0:
276,202,97901,6,0,B|369:189|361:291|442:290,1,195.500003728867,2|0,0:0|3:0,0:0:0:0:
351,186,98310,1,8,3:2:0:0:
326,258,98447,1,0,3:0:0:0:
481,204,98583,2,0,P|466:152|450:96,1,97.7500018644333,2|0,0:0|3:0,0:0:0:0:
335,351,98856,2,0,P|277:343|250:311,1,97.7500018644333,8|0,3:2|0:0,0:0:0:0:
33,138,99128,6,0,P|46:211|61:319,1,146.62500279665,6|0,3:2|0:0,0:0:0:0:
50,289,99401,2,0,P|65:237|81:181,1,97.7500018644333,8|0,3:2|3:0,0:0:0:0:
190,118,99674,1,2,0:0:0:0:
110,74,99810,1,0,3:0:0:0:
182,223,99947,2,0,P|240:215|267:183,1,97.7500018644333,8|0,3:2|0:0,0:0:0:0:
425,76,100219,5,2,3:2:0:0:
369,132,100356,1,0,3:0:0:0:
448,196,100492,1,8,3:2:0:0:
310,67,100628,1,0,3:0:0:0:
469,14,100765,2,0,P|445:102|438:137,1,97.7500018644333,2|0,0:0|3:0,0:0:0:0:
340,203,101037,1,8,3:2:0:0:
496,344,101174,1,2,0:2:0:0:
496,344,101242,1,8,0:1:0:0:
496,344,101310,5,6,3:2:0:0:
435,279,101447,2,0,P|393:273|340:321,1,97.7500018644333,2|8,0:2|3:2,0:0:0:0:
132,384,101719,2,0,B|199:368|168:308|245:297,1,146.62500279665,2|0,3:2|0:0,0:0:0:0:
251,306,101992,2,0,P|267:241|225:198,1,97.7500018644333,2|8,3:2|3:2,0:0:0:0:
21,143,102265,6,0,P|35:180|52:276,1,97.7500018644333,2|0,0:0|3:0,0:0:0:0:
124,65,102537,1,2,3:2:0:0:
40,31,102674,1,8,3:2:0:0:
138,171,102810,2,0,B|207:166|184:102|262:90,1,146.62500279665,2|0,3:2|0:0,0:0:0:0:
263,98,103083,1,2,3:2:0:0:
456,23,103219,1,8,3:2:0:0:
314,9,103356,1,2,0:0:0:0:
314,9,103424,1,8,0:1:0:0:
314,9,103492,5,4,3:2:0:0:
372,63,103628,2,0,P|389:106|352:175,1,97.7500018644333,2|8,0:0|3:2,0:0:0:0:
406,321,103901,2,0,P|422:230|512:210,1,195.500003728867,2|0,3:2|3:0,0:0:0:0:
342,384,104310,2,0,B|253:362|320:309|199:284,1,146.62500279665,8|0,3:2|0:0,0:0:0:0:
223,301,104583,5,0,3:0:0:0:
168,241,104719,1,0,3:0:0:0:
59,361,104856,2,2,P|7:309|16:240,1,146.62500279665,8|0,3:2|0:0,0:0:0:0:
25,231,105128,2,2,P|56:181|39:128,1,97.7500018644333,2|0,0:0|3:0,0:0:0:0:
10,12,105401,2,2,P|98:27|183:42,1,146.62500279665,8|0,3:2|0:3,0:0:0:0:
165,31,105674,5,4,3:2:0:0:
275,225,105810,2,0,P|283:178|295:130,1,97.7500018644333,2|8,0:0|3:2,0:0:0:0:
207,156,106083,1,0,0:0:0:0:
414,72,106219,5,2,3:2:0:0:
382,144,106356,1,0,3:0:0:0:
454,179,106492,1,8,3:2:0:0:
512,10,106628,6,0,B|413:-28|417:94|318:60,1,195.500003728867,6|0,3:2|3:0,0:0:0:0:
429,317,107037,2,0,P|452:220|467:163,1,146.62500279665,8|0,3:2|0:0,0:0:0:0:
473,169,107310,1,2,3:2:0:0:
361,230,107447,1,2,3:2:0:0:
512,311,107583,1,8,3:2:0:0:
512,311,107719,1,0,3:0:0:0:
389,384,107856,6,0,P|304:369|213:353,1,165.749992412568,8|0,3:2|0:0,0:0:0:0:
219,349,108128,1,0,3:0:0:0:
62,248,108265,6,0,P|116:279|112:390,1,165.749992412568,8|0,3:2|0:0,0:0:0:0:
115,384,108537,1,0,3:0:0:0:
251,255,108674,6,0,B|174:233|204:183|112:160,1,165.749992412568,8|0,3:2|0:0,0:0:0:0:
103,166,108947,1,0,3:0:0:0:
259,11,109083,6,0,B|302:85|302:85|266:187,1,165.749992412568,8|0,3:2|0:0,0:0:0:0:
268,171,109356,1,0,3:0:0:0:
436,104,109492,5,2,3:2:0:0:
381,162,109628,1,0,3:0:0:0:
381,49,109765,5,8,3:2:0:0:
439,217,109901,1,8,3:2:0:0:
507,69,110037,5,6,3:2:0:0:
436,114,110174,1,2,0:0:0:0:
512,261,110310,1,8,3:2:0:0:
451,328,110447,2,0,P|437:280|425:233,1,97.7500018644333,2|0,0:0|3:0,0:0:0:0:
215,107,110719,2,0,P|182:165|210:229,1,97.7500018644333,2|8,0:0|3:2,0:0:0:0:
320,271,110992,6,0,B|230:253|254:348|154:352,1,195.500003728867,2|2,0:0|0:0,0:0:0:0:
4,209,111401,1,8,3:2:0:0:
70,272,111537,2,0,P|78:223|88:176,1,97.7500018644333,2|0,0:0|3:0,0:0:0:0:
176,85,111810,2,0,P|185:133|194:182,1,97.7500018644333,2|8,0:0|3:2,0:0:0:0:
352,31,112083,1,2,0:0:0:0:
352,31,112151,1,8,0:1:0:0:
352,31,112219,5,6,3:2:0:0:
297,86,112356,2,0,P|354:122|391:111,1,97.7500018644333,2|8,0:0|3:2,0:0:0:0:
505,0,112628,2,0,B|480:73|480:73|495:109|495:109|469:192,1,195.500003728867,2|0,0:0|0:0,0:0:0:0:
401,321,113037,2,0,L|372:227,1,97.7500018644333,8|0,3:2|0:0,0:0:0:0:
311,367,113310,5,0,3:0:0:0:
301,359,113583,2,0,P|244:351|85:328,2,195.500003728867,8|0|8,3:2|3:0|3:2,0:0:0:0:
384,310,114265,1,0,0:0:0:0:
207,187,114401,5,4,3:2:0:0:
277,262,114537,2,0,P|293:190|307:149,1,97.7500018644333,2|8,0:2|3:2,0:0:0:0:
440,65,114810,1,0,0:2:0:0:
386,5,114947,2,0,B|285:10|328:105|195:114,1,195.500003728867,2|8,3:2|3:2,0:0:0:0:
88,0,115356,1,2,0:0:0:0:
88,0,115424,1,8,0:1:0:0:
88,0,115492,6,0,P|119:35|119:83,1,97.7500018644333,2|0,3:2|0:0,0:0:0:0:
44,201,115765,2,0,P|12:165|12:117,1,97.7500018644333,8|0,3:2|0:0,0:0:0:0:
142,253,116037,2,0,P|129:309|116:360,1,97.7500018644333,2|0,3:2|0:0,0:0:0:0:
256,225,116310,2,0,P|244:177|233:129,1,97.7500018644333,8|0,3:2|0:0,0:0:0:0:
353,300,116583,6,0,P|413:275|412:152,2,195.500003728867,6|10|2,3:2|3:2|3:2,0:0:0:0:
277,240,117265,1,0,0:0:0:0:
197,372,117401,2,0,B|153:381|153:381|107:354,1,97.7500018644333,8|0,3:2|0:0,0:0:0:0:
41,182,117674,6,0,P|24:255|12:303,1,97.7500018644333,0|0,3:0|0:0,0:0:0:0:
142,95,117947,2,0,P|152:142|164:190,1,97.7500018644333,10|0,3:2|0:0,0:0:0:0:
259,46,118219,5,0,3:0:0:0:
339,208,118356,1,8,3:2:0:0:
259,274,118492,5,0,3:0:0:0:
334,109,118628,1,8,3:2:0:0:
327,346,118765,5,6,3:2:0:0:
253,260,118901,1,2,0:0:0:0:
128,384,119037,1,8,3:2:0:0:
93,295,119174,2,0,P|171:313|229:325,1,97.7500018644333,2|0,0:0|3:0,0:0:0:0:
194,117,119447,2,0,P|155:166|162:223,1,97.7500018644333,2|8,0:0|3:2,0:0:0:0:
314,107,119719,6,0,P|307:59|273:24,1,97.7500018644333,2|0,0:0|3:0,0:0:0:0:
378,212,119992,2,0,P|456:194|514:182,1,97.7500018644333,2|8,0:0|3:2,0:0:0:0:
328,318,120265,2,0,P|221:293|141:276,1,146.62500279665,2|0,0:0|0:0,0:0:0:0:
174,291,120537,1,2,0:0:0:0:
119,143,120674,1,8,3:2:0:0:
16,247,120810,1,2,0:0:0:0:
16,247,120878,1,8,0:1:0:0:
16,247,120947,5,6,3:2:0:0:
81,319,121083,2,0,P|96:254|106:205,1,97.7500018644333,2|8,0:0|3:2,0:0:0:0:
176,12,121356,2,0,P|198:116|223:221,1,195.500003728867,2|0,0:0|0:0,0:0:0:0:
396,206,121765,2,0,P|422:143|400:100,1,97.7500018644333,8|0,3:2|0:0,0:0:0:0:
310,279,122037,6,0,P|302:326|327:367,1,97.7500018644333,2|0,3:2|0:0,0:0:0:0:
207,195,122310,2,2,B|137:189|149:259|76:265,1,146.62500279665,8|0,3:2|0:0,0:0:0:0:
73,258,122583,2,2,P|60:208|47:160,1,97.7500018644333,2|0,3:2|0:0,0:0:0:0:
207,284,122856,2,2,P|194:333|181:382,1,97.7500018644333,8|0,3:2|0:0,0:0:0:0:
316,156,123128,5,6,3:2:0:0:
386,225,123265,1,4,3:0:0:0:
386,225,123333,1,4,3:0:0:0:
386,225,123401,2,0,P|402:151|408:109,1,97.7500018644333,8|0,3:2|3:0,0:0:0:0:
264,6,123674,5,0,3:0:0:0:
313,77,123810,1,0,3:0:0:0:
177,148,123947,1,8,3:2:0:0:
345,12,124083,6,0,B|262:15|280:96|183:86,1,146.62500279665,4|0,3:2|0:0,0:0:0:0:
212,79,124356,1,0,3:0:0:0:
292,218,124492,5,8,3:2:0:0:
252,280,124628,1,0,3:0:0:0:
327,329,124765,5,0,3:0:0:0:
215,195,124901,1,0,3:0:0:0:
171,349,125037,5,8,3:2:0:0:
308,223,125174,1,0,3:0:0:0:
114,166,125310,5,6,3:2:0:0:
149,236,125447,1,0,3:0:0:0:
136,248,125719,5,0,3:0:0:0:
11,288,125856,2,0,P|64:295|92:334,1,72.2500013780594,8|4,3:2|0:3,0:0:0:0:
80,312,126060,1,4,0:3:0:0:
83,318,126128,1,6,0:3:0:0:
245,272,126265,2,0,P|231:216|207:112,2,144.500002756119,0|0|2,3:0|3:0|3:2,0:0:0:0:
282,79,126947,1,8,3:2:0:0:
400,253,127219,5,4,0:3:0:0:
400,253,127287,1,4,0:3:0:0:
400,253,127356,2,4,L|373:302,1,36.1250006890297,4|4,0:3|0:3,0:0:0:0:
439,353,127492,6,0,B|311:324|389:212|252:190,2,255,6|2|2,1:2|0:0|0:0,0:0:0:0:
266,278,129401,1,2,0:0:0:0:
404,175,129674,5,2,0:0:0:0:
404,175,129810,1,2,0:0:0:0:
337,133,129947,2,2,P|303:144|288:151,1,42.5,2|2,0:0|0:0,0:0:0:0:
245,200,130219,2,0,P|225:192|204:186,1,42.5,2|0,0:0|0:0,0:0:0:0:
136,235,130492,6,2,P|126:202|119:177,1,42.5,2|0,0:0|0:0,0:0:0:0:
65,140,130765,1,2,0:0:0:0:
135,114,130901,1,2,0:0:0:0:
58,131,131037,1,0,0:0:0:0:
235,215,131310,6,0,P|222:256|213:298,1,85,2|2,0:0|0:0,0:0:0:0:
366,155,131856,5,2,0:0:0:0:
392,219,131992,1,2,0:0:0:0:
376,146,132128,1,2,0:0:0:0:
383,229,132265,2,0,L|367:322,1,85,2|0,0:0|0:0,0:0:0:0:
302,350,132674,2,0,P|257:343|230:316,1,85,2|0,0:0|0:0,0:0:0:0:
176,262,133083,2,0,P|131:269|104:296,1,85,2|0,0:0|0:0,0:0:0:0:
47,239,133492,2,0,L|61:155,1,85,2|0,0:0|0:0,0:0:0:0:
287,90,134037,6,0,P|270:79|251:18,1,65.1666679096222,4|0,3:0|0:0,0:0:0:0:
276,183,134224,2,0,P|274:203|231:250,1,65.1666679096222,4|0,3:0|0:0,0:0:0:0:
365,145,134412,2,0,P|394:133|426:137,1,65.1666679096222,4|0,3:0|0:0,0:0:0:0:
214,132,134600,6,0,P|197:121|178:60,1,45.3333333333333,4|0,3:0|0:0,0:0:0:0:
364,64,134806,2,0,P|382:54|444:68,1,45.3333333333333,4|0,3:0|0:0,0:0:0:0:
347,227,135012,2,0,P|345:247|302:294,1,45.3333333333333,4|0,3:0|0:0,0:0:0:0:
249,40,135218,6,0,P|261:70|287:90,1,64.5999992114258,4|0,3:0|0:0,0:0:0:0:
248,240,135490,2,0,P|269:215|276:183,1,66.8666643199667,4|0,3:0|0:0,0:0:0:0:
427,137,135816,2,0,P|395:132|365:145,1,65.449998701706,4|2,3:0|0:2,0:0:0:0:
111,357,136760,6,0,P|90:249|47:31,2,305.999990661621,6|6|6,1:2|3:2|3:2,0:0:0:0:
175,290,137987,2,0,P|227:275|280:371,1,152.999995330811,2|2,0:2|0:2,0:0:0:0:
431,250,138396,5,2,3:2:0:0:
361,197,138532,1,0,3:0:0:0:
430,239,138669,5,2,3:2:0:0:
362,209,138805,1,0,3:0:0:0:
363,341,138941,6,0,P|384:233|427:15,1,305.999990661621,6|6,3:2|3:2,0:0:0:0:
311,26,139623,2,0,P|326:64|338:102,1,76.4999976654053,2|0,0:2|0:0,0:0:0:0:
314,166,139896,1,2,0:2:0:0:
138,44,140032,5,2,3:2:0:0:
206,110,140169,2,0,B|142:98|139:190|55:185,1,152.999995330811,2|2,0:1|0:1,0:0:0:0:
0,294,140578,6,0,P|90:280|31:350,1,220.999989883423,6|0,1:2|0:1,0:0:0:0:
212,196,141123,6,0,B|365:190|309:342|478:340,1,305.999990661621,6|6,3:2|3:2,0:0:0:0:
512,282,141805,1,2,0:1:0:0:
432,35,142078,1,2,0:1:0:0:
391,101,142214,5,2,3:2:0:0:
472,101,142350,2,0,P|424:88|311:56,1,152.999995330811,2|2,0:1|0:1,0:0:0:0:
133,160,142760,6,0,B|187:142|187:142|213:155|213:155|282:136,1,152.999995330811,2|2,3:2|3:2,0:0:0:0:
277,138,143169,1,2,3:1:0:0:
107,366,143305,6,0,B|110:179|12:254|7:54,1,305.999990661621,6|6,3:2|3:2,0:0:0:0:
205,50,144123,6,0,P|154:37|70:16,1,114.749996498108,2|0,3:2|0:0,0:0:0:0:
87,26,144396,1,0,3:2:0:0:
264,232,144669,5,2,3:1:0:0:
339,193,144805,1,2,3:1:0:0:
268,152,144941,2,0,L|272:127,4,25.4999992218018,2|4|4|4|4,3:2|0:3|0:3|0:3|0:3,0:0:0:0:
334,204,145214,2,0,L|337:229,4,25.4999992218018,2|4|4|4|4,3:2|0:3|0:3|0:3|0:3,0:0:0:0:
404,155,145487,6,0,B|251:158|298:323|148:334,2,305.999990661621,6|6|6,3:2|1:2|3:2,0:0:0:0:
471,195,146714,2,0,P|501:163|469:60,1,152.999995330811,2|2,0:0|0:0,0:0:0:0:
251,12,147123,6,0,B|306:-2|306:-2|353:46,1,114.749996498108,2|0,3:2|0:0,0:0:0:0:
338,46,147396,1,2,3:2:0:0:
337,120,147532,1,2,3:2:0:0:
336,194,147669,6,0,P|183:155|32:120,2,305.999990661621,6|6|6,3:2|3:2|3:2,0:0:0:0:
388,253,148896,1,2,0:1:0:0:
99,352,149169,5,2,0:1:0:0:
166,295,149305,2,0,L|192:389,1,76.4999976654053,4|2,3:2|0:2,0:0:0:0:
267,238,149578,2,0,P|209:223|185:174,1,114.749996498108,2|0,3:2|0:0,0:0:0:0:
193,167,149850,6,0,P|284:146|347:314,1,305.999990661621,6|6,3:2|3:2,0:0:0:0:
402,370,150532,2,0,B|456:319|456:319|512:387,1,152.999995330811,2|2,0:1|0:1,0:0:0:0:
486,143,150941,5,2,3:2:0:0:
506,225,151078,2,0,P|463:214|402:199,1,76.4999976654053,2|2,0:1|0:2,0:0:0:0:
322,36,151350,1,2,0:1:0:0:
298,171,151487,2,0,B|378:148|339:94|430:70,1,152.999995330811,2|2,3:2|0:2,0:0:0:0:
41,37,152032,6,0,P|63:191|87:356,1,305.999990661621,6|6,3:2|3:2,0:0:0:0:
198,89,152850,5,2,0:2:0:0:
229,160,152987,1,8,3:2:0:0:
465,26,153260,5,0,3:0:0:0:
467,113,153396,1,8,3:2:0:0:
400,79,153532,1,0,3:0:0:0:
403,171,153669,5,8,3:2:0:0:
480,113,153805,1,0,3:0:0:0:
387,71,153941,1,8,3:2:0:0:
469,20,154078,1,0,3:0:0:0:
311,60,154214,6,0,B|260:63|250:6|193:-1,1,127.500004863739,2|2,0:0|0:0,0:0:0:0:
146,58,154623,2,0,P|158:101|169:138,1,63.7500024318696,2|0,0:0|0:0,0:0:0:0:
117,178,154896,2,0,P|178:160|228:215,1,127.500004863739,2|2,0:0|0:0,0:0:0:0:
279,249,155305,6,0,P|340:267|390:212,1,127.500004863739,2|2,0:0|0:0,0:0:0:0:
464,184,155714,2,0,P|451:271|447:340,1,127.500004863739,2|2,0:0|0:0,0:0:0:0:
391,367,156123,1,2,0:0:0:0:
455,321,156260,1,2,0:0:0:0:
373,288,156396,6,0,P|312:295|240:303,1,127.500004863739,2|2,0:0|0:0,0:0:0:0:
192,353,156805,2,0,L|114:341,1,63.7500024318696,2|0,0:0|0:0,0:0:0:0:
70,297,157078,2,0,P|89:261|90:221,1,63.7500024318696,2|0,0:0|0:0,0:0:0:0:
221,155,157350,1,2,0:0:0:0:
170,100,157487,6,0,P|146:150|194:222,1,127.500004863739,2|2,0:0|0:0,0:0:0:0:
245,249,157896,2,0,P|278:238|312:227,1,63.7500024318696,2|0,0:0|0:0,0:0:0:0:
352,162,158169,1,2,0:0:0:0:
413,216,158305,2,0,P|402:260|399:297,1,63.7500024318696,2|2,0:0|0:0,0:0:0:0:
496,208,158578,6,0,P|471:149|461:69,1,127.500004863739,2|2,0:0|0:0,0:0:0:0:
416,29,158987,2,0,P|367:15|332:23,1,63.7500024318696,2|0,0:0|0:0,0:0:0:0:
300,68,159260,2,0,P|251:82|216:74,1,63.7500024318696,2|0,0:0|0:0,0:0:0:0:
183,27,159532,1,2,0:0:0:0:
133,87,159669,6,0,P|144:148|153:225,1,127.500004863739,2|2,0:0|0:0,0:0:0:0:
81,272,160078,2,0,B|143:276|134:337|215:341,1,127.500004863739,2|2,0:0|0:0,0:0:0:0:
246,276,160487,1,2,0:0:0:0:
198,344,160623,1,2,0:0:0:0:
279,350,160760,6,0,P|332:340|421:325,2,127.500004863739,2|2|2,0:0|0:0|0:0,0:0:0:0:
239,285,161441,1,2,0:0:0:0:
392,108,161714,1,2,0:0:0:0:
453,159,161850,6,0,P|410:188|325:144,1,127.500004863739,2|2,0:0|0:0,0:0:0:0:
292,105,162260,2,0,P|249:76|164:120,1,127.500004863739,2|2,0:0|0:0,0:0:0:0:
149,167,162669,1,2,0:0:0:0:
192,103,162805,1,2,0:0:0:0:
230,179,162941,6,0,P|219:247|214:320,1,127.500004863739,2|2,0:0|0:0,0:0:0:0:
162,367,163350,2,0,P|110:348|78:336,1,63.7500024318696,2|0,0:0|0:0,0:0:0:0:
224,314,163623,2,0,B|290:308|275:357|348:363,1,127.500004863739,2|2,0:0|0:0,0:0:0:0:
401,315,164032,6,0,B|373:257|373:257|392:197,1,127.500004863739,2|2,0:0|0:0,0:0:0:0:
454,149,164441,2,0,P|433:110|421:83,1,63.7500024318696,2|0,0:0|0:0,0:0:0:0:
458,24,164714,1,2,0:0:0:0:
415,88,164850,1,2,0:0:0:0:
356,32,164987,1,2,0:0:0:0:
306,90,165123,5,2,0:0:0:0:
298,101,165396,1,2,0:0:0:0:
290,112,165669,1,2,0:0:0:0:
232,163,165805,2,0,B|168:140|196:103|112:84,1,127.500004863739,2|2,0:0|0:0,0:0:0:0:
87,154,166214,6,0,P|126:181|122:268,1,127.500004863739,2|2,0:0|0:0,0:0:0:0:
168,324,166623,2,0,P|233:313|312:301,1,127.500004863739,2|2,0:0|0:0,0:0:0:0:
344,249,167032,1,2,0:0:0:0:
298,314,167169,1,2,0:0:0:0:
228,51,167305,6,0,P|253:97|239:144,1,85,6|0,3:1|0:0,0:0:0:0:
14,146,167578,1,0,3:0:0:0:
88,164,167714,1,0,3:0:0:0:
50,227,167850,2,0,P|40:158|22:46,1,170,2|8,3:1|3:2,0:0:0:0:
234,299,168260,5,0,3:0:0:0:
163,334,168396,1,2,3:1:0:0:
133,258,168532,5,0,3:0:0:0:
281,360,168669,2,0,B|368:336|318:278|417:249,1,170,6|8,3:1|3:2,0:0:0:0:
474,287,169078,1,2,3:1:0:0:
289,19,169350,1,0,3:0:0:0:
351,66,169487,6,0,P|284:57|223:158,1,170,6|0,3:1|3:0,0:0:0:0:
18,50,169896,1,2,0:0:0:0:
101,18,170032,2,0,P|89:88|84:128,1,85,8|0,3:2|0:0,0:0:0:0:
127,312,170305,1,2,3:1:0:0:
4,239,170441,1,4,3:0:0:0:
4,239,170510,1,4,3:0:0:0:
4,239,170578,5,4,3:2:0:0:
73,180,170850,5,4,3:2:0:0:
153,218,171260,5,4,3:2:0:0:
462,27,171669,6,0,P|411:59|430:178,1,152.999995330811,6|0,3:2|0:0,0:0:0:0:
412,153,171941,1,8,3:2:0:0:
301,234,172078,2,0,B|376:229|358:312|469:314,1,152.999995330811,2|0,3:2|0:0,0:0:0:0:
437,317,172350,2,0,P|473:294|459:208,1,101.999996887207,2|8,3:2|3:2,0:0:0:0:
321,373,172623,1,2,0:0:0:0:
321,373,172760,5,0,3:2:0:0:
140,222,172896,1,2,0:0:0:0:
207,182,173032,1,8,3:2:0:0:
210,262,173169,2,0,P|160:250|46:220,1,152.999995330811,2|0,3:2|0:0,0:0:0:0:
55,230,173441,2,0,P|37:166|70:132,1,101.999996887207,2|8,3:2|3:2,0:0:0:0:
239,4,173714,6,0,P|254:60|272:132,1,101.999996887207,2|4,0:0|3:2,0:0:0:0:
269,110,173919,1,2,0:0:0:0:
274,117,173987,1,2,0:0:0:0:
393,11,174123,1,8,3:2:0:0:
449,82,174260,2,0,P|429:155|405:250,1,152.999995330811,2|0,3:2|0:0,0:0:0:0:
415,240,174532,1,0,3:2:0:0:
309,316,174669,2,0,P|358:321|390:359,1,101.999996887207,8|2,3:2|0:0,0:0:0:0:
199,273,174941,5,0,3:0:0:0:
261,227,175078,1,0,3:0:0:0:
164,379,175214,2,2,B|90:362|114:296|41:286,1,152.999995330811,8|0,3:2|0:0,0:0:0:0:
38,296,175487,2,2,P|11:241|45:198,1,101.999996887207,2|0,3:2|3:0,0:0:0:0:
72,22,175760,2,2,P|85:77|112:184,1,152.999995330811,8|0,3:2|0:0,0:0:0:0:
104,180,176032,5,4,3:2:0:0:
270,67,176169,2,0,P|235:33|182:29,1,101.999996887207,2|8,0:2|3:2,0:0:0:0:
297,251,176441,1,0,3:0:0:0:
290,170,176578,1,2,0:2:0:0:
224,217,176714,1,0,3:0:0:0:
405,227,176850,2,0,P|467:211|528:196,1,101.999996887207,8|2,3:2|0:0,0:0:0:0:
507,194,177055,1,8,0:1:0:0:
510,187,177123,5,2,3:2:0:0:
429,120,177260,1,0,3:0:0:0:
363,361,177396,2,0,P|301:345|240:330,1,101.999996887207,8|0,3:2|3:0,0:0:0:0:
131,191,177669,2,0,P|189:192|220:260,1,101.999996887207,2|0,0:0|3:0,0:0:0:0:
30,376,177941,2,0,P|17:315|-5:200,1,152.999995330811,8|0,3:2|0:0,0:0:0:0:
11,219,178214,6,0,P|19:177|34:98,1,101.999996887207,6|0,3:2|0:0,0:0:0:0:
213,20,178487,2,0,P|256:75|237:137,1,101.999996887207,8|0,3:2|3:0,0:0:0:0:
107,208,178760,1,2,0:0:0:0:
166,150,178896,1,0,3:0:0:0:
217,216,179032,2,0,P|207:266|197:316,1,101.999996887207,8|0,3:2|0:0,0:0:0:0:
362,118,179305,5,2,3:2:0:0:
300,162,179441,1,0,3:0:0:0:
240,104,179578,5,8,3:2:0:0:
382,198,179714,2,0,B|464:178|421:121|530:104,1,152.999995330811,0|0,3:0|0:0,0:0:0:0:
512,116,179987,1,0,3:0:0:0:
342,9,180123,2,0,P|358:57|369:106,1,101.999996887207,8|2,3:2|0:2,0:0:0:0:
350,347,180396,5,6,3:2:0:0:
404,295,180532,2,0,P|453:299|490:355,1,101.999996887207,2|8,0:2|3:2,0:0:0:0:
274,255,180805,2,0,P|192:272|121:290,1,152.999995330811,2|0,3:2|0:0,0:0:0:0:
114,285,181078,2,0,P|85:244|98:193,1,101.999996887207,2|8,3:2|3:2,0:0:0:0:
244,79,181350,1,2,0:0:0:0:
244,79,181487,5,0,3:0:0:0:
163,24,181623,1,0,3:0:0:0:
121,103,181760,1,8,3:2:0:0:
280,1,181896,2,0,B|378:-2|347:87|453:94,1,203.999993774414,2|2,3:2|3:2,0:0:0:0:
339,144,182305,1,8,3:2:0:0:
503,242,182441,1,2,0:0:0:0:
503,242,182510,1,8,0:1:0:0:
503,242,182578,5,4,3:2:0:0:
426,297,182714,2,0,P|415:244|398:163,1,101.999996887207,2|8,0:0|3:2,0:0:0:0:
327,364,182987,2,0,P|242:375|185:267,1,203.999993774414,2|0,3:2|3:0,0:0:0:0:
25,245,183396,2,0,P|74:239|106:201,1,101.999996887207,8|0,3:2|0:0,0:0:0:0:
186,0,183669,5,0,3:0:0:0:
89,60,183805,1,0,3:0:0:0:
194,121,183941,2,2,P|249:109|321:95,1,101.999996887207,8|0,3:2|0:0,0:0:0:0:
473,30,184214,2,2,P|427:64|432:144,1,101.999996887207,2|0,0:0|3:0,0:0:0:0:
489,234,184487,2,2,P|408:216|304:196,1,152.999995330811,8|4,3:2|0:3,0:0:0:0:
323,210,184760,5,4,3:2:0:0:
198,320,184896,1,4,0:3:0:0:
198,320,184964,1,4,0:3:0:0:
198,320,185032,2,0,P|255:303|300:294,1,101.999996887207,8|0,3:2|3:0,0:0:0:0:
82,267,185305,5,0,3:0:0:0:
41,336,185441,1,0,3:0:0:0:
122,373,185578,5,8,3:2:0:0:
14,231,185714,1,4,0:3:0:0:
14,231,185782,1,4,0:3:0:0:
14,231,185850,5,8,3:2:0:0:
82,174,185987,2,0,P|151:184|272:203,1,152.999995330811,4|0,3:2|0:0,0:0:0:0:
241,192,186260,1,8,3:2:0:0:
389,122,186396,1,2,3:2:0:0:
264,31,186532,1,0,3:0:0:0:
298,119,186669,1,2,3:2:0:0:
444,262,186941,5,0,3:0:0:0:
376,301,187078,1,0,3:0:0:0:
438,249,187214,1,4,3:0:0:0:
373,316,187350,1,0,3:0:0:0:
336,221,187487,5,0,3:0:0:0:
299,380,187623,1,0,3:0:0:0:
455,346,187760,1,0,3:0:0:0:
287,383,187896,5,8,3:2:0:0:
466,345,188033,1,8,3:2:0:0:
323,214,188169,1,0,3:0:0:0:
473,155,188305,5,8,3:2:0:0:
370,333,188441,1,0,3:0:0:0:
255,152,188578,5,4,0:3:0:0:
255,152,188669,2,4,P|305:125|321:98,1,67.9999979248048,4|4,0:3|0:3,0:0:0:0:
193,224,188850,5,4,0:3:0:0:
193,224,188941,2,4,P|144:193|113:193,1,67.9999979248048,4|4,0:3|0:3,0:0:0:0:
174,110,189123,5,6,1:2:0:0:
469,335,191305,5,4,1:2:0:0:
463,329,192123,6,0,L|362:311,1,82.8749962062838,0|0,3:0|0:0,0:0:0:0:
373,320,192396,1,2,0:0:0:0:
216,192,192532,6,0,P|262:201|298:274,1,110.499994941712,0|2,3:0|3:2,0:0:0:0:
180,381,192941,2,0,P|166:315|157:275,1,73.6666632944744,8|4,3:2|3:0,0:0:0:0:
99,259,193214,1,4,3:0:0:0:
99,259,193305,2,0,P|112:193|121:153,1,73.6666632944744,4|6,3:0|3:2,0:0:0:0:
113,186,194032,1,2,0:0:0:0:
356,51,194441,6,0,P|320:39|280:25,1,55.2499974708558,8|0,3:2|0:0,0:0:0:0:
482,103,194714,1,0,3:0:0:0:
430,158,194850,2,0,L|377:170,1,55.2499974708558,2|0,3:2|3:0,0:0:0:0:
283,252,195123,5,8,3:2:0:0:
349,285,195260,1,0,3:0:0:0:
278,243,195396,1,8,3:2:0:0:
355,293,195532,1,0,3:0:0:0:
277,332,195669,5,2,3:2:0:0:
272,342,195941,1,0,3:0:0:0:
267,352,196214,1,4,3:2:0:0:
262,362,196487,1,0,3:0:0:0:
183,281,196623,1,4,0:3:0:0:
183,281,196691,1,4,0:3:0:0:
183,281,196760,1,4,0:3:0:0:
41,363,196896,5,8,3:2:0:0:
77,297,197032,2,0,P|65:240|45:146,1,136,0|8,3:0|3:2,0:0:0:0:
209,31,197578,5,4,0:3:0:0:
207,40,197646,1,4,0:3:0:0:
205,49,197714,1,4,0:3:0:0:
203,58,197782,1,4,0:3:0:0:
201,67,197850,6,0,P|250:78|304:92,1,85,6|2,3:2|0:2,0:0:0:0:
450,165,198123,5,8,3:2:0:0:
386,208,198260,1,2,0:0:0:0:
239,215,198396,5,2,3:2:0:0:
296,269,198532,1,2,0:0:0:0:
432,304,198669,5,8,3:2:0:0:
378,357,198805,1,2,0:0:0:0:
317,164,198941,5,2,0:2:0:0:
379,220,199078,1,2,0:0:0:0:
306,259,199214,2,0,P|249:250|154:237,1,127.5,8|0,3:2|0:0,0:0:0:0:
171,244,199487,2,0,P|147:294|172:344,1,85,2|0,3:2|0:0,0:0:0:0:
309,171,199760,2,0,P|300:115|283:20,1,127.5,8|0,3:2|0:0,0:0:0:0:
297,39,200032,5,6,3:2:0:0:
224,2,200169,1,2,0:0:0:0:
129,79,200305,5,8,3:2:0:0:
129,79,200441,1,2,0:0:0:0:
200,118,200578,5,2,3:2:0:0:
140,0,200714,1,2,0:0:0:0:
55,109,200850,1,8,3:2:0:0:
55,109,200987,1,2,0:0:0:0:
163,232,201123,5,2,0:0:0:0:
86,276,201260,1,2,0:0:0:0:
155,332,201396,2,0,P|241:319|331:306,2,170,8|0|8,3:2|3:0|3:2,0:0:0:0:
465,96,202214,6,0,P|454:137|451:211,1,85,6|2,3:2|0:0,0:0:0:0:
512,316,202487,5,8,3:2:0:0:
449,276,202623,1,2,0:0:0:0:
316,360,202760,5,2,3:2:0:0:
255,306,202896,1,2,3:2:0:0:
323,253,203032,1,8,3:2:0:0:
241,35,203169,5,6,3:2:0:0:
186,106,203305,1,2,3:2:0:0:
246,160,203441,1,2,3:2:0:0:
295,94,203578,2,0,B|231:98|225:184|140:199,2,170,8|2|8,3:2|3:2|3:2,0:0:0:0:
359,131,204260,1,0,0:0:0:0:
241,303,204396,6,0,P|198:292|150:282,1,85,6|0,3:2|0:0,0:0:0:0:
7,134,204669,2,0,P|71:120|135:103,1,127.5,8|0,3:2|0:0,0:0:0:0:
140,98,204941,1,2,3:2:0:0:
211,146,205078,1,2,3:2:0:0:
207,36,205214,1,8,3:2:0:0:
142,207,205350,5,6,3:2:0:0:
131,213,205623,1,0,3:0:0:0:
68,271,205760,2,0,P|75:312|85:354,1,85,8|0,3:2|0:0,0:0:0:0:
262,218,206032,2,0,P|324:211|368:311,1,170,2|8,3:2|3:2,0:0:0:0:
330,362,206441,1,0,3:0:0:0:
512,287,206578,6,0,P|498:224|486:162,1,127.5,4|0,3:2|0:0,0:0:0:0:
495,153,206850,1,8,3:2:0:0:
318,74,206987,2,0,P|368:71|406:139,1,93.5000028533936,2|0,0:2|0:0,0:0:0:0:
356,283,207260,2,0,P|349:237|375:200,1,93.5000028533936,2|8,0:2|3:2,0:0:0:0:
428,350,207532,1,2,0:2:0:0:
260,249,207669,5,2,3:2:0:0:
260,249,207805,1,0,3:0:0:0:
194,311,207941,2,0,B|112:312|135:218|25:212,1,187.000005706787,8|2,3:2|3:2,0:0:0:0:
3,278,208350,1,0,3:0:0:0:
180,157,208487,2,0,P|163:97|150:31,1,93.5000028533936,8|2,3:2|0:0,0:0:0:0:
336,1,208760,6,0,P|390:15|410:110,1,140.25000428009,2|0,3:2|0:0,0:0:0:0:
411,98,209032,1,8,3:2:0:0:
342,139,209169,1,2,3:2:0:0:
459,266,209305,2,0,P|469:220|481:175,1,93.5000028533936,2|0,3:2|3:0,0:0:0:0:
375,352,209578,2,0,B|296:328|330:275|250:256,1,140.25000428009,8|0,3:2|0:0,0:0:0:0:
261,268,209850,5,2,3:2:0:0:
188,299,209987,1,0,3:0:0:0:
255,353,210123,5,8,3:2:0:0:
177,217,210260,2,0,P|114:201|65:185,1,93.5000028533936,2|0,3:2|0:0,0:0:0:0:
267,30,210532,1,2,3:2:0:0:
331,99,210669,2,0,P|285:110|240:123,1,93.5000028533936,8|0,3:2|0:0,0:0:0:0:
376,229,210941,5,2,3:2:0:0:
384,242,211214,2,0,L|442:224,1,46.7500014266968,8|0,3:2|0:0,0:0:0:0:
436,381,211350,2,0,B|342:359|369:288|262:279,1,187.000005706787,2|2,3:2|0:0,0:0:0:0:
211,327,211760,1,8,3:2:0:0:
318,180,211896,1,2,0:0:0:0:
121,156,212032,5,2,3:2:0:0:
121,156,212169,1,0,3:2:0:0:
198,229,212305,2,0,P|213:158|222:112,1,93.5000028533936,8|0,3:2|3:0,0:0:0:0:
413,62,212578,1,2,0:0:0:0:
349,25,212714,1,0,3:0:0:0:
473,10,212850,5,8,3:2:0:0:
317,106,212987,1,2,3:2:0:0:
512,185,213123,6,2,B|292:120|361:410|107:373,1,467.500014266968,2|2,3:1|3:1,0:0:0:0:
140,167,213941,2,0,P|188:159|165:220,1,140.25000428009,8|0,3:2|0:0,0:0:0:0:
158,216,214214,5,2,3:2:0:0:
283,142,214350,1,2,3:2:0:0:
207,76,214487,1,8,3:2:0:0:
237,287,214623,2,0,P|223:338|213:394,1,93.5000028533936,2|0,0:0|3:0,0:0:0:0:
382,174,214896,2,0,P|395:220|404:265,1,93.5000028533936,2|8,3:2|3:2,0:0:0:0:
489,72,215169,1,8,3:2:0:0:
276,10,215305,5,4,3:2:0:0:
326,67,215441,1,0,3:0:0:0:
269,120,215578,2,0,P|198:101|157:96,1,80.7499978437424,0|0,3:0|0:0,0:0:0:0:
31,145,215850,2,0,P|81:141|121:258,1,161.499995687485,8|2,3:2|3:2,0:0:0:0:
92,288,216260,1,0,0:0:0:0:
183,384,216396,6,0,P|239:373|290:365,1,80.7499978437424,2|0,0:2|3:0,0:0:0:0:
383,191,216669,1,2,0:0:0:0:
408,278,216805,2,0,P|351:267|300:259,1,80.7499978437424,2|8,3:2|3:2,0:0:0:0:
138,205,217078,2,0,B|231:186|183:116|294:102,1,161.499995687485,2|2,3:2|3:2,0:0:0:0:
455,30,217487,6,0,P|433:73|437:129,1,80.7499978437424,2|0,3:2|3:0,0:0:0:0:
316,272,217760,2,0,P|311:232|292:197,1,80.7499978437424,2|2,3:2|0:0,0:0:0:0:
156,61,218032,2,0,P|139:138|121:225,1,161.499995687485,8|2,3:2|0:0,0:0:0:0:
261,98,218441,6,0,B|325:80|325:80|352:97|352:97|430:78,1,161.499995687485,2|2,3:2|3:2,0:0:0:0:
509,216,218850,2,0,L|422:191,1,80.7499978437424,2|0,3:2|3:0,0:0:0:0:
342,373,219123,2,0,P|328:301|312:219,1,121.124996765614,8|0,3:2|0:0,0:0:0:0:
309,246,219396,2,0,L|317:206,3,40.3749989218712,2|2|2|2,3:2|0:0|3:2|0:0,0:0:0:0:
370,139,219669,6,0,B|313:106|249:125|238:185|185:210|185:210|154:219|109:209|76:187|59:167|27:106|38:48|67:7|143:-2|174:5|192:20|528:158|44:290|108:355|169:381|228:358|139:252|64:255|8:329,1,968.999974124909,6|8,1:1|3:2,0:0:0:0:
22,330,221578,6,0,P|80:314|132:298,1,80.7499978437424,2|2,0:1|0:1,0:0:0:0:
313,207,221850,5,6,1:2:0:0:
262,264,221987,1,2,3:2:0:0:
242,157,222123,5,8,1:2:0:0:
393,251,222260,1,2,3:2:0:0:
238,336,222396,1,8,1:2:0:0:
229,347,222669,5,8,1:2:0:0:
108,257,222805,2,0,B|179:234|179:234|220:254|220:254|300:225,1,195.500003728867,2|8,3:1|3:2,0:0:0:0:
374,261,223214,1,0,3:0:0:0:
332,324,223350,1,0,3:0:0:0:
343,61,223487,5,8,1:2:0:0:
374,173,223623,1,0,3:0:0:0:
245,10,223760,5,8,1:2:0:0:
186,164,223896,1,0,3:0:0:0:
7,119,224032,5,8,1:2:0:0:
71,178,224169,1,2,3:2:0:0:
0,234,224305,5,8,1:2:0:0:
103,101,224441,1,2,3:2:0:0:
171,252,224578,1,8,1:2:0:0:
157,262,224850,5,8,1:2:0:0:
218,326,224987,2,0,B|311:310|276:212|382:205,1,195.500003728867,0|8,3:0|3:2,0:0:0:0:
423,146,225396,1,0,3:0:0:0:
481,209,225532,1,0,3:0:0:0:
334,79,225669,5,8,1:2:0:0:
456,30,225805,1,0,3:0:0:0:
276,170,225941,5,8,1:2:0:0:
509,293,226078,1,4,1:2:0:0:
