osu file format v14

[General]
AudioFilename: audio.mp3
AudioLeadIn: 0
PreviewTime: 44295
Countdown: 0
SampleSet: Soft
StackLeniency: 0.7
Mode: 0
LetterboxInBreaks: 0
WidescreenStoryboard: 1

[Editor]
DistanceSpacing: 1
BeatDivisor: 4
GridSize: 32
TimelineZoom: 2.799999

[Metadata]
Title:ROB THE FRONTIER (TV Size)
TitleUnicode:ROB THE FRONTIER (TV Size)
Artist:UVERworld
ArtistUnicode:UVERworld
Creator:-Mercury-
Version:NORMAL
Source:七つの大罪 神々の逆鱗
Tags:Nanatsu no taizai kamigami gekirin The seven deadly sins wrath of the gods 信人 Nobuto TAKUYA∞ 克哉 KATSUYA 真太郎 SHINTARO 誠果 SEIKA 誠果 SEIKA japanese rock anime opening short ver version xzenifx fix smoke smoke45 kimchi sandwich
BeatmapID:2852938
BeatmapSetID:1052302

[Difficulty]
HPDrainRate:4
CircleSize:3
OverallDifficulty:4.5
ApproachRate:5
SliderMultiplier:0.899999999999999
SliderTickRate:1

[Events]
//Background and Video events
0,0,"vAjph7a.jpg",0,0
Video,-450,"nanatsuvid.mp4"
//Break Periods
//Storyboard Layer 0 (Background)
//Storyboard Layer 1 (Fail)
//Storyboard Layer 2 (Pass)
//Storyboard Layer 3 (Foreground)
//Storyboard Layer 4 (Overlay)
//Storyboard Sound Samples

[TimingPoints]
727,272.727272727273,4,2,22,70,1,0
727,-100,4,2,22,70,0,0
3317,-100,4,2,23,70,0,0
3727,-100,4,2,22,70,0,0
6863,-100,4,2,22,70,0,0
26908,-111.111111111111,4,2,22,70,0,0
34408,-100,4,2,22,70,0,0
35636,-100,4,2,22,70,0,0
44363,-100,4,2,22,90,0,1
53090,-100,4,3,23,90,0,1
53227,-100,4,2,22,90,0,1
58408,-100,4,2,23,90,0,1
58545,-100,4,2,22,90,0,1
61817,-100,4,2,22,100,0,1
75863,-100,4,2,23,100,0,1
75999,-100,4,2,22,100,0,1
79272,-100,4,2,22,90,0,0
88272,-100,4,2,22,5,0,0

[Colours]
Combo1 : 0,0,255
Combo2 : 255,128,0
Combo3 : 255,0,0
Combo4 : 164,82,0
Combo5 : 155,0,0

[HitObjects]
83,197,727,5,0,1:0:0:0:
471,40,2363,5,8,0:2:0:0:
471,40,2499,1,4,1:2:0:0:
378,137,2908,6,0,P|325:113|221:127,1,135,4|4,1:2|1:3,0:0:0:0:
179,230,3727,2,0,P|126:254|22:240,1,135,4|4,1:3|1:2,0:0:0:0:
43,116,4545,2,0,P|49:63|44:38,1,45,0|8,1:2|0:3,0:0:0:0:
38,28,4817,1,4,0:3:0:0:
124,3,5090,6,0,L|295:19,1,135,8|2,0:2|0:3,0:0:0:0:
346,118,5908,2,0,L|175:134,1,135,8|2,0:2|0:3,0:0:0:0:
82,169,6727,1,8,0:2:0:0:
82,169,6863,1,4,1:2:0:0:
91,303,7272,6,0,P|150:320|191:308,1,89.9999999999999,8|0,0:2|1:0,0:0:0:0:
212,287,7681,2,0,P|256:282|297:298,1,89.9999999999999,8|0,0:2|1:0,0:0:0:0:
328,331,8090,1,8,0:2:0:0:
418,309,8363,1,0,1:0:0:0:
418,309,8499,2,0,P|406:265|429:211,1,89.9999999999999,8|0,0:2|1:0,0:0:0:0:
455,197,8908,2,0,B|441:148|452:107|452:107|397:95|365:47,1,180,8|4,0:2|1:2,0:0:0:0:
305,6,9727,5,10,0:2:0:0:
233,59,9999,1,2,0:2:0:0:
148,27,10272,2,0,L|45:33,1,89.9999999999999,10|2,0:2|1:2,0:0:0:0:
18,53,10681,1,2,1:2:0:0:
57,134,10954,2,0,P|62:204|51:239,1,89.9999999999999,2|2,1:2|1:2,0:0:0:0:
116,290,11499,2,0,P|111:360|122:395,2,89.9999999999999,2|0|2,0:2|0:0|1:2,0:0:0:0:
190,239,12317,1,0,1:0:0:0:
190,239,12454,1,10,0:2:0:0:
261,294,12727,6,0,L|318:298,1,45,0|0,1:0|1:0,0:0:0:0:
348,283,12999,1,8,0:2:0:0:
348,283,13136,2,0,L|452:290,1,89.9999999999999,0|0,1:0|1:0,0:0:0:0:
482,293,13545,1,8,0:2:0:0:
512,208,13817,5,0,1:0:0:0:
466,130,14090,2,0,L|470:32,2,89.9999999999999,10|2|10,0:2|0:2|0:2,0:0:0:0:
390,178,14908,1,2,1:2:0:0:
311,133,15181,1,10,0:2:0:0:
311,133,15317,2,0,P|251:143|203:125,1,89.9999999999999,2|2,1:2|1:2,0:0:0:0:
146,89,15863,2,0,L|154:-9,2,89.9999999999999,2|0|2,0:2|0:2|1:2,0:0:0:0:
84,155,16681,1,0,1:0:0:0:
84,155,16817,1,10,0:2:0:0:
48,237,17090,6,0,P|41:277|47:298,1,45,0|0,1:0|1:0,0:0:0:0:
71,314,17363,1,8,0:2:0:0:
71,314,17499,2,0,L|179:308,1,89.9999999999999,0|0,1:0|1:0,0:0:0:0:
206,309,17908,1,8,0:2:0:0:
272,370,18181,5,4,1:2:0:0:
360,351,18454,2,0,L|465:365,2,89.9999999999999,10|2|10,0:2|0:2|0:2,0:0:0:0:
336,264,19272,2,0,P|348:223|344:169,1,89.9999999999999,2|10,1:2|0:2,0:0:0:0:
319,95,19817,1,2,0:2:0:0:
319,95,19954,1,2,1:2:0:0:
244,43,20227,2,0,L|145:57,2,89.9999999999999,2|0|2,0:2|0:0|1:2,0:0:0:0:
345,0,21045,1,0,1:0:0:0:
345,0,21181,1,10,0:2:0:0:
425,40,21454,6,0,L|426:89,1,45,0|0,1:0|1:0,0:0:0:0:
415,128,21727,1,8,0:2:0:0:
415,128,21863,2,0,L|416:224,1,89.9999999999999,0|0,1:0|1:0,0:0:0:0:
406,262,22272,1,8,0:2:0:0:
330,311,22545,5,0,1:0:0:0:
256,259,22817,2,0,L|196:264,2,45,10|2|0,0:2|0:2|0:2,0:0:0:0:
287,226,23227,1,2,1:2:0:0:
340,154,23499,2,0,P|350:111|325:75,1,89.9999999999999,2|0,1:2|0:0,0:0:0:0:
238,50,24045,2,0,L|136:55,1,89.9999999999999,2|2,1:2|1:2,0:0:0:0:
77,117,24590,2,0,P|86:172|74:213,2,89.9999999999999,2|0|2,0:2|0:0|1:2,0:0:0:0:
29,50,25408,1,0,1:0:0:0:
29,50,25545,1,10,0:2:0:0:
116,28,25817,6,0,L|169:35,1,45,0|0,1:0|1:0,0:0:0:0:
203,19,26090,1,8,0:2:0:0:
203,19,26227,2,0,L|334:36,1,89.9999999999999,0|8,1:0|0:3,0:0:0:0:
337,36,26636,1,4,0:3:0:0:
412,82,26908,6,0,P|431:139|404:245,1,161.999995056152,0|8,1:0|0:2,0:0:0:0:
275,325,27999,2,0,B|183:328|222:255|113:269,1,161.999995056152,0|8,0:0|0:2,0:0:0:0:
11,157,29090,6,0,P|8:117|6:102,1,40.4999987640381,0|0,1:0|1:0,0:0:0:0:
34,31,29499,1,0,1:0:0:0:
119,4,29772,1,0,1:0:0:0:
198,46,30045,2,0,P|207:86|191:136,1,80.9999975280762,0|0,1:0|1:0,0:0:0:0:
127,178,30590,2,0,P|136:202|140:222,1,40.4999987640381,0|8,1:0|0:2,0:0:0:0:
160,256,30863,2,0,P|151:302|161:338,1,80.9999975280762,0|8,1:0|0:2,0:0:0:0:
204,357,31272,6,0,P|263:349|374:339,1,161.999995056152,0|8,1:0|0:2,0:0:0:0:
354,161,32363,2,0,P|295:153|184:143,1,161.999995056152,0|8,1:0|0:2,0:0:0:0:
115,188,33181,2,0,P|97:179|78:173,1,40.4999987640381
47,139,33454,6,0,P|61:108|67:44,1,80.9999975280762,0|0,1:0|0:0,0:0:0:0:
103,34,33863,1,0,1:0:0:0:
187,3,34136,2,0,P|210:18|228:20,1,40.4999987640381,0|0,1:0|0:0,0:0:0:0:
258,46,34408,2,0,P|309:37|349:41,1,89.9999999999999,0|0,1:0|1:0,0:0:0:0:
383,67,34817,1,8,0:2:0:0:
440,136,35090,1,12,0:2:0:0:
434,227,35363,2,0,P|427:272|426:303,1,45,8|8,0:2|0:2,0:0:0:0:
414,314,35636,6,0,L|352:329,1,45,6|0,1:2|1:2,0:0:0:0:
327,339,35908,1,10,0:2:0:0:
203,284,36317,2,0,P|200:244|205:218,1,45,2|10,1:2|0:2,0:0:0:0:
245,160,36727,2,0,L|306:152,1,45,2|0,1:2|1:2,0:0:0:0:
334,148,36999,1,10,0:2:0:0:
447,75,37408,2,0,P|446:46|432:23,1,45,2|10,1:2|0:2,0:0:0:0:
352,8,37817,5,2,1:2:0:0:
352,8,37954,1,2,1:2:0:0:
276,56,38227,2,0,L|186:43,1,89.9999999999999,2|2,1:2|1:2,0:0:0:0:
112,94,38772,2,0,P|93:150|97:196,1,89.9999999999999,2|2,0:2|1:2,0:0:0:0:
160,240,39317,2,0,L|250:253,1,89.9999999999999,2|2,1:2|1:2,0:0:0:0:
372,320,39999,5,4,1:2:0:0:
372,320,40136,2,0,P|311:335|277:348,1,89.9999999999999,0|0,1:0|1:0,0:0:0:0:
153,349,40817,1,0,1:0:0:0:
153,349,40954,2,0,P|138:283|148:238,1,89.9999999999999,0|0,1:0|1:0,0:0:0:0:
194,190,41499,1,0,1:0:0:0:
194,190,41636,2,0,P|195:145|181:102,1,89.9999999999999,8|0,0:2|1:0,0:0:0:0:
134,25,42181,6,0,B|192:14|192:14|224:26|224:26|272:16,1,135,0|0,1:0|1:0,0:0:0:0:
308,5,42727,1,8,0:2:0:0:
387,47,42999,2,0,P|379:75|381:104,1,45,0|8,1:0|0:2,0:0:0:0:
392,131,43272,2,0,P|393:175|374:215,1,89.9999999999999,0|0,1:0|1:0,0:0:0:0:
288,242,43817,1,0,0:0:0:0:
139,350,44363,6,0,P|186:341|242:340,1,89.9999999999999,6|8,1:2|0:2,0:0:0:0:
267,362,44772,1,2,1:2:0:0:
343,315,45045,1,2,1:2:0:0:
432,316,45317,2,0,P|439:246|432:208,1,89.9999999999999,0|2,0:0|1:2,0:0:0:0:
381,154,45863,2,0,P|374:84|381:46,1,89.9999999999999,2|2,1:2|1:2,0:0:0:0:
347,38,46272,1,8,0:2:0:0:
347,38,46408,6,0,P|301:25|250:32,1,89.9999999999999
226,59,46817,1,10,0:2:0:0:
226,59,46954,2,0,L|237:158,1,89.9999999999999,0|0,1:2|1:2,0:0:0:0:
213,187,47363,2,0,P|167:200|116:193,1,89.9999999999999,8|0,0:2|1:0,0:0:0:0:
38,171,47908,2,0,L|27:270,2,89.9999999999999,10|2|10,0:2|0:2|0:2,0:0:0:0:
66,86,48727,5,2,1:2:0:0:
66,86,48863,2,0,P|116:68|149:43,1,89.9999999999999,0|0,0:2|1:2,0:0:0:0:
167,6,49272,1,2,0:2:0:0:
253,49,49545,1,8,0:2:0:0:
253,49,49681,2,0,P|303:67|336:92,1,89.9999999999999,2|0,0:2|1:2,0:0:0:0:
338,133,50090,1,10,0:2:0:0:
282,203,50363,1,2,0:2:0:0:
315,286,50636,1,10,0:2:0:0:
387,338,50908,6,0,L|491:327,2,89.9999999999999,2|10|2,1:2|0:2|0:2,0:0:0:0:
305,376,51727,2,0,P|250:363|206:362,1,89.9999999999999,10|0,0:2|1:0,0:0:0:0:
190,331,52136,1,0,0:0:0:0:
190,331,52272,2,0,P|135:344|91:345,2,89.9999999999999,8|0|8,0:2|0:0|0:2,0:0:0:0:
224,247,53090,6,0,P|229:189|219:143,1,89.9999999999999,6|8,1:2|0:2,0:0:0:0:
190,127,53499,1,2,1:2:0:0:
170,38,53772,1,2,1:2:0:0:
252,0,54045,2,0,L|348:6,1,89.9999999999999,0|2,0:0|1:2,0:0:0:0:
407,67,54590,2,0,L|503:73,1,89.9999999999999,2|2,1:2|1:2,0:0:0:0:
511,120,54999,1,8,0:2:0:0:
511,120,55136,6,0,P|516:176|504:227,1,89.9999999999999
475,236,55545,1,8,0:2:0:0:
475,236,55681,2,0,P|468:280|474:324,1,89.9999999999999,0|0,1:0|1:0,0:0:0:0:
441,355,56090,2,0,P|396:357|352:341,1,89.9999999999999,10|0,0:2|1:2,0:0:0:0:
277,294,56636,2,0,P|232:292|188:308,2,89.9999999999999,10|2|10,0:2|0:2|0:2,0:0:0:0:
310,213,57454,5,0,1:0:0:0:
310,213,57590,2,0,P|312:173|321:142,1,45,0|8,0:0|0:2,0:0:0:0:
377,104,57999,2,0,P|399:115|431:118,2,45,0|0|8,1:0|1:0|0:2,0:0:0:0:
368,59,58408,2,0,B|324:43|324:43|269:51,1,89.9999999999999,4|0,1:3|1:0,0:0:0:0:
238,63,58817,1,8,0:2:0:0:
151,86,59090,1,0,1:0:0:0:
72,41,59363,2,0,P|36:54|20:56,1,45,8|0,0:2|1:2,0:2:0:0:
10,96,59636,6,0,L|17:193,1,89.9999999999999,12|0,0:2|1:0,0:0:0:0:
39,230,60045,1,12,0:2:0:0:
39,230,60181,2,0,L|43:287,1,45,0|0,1:0|1:0,0:0:0:0:
63,315,60454,1,12,0:2:0:0:
147,345,60727,2,0,P|179:340|196:339,1,45,0|12,1:0|0:2,0:0:0:0:
236,335,60999,1,0,1:0:0:0:
298,269,61272,2,0,L|344:277,1,45,4|8,0:3|0:2,0:0:0:0:
381,255,61545,2,0,L|427:263,1,45,8|8,0:2|0:2,0:0:0:0:
471,266,61817,6,0,P|486:215|475:161,1,89.9999999999999,6|10,1:2|0:2,0:0:0:0:
468,135,62227,1,2,0:2:0:0:
409,66,62499,1,2,0:2:0:0:
320,84,62772,2,0,B|266:100|266:100|215:82,1,89.9999999999999,2|2,0:2|0:2,0:0:0:0:
150,55,63317,2,0,B|96:39|96:39|45:57,1,89.9999999999999,2|2,0:2|0:2,0:0:0:0:
37,87,63727,1,8,0:2:0:0:
37,87,63863,6,0,L|44:179,1,89.9999999999999,2|0,0:2|0:0,0:0:0:0:
87,256,64408,2,0,L|93:345,1,89.9999999999999,2|0,0:2|0:0,0:0:0:0:
128,375,64817,1,10,0:2:0:0:
217,382,65090,1,0,1:0:0:0:
295,337,65363,2,0,L|392:344,2,89.9999999999999,10|2|10,0:2|1:2|0:2,0:0:0:0:
227,277,66181,5,0,1:2:0:0:
227,277,66317,2,0,P|236:217|225:164,1,89.9999999999999,2|0,0:2|0:0,0:0:0:0:
212,147,66727,1,2,1:2:0:0:
250,68,66999,1,8,0:2:0:0:
250,68,67136,2,0,P|300:87|360:90,1,89.9999999999999,2|0,0:2|0:0,0:0:0:0:
374,67,67545,1,10,0:2:0:0:
460,90,67817,1,2,1:2:0:0:
497,171,68090,1,10,0:2:0:0:
451,248,68363,6,0,L|460:352,2,89.9999999999999,2|10|2,1:2|0:2|1:2,0:0:0:0:
380,192,69181,2,0,P|332:187|291:200,1,89.9999999999999,10|0,0:2|1:0,0:0:0:0:
224,258,69727,1,10,0:2:0:0:
148,209,69999,2,0,L|137:151,1,45,0|8,1:0|0:2,0:0:0:0:
149,120,70272,2,0,L|138:62,1,45,0|8,1:0|0:2,0:0:0:0:
163,35,70545,6,0,P|203:16|247:17,1,89.9999999999999,6|10,1:2|0:2,0:0:0:0:
284,43,70954,1,2,0:2:0:0:
370,19,71227,1,2,0:2:0:0:
448,63,71499,2,0,B|445:160,1,89.9999999999999,2|2,0:2|0:2,0:0:0:0:
388,223,72045,2,0,B|385:320,1,89.9999999999999,2|2,0:2|0:2,0:0:0:0:
351,341,72454,1,8,0:2:0:0:
351,341,72590,6,0,P|307:325|242:329,1,89.9999999999999,2|0,0:2|0:0,0:0:0:0:
183,364,73136,2,0,P|138:362|96:347,1,89.9999999999999,2|0,0:2|0:0,0:0:0:0:
55,326,73545,1,10,0:2:0:0:
14,245,73817,1,0,1:0:0:0:
47,161,74090,2,0,L|58:62,2,89.9999999999999,10|2|10,0:2|1:2|0:2,0:0:0:0:
123,219,74908,5,4,1:2:0:0:
123,219,75045,2,0,P|155:210|186:210,1,45,0|8,0:0|0:2,0:0:0:0:
243,255,75454,2,0,L|235:313,2,45,0|0|8,1:0|1:0|0:2,0:0:0:0:
285,239,75863,2,0,P|296:196|286:136,1,89.9999999999999,4|0,1:3|0:0,0:0:0:0:
267,112,76272,1,8,0:2:0:0:
329,47,76545,1,0,1:0:0:0:
418,50,76817,1,8,0:2:0:0:
492,100,77090,6,0,L|501:203,2,89.9999999999999,0|8|0,1:0|0:2|1:0,0:0:0:0:
421,44,77908,1,8,0:2:0:0:
421,44,78045,2,0,P|372:61|312:56,1,89.9999999999999,0|0,1:0|1:0,0:0:0:0:
292,44,78454,1,8,0:2:0:0:
203,25,78727,1,8,0:3:0:0:
127,73,78999,2,0,P|133:106|135:132,1,45,8|8,0:2|0:2,0:0:0:0:
111,156,79272,6,0,P|89:221|90:269,1,89.9999999999999,2|10,1:2|0:2,0:0:0:0:
86,287,79681,2,0,B|131:277|131:277|176:290,1,89.9999999999999,2|0,1:2|1:0,0:0:0:0:
233,356,80227,1,0,0:0:0:0:
321,371,80499,1,0,1:0:0:0:
409,343,80772,1,2,1:2:0:0:
409,343,80908,2,0,L|404:263,1,45,2|0,0:2|1:0,0:0:0:0:
428,258,81181,2,0,L|423:178,1,45,10|0,0:2|0:0,0:0:0:0:
408,171,81454,6,0,P|414:109|403:76,1,89.9999999999999,2|10,1:2|0:2,0:0:0:0:
370,55,81863,2,0,L|271:72,1,89.9999999999999,2|0,1:2|1:0,0:0:0:0:
191,65,82408,1,0,0:0:0:0:
110,25,82681,1,0,1:0:0:0:
32,68,82954,1,2,1:2:0:0:
32,68,83090,2,0,P|22:118|28:139,1,45,2|0,0:2|1:0,0:0:0:0:
39,152,83363,2,0,P|36:174|28:195,1,45,10|0,0:2|1:0,0:0:0:0:
2,231,83636,6,0,L|6:332,1,89.9999999999999,4|8,1:2|0:2,0:0:0:0:
27,360,84045,1,2,1:3:0:0:
114,381,84317,1,2,1:3:0:0:
183,324,84590,1,2,1:3:0:0:
271,341,84863,1,2,1:3:0:0:
335,278,85136,2,0,P|340:233|332:189,1,89.9999999999999,2|2,1:3|1:3,0:0:0:0:
297,160,85545,2,0,P|294:137|297:115,1,45,8|0,0:2|1:0,0:0:0:0:
319,77,85817,6,0,B|363:88|363:88|406:76,1,89.9999999999999,0|8,1:0|0:2,0:0:0:0:
450,66,86227,1,2,1:3:0:0:
488,146,86499,1,2,1:3:0:0:
446,225,86772,1,2,1:3:0:0:
472,311,87045,1,2,1:3:0:0:
395,357,87317,2,0,P|370:352|330:349,1,45,2|0,1:3|1:0,0:0:0:0:
314,323,87590,6,0,B|198:327|268:205|122:228,1,225,4|0,0:2|0:0,0:0:0:0:
