osu file format v14

[General]
AudioFilename: audio.mp3
AudioLeadIn: 0
PreviewTime: 44515
Countdown: 0
SampleSet: Drum
StackLeniency: 0.4
Mode: 0
LetterboxInBreaks: 0
WidescreenStoryboard: 1

[Editor]
Bookmarks: 1765,9674,27129,35856,40220,44583,62038,66402,83856,92583,110038,125311,127493,134038,136757,154211,167302,171666,186938,189120,197847,206575,226075
DistanceSpacing: 0.3
BeatDivisor: 4
GridSize: 4
TimelineZoom: 3.499999

[Metadata]
Title:ROB THE FRONTIER
TitleUnicode:ROB THE FRONTIER
Artist:UVERworld
ArtistUnicode:UVERworld
Creator:Crissa
Version:Insane
Source:七つの大罪 神々の逆鱗
Tags:nanatsu no taizai kamigami no gekirin the seven deadly sins anime japanese op opening full ver version [-crissaegrim-]
BeatmapID:2234166
BeatmapSetID:1067110

[Difficulty]
HPDrainRate:5
CircleSize:4
OverallDifficulty:8
ApproachRate:9
SliderMultiplier:1.2
SliderTickRate:1

[Events]
//Background and Video events
0,0,"bg1.jpg",0,0
//Break Periods
2,127765,131719
//Storyboard Layer 0 (Background)
//Storyboard Layer 1 (Fail)
//Storyboard Layer 2 (Pass)
//Storyboard Layer 3 (Foreground)
//Storyboard Layer 4 (Overlay)
//Storyboard Sound Samples

[TimingPoints]
947,272.727272727273,4,3,60,60,1,0
947,-100,4,3,60,60,0,0
2719,-71.4285714285714,4,3,60,60,0,0
9674,-62.5,4,3,60,80,0,0
27128,-71.4285714285714,4,3,60,70,0,0
35037,-62.5,4,3,60,70,0,0
35856,-55.5555555555556,4,3,60,80,0,0
40219,-71.4285714285714,4,3,60,75,0,0
42401,-66.6666666666667,4,3,60,70,0,0
44037,-200,4,3,60,60,0,0
44583,-55.5555555555556,4,3,60,90,0,1
62106,-100,4,3,60,20,0,0
65037,-100,4,3,60,60,0,0
66401,-71.4285714285714,4,3,60,80,0,0
83856,-71.4285714285714,4,3,60,70,0,0
88219,-62.5,4,3,60,75,0,0
90401,-55.5555555555556,4,3,60,80,0,0
91492,-55.5555555555556,4,3,60,80,0,0
91765,-66.6666666666667,4,3,60,80,0,0
92583,-55.5555555555556,4,3,60,90,0,1
107856,-50,4,3,60,80,0,0
108265,-66.6666666666667,4,3,60,80,0,0
108674,-50,4,3,60,80,0,0
109492,-62.5,4,3,60,80,0,0
110037,-55.5555555555556,4,3,60,90,0,1
123674,-55.5555555555556,4,3,60,90,0,1
124083,-50,4,3,60,90,0,1
125310,-100,4,3,60,70,0,0
126947,-125,4,3,60,80,0,0
134037,-50,4,3,60,80,0,0
134598,307.692307692308,4,3,60,75,1,0
134598,-50,4,3,60,75,0,0
135213,400,4,3,60,70,1,0
135213,-62.5,4,3,60,70,0,0
135479,500,4,3,60,65,1,0
135479,-71.4285714285714,4,3,60,65,0,0
135812,800,4,3,60,60,1,0
135812,-83.3333333333333,4,3,60,60,0,0
136212,272.727272727273,4,3,20,70,1,0
136757,272.727272727273,4,3,65,80,1,0
136757,-66.6666666666667,4,3,65,80,0,0
140575,-166.666666666667,4,3,65,80,0,0
141120,-66.6666666666667,4,3,65,80,0,0
153666,-66.6666666666667,4,3,65,80,0,0
154211,-100,4,3,60,50,0,0
167029,-166.666666666667,4,3,60,60,0,0
167302,-62.5,4,3,60,80,0,0
171666,-55.5555555555556,4,3,60,90,0,1
186938,-71.4285714285714,4,3,60,80,0,0
188029,-62.5,4,3,60,80,0,0
188575,-83.3333333333333,4,3,60,80,0,0
189120,-100,4,3,60,70,0,0
195666,-66.6666666666667,4,3,60,70,0,0
197847,-62.5,4,3,60,80,0,0
206575,-55.5555555555556,4,3,60,90,0,1
215302,-62.5,4,3,60,90,0,1
219666,-55.5555555555556,4,3,60,90,0,1
225666,-43.4782608695652,4,3,60,90,0,1
226075,-100,4,3,60,80,0,0

[Colours]
Combo1 : 201,155,139
Combo2 : 255,201,128
Combo3 : 255,128,128
Combo4 : 247,223,115
Combo5 : 227,155,155
Combo6 : 239,204,165

[HitObjects]
102,246,947,5,2,2:0:0:0:
176,207,1083,1,2,2:0:0:0:
246,251,1219,1,2,2:0:0:0:
242,333,1356,2,0,P|279:286|242:233,1,120,2|0,2:0|2:0,0:0:0:0:
34,284,1765,5,2,2:0:0:0:
16,202,1901,1,2,2:0:0:0:
54,127,2037,1,2,2:0:0:0:
131,93,2174,2,0,P|64:90|36:141,1,120,2|0,2:0|2:0,0:0:0:0:
133,231,2583,5,8,0:2:0:0:
185,164,2719,2,0,P|254:147|322:206,1,167.999994873047,12|0,0:1|0:0,0:0:0:0:
389,331,3128,6,0,L|405:142,1,167.999994873047,12|0,0:1|0:0,0:0:0:0:
490,136,3537,2,0,L|301:119,1,167.999994873047,12|0,0:1|0:0,0:0:0:0:
295,35,3947,2,0,L|278:223,1,167.999994873047,12|0,0:1|0:0,0:0:0:0:
194,230,4356,2,0,L|382:246,1,167.999994873047,12|0,0:1|0:0,0:0:0:0:
267,329,4765,1,8,0:3:0:0:
267,329,4901,1,8,0:3:0:0:
308,147,5037,2,0,L|195:156,1,83.9999974365235,4|4,0:0|0:0,0:0:0:0:
139,256,5310,5,8,0:2:0:0:
126,253,5378,1,8,0:2:0:0:
113,250,5447,1,8,0:2:0:0:
100,247,5515,1,8,0:2:0:0:
87,244,5583,1,8,0:2:0:0:
40,146,5719,1,12,0:1:0:0:
256,30,6128,5,8,0:2:0:0:
258,42,6197,1,8,0:2:0:0:
260,54,6265,1,8,0:2:0:0:
261,66,6333,1,8,0:2:0:0:
263,78,6401,1,8,0:2:0:0:
180,148,6537,1,12,0:1:0:0:
376,322,6947,5,8,0:2:0:0:
289,364,7083,2,0,P|279:315|365:226,1,167.999994873047,12|8,0:1|0:1,0:0:0:0:
511,150,7492,5,8,0:2:0:0:
511,150,7628,2,0,P|468:177|433:187,1,83.9999974365235,8|8,0:1|0:1,0:0:0:0:
348,229,7901,5,8,0:2:0:0:
348,229,8037,2,0,P|346:178|354:142,1,83.9999974365235,8|8,0:1|0:1,0:0:0:0:
361,48,8311,5,8,0:2:0:0:
361,48,8447,2,0,P|405:71|432:97,1,83.9999974365235,8|8,0:1|0:1,0:0:0:0:
401,296,8719,2,0,P|328:312|262:235,1,167.999994873047,8|0,0:2|0:0,0:0:0:0:
248,86,9128,6,0,P|274:100|310:102,2,55.9999982910157,8|8|8,3:0|3:0|3:0,0:0:0:0:
196,30,9401,1,4,3:0:0:0:
151,31,9492,1,4,3:0:0:0:
126,62,9583,1,4,3:0:0:0:
128,94,9674,6,0,P|146:165|159:240,1,144,12|0,0:1|0:0,0:0:0:0:
173,247,9947,2,0,P|158:296|145:346,1,96,10|0,0:2|0:0,0:0:0:0:
292,258,10219,2,0,P|279:211|265:165,1,96,2|8,0:0|0:1,0:0:0:0:
128,94,10492,2,0,P|183:99|239:47,1,128,10|2,0:2|0:0,0:0:0:0:
251,17,10765,5,10,0:1:0:0:
86,30,10901,2,0,P|115:94|127:124,1,96,2|8,0:0|0:2,0:0:0:0:
4,260,11174,2,0,P|22:215|42:172,1,96,10|0,0:1|0:0,0:0:0:0:
218,147,11447,2,0,P|275:187|300:207,1,96,10|8,0:1|0:2,0:0:0:0:
378,341,11719,6,0,P|422:301|457:275,1,96,2|8,0:0|0:1,0:0:0:0:
429,152,11992,2,0,P|417:94|412:50,1,96,2|8,0:0|0:2,0:0:0:0:
307,0,12265,2,0,P|300:47|290:94,1,96,10|0,0:1|0:0,0:0:0:0:
184,144,12537,1,8,0:1:0:0:
110,56,12674,6,0,P|54:56|53:179,1,192,10|8,0:2|0:1,0:0:0:0:
112,235,13083,2,0,P|136:287|153:335,1,96,8|8,0:1|0:2,0:0:0:0:
259,244,13356,1,8,0:1:0:0:
259,244,13492,2,0,P|275:199|296:155,1,96,0|8,0:1|0:1,0:0:0:0:
228,43,13765,1,8,0:2:0:0:
467,30,14037,6,0,P|405:48|404:142,1,144,12|0,0:1|0:0,0:0:0:0:
396,135,14310,2,0,P|409:186|411:238,1,96,10|0,0:2|0:0,0:0:0:0:
289,254,14583,2,0,P|276:305|274:357,1,96,2|8,0:0|0:1,0:0:0:0:
188,234,14856,2,0,P|207:189|289:148,1,128,10|2,0:2|0:0,0:0:0:0:
308,149,15128,6,0,P|357:117|273:22,1,192,10|10,0:1|0:2,0:0:0:0:
195,78,15537,2,0,P|148:88|99:97,1,96,10|0,0:1|0:0,0:0:0:0:
10,187,15810,2,0,P|57:197|106:206,1,96,10|8,0:1|0:2,0:0:0:0:
256,179,16083,6,0,P|211:214|184:251,1,96,2|8,0:0|0:1,0:0:0:0:
281,292,16356,2,0,P|288:348|307:390,1,96,2|8,0:0|0:2,0:0:0:0:
391,326,16628,2,0,P|443:347|460:231,1,192,10|8,0:1|0:1,0:0:0:0:
374,212,17037,2,0,P|379:125|465:133,1,192,8|8,0:2|0:1,0:0:0:0:
482,247,17447,5,8,0:1:0:0:
482,247,17583,1,8,0:2:0:0:
391,326,17719,2,0,P|303:311|181:299,1,192,8|0,0:1|0:0,0:0:0:0:
69,311,18128,2,0,P|101:267|65:138,1,192,8|12,0:2|0:1,0:0:0:0:
225,6,18674,6,0,P|282:27|294:124,1,144,10|0,0:2|0:0,0:0:0:0:
294,119,18947,2,0,P|278:171|271:219,1,96,2|8,0:1|0:1,0:0:0:0:
210,324,19219,2,0,P|185:242|131:227,1,128,10|2,0:2|0:0,0:0:0:0:
113,231,19492,6,0,P|54:226|5:208,1,96,10|0,0:1|0:0,0:0:0:0:
93,109,19765,2,0,P|138:95|186:92,1,96,10|0,0:2|0:0,0:0:0:0:
312,134,20037,1,2,0:0:0:0:
374,71,20174,2,0,P|431:59|479:61,1,96,10|8,0:1|0:2,0:0:0:0:
511,172,20447,6,0,P|466:214|440:249,1,96,2|8,0:0|0:1,0:0:0:0:
370,348,20719,2,0,P|339:310|304:278,1,96,2|8,0:0|0:2,0:0:0:0:
189,233,20992,2,0,P|196:185|211:140,1,96,10|0,0:1|0:0,0:0:0:0:
268,61,21265,1,10,0:1:0:0:
155,0,21401,6,0,P|91:13|79:142,1,192,10|8,0:2|0:1,0:0:0:0:
131,191,21810,2,0,P|157:242|172:301,1,96,8|8,0:1|0:2,0:0:0:0:
158,378,22083,2,0,P|180:313|293:267,1,192,8|8,0:1|0:1,0:0:0:0:
403,304,22492,1,8,0:2:0:0:
464,80,22765,6,0,P|408:127|286:89,1,192,12|10,0:1|0:2,0:0:0:0:
252,21,23174,1,10,0:1:0:0:
176,125,23310,1,2,0:0:0:0:
176,125,23447,2,0,P|168:167|164:221,1,96,10|8,0:1|0:2,0:0:0:0:
259,349,23719,6,0,P|255:301|247:253,1,96,2|8,0:0|0:1,0:0:0:0:
357,200,23992,2,0,P|378:156|394:111,1,96,2|8,0:0|0:2,0:0:0:0:
475,11,24265,2,0,P|491:56|512:99,1,96,10|0,0:1|0:0,0:0:0:0:
450,209,24537,2,0,P|433:253|421:300,1,96,10|8,0:1|0:2,0:0:0:0:
319,370,24810,6,0,P|274:350|225:339,1,96,2|8,0:0|0:1,0:0:0:0:
125,265,25083,2,0,P|171:254|215:234,1,96,2|8,0:0|0:2,0:0:0:0:
311,101,25356,2,0,P|255:132|268:37,1,192,10|10,0:1|0:1,0:0:0:0:
349,15,25765,2,0,L|326:230,1,192,8|12,0:2|0:1,0:0:0:0:
346,291,26174,6,0,L|358:176,1,96,10|8,0:2|0:2,0:0:0:0:
259,314,26447,2,0,L|231:202,1,96,10|0,0:1|0:0,0:0:0:0:
185,365,26719,2,0,L|75:202,1,192,10|4,0:0|0:0,0:0:0:0:
163,116,27128,6,0,P|206:124|239:81,1,83.9999974365235,12|2,0:1|0:2,0:0:0:0:
261,16,27401,2,0,P|292:-9|332:0,1,83.9999974365235,10|2,0:2|0:2,0:0:0:0:
381,72,27674,2,0,P|414:100|464:79,1,83.9999974365235,2|10,0:2|0:1,0:0:0:0:
508,18,27947,1,8,0:2:0:0:
512,229,28219,6,0,L|333:199,1,167.999994873047,8|8,0:1|0:2,0:0:0:0:
260,251,28628,1,2,0:2:0:0:
260,251,28765,2,0,P|243:208|207:195,1,83.9999974365235,2|2,0:2|0:2,0:0:0:0:
121,192,29037,2,0,P|83:174|71:135,1,83.9999974365235,10|2,0:2|0:2,0:0:0:0:
140,26,29310,5,10,0:1:0:0:
140,26,29447,2,0,L|224:41,1,83.9999974365235,10|8,0:1|0:2,0:0:0:0:
268,122,29719,2,0,L|352:107,1,83.9999974365235,2|0,0:1|0:0,0:0:0:0:
396,26,29992,2,0,L|480:41,1,83.9999974365235,10|8,0:1|0:2,0:0:0:0:
476,190,30265,6,0,L|498:288,1,83.9999974365235,2|8,0:0|0:1,0:0:0:0:
393,255,30537,2,0,L|295:277,1,83.9999974365235,2|8,0:0|0:2,0:0:0:0:
327,172,30810,1,2,0:2:0:0:
327,172,30947,2,0,L|305:74,1,83.9999974365235,2|10,0:2|0:1,0:0:0:0:
284,0,31219,1,8,0:2:0:0:
46,38,31492,6,0,P|59:84|100:93,1,83.9999974365235,12|2,0:1|0:2,0:0:0:0:
181,102,31765,2,0,P|217:118|224:158,1,83.9999974365235,10|2,0:2|0:2,0:0:0:0:
171,238,32037,2,0,P|159:284|190:312,1,83.9999974365235,2|10,0:2|0:1,0:0:0:0:
270,340,32310,1,8,0:2:0:0:
420,213,32583,6,0,P|424:155|324:118,1,167.999994873047,8|8,0:1|0:2,0:0:0:0:
250,159,32992,1,2,0:2:0:0:
250,159,33128,2,0,P|200:153|185:120,1,83.9999974365235,2|10,0:2|0:1,0:0:0:0:
184,33,33401,2,0,P|160:0|119:0,1,83.9999974365235,10|2,0:2|0:2,0:0:0:0:
23,77,33674,6,0,P|59:171|98:248,1,167.999994873047,8|10,0:1|0:2,0:0:0:0:
184,313,34083,2,0,P|220:237|249:158,1,167.999994873047,2|8,0:0|0:1,0:0:0:0:
217,16,34492,2,0,P|226:53|284:72,1,83.9999974365235,14|0,0:2|0:0,0:0:0:0:
396,26,34765,6,0,P|362:101|348:145,1,125.999996154785,8|0,0:1|0:0,0:0:0:0:
361,158,35037,2,0,P|354:216|353:268,1,96,8|0,0:2|0:0,0:0:0:0:
231,220,35310,2,0,P|253:273|279:319,1,96,8|0,0:2|0:0,0:0:0:0:
150,307,35583,1,8,0:2:0:0:
150,307,35719,1,8,0:2:0:0:
62,384,35856,6,0,P|54:343|18:271,1,107.999996704102,12|8,0:1|0:1,0:0:0:0:
0,144,36128,2,0,P|48:176|95:61,1,215.999993408203,8|2,0:2|0:0,0:0:0:0:
11,46,36537,1,8,0:1:0:0:
117,77,36674,2,0,L|334:56,1,215.999993408203,8|10,0:2|0:1,0:0:0:0:
404,111,37083,5,8,0:1:0:0:
285,174,37219,1,8,0:2:0:0:
285,174,37356,2,0,P|256:237|376:264,1,215.999993408203,8|8,0:1|0:1,0:0:0:0:
384,178,37765,2,0,L|363:30,1,143.999995605469,8|2,0:2|0:0,0:0:0:0:
328,11,38037,5,10,0:1:0:0:
328,11,38174,2,0,P|272:58|224:52,1,107.999996704102,10|8,0:1|0:2,0:0:0:0:
242,149,38447,2,0,P|173:124|154:79,1,107.999996704102,2|0,0:0|0:0,0:0:0:0:
43,15,38719,2,0,P|74:88|84:127,1,107.999996704102,10|8,0:1|0:2,0:0:0:0:
166,176,38992,2,0,P|135:249|125:288,1,107.999996704102,2|8,0:0|0:1,0:0:0:0:
0,363,39265,6,0,P|49:337|103:344,1,107.999996704102,10|8,0:1|0:2,0:0:0:0:
187,377,39537,2,0,P|239:382|286:356,1,107.999996704102,10|0,0:1|0:0,0:0:0:0:
327,273,39810,2,0,L|309:138,1,107.999996704102,10|8,0:1|0:2,0:0:0:0:
295,69,40083,1,0,0:0:0:0:
410,12,40219,5,12,0:1:0:0:
410,12,40356,2,0,P|439:52|428:100,2,83.9999974365235,10|0|10,0:1|0:0|0:1,0:0:0:0:
295,69,40765,1,8,0:2:0:0:
221,8,40901,1,2,0:0:0:0:
221,8,41037,2,0,L|127:15,1,83.9999974365235,12|0,0:1|0:2,0:0:0:0:
76,106,41310,6,0,P|67:73|53:49,2,55.9999982910157,8|8|8,0:0|0:0|0:0,0:0:0:0:
155,144,41583,2,0,P|146:177|132:201,2,55.9999982910157,8|8|8,0:0|0:0|0:0,0:0:0:0:
230,96,41856,2,0,P|238:62|238:35,2,55.9999982910157,4|4|4,0:0|0:0|0:0,0:0:0:0:
287,165,42128,1,4,0:0:0:0:
309,162,42219,1,4,0:0:0:0:
331,159,42310,1,4,0:0:0:0:
354,155,42401,5,4,0:1:0:0:
77,183,44037,5,2,2:0:0:0:
77,183,44174,2,0,P|111:199|125:217,1,60,2|0,2:0|2:0,0:0:0:0:
157,306,44583,5,12,0:1:0:0:
223,235,44719,2,0,P|273:216|341:214,1,107.999996704102,2|10,0:0|0:2,0:0:0:0:
436,285,44992,2,0,L|411:115,1,161.999995056153,10|0,0:1|0:0,0:0:0:0:
399,114,45265,2,0,L|381:-8,1,107.999996704102,10|8,0:1|0:2,0:0:0:0:
304,74,45537,2,0,P|253:88|188:76,1,107.999996704102,2|8,0:0|0:1,0:0:0:0:
76,37,45810,6,0,P|119:87|127:134,1,107.999996704102,10|8,0:1|0:2,0:0:0:0:
50,233,46083,2,0,P|63:284|101:322,1,107.999996704102,10|0,0:1|0:0,0:0:0:0:
204,329,46356,2,0,L|322:311,1,107.999996704102,10|8,0:1|0:2,0:0:0:0:
379,199,46628,6,0,P|337:167|259:180,1,107.999996704102,2|12,0:0|0:1,0:0:0:0:
173,242,46901,2,0,P|119:241|77:209,1,107.999996704102,2|8,0:0|0:2,0:0:0:0:
33,78,47174,2,0,P|109:71|206:175,1,215.999993408203,10|8,0:1|0:1,0:0:0:0:
210,322,47583,2,0,P|263:350|253:244,1,215.999993408203,10|8,0:2|0:1,0:0:0:0:
173,242,47992,5,8,0:1:0:0:
173,242,48128,2,0,B|151:203|151:203|162:130,1,107.999996704102,10|0,0:2|0:0,0:0:0:0:
251,162,48401,2,0,B|273:123|273:123|342:96,1,107.999996704102,2|8,0:0|0:1,0:0:0:0:
359,189,48674,2,0,B|403:189|403:189|461:235,1,107.999996704102,10|0,0:2|0:0,0:0:0:0:
389,296,48947,5,12,0:1:0:0:
389,296,49083,2,0,P|309:287|169:264,1,215.999993408203,2|0,0:1|0:0,0:0:0:0:
80,218,49492,2,0,P|114:175|139:275,1,215.999993408203,0|8,0:2|0:2,0:0:0:0:
19,276,49901,2,0,P|2:208|98:98,1,215.999993408203,2|8,0:2|0:1,0:0:0:0:
190,111,50310,2,0,L|361:101,1,161.999995056153,10|0,0:2|0:0,0:0:0:0:
363,90,50583,2,0,L|499:82,1,107.999996704102,10|8,0:1|0:1,0:0:0:0:
512,198,50856,2,0,L|375:206,1,107.999996704102,10|0,0:2|0:0,0:0:0:0:
259,283,51128,6,0,P|214:244|313:187,2,215.999993408203,12|10|10,0:1|0:2|0:1,0:0:0:0:
357,268,51810,1,8,0:1:0:0:
269,365,51947,2,0,P|177:329|129:223,1,215.999993408203,10|8,0:2|0:1,0:0:0:0:
141,132,52356,1,8,0:1:0:0:
263,182,52492,2,0,P|336:174|387:166,1,107.999996704102,10|8,0:2|0:1,0:0:0:0:
432,63,52765,2,0,P|378:55|324:49,2,107.999996704102,2|10|8,0:0|0:1|0:2,0:0:0:0:
503,277,53310,5,12,0:1:0:0:
503,277,53447,2,0,P|448:247|404:263,1,107.999996704102,2|8,0:0|0:2,0:0:0:0:
324,355,53719,2,0,P|272:367|218:281,1,161.999995056153,2|0,0:1|0:0,0:0:0:0:
221,272,53992,2,0,P|213:215|165:186,1,107.999996704102,10|8,0:1|0:2,0:0:0:0:
74,191,54265,2,0,P|32:158|27:106,1,107.999996704102,2|8,0:0|0:1,0:0:0:0:
85,26,54537,5,10,0:1:0:0:
190,85,54674,1,8,0:2:0:0:
190,85,54810,2,0,L|313:79,1,107.999996704102,2|0,0:0|0:1,0:0:0:0:
368,13,55083,2,0,L|491:19,1,107.999996704102,10|8,0:1|0:2,0:0:0:0:
502,140,55356,6,0,P|447:142|408:185,1,107.999996704102,2|12,0:0|0:1,0:0:0:0:
379,276,55628,2,0,P|340:312|288:313,1,107.999996704102,2|8,0:0|0:2,0:0:0:0:
155,254,55901,2,0,P|189:199|332:212,1,215.999993408203,10|8,0:1|0:1,0:0:0:0:
450,332,56310,2,0,P|455:271|490:114,1,215.999993408203,10|8,0:2|0:1,0:0:0:0:
416,43,56719,5,8,0:1:0:0:
416,43,56856,2,0,B|373:33|373:33|302:64,1,107.999996704102,10|0,0:2|0:0,0:0:0:0:
244,2,57128,2,0,B|213:34|213:34|205:111,1,107.999996704102,2|8,0:0|0:1,0:0:0:0:
122,130,57401,2,0,B|134:172|134:172|197:218,1,107.999996704102,10|0,0:2|0:0,0:0:0:0:
272,249,57674,5,12,0:1:0:0:
365,162,57810,2,0,P|430:149|453:277,1,215.999993408203,2|0,0:2|0:0,0:0:0:0:
391,329,58219,1,10,0:1:0:0:
391,329,58356,2,0,L|280:334,1,107.999996704102,8|8,0:1|0:2,0:0:0:0:
163,270,58628,6,0,P|225:246|154:136,1,215.999993408203,12|8,0:1|0:1,0:0:0:0:
91,99,59037,2,0,P|73:44|105:3,1,107.999996704102,10|0,0:2|0:0,0:0:0:0:
194,33,59310,2,0,P|243:33|313:22,1,107.999996704102,10|8,0:1|0:1,0:0:0:0:
396,0,59583,2,0,P|403:53|404:107,1,107.999996704102,10|0,0:2|0:0,0:0:0:0:
317,207,59856,6,0,P|238:198|210:284,1,161.999995056153,12|0,0:1|0:0,0:0:0:0:
205,278,60128,2,0,P|176:325|112:323,1,107.999996704102,10|0,0:2|0:0,0:0:0:0:
62,260,60401,1,10,0:1:0:0:
62,260,60537,2,0,L|80:141,1,107.999996704102,8|10,0:1|0:2,0:0:0:0:
172,64,60810,2,0,L|204:277,1,215.999993408203,12|8,0:1|0:1,0:0:0:0:
277,368,61219,6,0,P|324:297|300:221,1,161.999995056153,10|0,0:2|0:0,0:0:0:0:
294,215,61492,2,0,P|285:156|322:120,1,107.999996704102,6|0,0:0|0:0,0:0:0:0:
446,86,61765,1,8,0:2:0:0:
446,86,61901,1,8,0:2:0:0:
415,216,62037,5,12,0:1:0:0:
256,192,62106,12,0,65037,0:0:0:0:
180,66,65310,6,0,L|192:93,1,20,8|8,0:0|0:0,0:0:0:0:
260,112,65447,2,0,P|212:105|196:181,1,120,8|8,0:0|0:1,0:0:0:0:
218,293,65856,1,8,0:2:0:0:
218,293,66128,1,8,0:2:0:0:
236,290,66197,1,8,0:2:0:0:
253,287,66265,1,8,0:2:0:0:
270,284,66333,1,8,0:2:0:0:
287,281,66401,6,0,P|319:242|296:164,1,125.999996154785,12|0,0:1|0:0,0:0:0:0:
294,165,66674,2,0,P|277:106|303:63,1,83.9999974365235,10|0,0:2|0:0,0:0:0:0:
359,17,66947,1,2,0:2:0:0:
489,157,67219,1,10,0:2:0:0:
432,339,67492,5,10,0:1:0:0:
245,380,67765,2,0,P|224:326|272:271,1,125.999996154785,10|0,0:2|0:0,0:0:0:0:
273,273,68037,1,2,0:2:0:0:
336,201,68174,2,0,P|331:152|295:125,1,83.9999974365235,10|8,0:1|0:2,0:0:0:0:
187,196,68447,6,0,P|109:185|90:145,1,125.999996154785,2|0,0:0|0:0,0:0:0:0:
92,136,68719,2,0,L|106:49,1,83.9999974365235,2|8,0:1|0:2,0:0:0:0:
202,11,68992,1,10,0:1:0:0:
202,11,69128,2,0,L|215:93,1,83.9999974365235,0|8,0:0|0:1,0:0:0:0:
292,210,69401,6,0,P|289:155|395:125,1,167.999994873047,10|8,0:2|0:1,0:0:0:0:
463,165,69810,1,8,0:1:0:0:
420,293,69947,1,8,0:2:0:0:
420,293,70083,2,0,L|245:306,1,167.999994873047,8|0,0:1|0:0,0:0:0:0:
145,378,70492,1,8,0:2:0:0:
145,378,70765,6,0,P|115:331|148:270,1,125.999996154785,8|0,0:1|0:0,0:0:0:0:
155,269,71037,2,0,P|183:227|176:191,1,83.9999974365235,10|0,0:2|0:0,0:0:0:0:
110,124,71310,2,0,P|132:169|167:181,1,83.9999974365235,2|8,0:0|0:1,0:0:0:0:
258,157,71583,2,0,P|207:153|179:177,1,83.9999974365235,10|0,0:2|0:0,0:0:0:0:
175,304,71856,6,0,P|241:328|319:271,1,167.999994873047,10|10,0:1|0:2,0:0:0:0:
353,190,72265,2,0,P|395:164|447:177,1,83.9999974365235,10|0,0:1|0:0,0:0:0:0:
499,229,72537,1,10,0:1:0:0:
420,336,72674,2,0,L|277:347,1,125.999996154785,10|0,0:2|0:0,0:0:0:0:
281,344,72947,5,8,0:1:0:0:
219,262,73083,1,8,0:1:0:0:
352,234,73219,2,0,L|214:255,1,125.999996154785,10|0,0:2|0:0,0:0:0:0:
219,262,73492,1,8,0:1:0:0:
175,134,73628,6,0,L|313:155,1,125.999996154785,10|0,0:2|0:0,0:0:0:0:
308,162,73901,1,8,0:1:0:0:
237,35,74037,6,0,L|99:56,1,125.999996154785,10|0,0:2|0:0,0:0:0:0:
105,63,74310,1,8,0:1:0:0:
48,135,74447,1,10,0:2:0:0:
121,190,74583,6,0,P|144:226|86:270,1,125.999996154785,10|0,0:1|0:0,0:0:0:0:
78,267,74856,2,0,P|26:294|47:348,1,125.999996154785,10|0,0:1|0:0,0:0:0:0:
58,352,75128,5,14,0:1:0:0:
216,324,75401,2,0,P|246:271|237:204,1,125.999996154785,10|0,0:2|0:0,0:0:0:0:
230,198,75674,2,0,P|215:142|231:94,1,83.9999974365235,0|8,0:0|0:1,0:0:0:0:
185,33,75947,2,0,P|241:18|289:34,1,83.9999974365235,10|2,0:2|0:0,0:0:0:0:
355,90,76219,5,10,0:1:0:0:
443,46,76356,2,0,L|462:145,1,83.9999974365235,10|8,0:1|0:2,0:0:0:0:
380,182,76628,2,0,L|361:281,1,83.9999974365235,10|0,0:1|0:0,0:0:0:0:
451,301,76901,2,0,L|470:400,1,83.9999974365235,10|8,0:1|0:2,0:0:0:0:
345,349,77174,6,0,P|273:344|206:373,1,125.999996154785,2|0,0:0|0:0,0:0:0:0:
213,369,77447,2,0,P|153:388|100:378,1,83.9999974365235,2|8,0:1|0:2,0:0:0:0:
51,327,77719,2,0,L|33:156,1,167.999994873047,10|10,0:1|0:1,0:0:0:0:
98,53,78128,6,0,P|169:63|166:159,1,167.999994873047,10|8,0:2|0:1,0:0:0:0:
109,208,78537,1,8,0:1:0:0:
109,208,78674,2,0,L|120:298,1,83.9999974365235,8|8,0:2|0:1,0:0:0:0:
224,375,78947,2,0,L|246:191,2,167.999994873047,0|8|8,0:0|0:2|0:1,0:0:0:0:
355,271,79765,6,0,L|371:137,1,125.999996154785,10|0,0:2|0:0,0:0:0:0:
378,136,80038,2,0,L|363:15,1,83.9999974365235,2|8,0:0|0:1,0:0:0:0:
250,15,80310,2,0,L|129:29,1,83.9999974365235,10|0,0:2|0:0,0:0:0:0:
94,97,80583,5,10,0:1:0:0:
94,97,80719,2,0,L|214:111,1,83.9999974365235,10|8,0:1|0:2,0:0:0:0:
251,173,80992,2,0,L|130:187,1,83.9999974365235,10|0,0:1|0:0,0:0:0:0:
109,259,81265,2,0,L|-11:244,1,83.9999974365235,10|8,0:1|0:2,0:0:0:0:
3,165,81537,6,0,L|123:179,1,83.9999974365235,2|8,0:0|0:1,0:0:0:0:
177,107,81810,1,10,0:1:0:0:
252,234,81947,2,0,P|261:188|278:143,2,83.9999974365235,8|2|8,0:2|0:0|0:1,0:0:0:0:
174,330,82356,2,0,P|165:284|148:239,2,83.9999974365235,8|0|8,0:2|0:0|0:1,0:0:0:0:
297,356,82765,6,0,L|395:346,1,83.9999974365235,8|10,0:2|0:2,0:0:0:0:
405,351,82969,1,8,0:2:0:0:
405,351,83037,1,8,0:2:0:0:
354,259,83174,1,10,0:2:0:0:
354,259,83310,2,0,P|360:216|386:179,1,83.9999974365235,8|10,0:0|0:0,0:0:0:0:
329,109,83583,2,0,P|369:92|414:96,1,83.9999974365235,4|6,0:0|0:0,0:0:0:0:
491,186,83856,5,12,0:1:0:0:
491,186,83992,2,0,L|507:91,2,83.9999974365235,0|0|8,0:1|0:1|0:1,0:0:0:0:
384,278,84401,1,8,0:2:0:0:
312,220,84537,2,0,L|296:125,1,83.9999974365235,8|0,0:1|0:0,0:0:0:0:
220,60,84810,6,0,L|206:142,1,83.9999974365235,8|0,0:1|0:0,0:0:0:0:
113,154,85083,2,0,L|99:236,2,83.9999974365235,8|0|8,0:1|0:0|0:1,0:0:0:0:
137,31,85492,1,8,0:2:0:0:
220,60,85628,2,0,L|338:41,1,83.9999974365235,8|0,0:1|0:0,0:0:0:0:
405,40,85901,1,2,0:0:0:0:
405,40,85969,1,2,0:0:0:0:
405,40,86037,5,10,0:1:0:0:
360,124,86174,2,0,L|376:208,1,83.9999974365235,10|0,0:1|0:0,0:0:0:0:
296,263,86447,2,0,L|280:347,1,83.9999974365235,10|8,0:1|0:2,0:0:0:0:
199,286,86719,2,0,L|115:270,1,83.9999974365235,10|0,0:1|0:0,0:0:0:0:
87,177,86992,6,0,L|3:161,1,83.9999974365235,10|0,0:1|0:0,0:0:0:0:
60,78,87265,2,0,L|144:62,1,83.9999974365235,10|0,0:1|0:0,0:0:0:0:
207,139,87537,1,10,0:1:0:0:
274,29,87674,2,0,L|358:13,1,83.9999974365235,10|0,0:2|0:0,0:0:0:0:
458,88,87947,1,8,0:2:0:0:
458,88,88083,1,10,0:2:0:0:
382,158,88219,5,12,0:1:0:0:
382,158,88356,2,0,P|356:225|417:329,1,192,8|8,0:1|0:1,0:0:0:0:
466,229,88765,2,0,L|272:258,1,192,8|10,0:2|0:2,0:0:0:0:
229,339,89174,2,0,P|184:274|226:178,1,192,12|0,0:1|0:0,0:0:0:0:
351,137,89583,2,0,P|382:103|388:48,1,96,8|0,0:2|0:0,0:0:0:0:
262,0,89856,2,0,P|230:33|224:88,1,96,8|0,0:2|0:0,0:0:0:0:
306,216,90128,1,8,0:2:0:0:
185,274,90265,1,8,0:2:0:0:
267,323,90401,5,12,0:1:0:0:
267,323,90537,2,0,L|278:203,1,107.999996704102,10|0,0:1|0:0,0:0:0:0:
172,138,90810,2,0,P|245:152|246:34,1,215.999993408203,2|10,0:0|0:1,0:0:0:0:
160,6,91219,2,0,L|45:17,1,107.999996704102,10|0,0:2|0:0,0:0:0:0:
64,127,91492,2,0,L|179:138,1,107.999996704102,2|0,0:0|0:0,0:0:0:0:
336,158,91765,5,8,0:0:0:0:
324,182,91833,1,8,0:0:0:0:
312,206,91901,1,8,0:0:0:0:
300,230,91969,1,8,0:0:0:0:
289,254,92037,2,0,L|297:306,3,45.0000017166138,8|8|8|8,0:0|0:0|0:0|0:0,0:0:0:0:
210,317,92310,2,0,L|203:361,3,45.0000017166138,4|4|4|4,0:0|0:0|0:0|0:0,0:0:0:0:
129,277,92583,6,0,P|107:201|218:130,1,215.999993408203,12|10,0:1|0:2,0:0:0:0:
327,168,92992,2,0,P|380:166|418:128,1,107.999996704102,10|0,0:1|0:0,0:0:0:0:
375,31,93265,2,0,P|321:32|283:70,1,107.999996704102,10|8,0:1|0:2,0:0:0:0:
204,127,93537,6,0,L|227:255,1,107.999996704102,2|8,0:0|0:1,0:0:0:0:
303,299,93810,1,10,0:1:0:0:
193,355,93947,1,8,0:2:0:0:
193,355,94083,2,0,P|136:339|81:331,1,107.999996704102,2|0,0:0|0:0,0:0:0:0:
14,254,94356,2,0,P|71:238|126:230,1,107.999996704102,10|8,0:1|0:2,0:0:0:0:
243,177,94628,6,0,P|181:144|168:95,1,107.999996704102,2|12,0:1|0:1,0:0:0:0:
254,18,94901,2,0,P|316:51|329:100,1,107.999996704102,2|8,0:0|0:2,0:0:0:0:
361,205,95174,2,0,P|440:223|457:89,1,215.999993408203,2|8,0:0|0:1,0:0:0:0:
328,83,95583,2,0,L|343:305,1,215.999993408203,10|8,0:2|0:1,0:0:0:0:
274,366,95992,1,8,0:1:0:0:
202,266,96128,6,0,B|147:258|147:258|93:292,1,107.999996704102,10|0,0:2|0:0,0:0:0:0:
47,215,96401,2,0,B|81:171|81:171|78:107,1,107.999996704102,2|8,0:0|0:1,0:0:0:0:
168,107,96674,2,0,B|188:158|188:158|245:188,1,107.999996704102,10|0,0:2|0:0,0:0:0:0:
324,212,96947,1,12,0:1:0:0:
395,108,97083,6,0,P|460:106|460:236,1,215.999993408203,2|8,0:0|0:1,0:0:0:0:
386,285,97492,2,0,L|156:270,1,215.999993408203,2|8,0:0|0:2,0:0:0:0:
61,329,97901,2,0,P|48:253|138:154,1,215.999993408203,2|8,0:0|0:1,0:0:0:0:
261,145,98310,2,0,P|300:91|302:41,1,107.999996704102,10|0,0:2|0:0,0:0:0:0:
184,0,98583,2,0,P|174:52|193:102,1,107.999996704102,2|8,0:0|0:1,0:0:0:0:
335,185,98856,2,0,P|277:167|226:256,1,161.999995056153,10|0,0:2|0:0,0:0:0:0:
225,254,99128,6,0,P|181:300|125:191,2,215.999993408203,12|10|2,0:1|0:2|0:0,0:0:0:0:
198,164,99810,1,8,0:1:0:0:
323,208,99947,6,0,P|378:160|331:35,1,215.999993408203,10|8,0:2|0:1,0:0:0:0:
252,0,100356,1,8,0:1:0:0:
186,99,100492,2,0,L|293:117,1,107.999996704102,10|0,0:2|0:0,0:0:0:0:
429,190,100765,2,0,L|322:207,2,107.999996704102,2|8|10,0:0|0:1|0:2,0:0:0:0:
254,373,101310,5,12,0:1:0:0:
254,373,101447,2,0,P|248:305|235:244,1,107.999996704102,2|8,0:0|0:2,0:0:0:0:
120,213,101719,2,0,P|185:211|189:112,1,161.999995056153,2|0,0:0|0:0,0:0:0:0:
196,113,101992,2,0,P|193:63|256:28,1,107.999996704102,10|8,0:1|0:2,0:0:0:0:
325,72,102265,2,0,L|439:65,1,107.999996704102,2|8,0:0|0:1,0:0:0:0:
397,203,102537,6,0,P|345:210|281:173,1,107.999996704102,10|8,0:1|0:2,0:0:0:0:
196,113,102810,2,0,P|147:91|94:98,1,107.999996704102,2|0,0:0|0:0,0:0:0:0:
14,164,103083,2,0,P|-7:212|0:265,1,107.999996704102,10|8,0:1|0:2,0:0:0:0:
94,359,103356,6,0,L|213:346,1,107.999996704102,2|12,0:0|0:1,0:0:0:0:
254,270,103628,2,0,L|373:283,1,107.999996704102,2|8,0:0|0:2,0:0:0:0:
452,375,103901,2,0,P|447:269|502:169,1,215.999993408203,2|8,0:0|0:1,0:0:0:0:
483,43,104310,2,0,P|417:101|271:101,1,215.999993408203,10|8,0:2|0:1,0:0:0:0:
207,70,104719,1,8,0:1:0:0:
122,171,104856,6,0,B|148:205|148:205|155:278,1,107.999996704102,10|0,0:2|0:0,0:0:0:0:
65,354,105128,2,0,B|81:314|81:314|141:271,1,107.999996704102,2|8,0:2|0:1,0:0:0:0:
252,312,105401,2,0,B|209:317|209:317|142:287,1,107.999996704102,10|0,0:2|0:0,0:0:0:0:
69,226,105674,5,12,0:1:0:0:
192,171,105810,2,0,P|209:101|88:29,1,215.999993408203,2|0,0:3|0:0,0:0:0:0:
10,139,106219,2,0,L|116:117,1,107.999996704102,10|8,0:1|0:1,0:0:0:0:
214,34,106492,1,8,0:2:0:0:
282,151,106628,6,0,P|359:158|391:17,1,215.999993408203,4|8,0:1|0:1,0:0:0:0:
326,74,107037,2,0,L|350:224,1,107.999996704102,10|0,0:2|0:0,0:0:0:0:
449,256,107310,1,10,0:1:0:0:
449,256,107447,1,8,0:1:0:0:
343,327,107583,2,0,L|211:312,1,107.999996704102,10|0,0:2|0:0,0:0:0:0:
99,195,107856,6,0,P|158:209|164:264,1,120,10|8,0:2|0:1,0:0:0:0:
113,331,108128,1,10,0:1:0:0:
14,235,108265,2,0,P|7:170|41:121,1,90.0000034332277,8|10,0:2|0:1,0:0:0:0:
79,79,108537,1,8,0:1:0:0:
176,177,108674,6,0,L|300:158,2,120,12|0|8,0:2|0:0|0:1,0:0:0:0:
64,252,109083,2,0,L|336:293,1,240,8|8,0:2|0:0,0:0:0:0:
381,356,109492,5,10,0:0:0:0:
381,356,109628,1,4,0:0:0:0:
443,246,109765,1,8,0:2:0:0:
443,246,109901,1,8,0:2:0:0:
351,154,110037,6,0,P|365:91|415:57,2,107.999996704102,12|2|10,0:1|0:0|0:2,0:0:0:0:
290,255,110447,2,0,P|228:274|173:248,1,107.999996704102,2|8,0:0|0:1,0:0:0:0:
102,174,110719,2,0,P|50:160|1:179,1,107.999996704102,2|8,0:0|0:2,0:0:0:0:
10,303,110992,2,0,P|61:316|110:297,1,107.999996704102,2|8,0:0|0:1,0:0:0:0:
185,180,111265,6,0,L|164:60,1,107.999996704102,2|8,0:0|0:2,0:0:0:0:
283,12,111537,2,0,L|264:118,1,107.999996704102,2|8,0:0|0:1,0:0:0:0:
379,180,111810,2,0,L|358:60,1,107.999996704102,2|8,0:0|0:2,0:0:0:0:
480,163,112083,6,0,L|449:284,1,107.999996704102,2|12,0:0|0:1,0:0:0:0:
356,280,112356,2,0,L|387:401,1,107.999996704102,2|8,0:0|0:2,0:0:0:0:
241,341,112628,2,0,P|222:258|327:177,1,215.999993408203,2|2,0:0|0:1,0:0:0:0:
448,211,113037,2,0,P|496:147|488:100,1,107.999996704102,8|0,0:2|0:0,0:0:0:0:
444,38,113310,1,8,0:1:0:0:
164,190,113583,6,0,P|139:138|158:74,1,107.999996704102,10|0,0:2|0:0,0:0:0:0:
230,130,113856,2,0,P|262:82|327:66,1,107.999996704102,10|0,0:1|0:0,0:0:0:0:
314,157,114128,2,0,P|371:161|417:209,1,107.999996704102,10|0,0:2|0:0,0:0:0:0:
332,243,114401,1,12,0:1:0:0:
233,224,114537,6,0,P|251:304|379:333,1,215.999993408203,2|0,0:0|0:0,0:0:0:0:
432,264,114947,2,0,P|414:184|286:155,1,215.999993408203,2|8,0:1|0:2,0:0:0:0:
158,259,115356,6,0,L|129:21,1,215.999993408203,2|0,0:0|0:0,0:0:0:0:
17,94,115765,2,0,L|3:201,1,107.999996704102,10|0,0:2|0:0,0:0:0:0:
68,277,116037,2,0,L|81:384,1,107.999996704102,10|0,0:1|0:0,0:0:0:0:
161,328,116310,2,0,L|174:220,1,107.999996704102,10|0,0:2|0:0,0:0:0:0:
276,178,116583,5,12,0:1:0:0:
171,40,116856,2,0,P|135:94|139:153,1,107.999996704102,8|0,0:2|0:0,0:0:0:0:
2,132,117128,2,0,P|31:190|84:216,1,107.999996704102,8|0,0:1|0:0,0:0:0:0:
5,296,117401,2,0,P|85:307|177:207,1,215.999993408203,10|8,0:2|0:1,0:0:0:0:
305,10,117947,2,0,P|255:73|296:203,1,215.999993408203,10|10,0:2|0:1,0:0:0:0:
384,234,118356,2,0,P|437:222|482:164,1,107.999996704102,8|0,0:2|0:2,0:0:0:0:
509,61,118628,1,8,0:2:0:0:
389,30,118765,5,12,0:1:0:0:
389,30,118901,2,0,L|386:157,1,107.999996704102,2|10,0:0|0:2,0:0:0:0:
287,196,119174,2,0,L|290:323,1,107.999996704102,2|8,0:0|0:1,0:0:0:0:
173,363,119447,2,0,L|175:255,1,107.999996704102,2|8,0:0|0:2,0:0:0:0:
193,162,119719,2,0,L|190:54,1,107.999996704102,2|8,0:0|0:1,0:0:0:0:
81,144,119992,6,0,P|126:180|177:173,1,107.999996704102,2|8,0:0|0:2,0:0:0:0:
273,95,120265,2,0,P|325:91|365:125,1,107.999996704102,2|8,0:0|0:1,0:0:0:0:
404,219,120537,2,0,P|455:228|499:199,1,107.999996704102,2|8,0:0|0:2,0:0:0:0:
365,125,120810,6,0,P|317:171|306:216,1,107.999996704102,2|12,0:0|0:1,0:0:0:0:
319,300,121083,2,0,P|301:350|260:384,1,107.999996704102,2|8,0:0|0:2,0:0:0:0:
148,347,121356,2,0,P|131:255|220:184,1,215.999993408203,2|0,0:0|0:1,0:0:0:0:
346,207,121765,2,0,P|389:174|402:116,1,107.999996704102,8|0,0:2|0:0,0:0:0:0:
365,25,122037,1,8,0:1:0:0:
105,151,122310,6,0,P|147:110|159:51,1,107.999996704102,10|0,0:2|0:0,0:0:0:0:
226,149,122583,2,0,P|282:166|339:146,1,107.999996704102,10|0,0:1|0:0,0:0:0:0:
288,252,122856,2,0,P|301:309|347:348,1,107.999996704102,10|0,0:2|0:0,0:0:0:0:
229,357,123128,5,12,0:1:0:0:
162,247,123265,2,0,L|210:29,1,215.999993408203,2|0,0:0|0:0,0:0:0:0:
287,139,123674,1,10,0:1:0:0:
287,139,123810,2,0,L|402:151,1,107.999996704102,8|8,0:1|0:2,0:0:0:0:
512,119,124083,6,0,P|458:114|435:258,1,240,12|8,0:1|0:0,0:0:0:0:
503,331,124492,2,0,P|450:358|374:335,1,120,10|8,0:2|0:1,0:0:0:0:
295,263,124765,2,0,P|236:253|184:279,1,120,10|8,0:0|0:0,0:0:0:0:
126,365,125037,2,0,P|86:313|84:250,1,120,6|4,0:0|0:0,0:0:0:0:
153,186,125310,5,12,0:1:0:0:
153,186,125447,2,0,P|144:127|79:123,1,120,8|8,0:1|0:1,0:0:0:0:
9,121,125856,2,0,L|77:128,1,60,10|8,0:2|0:1,0:0:0:0:
132,42,126128,2,0,L|200:35,1,60,10|8,0:1|0:1,0:0:0:0:
267,115,126401,5,0,0:0:0:0:
267,115,126537,1,8,0:1:0:0:
335,78,126674,2,0,L|347:154,1,60,2|8,0:0|0:1,0:0:0:0:
428,184,126947,2,0,L|417:252,1,48,10|0,0:0|0:0,0:0:0:0:
323,306,127219,2,0,L|314:277,3,24,8|8|8|8,0:1|0:1|0:1|0:1,0:0:0:0:
313,322,127492,5,12,0:1:0:0:
256,192,132401,12,2,133765,2:0:0:0:
112,173,134037,6,0,P|149:165|196:192,1,80,8|0,0:0|0:0,0:0:0:0:
237,282,134219,2,0,P|211:253|211:199,1,80,8|0,0:0|0:0,0:0:0:0:
269,120,134401,2,0,P|257:156|210:183,1,80,8|0,0:0|0:0,0:0:0:0:
45,226,134598,6,0,P|28:181|34:143,1,80,4|0,0:0|0:0,0:0:0:0:
111,120,134803,2,0,P|141:82|177:68,1,80,4|0,0:0|0:0,0:0:0:0:
235,124,135008,2,0,P|282:131|312:155,1,80,4|0,0:0|0:0,0:0:0:0:
358,268,135213,6,0,L|277:275,1,64,8|0,0:1|0:0,0:0:0:0:
223,332,135479,2,0,L|142:339,1,55.9999982910157,8|0,0:1|0:0,0:0:0:0:
86,381,135812,2,0,L|21:386,1,35.9999989013672,8|0,0:1|0:0,0:0:0:0:
0,270,136212,5,4,2:0:0:0:
0,270,136757,6,0,P|47:264|77:227,1,90.0000034332277,12|2,0:1|0:0,0:0:0:0:
77,134,137029,2,0,P|107:102|151:97,1,90.0000034332277,2|2,0:0|0:0,0:0:0:0:
263,167,137302,1,10,0:2:0:0:
263,167,137438,1,2,0:0:0:0:
263,167,137575,2,0,L|362:154,1,90.0000034332277,2|0,0:0|0:0,0:0:0:0:
426,51,137847,1,10,0:1:0:0:
426,51,137983,1,2,0:0:0:0:
426,51,138120,2,0,L|439:150,1,90.0000034332277,2|0,0:0|0:0,0:0:0:0:
506,236,138393,6,0,P|442:217|379:303,1,180.000006866455,10|2,0:2|0:0,0:0:0:0:
393,384,138802,1,0,0:0:0:0:
285,319,138938,2,0,P|276:270|281:225,1,90.0000034332277,14|0,0:1|0:0,0:0:0:0:
342,163,139211,2,0,P|351:114|346:69,1,90.0000034332277,2|2,0:0|0:0,0:0:0:0:
241,2,139484,5,10,0:2:0:0:
241,2,139620,1,2,0:0:0:0:
241,2,139757,2,0,L|138:13,1,90.0000034332277,2|0,0:0|0:0,0:0:0:0:
44,82,140029,2,0,L|147:93,1,90.0000034332277,10|2,0:1|0:0,0:0:0:0:
211,153,140302,1,2,0:0:0:0:
4,298,140575,5,12,0:2:0:0:
283,376,141120,5,14,0:1:0:0:
283,376,141257,1,2,0:0:0:0:
283,376,141393,2,0,L|270:275,1,90.0000034332277,2|2,0:0|0:0,0:0:0:0:
252,195,141666,1,10,0:2:0:0:
342,224,141802,1,2,0:0:0:0:
342,224,141938,2,0,L|355:123,1,90.0000034332277,2|2,0:0|0:0,0:0:0:0:
471,241,142211,5,10,0:1:0:0:
471,241,142347,1,2,0:0:0:0:
471,241,142484,2,0,L|458:336,1,90.0000034332277,0|2,0:0|0:0,0:0:0:0:
352,263,142757,2,0,P|301:254|255:360,2,180.000006866455,10|2|8,0:2|0:0|0:1,0:0:0:0:
265,163,143575,6,0,P|206:158|159:173,1,90.0000034332277,2|0,0:0|0:0,0:0:0:0:
113,90,143847,2,0,P|79:138|68:186,1,90.0000034332277,10|0,0:2|0:0,0:0:0:0:
67,264,144120,1,2,0:0:0:0:
159,315,144257,1,2,0:0:0:0:
159,315,144393,6,0,P|187:270|332:268,1,180.000006866455,8|8,0:1|0:1,0:0:0:0:
376,308,144802,1,8,0:1:0:0:
443,236,144938,6,0,L|482:230,4,30.0000011444092,8|0|8|0|8,0:0|0:0|0:0|0:0|0:0,0:0:0:0:
400,158,145211,2,0,L|439:164,4,30.0000011444092,4|0|4|0|4,0:0|0:0|0:0|0:0|0:0,0:0:0:0:
304,164,145484,6,0,P|313:112|341:79,1,90.0000034332277,12|2,0:1|0:0,0:0:0:0:
367,0,145757,2,0,P|322:-4|281:12,1,90.0000034332277,2|2,0:0|0:0,0:0:0:0:
201,114,146029,1,10,0:2:0:0:
201,114,146166,1,2,0:0:0:0:
201,114,146302,2,0,L|107:101,1,90.0000034332277,2|8,0:0|0:2,0:0:0:0:
15,173,146575,5,10,0:1:0:0:
15,173,146711,1,2,0:0:0:0:
15,173,146847,2,0,L|104:185,1,90.0000034332277,2|0,0:0|0:0,0:0:0:0:
164,296,147120,2,0,P|177:244|300:224,1,180.000006866455,10|2,0:2|0:0,0:0:0:0:
366,270,147529,1,2,0:0:0:0:
455,178,147666,6,0,L|433:-11,1,180.000006866455,10|2,0:1|0:0,0:0:0:0:
242,75,148211,2,0,L|262:173,1,90.0000034332277,10|2,0:2|0:0,0:0:0:0:
319,246,148484,2,0,L|336:157,1,90.0000034332277,2|2,0:0|0:0,0:0:0:0:
360,60,148757,5,10,0:1:0:0:
360,60,148893,1,2,0:0:0:0:
360,60,149029,2,0,L|462:76,1,90.0000034332277,2|0,0:0|0:0,0:0:0:0:
500,187,149302,1,10,0:2:0:0:
500,187,149438,1,2,0:0:0:0:
500,187,149574,2,0,L|398:203,1,90.0000034332277,2|0,0:0|0:0,0:0:0:0:
328,293,149847,6,0,P|300:241|296:196,1,90.0000034332277,14|2,0:1|0:0,0:0:0:0:
356,134,150120,2,0,P|384:82|388:37,1,90.0000034332277,2|2,0:0|0:0,0:0:0:0:
311,0,150393,1,10,0:2:0:0:
233,94,150529,6,0,L|131:83,1,90.0000034332277,2|0,0:0|0:0,0:0:0:0:
66,29,150802,2,0,L|55:131,1,90.0000034332277,2|8,0:0|0:1,0:0:0:0:
1,196,151075,2,0,L|103:207,1,90.0000034332277,2|0,0:0|0:0,0:0:0:0:
168,261,151347,1,2,0:0:0:0:
223,183,151484,2,0,L|234:81,1,90.0000034332277,10|0,0:2|0:0,0:0:0:0:
334,170,151757,2,0,L|353:348,1,180.000006866455,2|8,0:0|0:1,0:0:0:0:
492,226,152302,6,0,P|515:167|507:127,1,90.0000034332277,2|0,0:0|0:0,0:0:0:0:
447,67,152575,2,0,L|247:91,1,180.000006866455,10|2,0:2|0:0,0:0:0:0:
200,18,152984,2,0,P|170:88|227:179,1,180.000006866455,10|8,0:1|0:1,0:0:0:0:
341,210,153393,1,8,0:2:0:0:
270,287,153529,1,8,0:1:0:0:
362,376,153666,2,0,L|482:363,1,90.0000034332277,10|0,0:2|0:0,0:0:0:0:
506,277,153938,1,10,0:2:0:0:
506,277,154075,1,8,0:2:0:0:
506,277,154211,6,0,P|458:238|458:169,1,120,2|2,2:0|2:0,2:0:0:0:
482,110,154620,1,2,2:0:0:0:
342,39,154893,1,2,2:0:0:0:
241,158,155166,2,0,L|269:287,1,120,2|2,2:0|2:0,2:0:0:0:
147,376,155711,2,0,L|121:258,1,120,2|2,2:0|2:0,2:0:0:0:
60,209,156120,2,0,L|75:138,1,60,2|2,2:0|2:0,2:0:0:0:
127,94,156393,5,2,2:0:0:0:
127,94,156529,1,2,2:0:0:0:
224,216,156802,2,0,P|289:201|304:143,1,120,2|2,2:0|2:0,2:0:0:0:
279,82,157211,2,0,P|303:29|320:22,1,60,2|0,2:0|2:0,2:0:0:0:
377,10,157484,1,2,2:0:0:0:
507,223,157893,1,2,2:0:0:0:
507,223,158029,6,0,L|377:233,1,120,2|2,2:0|2:0,2:0:0:0:
281,384,158575,2,0,P|307:321|276:269,1,120,2|2,2:0|2:0,2:0:0:0:
217,239,158984,2,0,P|196:184|222:132,1,120,2|2,2:0|2:0,2:0:0:0:
300,129,159393,2,0,P|329:107|349:68,1,60,2|0,2:0|2:0,2:0:0:0:
352,9,159666,1,2,2:0:0:0:
46,17,160075,1,2,2:0:0:0:
46,17,160211,5,2,2:0:0:0:
162,121,160484,1,2,2:0:0:0:
162,121,160620,1,2,2:0:0:0:
162,121,160757,2,0,P|94:128|62:185,1,120,2|2,2:0|2:0,2:0:0:0:
113,228,161166,2,0,P|85:290|118:346,1,120,2|2,2:0|2:0,2:0:0:0:
260,342,161711,5,2,2:0:0:0:
260,342,161847,2,0,P|287:290|269:235,1,120,2|0,2:0|2:0,2:0:0:0:
198,199,162257,1,2,2:0:0:0:
198,199,162393,2,0,P|170:147|188:92,1,120,2|2,2:0|2:0,2:0:0:0:
326,18,162938,5,2,2:0:0:0:
326,18,163075,2,0,L|341:96,1,60,2|2,2:0|2:0,2:0:0:0:
410,102,163347,2,0,L|383:242,1,120,2|2,2:0|2:0,2:0:0:0:
315,253,163757,2,0,L|331:337,1,60,2|0,2:0|2:0,2:0:0:0:
288,379,164029,1,2,2:0:0:0:
33,301,164438,1,2,2:0:0:0:
33,301,164575,5,2,2:0:0:0:
186,326,164847,1,2,2:0:0:0:
250,183,165120,1,2,2:0:0:0:
250,183,165257,2,0,L|239:102,1,60,2|0,2:0|2:0,2:0:0:0:
168,53,165529,2,0,L|150:182,2,120,2|2|2,2:0|2:0|2:0,2:0:0:0:
237,17,166211,1,2,2:0:0:0:
277,211,166620,2,0,L|254:78,1,120,2|0,2:1|2:1,2:0:0:0:
168,53,167029,5,2,0:0:0:0:
168,53,167302,2,0,L|203:259,1,192,12|8,0:1|0:1,0:0:0:0:
219,343,167711,1,8,0:1:0:0:
307,240,167847,1,8,0:2:0:0:
307,240,168120,2,0,L|295:173,1,48,10|0,0:2|0:0,0:0:0:0:
295,178,168257,6,0,L|280:287,2,96,8|10|8,0:2|0:1|0:2,0:0:0:0:
376,68,168666,2,0,L|402:258,1,192,12|8,0:1|0:2,0:0:0:0:
510,326,169075,2,0,L|319:352,1,192,10|8,0:1|0:2,0:0:0:0:
205,286,169484,6,0,P|233:232|136:140,1,192,12|8,0:1|0:0,0:0:0:0:
68,130,169893,1,8,0:0:0:0:
181,49,170029,1,10,0:2:0:0:
181,49,170302,2,0,L|197:184,1,96,8|10,0:1|0:1,0:0:0:0:
199,177,170507,1,8,0:1:0:0:
199,177,170575,5,12,0:1:0:0:
467,138,170847,1,12,0:1:0:0:
352,366,171257,5,10,0:1:0:0:
359,118,171666,5,12,0:1:0:0:
359,118,171802,2,0,L|228:140,1,107.999996704102,2|10,0:0|0:2,0:0:0:0:
140,84,172075,2,0,P|188:99|182:221,1,161.999995056153,10|0,0:1|0:0,0:0:0:0:
195,210,172347,2,0,P|179:263|208:317,1,107.999996704102,10|8,0:1|0:2,0:0:0:0:
324,303,172620,2,0,P|340:252|319:203,1,107.999996704102,2|8,0:0|0:1,0:0:0:0:
245,100,172893,6,0,L|367:115,1,107.999996704102,10|8,0:1|0:2,0:0:0:0:
462,46,173166,2,0,L|447:168,1,107.999996704102,2|0,0:0|0:0,0:0:0:0:
410,239,173438,2,0,L|425:361,1,107.999996704102,10|8,0:1|0:2,0:0:0:0:
305,371,173711,6,0,P|265:332|206:321,1,107.999996704102,2|12,0:0|0:1,0:0:0:0:
117,333,173984,2,0,P|65:320|27:282,1,107.999996704102,2|8,0:0|0:2,0:0:0:0:
26,148,174257,2,0,P|121:159|153:277,1,215.999993408203,2|8,0:0|0:1,0:0:0:0:
190,366,174666,2,0,P|243:307|246:165,1,215.999993408203,10|8,0:2|0:1,0:0:0:0:
194,96,175075,1,8,0:1:0:0:
309,29,175211,6,0,B|330:86|330:86|317:136,1,107.999996704102,10|0,0:2|0:0,0:0:0:0:
408,150,175484,2,0,B|387:207|387:207|398:252,1,107.999996704102,2|8,0:0|0:1,0:0:0:0:
309,271,175757,2,0,B|330:328|330:328|318:373,1,107.999996704102,10|0,0:2|0:0,0:0:0:0:
414,344,176029,5,12,0:1:0:0:
242,335,176166,2,0,B|222:277|222:277|265:127,1,215.999993408203,2|0,0:0|0:0,0:0:0:0:
208,43,176575,2,0,L|141:271,1,215.999993408203,10|8,0:1|0:2,0:0:0:0:
58,347,176984,6,0,P|60:305|192:322,1,215.999993408203,2|8,0:0|0:1,0:0:0:0:
303,377,177393,2,0,P|311:316|299:253,1,107.999996704102,10|0,0:2|0:0,0:0:0:0:
220,174,177666,2,0,P|213:120|221:67,1,107.999996704102,10|8,0:1|0:1,0:0:0:0:
291,0,177938,2,0,L|415:10,1,107.999996704102,10|0,0:2|0:0,0:0:0:0:
468,121,178211,6,0,P|385:115|374:231,2,215.999993408203,14|10|2,0:1|0:2|0:1,0:0:0:0:
469,225,178893,1,8,0:1:0:0:
294,269,179029,2,0,P|265:192|313:60,1,215.999993408203,8|8,0:2|0:1,0:0:0:0:
402,19,179438,1,8,0:1:0:0:
468,121,179575,2,0,P|410:142|354:144,1,107.999996704102,8|8,0:2|0:1,0:0:0:0:
301,249,179847,2,0,P|354:253|404:272,2,107.999996704102,2|8|8,0:1|0:1|0:2,0:0:0:0:
58,271,180393,5,12,0:1:0:0:
58,271,180529,2,0,P|109:232|112:178,1,107.999996704102,2|8,0:0|0:2,0:0:0:0:
87,87,180802,2,0,P|118:33|212:70,1,161.999995056153,2|10,0:0|0:1,0:0:0:0:
212,67,181075,2,0,P|257:110|303:112,1,107.999996704102,8|8,0:1|0:2,0:0:0:0:
384,85,181347,1,2,0:1:0:0:
367,322,181620,6,0,P|390:269|382:216,1,107.999996704102,10|8,0:1|0:2,0:0:0:0:
473,192,181893,2,0,P|438:145|388:126,1,107.999996704102,2|0,0:1|0:1,0:0:0:0:
413,35,182166,2,0,P|355:41|313:75,1,107.999996704102,10|8,0:1|0:2,0:0:0:0:
246,185,182438,6,0,P|193:204|125:195,1,107.999996704102,2|12,0:0|0:1,0:0:0:0:
45,167,182711,2,0,P|42:220|61:270,1,107.999996704102,2|8,0:0|0:2,0:0:0:0:
194,356,182984,2,0,P|228:290|205:145,1,215.999993408203,10|8,0:1|0:1,0:0:0:0:
112,71,183393,2,0,P|201:26|311:73,1,215.999993408203,8|12,0:2|0:1,0:0:0:0:
356,151,183802,1,8,0:1:0:0:
449,55,183938,6,0,P|466:113|473:166,1,107.999996704102,10|0,0:2|0:0,0:0:0:0:
356,151,184211,2,0,P|314:194|271:227,1,107.999996704102,2|8,0:0|0:1,0:0:0:0:
167,189,184484,2,0,P|228:202|256:251,1,107.999996704102,10|0,0:2|0:1,0:0:0:0:
231,371,184757,5,12,0:1:0:0:
84,352,184893,2,0,P|17:247|30:161,1,215.999993408203,2|8,0:0|0:1,0:0:0:0:
128,69,185302,2,0,L|355:87,1,215.999993408203,2|8,0:0|0:2,0:0:0:0:
442,4,185711,6,0,P|371:32|410:146,1,215.999993408203,2|12,0:0|0:1,0:0:0:0:
506,171,186120,1,0,0:0:0:0:
421,275,186257,1,8,0:2:0:0:
421,275,186393,2,0,L|294:257,1,107.999996704102,10|8,0:2|0:0,0:0:0:0:
229,151,186666,2,0,L|38:178,1,161.999995056153,10|0,0:0|0:0,0:0:0:0:
61,184,186938,5,6,0:0:0:0:
16,84,187075,1,8,0:2:0:0:
16,84,187211,2,0,L|109:93,1,83.9999974365235,10|0,0:0|0:0,0:0:0:0:
234,11,187484,5,10,0:2:0:0:
280,81,187620,2,0,L|187:90,1,83.9999974365235,8|2,0:0|0:0,0:0:0:0:
35,251,187893,5,8,0:2:0:0:
113,205,188029,2,0,P|165:215|208:249,1,96,8|0,0:2|0:0,0:0:0:0:
298,216,188302,2,0,P|315:266|307:320,1,96,10|0,0:2|0:0,0:0:0:0:
146,360,188575,6,0,L|77:349,2,47.9999985351563,10|8|8,0:0|0:0|0:0,0:0:0:0:
129,276,188847,2,0,L|198:265,2,47.9999985351563,4|4|4,0:0|0:0|0:0,0:0:0:0:
102,194,189120,6,0,B|187:158|282:207|282:207|236:182|216:156|216:112|231:67|280:47|328:71|342:112|322:149|322:149|351:119|394:121|394:121|406:67|352:6|288:6,1,720,12|0,0:1|0:0,0:0:0:0:
126,243,191302,6,0,P|131:202|259:247,1,240,12|0,0:1|0:0,0:0:0:0:
243,369,192120,6,0,L|282:231,1,120,8|0,0:0|0:0,0:0:0:0:
368,226,192529,2,0,L|329:88,1,120,4|4,0:0|0:0,0:0:0:0:
233,41,192938,2,0,L|283:33,2,40,8|8|8,0:2|0:0|0:0,0:0:0:0:
159,12,193211,5,4,0:0:0:0:
155,31,193302,1,4,0:0:0:0:
151,50,193393,1,4,0:0:0:0:
147,69,193484,6,0,B|153:125|153:125|196:173|196:173|215:245|171:300|171:300|127:268|126:207,1,360,12|8,0:1|0:0,0:0:0:0:
248,85,194438,2,0,L|387:105,1,120,8|8,0:2|0:0,0:0:0:0:
440,175,194847,1,8,0:0:0:0:
440,175,194984,1,8,0:0:0:0:
300,246,195120,2,0,L|322:320,1,60,8|8,0:2|0:0,0:0:0:0:
240,364,195393,1,4,0:0:0:0:
240,364,195529,1,4,0:0:0:0:
144,279,195666,6,0,L|184:101,2,180.000006866455,12|8|8,0:1|0:1|0:2,0:0:0:0:
109,70,196484,1,8,0:1:0:0:
255,146,196620,2,0,L|300:140,2,45.0000017166138,4|4|4,0:0|0:0|0:0,0:0:0:0:
214,45,196893,1,8,0:2:0:0:
170,131,197029,2,0,L|181:230,1,90.0000034332277,4|4,0:0|0:0,0:0:0:0:
66,342,197302,1,8,0:2:0:0:
66,342,197575,5,8,0:2:0:0:
88,345,197643,1,8,0:2:0:0:
110,348,197711,1,8,0:2:0:0:
132,351,197779,1,8,0:2:0:0:
154,354,197847,6,0,L|270:331,1,96,12|2,0:1|0:0,0:0:0:0:
152,243,198120,2,0,L|36:220,1,96,10|2,0:2|0:0,0:0:0:0:
156,143,198393,1,10,0:1:0:0:
156,143,198529,1,2,0:0:0:0:
68,94,198666,2,0,L|49:-6,1,96,10|0,0:2|0:0,0:0:0:0:
216,2,198938,1,10,0:1:0:0:
244,88,199075,1,2,0:0:0:0:
305,21,199211,2,0,P|365:26|408:59,1,96,10|0,0:2|0:0,0:0:0:0:
456,143,199484,6,0,L|422:357,1,192,10|10,0:1|0:2,0:0:0:0:
279,96,200029,2,0,L|313:310,1,192,10|10,0:1|0:2,0:0:0:0:
199,337,200438,1,2,0:0:0:0:
199,337,200575,2,0,L|214:242,1,96,10|2,0:1|0:0,0:0:0:0:
129,179,200847,2,0,L|113:84,1,96,10|0,0:2|0:0,0:0:0:0:
29,0,201120,6,0,L|13:94,1,96,10|2,0:1|0:0,0:0:0:0:
44,199,201393,2,0,P|20:150|131:94,2,192,10|8|8,0:2|0:1|0:2,0:0:0:0:
264,339,202211,1,12,0:1:0:0:
264,339,202347,1,2,0:0:0:0:
330,260,202484,2,0,P|323:208|306:153,1,96,10|2,0:2|0:0,0:0:0:0:
250,84,202757,1,10,0:1:0:0:
330,33,202893,2,0,P|388:36|434:51,1,96,10|10,0:1|0:2,0:0:0:0:
503,162,203166,6,0,P|452:167|432:296,1,192,12|10,0:1|0:1,0:0:0:0:
512,317,203575,2,0,L|321:323,1,192,10|10,0:2|0:1,0:0:0:0:
238,370,203984,1,8,0:1:0:0:
161,266,204120,2,0,P|166:207|287:214,1,192,10|12,0:2|0:1,0:0:0:0:
96,324,204666,6,0,P|68:262|68:207,1,96,10|0,0:2|0:0,0:0:0:0:
0,174,204938,1,10,0:1:0:0:
0,174,205075,2,0,P|39:118|87:91,1,96,8|10,0:1|0:2,0:0:0:0:
228,111,205347,6,0,P|180:119|208:19,1,192,12|8,0:1|0:1,0:0:0:0:
295,38,205757,1,4,0:0:0:0:
295,38,205893,1,0,0:0:0:0:
303,179,206029,2,0,L|326:288,1,96,10|0,0:2|0:0,0:0:0:0:
421,165,206302,1,10,0:2:0:0:
421,165,206438,1,8,0:2:0:0:
349,106,206575,5,12,0:1:0:0:
220,223,206847,2,0,L|239:287,1,53.9999983520508,10|0,0:2|0:0,0:0:0:0:
241,290,206984,2,0,L|280:75,2,215.999993408203,2|10|2,0:0|0:1|0:0,0:0:0:0:
166,356,207666,5,10,0:1:0:0:
166,356,207802,1,8,0:1:0:0:
38,322,207938,2,0,P|26:267|161:234,1,215.999993408203,10|0,0:2|0:0,0:0:0:0:
241,290,208347,1,8,0:1:0:0:
296,212,208484,2,0,P|295:151|266:44,1,161.999995056153,10|0,0:2|0:0,0:0:0:0:
259,41,208757,6,0,P|259:97|352:39,1,215.999993408203,10|10,0:1|0:2,0:0:0:0:
461,9,209166,2,0,P|441:78|413:227,1,215.999993408203,0|8,0:0|0:1,0:0:0:0:
418,351,209575,2,0,P|389:306|339:263,1,107.999996704102,10|0,0:2|0:0,0:0:0:0:
222,248,209847,6,0,P|172:209|183:152,1,107.999996704102,10|10,0:1|0:1,0:0:0:0:
193,156,210052,1,0,0:0:0:0:
193,156,210120,1,10,0:2:0:0:
159,56,210257,2,0,P|94:45|59:182,1,215.999993408203,10|10,0:1|0:1,0:0:0:0:
106,256,210666,1,8,0:2:0:0:
376,163,210938,5,12,0:1:0:0:
155,165,211211,2,0,L|217:175,1,53.9999983520508,10|0,0:2|0:0,0:0:0:0:
223,167,211347,2,0,L|165:389,2,215.999993408203,2|10|2,0:0|0:1|0:0,0:0:0:0:
250,72,212029,1,10,0:1:0:0:
250,72,212166,1,8,0:1:0:0:
321,195,212302,2,0,P|421:188|417:89,1,215.999993408203,10|0,0:2|0:0,0:0:0:0:
213,206,212847,6,0,L|204:152,1,53.9999983520508,10|0,0:2|0:0,0:0:0:0:
192,91,212984,2,0,L|183:144,1,53.9999983520508,2|0,0:0|0:0,0:0:0:0:
112,208,213120,6,0,P|68:113|141:20,2,215.999993408203,10|8|0,0:1|0:2|0:0,0:0:0:0:
210,240,213802,1,8,0:1:0:0:
290,140,213938,2,0,P|348:127|397:157,1,107.999996704102,10|0,0:2|0:0,0:0:0:0:
435,266,214211,6,0,L|323:305,1,107.999996704102,10|10,0:1|0:1,0:0:0:0:
321,327,214416,1,10,0:1:0:0:
321,327,214484,1,10,0:2:0:0:
245,227,214620,2,0,L|133:188,1,107.999996704102,10|0,0:1|0:0,0:0:0:0:
31,231,214893,1,10,0:1:0:0:
65,63,215029,1,8,0:2:0:0:
148,205,215166,1,8,0:2:0:0:
235,116,215302,5,12,0:1:0:0:
235,116,215438,1,8,0:1:0:0:
347,169,215575,2,0,L|331:279,1,96,10|8,0:1|0:1,0:0:0:0:
240,288,215847,2,0,L|253:383,1,96,10|0,0:2|0:0,0:0:0:0:
135,320,216120,2,0,L|148:224,1,96,10|8,0:1|0:1,0:0:0:0:
226,112,216393,6,0,P|203:183|104:165,1,192,2|2,0:0|0:0,0:0:0:0:
156,67,216802,2,0,P|193:33|240:29,1,96,10|8,0:1|0:2,0:0:0:0:
319,169,217075,2,0,P|322:93|419:32,1,192,10|2,0:1|0:0,0:0:0:0:
414,135,217484,6,0,L|431:246,1,96,10|0,0:1|0:0,0:0:0:0:
445,323,217757,1,10,0:1:0:0:
246,170,218029,2,0,L|229:281,1,96,10|0,0:2|0:0,0:0:0:0:
215,358,218302,1,2,0:1:0:0:
131,314,218438,2,0,L|98:105,1,192,10|10,0:1|0:1,0:0:0:0:
191,94,218847,2,0,L|207:-10,1,96,2|8,0:0|0:1,0:0:0:0:
277,130,219120,1,8,0:2:0:0:
277,130,219393,6,0,L|332:121,1,48,10|0,0:1|0:0,0:0:0:0:
353,144,219529,2,0,L|408:135,1,48,10|0,0:2|0:0,0:0:0:0:
463,68,219666,6,0,P|401:94|428:224,1,215.999993408203,12|0,0:1|0:0,0:0:0:0:
510,259,220075,1,8,0:1:0:0:
401,347,220211,6,0,B|348:343|348:343|300:361|300:361|178:353,1,215.999993408203,8|8,0:2|0:1,0:0:0:0:
93,365,220620,2,0,L|320:380,1,215.999993408203,8|8,0:1|0:0,0:0:0:0:
393,265,221029,1,4,0:0:0:0:
393,265,221166,1,4,0:0:0:0:
274,204,221302,2,0,L|160:211,1,107.999996704102,12|0,0:1|0:0,0:0:0:0:
93,166,221575,2,0,P|82:230|109:275,1,107.999996704102,2|2,0:0|0:0,0:0:0:0:
229,311,221847,5,12,0:1:0:0:
229,311,221984,2,0,L|241:185,1,107.999996704102,8|8,0:2|0:1,0:0:0:0:
313,57,222257,2,0,L|333:276,1,215.999993408203,8|0,0:1|0:0,0:0:0:0:
351,384,222666,5,8,0:2:0:0:
416,316,222802,2,0,L|436:100,1,215.999993408203,8|8,0:1|0:2,0:0:0:0:
375,25,223211,1,8,0:1:0:0:
375,25,223347,1,8,0:1:0:0:
290,121,223484,2,0,P|226:126|170:101,1,107.999996704102,8|0,0:2|0:0,0:0:0:0:
92,17,223757,1,8,0:2:0:0:
92,17,223893,1,8,0:2:0:0:
29,91,224029,5,12,0:1:0:0:
29,91,224166,2,0,P|56:154|69:195,1,107.999996704102,8|8,0:2|0:1,0:0:0:0:
85,285,224438,1,8,0:1:0:0:
180,198,224575,2,0,P|254:156|361:232,1,215.999993408203,8|8,0:2|0:2,0:0:0:0:
345,316,224984,6,0,P|250:356|167:295,1,215.999993408203,8|8,0:1|0:2,0:0:0:0:
180,198,225393,1,8,0:1:0:0:
180,198,225529,1,8,0:1:0:0:
61,158,225666,6,0,P|55:38|170:71,1,276.000005264282,10|8,0:2|0:2,0:0:0:0:
180,198,226075,1,12,0:1:0:0:
