osu file format v14

[General]
AudioFilename: audio.mp3
AudioLeadIn: 0
PreviewTime: 44515
Countdown: 0
SampleSet: Drum
StackLeniency: 0.4
Mode: 0
LetterboxInBreaks: 0
WidescreenStoryboard: 1

[Editor]
Bookmarks: 1765,9674,27129,35856,40220,44583,62038,66402,83856,92583,110038,125311,127493,134038,136757,154211,167302,171666,186938,189120,197847,206575,226075
DistanceSpacing: 0.3
BeatDivisor: 6
GridSize: 4
TimelineZoom: 3.499999

[Metadata]
Title:ROB THE FRONTIER
TitleUnicode:ROB THE FRONTIER
Artist:UVERworld
ArtistUnicode:UVERworld
Creator:Crissa
Version:Extra
Source:七つの大罪 神々の逆鱗
Tags:nanatsu no taizai kamigami no gekirin the seven deadly sins anime japanese op opening full ver version [-crissaegrim-]
BeatmapID:2234163
BeatmapSetID:1067110

[Difficulty]
HPDrainRate:6
CircleSize:4.3
OverallDifficulty:9.2
ApproachRate:9.4
SliderMultiplier:1.2
SliderTickRate:1

[Events]
//Background and Video events
0,0,"bg2.jpg",0,0
//Break Periods
2,127765,131588
//Storyboard Layer 0 (Background)
//Storyboard Layer 1 (Fail)
//Storyboard Layer 2 (Pass)
//Storyboard Layer 3 (Foreground)
//Storyboard Layer 4 (Overlay)
//Storyboard Sound Samples

[TimingPoints]
947,272.727272727273,4,3,60,60,1,0
947,-100,4,3,60,60,0,0
2719,-55.5555555555556,4,3,60,60,0,0
9674,-50,4,3,60,80,0,0
27128,-71.4285714285714,4,3,60,70,0,0
35037,-55.5555555555556,4,3,60,70,0,0
35856,-50,4,3,60,80,0,0
40219,-66.6666666666667,4,3,60,75,0,0
42401,-100,4,3,60,70,0,0
44037,-200,4,3,60,60,0,0
44583,-43.4782608695652,4,3,60,90,0,1
62106,-100,4,3,60,20,0,0
65037,-100,4,3,60,60,0,0
66401,-55.5555555555556,4,3,60,80,0,0
83856,-71.4285714285714,4,3,60,70,0,0
88219,-62.5,4,3,60,75,0,0
90401,-55.5555555555556,4,3,60,80,0,0
91492,-50,4,3,60,80,0,0
92583,-43.4782608695652,4,3,60,90,0,1
107856,-50,4,3,60,80,0,0
110037,-41.6666666666667,4,3,60,90,0,1
125310,-100,4,3,60,70,0,0
126947,-50,4,3,60,80,0,0
134598,307.692307692308,4,3,60,75,1,0
134598,-50,4,3,60,75,0,0
135213,400,4,3,60,70,1,0
135213,-62.5,4,3,60,70,0,0
135479,500,4,3,60,65,1,0
135479,-71.4285714285714,4,3,60,65,0,0
135812,800,4,3,60,60,1,0
135812,-83.3333333333333,4,3,60,60,0,0
136212,272.727272727273,4,2,20,70,1,0
136757,272.727272727273,4,3,65,80,1,0
136757,-62.5,4,3,65,80,0,0
140575,-166.666666666667,4,3,65,80,0,0
141120,-62.5,4,3,65,80,0,0
153666,-55.5555555555556,4,3,65,80,0,0
154211,-100,4,2,60,50,0,0
167029,-166.666666666667,4,3,60,60,0,0
167302,-62.5,4,3,60,80,0,0
171666,-43.4782608695652,4,3,60,90,0,1
186938,-71.4285714285714,4,3,60,80,0,0
188029,-62.5,4,3,60,80,0,0
189120,-100,4,3,60,70,0,0
197847,-50,4,3,60,80,0,0
206575,-45.4545454545455,4,3,60,90,0,1
219666,-41.6666666666667,4,3,60,90,0,1
225666,-38.4615384615385,4,3,60,90,0,1
226075,-100,4,3,60,80,0,0

[Colours]
Combo1 : 201,155,139
Combo2 : 128,185,255
Combo3 : 163,241,218
Combo4 : 249,211,113
Combo5 : 171,211,187
Combo6 : 239,204,165

[HitObjects]
151,87,947,5,2,2:0:0:0:
73,228,1083,1,2,2:0:0:0:
214,306,1219,1,2,2:0:0:0:
292,165,1356,2,0,L|284:89,2,60,2|0|0,2:0|2:0|2:0,0:0:0:0:
141,269,1765,5,2,2:0:0:0:
288,331,1901,1,2,2:0:0:0:
415,234,2037,1,2,2:0:0:0:
394,75,2174,2,0,L|408:2,2,60,2|0|0,2:0|2:0|2:0,0:0:0:0:
100,206,2583,5,8,0:2:0:0:
371,330,2719,2,0,P|392:268|265:232,1,215.999993408203,12|0,0:1|0:0,0:0:0:0:
102,362,3128,6,0,L|69:101,1,215.999993408203,12|0,0:1|0:0,0:0:0:0:
225,0,3537,2,0,L|256:250,1,215.999993408203,12|0,0:1|0:0,0:0:0:0:
491,343,3947,6,0,P|500:264|352:223,1,215.999993408203,12|0,0:1|0:0,0:0:0:0:
151,298,4356,2,0,P|35:277|25:160,1,215.999993408203,12|0,0:1|0:0,0:0:0:0:
256,0,4765,5,8,0:3:0:0:
256,176,4901,1,8,0:3:0:0:
256,276,5037,1,4,0:0:0:0:
256,300,5174,1,4,0:0:0:0:
110,62,5310,5,8,0:2:0:0:
147,68,5378,1,8,0:2:0:0:
184,75,5447,1,8,0:2:0:0:
221,81,5515,1,8,0:2:0:0:
257,88,5583,2,0,L|324:101,1,53.9999983520508,8|0,0:2|0:0,0:0:0:0:
3,191,5719,1,12,0:1:0:0:
310,365,6128,5,8,0:2:0:0:
341,342,6197,1,8,0:2:0:0:
356,306,6265,1,8,0:2:0:0:
351,267,6333,1,8,0:2:0:0:
327,236,6401,2,0,P|304:223|250:229,1,53.9999983520508,8|0,0:2|0:0,0:0:0:0:
505,132,6537,1,12,0:1:0:0:
505,132,6810,5,0,0:0:0:0:
280,296,6947,1,8,0:2:0:0:
313,6,7083,2,0,P|353:62|407:213,1,215.999993408203,12|8,0:1|0:1,0:0:0:0:
83,353,7492,5,8,0:2:0:0:
89,70,7628,1,8,0:1:0:0:
331,218,7765,1,8,0:1:0:0:
37,210,7901,5,8,0:2:0:0:
235,101,8037,1,8,0:1:0:0:
229,328,8174,1,8,0:1:0:0:
89,70,8310,6,0,P|129:17|198:17,2,107.999996704102,8|8|8,0:2|0:1|0:1,0:0:0:0:
120,297,8719,2,0,P|131:189|164:86,1,215.999993408203,8|0,0:2|0:0,0:0:0:0:
451,11,9128,5,8,3:0:0:0:
441,81,9219,1,8,3:0:0:0:
431,151,9310,1,8,3:0:0:0:
421,221,9401,1,4,3:0:0:0:
413,279,9492,1,4,3:0:0:0:
407,329,9583,1,4,3:0:0:0:
400,375,9674,6,0,L|214:352,1,180,12|0,0:1|0:0,0:0:0:0:
210,338,9947,2,0,L|87:322,1,120,10|0,0:2|0:0,0:0:0:0:
275,95,10219,2,0,P|283:160|243:212,1,120,2|8,0:0|0:1,0:0:0:0:
114,199,10492,2,0,P|100:122|139:54,1,160,10|2,0:2|0:0,0:0:0:0:
228,7,10765,5,10,0:1:0:0:
366,185,10901,2,0,L|501:169,1,120,2|8,0:0|0:2,0:0:0:0:
231,86,11174,2,0,L|262:237,1,120,10|0,0:1|0:0,0:0:0:0:
371,267,11447,2,0,L|340:418,1,120,10|8,0:1|0:2,0:0:0:0:
67,288,11719,6,0,P|59:225|110:185,1,120,2|8,0:0|0:1,0:0:0:0:
347,188,11992,2,0,P|386:145|376:88,1,120,2|8,0:0|0:2,0:0:0:0:
159,11,12265,2,0,P|207:109|233:251,1,240,10|8,0:1|0:1,0:0:0:0:
144,358,12674,2,0,P|130:288|238:268,1,180,10|0,0:2|0:0,0:0:0:0:
293,317,12947,5,8,0:1:0:0:
369,254,13083,1,8,0:1:0:0:
66,164,13219,1,8,0:2:0:0:
229,24,13356,2,0,P|278:19|328:64,2,120,8|0|8,0:1|0:1|0:1,0:0:0:0:
7,215,13765,1,8,0:2:0:0:
364,366,14037,6,0,P|379:286|422:161,1,180,12|0,0:1|0:0,0:0:0:0:
512,125,14310,2,0,P|469:179|414:170,1,120,10|0,0:2|0:0,0:0:0:0:
260,50,14583,2,0,P|202:51|171:100,1,120,2|8,0:0|0:1,0:0:0:0:
275,328,14856,2,0,P|311:198|315:154,1,160,10|2,0:2|0:0,0:0:0:0:
363,48,15128,6,0,P|328:116|324:174,1,120,10|0,0:1|0:0,0:0:0:0:
421,370,15401,1,10,0:2:0:0:
512,181,15537,2,0,P|451:222|406:235,1,120,10|0,0:1|0:0,0:0:0:0:
252,67,15810,2,0,P|191:26|146:13,1,120,10|8,0:1|0:2,0:0:0:0:
6,289,16083,6,0,P|2:217|47:188,1,120,2|8,0:0|0:1,0:0:0:0:
151,220,16356,2,0,P|155:292|110:321,1,120,2|8,0:0|0:2,0:0:0:0:
15,112,16628,2,0,P|87:100|242:216,1,240,10|8,0:1|0:1,0:0:0:0:
300,345,17037,2,0,P|309:251|371:158,1,180,8|0,0:2|0:0,0:0:0:0:
440,125,17310,5,8,0:1:0:0:
373,46,17447,1,8,0:1:0:0:
440,329,17583,1,8,0:2:0:0:
215,271,17719,2,0,P|191:207|217:30,1,240,8|0,0:1|0:0,0:0:0:0:
337,263,18128,1,8,0:2:0:0:
19,157,18401,6,0,L|211:134,1,180,12|0,0:1|0:0,0:0:0:0:
212,145,18674,2,0,L|338:129,1,120,10|8,0:2|0:1,0:0:0:0:
495,6,18947,2,0,P|454:48|449:117,1,120,2|8,0:1|0:1,0:0:0:0:
499,263,19219,2,0,P|491:321|410:375,1,160,10|2,0:2|0:0,0:0:0:0:
299,309,19492,6,0,L|172:324,1,120,10|0,0:1|0:0,0:0:0:0:
0,203,19765,2,0,L|119:188,1,120,10|0,0:2|0:0,0:0:0:0:
350,157,20037,1,2,0:0:0:0:
197,56,20174,2,0,P|225:126|238:187,1,120,10|8,0:1|0:2,0:0:0:0:
265,364,20447,6,0,P|279:305|303:250,1,120,2|8,0:0|0:1,0:0:0:0:
512,140,20719,2,0,P|471:190|405:184,1,120,2|8,0:0|0:2,0:0:0:0:
268,66,20992,2,0,P|209:70|175:117,1,120,10|0,0:1|0:0,0:0:0:0:
164,275,21265,1,10,0:1:0:0:
59,2,21401,6,0,P|31:138|11:273,1,240,10|8,0:2|0:1,0:0:0:0:
4,368,21810,1,8,0:1:0:0:
231,201,21947,1,8,0:2:0:0:
161,372,22083,2,0,P|142:301|131:251,1,120,8|0,0:1|0:0,0:0:0:0:
118,127,22356,1,8,0:1:0:0:
360,286,22492,2,0,P|439:280|438:185,1,180,8|0,0:2|0:0,0:0:0:0:
375,115,22765,6,0,L|191:97,1,180,12|0,0:1|0:0,0:0:0:0:
124,32,23037,1,10,0:2:0:0:
62,225,23174,1,10,0:1:0:0:
259,20,23310,1,2,0:0:0:0:
321,213,23447,2,0,L|295:340,1,120,10|8,0:1|0:2,0:0:0:0:
134,158,23719,6,0,L|109:40,1,120,2|8,0:0|0:1,0:0:0:0:
389,49,23992,2,0,P|407:117|373:160,1,120,2|8,0:0|0:2,0:0:0:0:
222,273,24265,2,0,P|194:324|214:378,1,120,10|0,0:1|0:0,0:0:0:0:
476,310,24537,2,0,P|390:297|349:284,1,120,10|8,0:1|0:2,0:0:0:0:
244,75,24810,6,0,P|265:136|275:207,1,120,2|8,0:0|0:1,0:0:0:0:
112,347,25083,2,0,P|122:287|141:231,1,120,2|8,0:0|0:2,0:0:0:0:
430,131,25356,2,0,P|465:192|334:278,1,240,10|10,0:1|0:1,0:0:0:0:
204,159,25765,2,0,P|293:171|378:202,1,180,8|0,0:2|0:0,0:0:0:0:
484,256,26037,5,12,0:1:0:0:
220,256,26174,2,0,P|161:285|109:318,1,120,10|8,0:2|0:2,0:0:0:0:
0,131,26447,2,0,P|59:160|111:193,1,120,10|0,0:1|0:0,0:0:0:0:
220,6,26719,2,0,P|161:35|109:68,1,120,10|8,0:0|0:0,0:0:0:0:
36,258,26992,1,4,0:0:0:0:
328,130,27128,5,12,0:1:0:0:
328,130,27265,1,2,0:2:0:0:
198,348,27401,1,10,0:2:0:0:
198,348,27537,1,2,0:2:0:0:
120,216,27674,1,2,0:2:0:0:
120,216,27810,1,10,0:1:0:0:
281,352,27947,2,0,P|290:313|308:251,1,83.9999974365235,8|0,0:2|0:0,0:0:0:0:
492,188,28219,6,0,P|467:234|367:203,1,167.999994873047,8|8,0:1|0:2,0:0:0:0:
408,24,28628,1,2,0:2:0:0:
408,24,28765,1,2,0:2:0:0:
180,84,28901,1,2,0:2:0:0:
180,84,29037,1,10,0:2:0:0:
89,233,29174,1,2,0:2:0:0:
238,324,29310,5,10,0:1:0:0:
329,175,29447,2,0,L|312:85,1,83.9999974365235,10|8,0:1|0:2,0:0:0:0:
237,246,29719,2,0,L|220:336,1,83.9999974365235,2|0,0:1|0:0,0:0:0:0:
52,140,29992,2,0,L|35:50,1,83.9999974365235,10|8,0:1|0:2,0:0:0:0:
151,274,30265,2,0,L|135:356,1,83.9999974365235,2|8,0:0|0:1,0:0:0:0:
176,149,30537,6,0,L|258:133,1,83.9999974365235,2|8,0:0|0:2,0:0:0:0:
463,265,30810,1,2,0:2:0:0:
320,335,30947,1,2,0:2:0:0:
450,260,31083,1,10,0:1:0:0:
307,330,31219,2,0,L|205:314,1,83.9999974365235,8|0,0:2|0:0,0:0:0:0:
124,37,31492,5,12,0:1:0:0:
124,37,31628,1,2,0:2:0:0:
372,91,31765,1,10,0:2:0:0:
372,91,31901,1,2,0:2:0:0:
209,212,32037,1,2,0:2:0:0:
209,212,32174,1,10,0:1:0:0:
404,300,32310,2,0,L|421:212,1,83.9999974365235,8|0,0:2|0:0,0:0:0:0:
252,60,32583,6,0,P|328:72|319:147,1,167.999994873047,8|8,0:1|0:2,0:0:0:0:
98,242,32992,1,2,0:2:0:0:
260,286,33128,1,2,0:2:0:0:
107,253,33265,1,10,0:1:0:0:
269,297,33401,2,0,L|259:204,1,83.9999974365235,10|2,0:2|0:2,0:0:0:0:
24,84,33674,6,0,B|54:88|54:88|88:131|88:131|84:78|84:78|103:44,1,167.999994873047,8|10,0:1|0:2,0:0:0:0:
188,264,34083,2,0,L|170:89,1,167.999994873047,2|8,0:0|0:1,0:0:0:0:
311,54,34492,2,0,B|282:64|282:64|258:113|258:113|251:60|251:60|225:31,1,167.999994873047,14|8,0:2|0:1,0:0:0:0:
162,0,34901,1,0,0:0:0:0:
66,268,35037,6,0,L|46:152,1,107.999996704102,8|0,0:2|0:0,0:0:0:0:
240,360,35310,2,0,L|260:244,1,107.999996704102,8|0,0:2|0:0,0:0:0:0:
483,318,35583,1,8,0:2:0:0:
390,45,35719,1,8,0:2:0:0:
166,302,35856,5,12,0:1:0:0:
166,302,35992,1,8,0:1:0:0:
445,155,36128,2,0,P|365:133|232:109,1,180,8|0,0:2|0:0,0:0:0:0:
175,114,36401,2,0,P|277:83|296:75,1,120,2|8,0:0|0:1,0:0:0:0:
44,27,36674,2,0,P|84:151|107:246,1,180,8|0,0:2|0:0,0:0:0:0:
110,329,36947,5,10,0:1:0:0:
110,329,37083,1,8,0:1:0:0:
278,97,37219,1,8,0:2:0:0:
356,236,37356,2,0,P|424:251|430:114,1,240,8|8,0:1|0:1,0:0:0:0:
193,210,37765,1,8,0:2:0:0:
317,326,37901,1,2,0:0:0:0:
278,97,38037,5,10,0:1:0:0:
278,97,38174,2,0,P|218:114|136:128,1,120,10|8,0:1|0:2,0:0:0:0:
412,227,38447,2,0,P|352:210|270:196,1,120,2|0,0:0|0:0,0:0:0:0:
80,367,38719,6,0,P|138:324|127:260,1,120,10|8,0:1|0:2,0:0:0:0:
60,103,38992,2,0,P|68:45|118:17,1,120,2|8,0:0|0:1,0:0:0:0:
295,199,39265,2,0,P|210:207|177:186,1,120,10|8,0:1|0:2,0:0:0:0:
195,33,39537,2,0,P|280:25|313:46,1,120,10|0,0:1|0:0,0:0:0:0:
383,304,39810,2,0,P|419:183|476:81,1,240,10|0,0:1|0:0,0:0:0:0:
512,312,40219,5,12,0:1:0:0:
293,363,40356,2,0,L|183:344,1,90.0000034332277,10|0,0:1|0:0,0:0:0:0:
81,375,40628,1,10,0:1:0:0:
244,98,40765,1,8,0:2:0:0:
252,270,40901,2,0,L|229:170,1,90.0000034332277,2|12,0:0|0:1,0:0:0:0:
418,5,41174,1,0,0:2:0:0:
512,216,41310,5,8,0:0:0:0:
463,161,41401,1,8,0:0:0:0:
394,137,41492,1,8,0:0:0:0:
322,151,41583,1,8,0:0:0:0:
267,200,41674,1,8,0:0:0:0:
243,269,41765,1,8,0:0:0:0:
258,340,41856,5,4,0:0:0:0:
282,291,41947,1,4,0:0:0:0:
278,241,42037,1,4,0:0:0:0:
252,203,42128,1,4,0:0:0:0:
214,185,42219,1,4,0:0:0:0:
176,187,42310,1,4,0:0:0:0:
147,205,42401,5,4,0:1:0:0:
100,49,42537,2,0,L|185:32,1,60,2|0,2:2|2:0,0:0:0:0:
12,177,42810,2,0,L|86:191,1,60,2|0,2:2|2:0,0:0:0:0:
0,73,43083,1,0,2:0:0:0:
358,48,43219,6,0,L|283:33,1,60,2|0,2:2|2:0,0:0:0:0:
487,134,43492,2,0,L|355:156,1,120,2|0,2:2|2:0,0:0:0:0:
495,366,44037,5,2,2:0:0:0:
495,366,44174,2,0,P|466:362|436:352,1,60,2|0,2:0|2:0,0:0:0:0:
155,20,44583,5,12,0:1:0:0:
266,288,44719,1,2,0:0:0:0:
241,72,44856,1,10,0:2:0:0:
130,340,44992,2,0,P|103:259|69:188,1,138.000002632141,10|0,0:1|0:0,0:0:0:0:
239,45,45265,2,0,P|211:108|190:173,1,138.000002632141,10|8,0:1|0:2,0:0:0:0:
313,361,45537,6,0,P|393:360|432:302,1,138.000002632141,2|8,0:0|0:1,0:0:0:0:
451,151,45810,1,10,0:1:0:0:
219,293,45947,1,8,0:2:0:0:
318,94,46083,2,0,P|366:161|355:225,1,138.000002632141,10|0,0:1|0:0,0:0:0:0:
140,275,46356,2,0,P|92:208|103:144,1,138.000002632141,10|8,0:1|0:2,0:0:0:0:
368,18,46628,6,0,L|215:3,1,138.000002632141,2|12,0:0|0:1,0:0:0:0:
301,300,46901,2,0,L|454:285,1,138.000002632141,2|8,0:0|0:2,0:0:0:0:
202,115,47174,2,0,P|269:309|290:391,1,276.000005264282,10|8,0:1|0:1,0:0:0:0:
39,295,47583,2,0,P|76:162|123:32,1,276.000005264282,10|8,0:2|0:1,0:0:0:0:
224,14,47992,1,8,0:1:0:0:
335,225,48128,6,0,L|359:87,1,138.000002632141,10|0,0:2|0:0,0:0:0:0:
255,288,48401,2,0,P|183:280|151:220,1,138.000002632141,2|8,0:0|0:1,0:0:0:0:
387,311,48674,2,0,P|457:328|507:283,1,138.000002632141,10|0,0:2|0:0,0:0:0:0:
307,374,48947,5,12,0:1:0:0:
229,129,49083,2,0,L|512:87,1,276.000005264282,2|0,0:1|0:0,0:0:0:0:
446,332,49492,2,0,P|394:273|496:309,1,276.000005264282,0|8,0:2|0:2,0:0:0:0:
206,367,49901,6,0,P|179:251|117:95,1,276.000005264282,2|8,0:2|0:1,0:0:0:0:
9,349,50310,2,0,P|49:253|73:214,1,138.000002632141,10|0,0:2|0:0,0:0:0:0:
339,95,50583,2,0,P|258:84|194:65,1,138.000002632141,10|8,0:1|0:1,0:0:0:0:
466,205,50856,2,0,P|385:216|321:235,1,138.000002632141,10|0,0:2|0:0,0:0:0:0:
141,371,51128,6,0,P|171:285|128:181,1,207.000003948212,12|0,0:1|0:0,0:0:0:0:
20,126,51401,2,0,P|104:162|170:158,1,138.000002632141,10|0,0:2|0:0,0:0:0:0:
55,6,51674,2,0,P|123:10|184:42,1,138.000002632141,10|8,0:1|0:1,0:0:0:0:
293,303,51947,6,0,P|265:215|399:121,1,276.000005264282,10|8,0:2|0:1,0:0:0:0:
512,175,52356,1,8,0:1:0:0:
192,309,52492,2,0,P|176:186|239:85,1,207.000003948212,10|0,0:2|0:0,0:0:0:0:
316,47,52765,2,0,P|257:93|188:90,1,138.000002632141,2|10,0:0|0:1,0:0:0:0:
8,7,53037,1,8,0:2:0:0:
124,0,53174,1,0,0:0:0:0:
18,302,53310,5,12,0:1:0:0:
18,302,53447,2,0,P|77:243|133:249,1,138.000002632141,2|8,0:0|0:2,0:0:0:0:
305,360,53719,2,0,P|395:349|399:235,1,207.000003948212,2|0,0:1|0:0,0:0:0:0:
338,183,53992,2,0,L|319:28,1,138.000002632141,10|8,0:1|0:2,0:0:0:0:
172,183,54265,6,0,L|153:338,1,138.000002632141,2|8,0:0|0:1,0:0:0:0:
226,94,54537,1,10,0:1:0:0:
35,262,54674,1,8,0:2:0:0:
339,334,54810,2,0,L|322:197,1,138.000002632141,2|0,0:0|0:1,0:0:0:0:
189,23,55083,2,0,L|172:159,1,138.000002632141,10|8,0:1|0:2,0:0:0:0:
445,219,55356,6,0,P|437:141|387:98,1,138.000002632141,2|12,0:0|0:1,0:0:0:0:
182,257,55628,2,0,P|190:335|240:378,1,138.000002632141,2|8,0:0|0:2,0:0:0:0:
461,41,55901,2,0,P|371:13|255:152,1,276.000005264282,10|8,0:1|0:1,0:0:0:0:
230,373,56310,2,0,P|214:270|146:181,1,207.000003948212,10|0,0:2|0:0,0:0:0:0:
66,146,56583,1,8,0:1:0:0:
81,275,56719,1,8,0:1:0:0:
196,8,56856,6,0,P|240:72|255:162,1,138.000002632141,10|0,0:2|0:0,0:0:0:0:
389,51,57128,2,0,P|381:128|335:206,1,138.000002632141,2|8,0:0|0:1,0:0:0:0:
509,207,57401,2,0,P|453:261|367:291,1,138.000002632141,10|0,0:2|0:0,0:0:0:0:
257,270,57674,5,12,0:1:0:0:
285,12,57810,2,0,P|356:42|241:114,1,276.000005264282,2|0,0:2|0:0,0:0:0:0:
44,63,58219,2,0,L|195:46,1,138.000002632141,10|8,0:1|0:1,0:0:0:0:
466,158,58492,1,8,0:2:0:0:
133,342,58628,6,0,P|138:244|300:237,1,276.000005264282,12|8,0:1|0:1,0:0:0:0:
491,372,59037,2,0,L|474:216,1,138.000002632141,10|0,0:2|0:0,0:0:0:0:
313,0,59310,2,0,L|296:156,1,138.000002632141,10|8,0:1|0:1,0:0:0:0:
216,298,59583,2,0,L|199:142,1,138.000002632141,10|0,0:2|0:0,0:0:0:0:
27,10,59856,6,0,P|-3:79|103:135,1,207.000003948212,12|0,0:1|0:0,0:0:0:0:
158,67,60128,2,0,L|313:47,1,138.000002632141,10|0,0:2|0:0,0:0:0:0:
493,168,60401,1,10,0:1:0:0:
493,168,60537,1,8,0:1:0:0:
148,262,60674,1,10,0:2:0:0:
363,316,60810,6,0,P|346:235|289:32,1,276.000005264282,12|8,0:1|0:1,0:0:0:0:
205,349,61219,2,0,P|238:264|272:208,1,138.000002632141,10|0,0:2|0:0,0:0:0:0:
494,384,61492,2,0,P|461:299|427:243,1,138.000002632141,6|0,0:0|0:0,0:0:0:0:
202,125,61765,1,8,0:2:0:0:
498,11,61901,1,8,0:2:0:0:
342,282,62037,5,12,0:1:0:0:
256,192,62106,12,0,65037,0:0:0:0:
189,145,65310,6,0,L|210:153,1,20,8|8,0:0|0:0,0:0:0:0:
280,112,65447,2,0,L|143:142,1,120,8|8,0:0|0:1,0:0:0:0:
327,202,65856,2,0,L|394:229,1,60,8|0,0:2|0:0,0:0:0:0:
322,19,66128,1,8,0:2:0:0:
295,24,66197,1,8,0:2:0:0:
268,30,66265,1,8,0:2:0:0:
241,36,66333,1,8,0:2:0:0:
214,42,66401,6,0,B|211:73|211:73|229:112|229:112|216:133|216:133|209:212,1,161.999995056153,12|0,0:1|0:0,0:0:0:0:
194,210,66674,2,0,B|190:249|190:249|185:261|185:261|179:333,1,107.999996704102,10|0,0:2|0:0,0:0:0:0:
382,224,66947,2,0,L|372:116,1,107.999996704102,2|0,0:2|0:0,0:0:0:0:
86,88,67219,2,0,P|137:131|215:77,1,161.999995056153,10|0,0:2|0:0,0:0:0:0:
215,2,67492,6,0,L|238:122,1,107.999996704102,10|0,0:1|0:0,0:0:0:0:
126,270,67765,2,0,L|146:163,1,107.999996704102,10|0,0:2|0:0,0:0:0:0:
354,45,68037,1,2,0:2:0:0:
364,174,68174,2,0,L|343:67,1,107.999996704102,10|8,0:1|0:2,0:0:0:0:
258,256,68447,1,2,0:0:0:0:
444,174,68583,6,0,B|463:193|463:193|474:219,1,53.9999983520508,8|0,0:1|0:0,0:0:0:0:
471,335,68719,2,0,B|450:305|450:305|464:223,1,107.999996704102,2|8,0:1|0:2,0:0:0:0:
512,26,68992,2,0,B|491:47|491:47|450:45,1,53.9999983520508,10|0,0:1|0:0,0:0:0:0:
351,39,69128,2,0,B|399:14|399:14|450:30,1,107.999996704102,0|8,0:0|0:1,0:0:0:0:
272,261,69401,6,0,P|232:183|231:39,1,215.999993408203,10|8,0:2|0:1,0:0:0:0:
226,56,69810,1,8,0:1:0:0:
350,178,69947,1,8,0:2:0:0:
180,297,70083,2,0,P|151:239|137:180,1,107.999996704102,8|0,0:1|0:0,0:0:0:0:
129,92,70356,1,0,0:0:0:0:
352,256,70492,1,8,0:2:0:0:
422,11,70765,6,0,B|424:42|424:42|434:58|434:58|405:92|405:92|419:115|419:115|424:175,1,161.999995056153,8|0,0:1|0:0,0:0:0:0:
439,168,71037,2,0,B|442:211|442:211|447:223|447:223|453:291,1,107.999996704102,10|0,0:2|0:0,0:0:0:0:
257,161,71310,2,0,L|267:45,1,107.999996704102,2|8,0:0|0:1,0:0:0:0:
365,244,71583,2,0,L|375:359,1,107.999996704102,10|0,0:2|0:0,0:0:0:0:
109,328,71856,6,0,P|93:263|174:216,1,161.999995056153,10|0,0:1|0:0,0:0:0:0:
236,257,72128,2,0,B|264:260|264:260|295:241,1,53.9999983520508,10|0,0:2|0:0,0:0:0:0:
302,123,72265,2,0,B|286:186|286:186|302:249,1,107.999996704102,10|0,0:1|0:0,0:0:0:0:
395,186,72537,2,0,B|405:144|405:144|387:70|387:70|408:24,1,161.999995056153,10|0,0:1|0:0,0:0:0:0:
511,13,72810,2,0,L|398:33,1,107.999996704102,2|8,0:0|0:1,0:0:0:0:
302,123,73083,1,8,0:1:0:0:
116,68,73219,6,0,P|155:160|184:247,1,161.999995056153,10|0,0:2|0:0,0:0:0:0:
202,305,73492,1,8,0:1:0:0:
355,0,73628,6,0,P|316:92|287:179,1,161.999995056153,10|0,0:2|0:0,0:0:0:0:
269,237,73901,1,8,0:1:0:0:
424,111,74037,6,0,P|463:203|492:290,1,161.999995056153,10|0,0:2|0:0,0:0:0:0:
510,348,74310,2,0,P|483:346|429:329,1,53.9999983520508,8|0,0:1|0:0,0:0:0:0:
332,373,74447,2,0,P|320:348|307:293,1,53.9999983520508,10|0,0:2|0:0,0:0:0:0:
331,88,74583,6,0,P|305:168|256:254,1,161.999995056153,10|0,0:1|0:0,0:0:0:0:
184,296,74856,2,0,P|146:225|122:148,1,161.999995056153,10|0,0:1|0:0,0:0:0:0:
125,46,75128,5,14,0:1:0:0:
505,135,75401,2,0,B|472:129|472:129|436:173|436:173|411:163|411:163|347:168,1,161.999995056153,10|0,0:2|0:0,0:0:0:0:
348,180,75674,2,0,B|308:183|308:183|296:188|296:188|240:193,1,107.999996704102,0|8,0:0|0:1,0:0:0:0:
512,252,75947,1,10,0:2:0:0:
300,338,76083,1,2,0:0:0:0:
400,67,76219,5,10,0:1:0:0:
467,315,76356,2,0,L|335:293,1,107.999996704102,10|8,0:1|0:2,0:0:0:0:
270,193,76628,2,0,L|138:215,1,107.999996704102,10|0,0:1|0:0,0:0:0:0:
91,295,76901,1,10,0:1:0:0:
19,51,77037,2,0,L|151:73,1,107.999996704102,8|2,0:2|0:0,0:0:0:0:
264,298,77310,5,8,0:1:0:0:
311,109,77447,2,0,P|352:77|428:80,1,107.999996704102,2|8,0:1|0:2,0:0:0:0:
464,221,77719,2,0,P|423:253|347:250,1,107.999996704102,10|0,0:1|0:0,0:0:0:0:
228,228,77992,1,10,0:1:0:0:
409,31,78128,6,0,P|378:110|351:256,1,215.999993408203,10|8,0:2|0:1,0:0:0:0:
361,371,78537,1,8,0:1:0:0:
152,288,78674,2,0,B|164:263|164:263|163:225,1,53.9999983520508,8|0,0:2|0:0,0:0:0:0:
146,126,78810,2,0,B|126:187|126:187|164:263,1,107.999996704102,8|0,0:1|0:0,0:0:0:0:
261,272,79083,1,8,0:1:0:0:
274,32,79219,2,0,B|238:24|238:24|198:64|198:64|166:48|166:48|118:48,1,161.999995056153,8|0,0:2|0:0,0:0:0:0:
45,0,79492,6,0,B|48:35|48:35|57:51|57:51|33:97|33:97|42:108|42:108|52:180,1,161.999995056153,8|0,0:1|0:0,0:0:0:0:
39,169,79765,2,0,B|43:216|43:216|47:224|47:224|54:304,1,107.999996704102,10|0,0:2|0:0,0:0:0:0:
291,166,80037,2,0,L|301:50,1,107.999996704102,2|8,0:0|0:1,0:0:0:0:
176,221,80310,1,10,0:2:0:0:
388,280,80447,1,0,0:0:0:0:
169,90,80583,5,10,0:1:0:0:
116,341,80719,2,0,P|172:357|233:339,1,107.999996704102,10|8,0:1|0:2,0:0:0:0:
448,179,80992,2,0,P|392:163|331:181,1,107.999996704102,10|0,0:1|0:0,0:0:0:0:
174,258,81265,1,10,0:1:0:0:
241,4,81401,1,8,0:2:0:0:
74,74,81537,6,0,P|130:78|175:117,1,107.999996704102,2|8,0:0|0:1,0:0:0:0:
280,298,81810,2,0,P|255:246|266:188,1,107.999996704102,10|8,0:1|0:2,0:0:0:0:
371,9,82083,2,0,P|338:55|282:75,1,107.999996704102,2|8,0:0|0:1,0:0:0:0:
27,1,82356,2,0,L|64:223,1,215.999993408203,8|8,0:2|0:1,0:0:0:0:
297,361,82765,6,0,L|314:254,1,107.999996704102,8|10,0:2|0:2,0:0:0:0:
334,156,82969,1,8,0:2:0:0:
334,156,83037,1,8,0:2:0:0:
89,311,83174,1,10,0:2:0:0:
223,351,83310,1,8,0:0:0:0:
0,227,83447,1,10,0:0:0:0:
258,117,83583,1,4,0:0:0:0:
20,21,83719,1,6,0:0:0:0:
170,254,83856,5,12,0:1:0:0:
170,254,83992,2,0,P|122:240|76:239,2,83.9999974365235,0|0|8,0:1|0:1|0:1,0:0:0:0:
396,377,84401,1,8,0:2:0:0:
396,280,84537,2,0,P|407:231|430:191,1,83.9999974365235,8|0,0:1|0:0,0:0:0:0:
302,160,84810,2,0,P|279:115|270:70,1,83.9999974365235,8|0,0:1|0:0,0:0:0:0:
152,128,85083,2,0,P|106:107|70:79,1,83.9999974365235,8|0,0:1|0:0,0:0:0:0:
20,1,85356,1,8,0:1:0:0:
0,285,85492,1,8,0:2:0:0:
81,247,85628,2,0,P|123:244|170:255,1,83.9999974365235,8|0,0:1|0:0,0:0:0:0:
239,308,85901,1,2,0:0:0:0:
384,54,86037,5,10,0:1:0:0:
274,107,86174,2,0,P|300:165|309:197,1,83.9999974365235,10|0,0:1|0:0,0:0:0:0:
397,226,86447,2,0,P|378:263|365:303,1,83.9999974365235,10|8,0:1|0:2,0:0:0:0:
292,361,86719,2,0,P|252:346|210:341,1,83.9999974365235,10|0,0:1|0:0,0:0:0:0:
102,218,86992,2,0,P|120:256|134:296,1,83.9999974365235,10|0,0:1|0:0,0:0:0:0:
178,167,87265,2,0,P|191:127|209:89,1,83.9999974365235,10|0,0:1|0:0,0:0:0:0:
279,28,87537,1,10,0:1:0:0:
512,192,87674,2,0,P|503:152|503:99,1,83.9999974365235,10|0,0:2|0:0,0:0:0:0:
325,275,87947,1,8,0:2:0:0:
195,70,88083,1,10,0:2:0:0:
77,251,88219,5,12,0:1:0:0:
77,251,88356,2,0,P|64:202|172:215,1,192,8|8,0:1|0:1,0:0:0:0:
186,365,88765,2,0,P|199:314|217:261,1,96,8|0,0:2|0:0,0:0:0:0:
333,46,89037,1,10,0:2:0:0:
422,174,89174,6,0,P|376:161|327:150,1,96,12|0,0:1|0:0,0:0:0:0:
234,139,89447,1,0,0:0:0:0:
462,19,89583,2,0,P|487:86|502:116,1,96,8|0,0:2|0:0,0:0:0:0:
304,256,89856,2,0,P|324:212|339:167,1,96,8|0,0:2|0:0,0:0:0:0:
140,7,90128,1,8,0:2:0:0:
65,282,90265,1,8,0:2:0:0:
8,93,90401,5,12,0:1:0:0:
8,93,90537,2,0,P|58:86|94:129,1,107.999996704102,10|0,0:1|0:0,0:0:0:0:
148,318,90810,2,0,P|182:348|241:331,1,107.999996704102,2|8,0:0|0:2,0:0:0:0:
298,250,91083,1,10,0:1:0:0:
122,24,91219,1,10,0:2:0:0:
39,200,91356,1,0,0:0:0:0:
361,61,91492,2,0,P|302:50|239:29,1,120,2|0,0:0|0:0,0:0:0:0:
66,300,91765,5,8,0:0:0:0:
102,279,91833,1,8,0:0:0:0:
143,278,91901,1,8,0:0:0:0:
179,298,91969,1,8,0:0:0:0:
200,333,92037,2,0,P|221:352|257:358,1,60,8|8,0:0|0:0,0:0:0:0:
313,262,92174,2,0,P|339:253|363:225,1,60,8|8,0:0|0:0,0:0:0:0:
271,108,92310,2,0,L|281:171,1,60,4|4,0:0|0:0,0:0:0:0:
188,238,92447,2,0,L|178:301,1,60,4|4,0:0|0:0,0:0:0:0:
31,68,92583,6,0,B|156:16|168:150|293:89,1,276.000005264282,12|10,0:1|0:2,0:0:0:0:
487,19,92992,2,0,P|410:29|382:87,1,138.000002632141,10|0,0:1|0:0,0:0:0:0:
363,260,93265,2,0,P|440:250|468:192,1,138.000002632141,10|8,0:1|0:2,0:0:0:0:
277,104,93537,6,0,L|253:240,1,138.000002632141,2|8,0:0|0:1,0:0:0:0:
76,309,93810,1,10,0:1:0:0:
335,378,93947,1,8,0:2:0:0:
166,185,94083,2,0,P|142:123|167:49,1,138.000002632141,2|0,0:0|0:0,0:0:0:0:
376,54,94356,2,0,P|399:115|375:190,1,138.000002632141,10|8,0:1|0:2,0:0:0:0:
155,331,94628,1,2,0:1:0:0:
46,180,94765,5,12,0:1:0:0:
299,121,94901,2,0,P|204:106|157:93,1,138.000002632141,2|8,0:0|0:2,0:0:0:0:
0,301,95174,2,0,P|80:264|286:248,1,276.000005264282,2|8,0:0|0:1,0:0:0:0:
459,364,95583,2,0,P|373:327|435:176,1,276.000005264282,10|8,0:2|0:1,0:0:0:0:
512,167,95992,1,8,0:1:0:0:
305,88,96128,6,0,P|385:75|412:27,1,138.000002632141,10|0,0:2|0:0,0:0:0:0:
233,146,96401,2,0,L|247:309,1,138.000002632141,2|8,0:0|0:1,0:0:0:0:
153,101,96674,2,0,P|71:103|36:59,1,138.000002632141,10|0,0:2|0:0,0:0:0:0:
225,43,96947,5,12,0:1:0:0:
70,262,97083,2,0,P|131:210|345:172,1,276.000005264282,2|8,0:0|0:1,0:0:0:0:
509,278,97492,2,0,P|429:267|377:227,1,138.000002632141,2|8,0:0|0:1,0:0:0:0:
319,72,97765,1,8,0:2:0:0:
257,340,97901,6,0,P|231:228|168:56,1,276.000005264282,2|8,0:0|0:1,0:0:0:0:
63,337,98310,2,0,P|101:252|141:200,1,138.000002632141,10|0,0:2|0:0,0:0:0:0:
435,144,98583,2,0,P|359:89|298:64,1,138.000002632141,2|8,0:0|0:1,0:0:0:0:
43,47,98856,2,0,P|111:54|177:76,1,138.000002632141,10|0,0:2|0:0,0:0:0:0:
298,370,99128,6,0,P|272:270|371:253,1,207.000003948212,12|0,0:1|0:0,0:0:0:0:
441,270,99401,2,0,P|506:227|508:166,1,138.000002632141,10|0,0:2|0:0,0:0:0:0:
409,32,99674,1,2,0:0:0:0:
431,190,99810,1,8,0:1:0:0:
163,57,99947,6,0,P|245:36|258:192,1,276.000005264282,10|8,0:2|0:1,0:0:0:0:
152,236,100356,1,8,0:1:0:0:
387,334,100492,2,0,P|402:253|424:185,1,138.000002632141,10|0,0:2|0:0,0:0:0:0:
302,7,100765,2,0,P|321:73|333:141,1,138.000002632141,2|8,0:0|0:1,0:0:0:0:
256,383,101037,1,10,0:2:0:0:
404,333,101174,1,0,0:0:0:0:
125,231,101310,5,12,0:1:0:0:
318,154,101447,2,0,P|249:140|181:111,1,138.000002632141,2|8,0:0|0:2,0:0:0:0:
429,33,101719,2,0,P|363:150|337:250,1,207.000003948212,2|0,0:0|0:0,0:0:0:0:
378,359,101992,2,0,P|353:281|318:224,1,138.000002632141,10|8,0:1|0:2,0:0:0:0:
133,165,102265,6,0,P|158:87|193:30,1,138.000002632141,2|8,0:0|0:1,0:0:0:0:
429,33,102537,1,10,0:1:0:0:
278,102,102674,1,8,0:2:0:0:
498,253,102810,2,0,P|505:184|458:134,1,138.000002632141,2|0,0:0|0:0,0:0:0:0:
302,190,103083,2,0,P|295:259|342:309,1,138.000002632141,10|8,0:1|0:2,0:0:0:0:
496,29,103356,6,0,P|440:61|354:82,1,138.000002632141,2|12,0:0|0:1,0:0:0:0:
168,35,103628,2,0,P|87:14|31:14,1,138.000002632141,2|8,0:0|0:2,0:0:0:0:
0,306,103901,2,0,P|49:241|255:207,1,276.000005264282,2|8,0:0|0:1,0:0:0:0:
386,269,104310,2,0,P|308:243|277:118,1,207.000003948212,10|0,0:2|0:0,0:0:0:0:
300,35,104583,5,8,0:1:0:0:
378,160,104719,1,8,0:1:0:0:
120,150,104856,2,0,P|194:135|267:111,1,138.000002632141,10|0,0:2|0:0,0:0:0:0:
438,321,105128,2,0,P|370:287|306:245,1,138.000002632141,2|8,0:2|0:1,0:0:0:0:
392,22,105401,2,0,P|377:96|353:169,1,138.000002632141,10|0,0:2|0:0,0:0:0:0:
185,362,105674,5,12,0:1:0:0:
88,111,105810,2,0,P|190:113|362:157,1,276.000005264282,2|0,0:0|0:0,0:0:0:0:
365,384,106219,2,0,P|332:286|310:235,1,138.000002632141,10|8,0:1|0:1,0:0:0:0:
217,73,106492,1,8,0:2:0:0:
72,351,106628,6,0,P|35:239|8:53,1,276.000005264282,4|8,0:1|0:1,0:0:0:0:
204,221,107037,2,0,P|135:240|67:275,1,138.000002632141,10|0,0:2|0:0,0:0:0:0:
289,85,107310,1,10,0:1:0:0:
392,215,107447,1,8,0:1:0:0:
154,135,107583,2,0,P|128:61|116:0,1,138.000002632141,10|0,0:2|0:0,0:0:0:0:
427,81,107856,5,10,0:2:0:0:
266,190,107992,1,8,0:1:0:0:
441,275,108128,1,10,0:1:0:0:
219,87,108265,5,8,0:2:0:0:
380,196,108401,1,10,0:1:0:0:
205,281,108537,1,8,0:1:0:0:
383,64,108674,6,0,P|353:167|322:321,1,240,12|8,0:2|0:1,0:0:0:0:
219,87,109083,1,8,0:2:0:0:
192,354,109219,2,0,P|170:296|138:237,1,120,10|8,0:1|0:0,0:0:0:0:
0,115,109492,5,10,0:0:0:0:
79,51,109628,1,4,0:0:0:0:
128,264,109765,1,8,0:2:0:0:
301,65,109901,1,8,0:2:0:0:
400,362,110037,5,12,0:1:0:0:
461,224,110174,1,2,0:0:0:0:
273,323,110310,1,10,0:2:0:0:
462,309,110447,2,0,P|438:234|402:174,1,143.999995605469,2|8,0:0|0:1,0:0:0:0:
174,152,110719,2,0,P|198:77|234:17,1,143.999995605469,2|8,0:0|0:2,0:0:0:0:
484,78,110992,2,0,P|394:95|346:122,1,143.999995605469,2|8,0:0|0:1,0:0:0:0:
194,366,111265,6,0,P|207:279|201:209,1,143.999995605469,2|8,0:0|0:2,0:0:0:0:
71,26,111537,2,0,P|68:97|80:168,1,143.999995605469,2|8,0:0|0:1,0:0:0:0:
244,299,111810,1,2,0:0:0:0:
325,33,111947,1,8,0:2:0:0:
361,297,112083,2,0,P|338:221|306:164,1,143.999995605469,2|12,0:0|0:1,0:0:0:0:
129,342,112356,2,0,P|149:272|183:209,1,143.999995605469,2|8,0:0|0:2,0:0:0:0:
481,135,112628,6,0,P|394:170|256:57,1,287.999991210938,2|0,0:0|0:0,0:0:0:0:
46,29,113037,2,0,P|118:1|84:135,1,287.999991210938,10|8,0:2|0:1,0:0:0:0:
51,360,113583,6,0,P|130:329|190:266,1,143.999995605469,10|0,0:2|0:0,0:0:0:0:
267,353,113856,2,0,L|247:170,1,143.999995605469,10|0,0:1|0:0,0:0:0:0:
480,314,114128,2,0,P|396:300|324:251,1,143.999995605469,10|0,0:2|0:0,0:0:0:0:
242,130,114401,1,12,0:1:0:0:
455,0,114537,6,0,P|405:100|370:281,1,287.999991210938,2|0,0:0|0:0,0:0:0:0:
272,373,114947,2,0,P|253:270|82:271,1,287.999991210938,2|8,0:1|0:2,0:0:0:0:
371,377,115356,6,0,P|346:235|286:105,1,287.999991210938,2|0,0:0|0:0,0:0:0:0:
70,106,115765,2,0,P|156:155|219:172,1,143.999995605469,10|0,0:2|0:0,0:0:0:0:
424,28,116037,2,0,P|338:77|292:124,1,143.999995605469,10|0,0:1|0:0,0:0:0:0:
314,373,116310,2,0,P|313:274|296:210,1,143.999995605469,10|0,0:2|0:0,0:0:0:0:
75,26,116583,6,0,P|6:57|52:179,1,215.999993408203,14|0,0:1|0:0,0:0:0:0:
147,230,116856,2,0,L|312:208,1,143.999995605469,10|0,0:2|0:0,0:0:0:0:
450,98,117128,2,0,L|285:76,1,143.999995605469,10|0,0:1|0:0,0:0:0:0:
217,328,117401,2,0,P|267:247|440:283,1,287.999991210938,10|8,0:2|0:1,0:0:0:0:
99,352,117947,6,0,P|71:270|61:212,1,143.999995605469,10|0,0:2|0:0,0:0:0:0:
86,18,118219,1,10,0:1:0:0:
277,259,118356,2,0,P|305:177|315:119,1,143.999995605469,8|0,0:2|0:2,0:0:0:0:
51,234,118628,1,8,0:2:0:0:
363,350,118765,5,12,0:1:0:0:
198,223,118901,1,2,0:0:0:0:
488,140,119037,1,10,0:2:0:0:
239,13,119174,2,0,P|273:84|291:157,1,143.999995605469,2|8,0:0|0:1,0:0:0:0:
378,370,119447,2,0,P|396:300|428:236,1,143.999995605469,2|8,0:0|0:2,0:0:0:0:
500,30,119719,2,0,P|440:60|357:80,1,143.999995605469,2|8,0:0|0:1,0:0:0:0:
86,161,119992,6,0,P|155:178|220:209,1,143.999995605469,2|8,0:0|0:2,0:0:0:0:
436,378,120265,2,0,P|416:308|412:236,1,143.999995605469,2|8,0:0|0:1,0:0:0:0:
337,0,120537,2,0,P|332:71|313:140,1,143.999995605469,2|8,0:0|0:2,0:0:0:0:
149,335,120810,1,2,0:0:0:0:
43,61,120947,5,12,0:1:0:0:
224,165,121083,2,0,P|144:177|67:210,1,143.999995605469,2|8,0:0|0:2,0:0:0:0:
328,365,121356,2,0,P|373:240|392:69,1,287.999991210938,2|0,0:0|0:0,0:0:0:0:
76,112,121765,2,0,P|201:157|372:176,1,287.999991210938,10|8,0:2|0:1,0:0:0:0:
54,325,122310,6,0,P|99:264|167:262,1,143.999995605469,10|0,0:2|0:0,0:0:0:0:
323,372,122583,2,0,P|392:365|431:307,1,143.999995605469,10|0,0:1|0:0,0:0:0:0:
381,153,122856,2,0,P|426:92|494:90,1,143.999995605469,10|0,0:2|0:0,0:0:0:0:
357,249,123128,5,12,0:1:0:0:
294,39,123265,2,0,P|170:12|107:161,1,287.999991210938,2|8,0:0|0:1,0:0:0:0:
150,333,123674,2,0,P|226:311|242:249,1,143.999995605469,8|0,0:1|0:0,0:0:0:0:
216,121,123947,1,8,0:2:0:0:
301,346,124083,6,0,P|384:313|343:138,1,287.999991210938,12|8,0:1|0:0,0:0:0:0:
170,263,124492,1,10,0:2:0:0:
308,241,124628,1,8,0:1:0:0:
85,123,124765,1,10,0:0:0:0:
223,145,124901,1,8,0:0:0:0:
53,309,125037,1,6,0:0:0:0:
53,309,125174,1,4,0:0:0:0:
319,377,125310,5,12,0:1:0:0:
352,290,125447,2,0,P|347:232|350:145,1,120,8|8,0:1|0:1,0:0:0:0:
210,331,125856,2,0,P|225:332|245:340,1,30,10|0,0:2|0:0,0:0:0:0:
189,339,125992,1,8,0:1:0:0:
123,211,126128,6,0,P|133:239|138:268,1,60,10|8,0:1|0:1,0:0:0:0:
46,145,126401,1,0,0:0:0:0:
124,82,126537,1,8,0:1:0:0:
284,255,126674,6,0,P|254:245|218:239,1,60,2|8,0:0|0:1,0:0:0:0:
446,135,126947,2,0,P|380:159|328:164,1,120,10|0,0:0|0:0,0:0:0:0:
124,82,127219,1,8,0:1:0:0:
120,93,127287,1,8,0:1:0:0:
117,104,127356,1,8,0:1:0:0:
114,115,127424,1,8,0:1:0:0:
111,126,127492,5,12,0:1:0:0:
256,192,132128,12,2,133765,2:0:0:0:
93,101,134037,6,0,P|131:115|172:158,1,80,8|0,0:0|0:0,0:0:0:0:
236,31,134219,2,0,P|242:70|226:127,1,80,8|0,0:0|0:0,0:0:0:0:
368,119,134401,2,0,P|336:144|279:158,1,80,8|0,0:0|0:0,0:0:0:0:
55,227,134598,6,0,P|92:210|151:213,1,80,4|0,0:0|0:0,0:0:0:0:
235,109,134803,2,0,P|230:148|212:184,1,80,4|0,0:0|0:0,0:0:0:0:
244,322,135008,2,0,P|211:298|190:265,1,80,4|0,0:0|0:0,0:0:0:0:
51,81,135213,6,0,L|148:95,1,64,8|0,0:1|0:0,0:0:0:0:
196,52,135479,2,0,L|293:66,1,55.9999982910157,8|0,0:1|0:0,0:0:0:0:
335,23,135812,2,0,L|397:31,1,35.9999989013672,8|0,0:1|0:0,0:0:0:0:
462,257,136212,5,4,2:0:0:0:
462,257,136757,5,12,0:1:0:0:
341,145,136893,1,2,0:0:0:0:
229,266,137029,1,2,0:0:0:0:
350,378,137166,1,2,0:0:0:0:
442,156,137302,5,10,0:2:0:0:
289,323,137438,1,2,0:0:0:0:
221,107,137575,2,0,P|185:82|126:66,1,96,2|0,0:0|0:0,0:0:0:0:
29,329,137847,5,10,0:1:0:0:
158,306,137984,1,2,0:0:0:0:
287,283,138120,2,0,P|233:259|205:222,1,96,2|0,0:0|0:0,0:0:0:0:
376,45,138393,5,10,0:2:0:0:
376,45,138529,1,0,0:0:0:0:
412,205,138666,1,2,0:0:0:0:
412,205,138802,1,0,0:0:0:0:
448,365,138938,6,0,L|471:255,1,96,14|0,0:1|0:0,0:0:0:0:
273,310,139211,1,2,0:0:0:0:
359,343,139347,1,2,0:0:0:0:
213,141,139484,1,10,0:2:0:0:
142,266,139620,1,2,0:0:0:0:
70,143,139757,2,0,P|89:76|105:39,1,96,2|0,0:0|0:0,0:0:0:0:
243,242,140029,5,10,0:1:0:0:
125,261,140166,1,2,0:0:0:0:
7,280,140302,2,0,P|32:314|96:328,1,96,2|0,0:0|0:0,0:0:0:0:
424,216,140575,6,0,P|394:194|416:228,1,107.999996704102,12|0,0:2|0:0,0:0:0:0:
447,102,141120,5,14,0:1:0:0:
294,167,141257,1,2,0:0:0:0:
359,320,141393,1,2,0:0:0:0:
512,254,141529,1,2,0:0:0:0:
345,74,141666,5,10,0:2:0:0:
274,267,141802,1,2,0:0:0:0:
143,110,141938,2,0,P|84:106|42:131,1,96,2|0,0:0|0:0,0:0:0:0:
133,318,142211,1,10,0:1:0:0:
108,194,142347,1,2,0:0:0:0:
121,329,142484,2,0,P|168:354|220:343,1,96,2|0,0:0|0:0,0:0:0:0:
270,98,142757,6,0,L|289:202,1,96,10|0,0:2|0:0,0:0:0:0:
382,16,143029,2,0,L|363:120,1,96,2|0,0:0|0:0,0:0:0:0:
293,10,143302,1,8,0:1:0:0:
48,114,143575,6,0,P|93:109|135:138,1,96,2|0,0:0|0:0,0:0:0:0:
199,311,143847,2,0,P|237:337|284:333,1,96,10|0,0:2|0:0,0:0:0:0:
449,141,144120,1,2,0:0:0:0:
291,174,144257,1,2,0:0:0:0:
291,174,144393,1,8,0:1:0:0:
291,174,144666,1,8,0:1:0:0:
18,239,144802,1,8,0:1:0:0:
118,69,144938,6,0,P|111:50|107:17,1,32,8|0,0:0|0:0,0:0:0:0:
178,41,145029,2,0,P|191:26|218:6,1,32,8|0,0:0|0:0,0:0:0:0:
232,80,145120,2,0,P|251:84|282:97,1,32,8|0,0:0|0:0,0:0:0:0:
225,147,145211,2,0,P|231:166|235:199,1,32,4|0,0:0|0:0,0:0:0:0:
163,175,145302,2,0,P|182:179|213:192,1,32,4|0,0:0|0:0,0:0:0:0:
157,242,145393,2,0,P|170:227|197:207,1,32,4|0,0:0|0:0,0:0:0:0:
213,281,145484,6,0,P|203:232|226:186,1,96,12|2,0:1|0:0,0:0:0:0:
392,101,145757,1,2,0:0:0:0:
302,13,145893,1,2,0:0:0:0:
334,302,146029,1,10,0:2:0:0:
363,202,146166,1,2,0:0:0:0:
392,101,146302,2,0,P|345:100|282:80,1,96,2|8,0:0|0:2,0:0:0:0:
76,273,146575,5,10,0:1:0:0:
84,124,146711,1,2,0:0:0:0:
210,206,146847,2,0,P|202:264|189:303,1,96,2|0,0:0|0:0,0:0:0:0:
7,161,147120,2,0,P|55:150|115:131,1,96,10|0,0:2|0:0,0:0:0:0:
228,35,147393,1,2,0:0:0:0:
303,117,147529,1,2,0:0:0:0:
441,11,147666,6,0,P|425:56|417:106,1,96,10|0,0:1|0:0,0:0:0:0:
489,220,147938,2,0,P|505:265|513:315,1,96,2|0,0:0|0:0,0:0:0:0:
298,366,148211,1,10,0:2:0:0:
298,366,148347,1,2,0:0:0:0:
256,211,148484,1,2,0:0:0:0:
361,94,148620,1,2,0:0:0:0:
208,62,148757,6,0,P|249:91|281:130,1,96,10|2,0:1|0:0,0:0:0:0:
322,276,149029,2,0,P|353:239|392:212,1,96,2|0,0:0|0:0,0:0:0:0:
182,235,149302,1,10,0:2:0:0:
229,356,149438,1,2,0:0:0:0:
278,125,149575,2,0,P|232:109|185:104,1,96,2|0,0:0|0:0,0:0:0:0:
48,311,149847,5,14,0:1:0:0:
117,163,149984,1,2,0:0:0:0:
264,233,150120,1,2,0:0:0:0:
195,380,150257,1,2,0:0:0:0:
26,210,150393,1,10,0:2:0:0:
204,31,150529,6,0,B|228:73|228:73|282:95,1,96,2|0,0:0|0:0,0:0:0:0:
175,253,150802,2,0,B|199:211|199:211|191:153,1,96,2|8,0:0|0:1,0:0:0:0:
382,168,151075,2,0,B|333:167|333:167|287:203,1,96,2|0,0:0|0:0,0:0:0:0:
282,327,151347,1,2,0:0:0:0:
117,130,151484,2,0,P|157:86|204:79,1,96,10|0,0:2|0:0,0:0:0:0:
461,201,151757,2,0,P|421:245|374:252,1,96,2|0,0:0|0:0,0:0:0:0:
222,207,152029,5,8,0:1:0:0:
407,30,152302,2,0,P|356:24|308:5,1,96,2|0,0:0|0:0,0:0:0:0:
169,124,152575,2,0,P|213:107|261:102,1,96,10|0,0:2|0:0,0:0:0:0:
487,160,152847,1,2,0:0:0:0:
307,294,152984,6,0,P|288:236|392:220,1,192,10|8,0:1|0:1,0:0:0:0:
213,361,153393,1,8,0:2:0:0:
401,312,153529,1,8,0:1:0:0:
131,171,153666,2,0,P|181:164|239:136,1,107.999996704102,10|0,0:2|0:0,0:0:0:0:
97,334,153938,1,10,0:2:0:0:
25,54,154075,1,8,0:2:0:0:
25,54,154211,6,0,P|81:30|140:60,1,120,2|2,0:0|0:0,0:0:0:0:
167,135,154620,2,0,P|190:149|244:147,1,60,2|2,0:0|0:0,0:0:0:0:
306,119,154893,1,2,0:0:0:0:
458,8,155166,5,2,0:0:0:0:
458,8,155302,2,0,P|420:47|435:114,1,120,2|2,0:0|0:0,0:0:0:0:
483,179,155711,2,0,P|493:235|454:278,1,120,2|2,0:0|0:0,0:0:0:0:
367,308,156120,2,0,L|289:299,1,60,2|2,0:0|0:0,0:0:0:0:
198,223,156393,5,2,0:0:0:0:
198,223,156529,2,0,P|215:186|218:158,1,60,2|2,0:0|0:0,0:0:0:0:
167,91,156802,2,0,P|172:52|257:22,1,120,2|2,0:0|0:0,0:0:0:0:
308,72,157211,2,0,P|358:87|377:89,1,60,2|0,0:0|0:0,0:0:0:0:
455,97,157484,6,0,P|426:144|400:223,1,120,2|0,0:0|0:0,0:0:0:0:
399,349,157893,1,2,0:0:0:0:
399,349,158029,2,0,P|394:309|307:282,1,120,2|2,0:0|0:0,0:0:0:0:
257,330,158438,1,0,0:0:0:0:
169,308,158575,6,0,P|164:261|150:232,1,60,2|0,0:0|0:0,0:0:0:0:
90,160,158847,1,2,0:0:0:0:
90,160,158984,2,0,P|125:175|189:115,1,120,2|2,0:0|0:0,0:0:0:0:
197,42,159393,2,0,P|221:18|263:10,1,60,2|2,0:0|0:0,0:0:0:0:
322,56,159666,6,0,L|353:186,1,120,2|0,0:0|0:0,0:0:0:0:
355,282,160075,1,2,0:0:0:0:
355,282,160211,2,0,P|320:257|285:253,1,60,2|0,0:0|0:0,0:0:0:0:
216,255,160484,1,2,0:0:0:0:
216,255,160620,1,2,0:0:0:0:
216,255,160757,6,0,P|202:212|256:151,1,120,2|2,0:0|0:0,0:0:0:0:
330,134,161166,2,0,P|355:101|354:69,1,60,2|0,0:0|0:0,0:0:0:0:
234,1,161438,1,2,0:0:0:0:
87,115,161711,1,2,0:0:0:0:
87,115,161847,6,0,L|123:240,1,120,2|0,0:0|0:0,0:0:0:0:
192,285,162257,1,2,0:0:0:0:
192,285,162393,2,2,L|225:169,1,120
285,378,162938,5,2,0:0:0:0:
285,378,163075,2,0,P|296:342|311:311,1,60,2|2,0:0|0:0,0:0:0:0:
378,269,163347,2,0,P|362:215|332:150,1,120,2|2,0:0|0:0,0:0:0:0:
253,118,163757,2,0,P|258:71|269:39,1,60,2|0,0:0|0:0,0:0:0:0:
329,0,164029,6,0,P|373:31|460:46,1,120,2|0,0:0|0:0,0:0:0:0:
505,155,164438,1,2,0:0:0:0:
505,155,164575,2,0,L|425:164,1,60,2|0,0:0|0:0,0:0:0:0:
377,220,164847,2,0,L|290:210,1,60,2|0,0:0|0:0,0:0:0:0:
244,146,165120,5,2,0:0:0:0:
244,146,165257,2,0,P|225:182|217:208,1,60,2|0,0:0|0:0,0:0:0:0:
165,272,165529,2,0,P|154:243|139:217,1,60,2|0,0:0|0:0,0:0:0:0:
61,172,165802,2,0,P|47:198|36:226,1,60,2|0,0:0|0:0,0:0:0:0:
82,320,166075,1,2,0:0:0:0:
82,320,166211,2,0,P|112:287|141:205,1,120,2|0,0:0|0:0,0:0:0:0:
132,127,166620,2,0,P|116:67|127:2,1,120,2|2,0:0|0:0,0:0:0:0:
208,62,167029,6,0,L|223:123,1,53.9999983520508,2|0,0:0|0:0,0:0:0:0:
234,127,167302,6,0,L|192:297,1,144,12|0,0:1|0:0,0:0:0:0:
174,353,167575,1,8,0:1:0:0:
322,271,167711,1,8,0:1:0:0:
16,162,167847,1,8,0:2:0:0:
16,162,168120,2,0,L|69:153,1,48,10|0,0:2|0:0,0:0:0:0:
272,55,168257,6,0,P|226:56|202:143,1,144,8|0,0:2|0:0,0:0:0:0:
261,213,168529,1,8,0:2:0:0:
418,123,168666,2,0,P|475:132|510:230,1,144,12|0,0:1|0:0,0:0:0:0:
491,294,168938,1,8,0:2:0:0:
347,182,169075,1,10,0:1:0:0:
254,384,169211,2,0,P|240:324|220:277,1,96,0|8,0:0|0:2,0:0:0:0:
39,121,169484,6,0,P|40:175|129:188,1,144,12|0,0:1|0:0,0:0:0:0:
182,136,169757,1,8,0:0:0:0:
246,293,169893,1,8,0:0:0:0:
319,37,170029,2,0,L|360:229,1,192,10|8,0:2|0:1,0:0:0:0:
126,352,170438,1,10,0:1:0:0:
116,349,170507,1,8,0:1:0:0:
106,346,170575,6,0,L|83:176,1,144,12|0,0:1|0:0,0:0:0:0:
83,184,170847,1,12,0:1:0:0:
403,29,171257,5,10,0:1:0:0:
344,354,171666,5,12,0:1:0:0:
242,150,171802,1,2,0:0:0:0:
268,303,171938,1,10,0:2:0:0:
370,99,172075,2,0,P|336:29|267:17,1,138.000002632141,10|0,0:1|0:0,0:0:0:0:
135,147,172347,2,0,P|169:217|238:229,1,138.000002632141,10|8,0:1|0:2,0:0:0:0:
423,258,172620,6,0,P|329:274|278:298,1,138.000002632141,2|8,0:0|0:1,0:0:0:0:
148,372,172893,1,10,0:1:0:0:
41,138,173029,1,8,0:2:0:0:
162,258,173166,2,0,P|181:175|204:116,1,138.000002632141,2|0,0:0|0:0,0:0:0:0:
21,12,173438,2,0,P|44:76|58:144,1,138.000002632141,10|8,0:1|0:2,0:0:0:0:
58,366,173711,1,2,0:0:0:0:
277,161,173847,5,12,0:1:0:0:
187,371,173984,2,0,P|162:289|195:237,1,138.000002632141,2|8,0:0|0:2,0:0:0:0:
508,373,174257,2,0,P|417:324|247:307,1,276.000005264282,2|8,0:0|0:1,0:0:0:0:
23,276,174666,2,0,P|87:245|60:56,1,276.000005264282,10|8,0:2|0:1,0:0:0:0:
10,160,175075,1,8,0:1:0:0:
308,52,175211,6,0,P|264:100|255:176,1,138.000002632141,10|0,0:2|0:0,0:0:0:0:
472,272,175484,2,0,P|408:250|321:231,1,138.000002632141,2|8,0:0|0:1,0:0:0:0:
36,272,175757,2,0,P|100:250|187:231,1,138.000002632141,10|0,0:2|0:0,0:0:0:0:
253,297,176029,5,12,0:1:0:0:
368,96,176166,2,0,P|256:27|137:91,1,276.000005264282,2|0,0:0|0:0,0:0:0:0:
253,297,176575,2,0,L|253:145,1,138.000002632141,10|8,0:1|0:1,0:0:0:0:
144,351,176847,1,8,0:2:0:0:
502,207,176984,6,0,P|396:188|224:130,1,276.000005264282,2|8,0:0|0:1,0:0:0:0:
31,276,177393,2,0,P|114:255|172:228,1,138.000002632141,10|0,0:2|0:0,0:0:0:0:
244,0,177666,2,0,P|220:82|215:146,1,138.000002632141,10|8,0:1|0:1,0:0:0:0:
376,322,177938,2,0,P|316:260|263:223,1,138.000002632141,10|0,0:2|0:0,0:0:0:0:
6,114,178211,6,0,P|32:65|115:55,1,138.000002632141,14|0,0:1|0:0,0:0:0:0:
271,253,178484,2,0,P|337:247|373:191,1,138.000002632141,10|0,0:2|0:0,0:0:0:0:
327,61,178757,2,0,P|353:12|436:2,1,138.000002632141,2|8,0:1|0:1,0:0:0:0:
505,223,179029,6,0,P|421:186|231:149,1,276.000005264282,10|8,0:2|0:1,0:0:0:0:
99,176,179438,1,8,0:1:0:0:
244,376,179575,2,0,P|276:307|290:242,1,138.000002632141,10|0,0:2|0:0,0:0:0:0:
200,52,179847,1,2,0:0:0:0:
188,229,179984,1,8,0:1:0:0:
475,82,180120,2,0,P|405:59|321:93,1,138.000002632141,8|0,0:2|0:0,0:0:0:0:
144,324,180393,5,12,0:1:0:0:
52,100,180529,2,0,P|125:101|152:160,1,138.000002632141,2|8,0:0|0:2,0:0:0:0:
252,369,180802,2,0,P|241:277|257:156,1,207.000003948212,2|0,0:0|0:0,0:0:0:0:
397,116,181075,2,0,P|376:197|345:249,1,138.000002632141,10|8,0:1|0:2,0:0:0:0:
14,303,181347,6,0,P|79:324|148:328,1,138.000002632141,2|8,0:0|0:1,0:0:0:0:
200,109,181620,1,10,0:1:0:0:
341,371,181757,1,8,0:2:0:0:
491,106,181893,2,0,P|430:139|344:159,1,138.000002632141,2|0,0:1|0:1,0:0:0:0:
106,160,182166,2,0,P|152:211|226:260,1,138.000002632141,10|8,0:1|0:2,0:0:0:0:
433,8,182438,6,0,P|350:10|325:62,1,138.000002632141,2|12,0:0|0:1,0:0:0:0:
315,207,182711,2,0,P|273:258|207:250,1,138.000002632141,2|8,0:0|0:2,0:0:0:0:
0,20,182984,2,0,P|83:4|139:156,1,276.000005264282,10|8,0:1|0:1,0:0:0:0:
28,365,183393,2,0,P|3:253|131:256,1,276.000005264282,8|12,0:2|0:1,0:0:0:0:
151,376,183802,1,8,0:1:0:0:
291,201,183938,6,0,P|263:132|229:74,1,138.000002632141,10|0,0:2|0:0,0:0:0:0:
409,257,184211,2,0,P|437:188|471:130,1,138.000002632141,2|8,0:0|0:1,0:0:0:0:
262,328,184484,2,0,P|203:282|144:249,1,138.000002632141,10|0,0:2|0:0,0:0:0:0:
363,350,184757,5,12,0:1:0:0:
468,133,184893,1,2,0:0:0:0:
224,168,185029,2,0,P|272:217|340:261,1,138.000002632141,8|0,0:2|0:0,0:0:0:0:
454,50,185302,2,0,P|388:72|329:107,1,138.000002632141,8|0,0:1|0:0,0:0:0:0:
124,359,185575,2,0,P|192:354|258:335,1,138.000002632141,8|0,0:2|0:0,0:0:0:0:
329,107,185847,5,8,0:2:0:0:
404,365,185984,2,0,P|461:243|481:104,1,276.000005264282,12|8,0:1|0:2,0:0:0:0:
190,63,186393,1,10,0:2:0:0:
259,336,186529,1,8,0:0:0:0:
346,29,186666,2,0,P|299:85|270:150,1,138.000002632141,10|0,0:0|0:0,0:0:0:0:
255,355,186938,5,6,0:0:0:0:
12,182,187075,1,8,0:2:0:0:
116,187,187211,2,0,L|26:171,1,83.9999974365235,10|0,0:0|0:0,0:0:0:0:
360,62,187484,5,10,0:2:0:0:
143,86,187620,2,0,L|233:102,1,83.9999974365235,8|2,0:0|0:0,0:0:0:0:
46,266,187893,5,8,0:2:0:0:
331,306,188029,2,0,L|205:328,1,96,8|0,0:2|0:0,0:0:0:0:
445,99,188302,2,0,L|319:76,1,96,10|0,0:2|0:0,0:0:0:0:
497,266,188575,5,10,0:0:0:0:
427,256,188666,1,8,0:0:0:0:
357,246,188757,1,8,0:0:0:0:
287,237,188847,1,4,0:0:0:0:
290,255,188938,1,4,0:0:0:0:
293,273,189029,1,4,0:0:0:0:
296,291,189120,6,0,B|386:275|380:162|326:121|182:127|196:339|196:339|187:226|102:190|102:190|189:156|178:70|178:70|124:58|97:91,1,840,12|0,0:1|0:0,0:0:0:0:
405,374,191302,6,0,P|436:266|494:121,1,240,12|0,0:1|0:0,0:0:0:0:
244,33,192120,6,0,P|297:39|319:108,1,120,8|0,0:0|0:0,0:0:0:0:
272,157,192529,2,0,P|219:151|197:82,1,120,4|4,0:0|0:0,0:0:0:0:
40,15,192938,5,8,0:2:0:0:
19,62,193029,1,8,0:0:0:0:
24,113,193120,1,8,0:0:0:0:
53,154,193211,1,4,0:0:0:0:
99,165,193302,1,4,0:0:0:0:
142,161,193393,1,4,0:0:0:0:
176,141,193484,6,0,B|265:138|297:220|297:220|333:144|418:162|418:162|360:189,1,360,12|8,0:1|0:0,0:0:0:0:
103,275,194438,2,0,P|136:239|211:233,1,120,8|8,0:2|0:0,0:0:0:0:
282,302,194847,2,0,L|294:369,1,60,8|8,0:0|0:0,0:0:0:0:
440,145,195120,5,8,0:2:0:0:
328,120,195257,1,8,0:0:0:0:
234,99,195393,1,4,0:0:0:0:
158,81,195529,1,4,0:0:0:0:
142,89,195666,6,0,L|176:195,1,90,12|0,0:1|0:0,0:0:0:0:
166,189,195938,2,0,L|200:295,1,90,8|0,0:1|0:0,0:0:0:0:
165,358,196211,6,0,P|184:321|268:325,1,120,8|8,0:2|0:1,0:0:0:0:
379,383,196620,1,4,0:0:0:0:
382,368,196688,1,4,0:0:0:0:
385,353,196757,5,4,0:0:0:0:
234,220,196893,1,8,0:2:0:0:
391,149,197029,1,4,0:0:0:0:
391,149,197166,1,4,0:0:0:0:
136,20,197302,1,8,0:2:0:0:
136,20,197575,1,8,0:2:0:0:
142,61,197643,1,8,0:2:0:0:
148,102,197711,1,8,0:2:0:0:
154,143,197779,1,8,0:2:0:0:
160,184,197847,5,12,0:1:0:0:
307,7,197984,1,2,0:0:0:0:
336,250,198120,1,10,0:2:0:0:
189,73,198257,1,2,0:0:0:0:
167,337,198393,5,10,0:1:0:0:
309,131,198529,1,2,0:0:0:0:
60,112,198666,2,0,P|47:175|43:261,1,120,10|0,0:2|0:0,0:0:0:0:
286,370,198938,5,10,0:1:0:0:
196,132,199075,1,2,0:0:0:0:
407,288,199211,2,0,P|420:225|424:139,1,120,10|0,0:2|0:0,0:0:0:0:
297,11,199484,2,0,P|300:82|314:153,1,120,10|0,0:1|0:0,0:0:0:0:
492,343,199757,1,10,0:2:0:0:
335,384,199893,1,0,0:0:0:0:
424,145,200029,6,0,P|475:207|455:253,1,120,10|2,0:1|0:0,0:0:0:0:
198,317,200302,1,10,0:2:0:0:
262,163,200438,1,2,0:0:0:0:
263,359,200575,1,10,0:1:0:0:
199,205,200711,1,2,0:0:0:0:
427,348,200847,2,0,P|448:272|477:209,1,120,10|0,0:2|0:0,0:0:0:0:
272,61,201120,5,10,0:1:0:0:
353,246,201257,1,2,0:0:0:0:
402,3,201393,2,0,P|372:68|354:138,1,120,10|0,0:2|0:0,0:0:0:0:
311,362,201666,2,0,P|297:316|233:287,1,120,8|0,0:1|0:0,0:0:0:0:
75,359,201938,2,0,P|20:338|0:283,1,120,8|0,0:2|0:0,0:0:0:0:
125,54,202211,5,12,0:1:0:0:
241,214,202347,1,2,0:0:0:0:
207,7,202484,1,10,0:2:0:0:
91,167,202620,1,2,0:0:0:0:
321,66,202757,5,10,0:1:0:0:
375,256,202893,1,10,0:1:0:0:
141,72,203029,1,10,0:2:0:0:
461,152,203166,6,0,P|371:154|220:208,1,240,12|10,0:1|0:1,0:0:0:0:
143,360,203575,2,0,P|165:285|132:187,1,180,10|0,0:2|0:0,0:0:0:0:
0,168,203847,2,0,L|134:183,1,120,10|8,0:1|0:1,0:0:0:0:
389,38,204120,2,0,P|314:18|308:161,1,240,10|12,0:2|0:1,0:0:0:0:
488,353,204666,6,0,L|345:331,1,120,10|0,0:2|0:0,0:0:0:0:
181,205,204938,1,10,0:1:0:0:
386,143,205075,1,8,0:1:0:0:
154,330,205211,1,10,0:2:0:0:
92,62,205347,6,0,P|170:68|180:205,1,240,12|8,0:1|0:1,0:0:0:0:
47,193,205757,1,4,0:0:0:0:
34,327,205893,1,0,0:0:0:0:
233,103,206029,6,0,P|302:92|366:128,1,120,10|0,0:2|0:0,0:0:0:0:
268,330,206302,1,10,0:2:0:0:
109,58,206438,1,8,0:2:0:0:
286,194,206575,1,12,0:1:0:0:
5,219,206847,6,0,L|89:229,1,66.0000020141602,10|0,0:2|0:0,0:0:0:0:
85,240,206984,2,0,L|253:260,1,132.00000402832,2|0,0:0|0:0,0:0:0:0:
373,280,207257,1,10,0:1:0:0:
133,139,207393,2,0,L|264:123,1,132.00000402832,8|2,0:2|0:0,0:0:0:0:
467,287,207666,5,10,0:1:0:0:
467,287,207802,1,8,0:1:0:0:
181,365,207938,1,10,0:2:0:0:
373,280,208075,2,0,P|347:184|261:38,1,264.000008056641,8|8,0:1|0:1,0:0:0:0:
186,288,208484,2,0,P|207:213|233:158,1,132.00000402832,10|0,0:2|0:0,0:0:0:0:
506,141,208757,6,0,P|459:56|363:148,1,264.000008056641,10|10,0:1|0:2,0:0:0:0:
499,297,209166,2,0,P|426:386|354:297,1,264.000008056641,0|8,0:0|0:1,0:0:0:0:
499,221,209575,2,0,L|342:223,1,132.00000402832,10|0,0:2|0:0,0:0:0:0:
114,97,209847,6,0,L|138:173,2,66.0000020141602,10|2|10,0:1|0:0|0:1,0:0:0:0:
156,9,210120,1,10,0:2:0:0:
202,231,210257,2,0,L|241:105,1,132.00000402832,10|0,0:1|0:0,0:0:0:0:
0,18,210529,2,0,L|79:269,1,264.000008056641,10|0,0:1|0:0,0:0:0:0:
123,384,210938,5,12,0:1:0:0:
316,74,211211,6,0,L|335:155,1,66.0000020141602,10|0,0:2|0:0,0:0:0:0:
349,144,211347,2,0,L|387:306,1,132.00000402832,2|0,0:0|0:0,0:0:0:0:
202,141,211620,1,10,0:1:0:0:
228,364,211757,2,0,L|258:235,1,132.00000402832,8|2,0:2|0:0,0:0:0:0:
144,47,212029,5,10,0:1:0:0:
144,47,212166,1,8,0:1:0:0:
76,329,212302,1,10,0:2:0:0:
0,126,212438,2,0,P|69:149|260:155,1,264.000008056641,8|8,0:1|0:1,0:0:0:0:
412,27,212847,6,0,L|397:106,1,66.0000020141602,10|0,0:2|0:0,0:0:0:0:
495,176,212984,2,0,L|510:255,1,66.0000020141602,2|0,0:0|0:0,0:0:0:0:
229,332,213120,6,0,P|214:227|353:190,1,264.000008056641,10|8,0:1|0:2,0:0:0:0:
422,308,213529,1,0,0:0:0:0:
422,308,213666,2,0,P|360:283|297:266,1,132.00000402832,0|8,0:0|0:1,0:0:0:0:
35,186,213938,2,0,P|117:194|158:91,1,198.000006042481,10|0,0:2|0:0,0:0:0:0:
21,59,214211,6,0,L|172:83,1,132.00000402832,10|10,0:1|0:1,0:0:0:0:
250,101,214416,1,2,0:0:0:0:
250,101,214484,1,10,0:2:0:0:
85,274,214620,2,0,P|130:225|198:226,1,132.00000402832,10|0,0:1|0:0,0:0:0:0:
336,312,214893,1,10,0:1:0:0:
362,21,215029,1,8,0:2:0:0:
470,253,215166,1,8,0:2:0:0:
298,171,215302,5,12,0:1:0:0:
298,171,215438,1,8,0:1:0:0:
242,354,215575,2,0,P|250:275|221:227,1,132.00000402832,10|8,0:1|0:1,0:0:0:0:
2,318,215847,2,0,P|15:240|56:202,1,132.00000402832,10|0,0:2|0:0,0:0:0:0:
120,325,216120,2,0,L|144:178,1,132.00000402832,10|8,0:1|0:1,0:0:0:0:
363,374,216393,6,0,L|311:67,1,264.000008056641,2|2,0:0|0:0,0:0:0:0:
213,341,216802,2,0,L|238:187,1,132.00000402832,10|8,0:1|0:2,0:0:0:0:
415,30,217075,2,0,L|371:290,1,264.000008056641,10|2,0:1|0:0,0:0:0:0:
128,258,217484,6,0,P|127:174|170:131,1,132.00000402832,10|0,0:1|0:0,0:0:0:0:
285,122,217757,2,0,P|320:67|312:3,1,132.00000402832,10|0,0:1|0:0,0:0:0:0:
94,25,218029,2,0,L|224:41,1,132.00000402832,10|0,0:2|0:0,0:0:0:0:
346,197,218302,1,2,0:1:0:0:
155,139,218438,6,0,L|285:122,1,132.00000402832,10|0,0:1|0:0,0:0:0:0:
505,91,218711,1,10,0:1:0:0:
397,326,218847,2,0,L|266:309,1,132.00000402832,2|8,0:0|0:1,0:0:0:0:
320,48,219120,2,0,L|450:31,1,132.00000402832,8|0,0:2|0:0,0:0:0:0:
495,338,219393,1,10,0:1:0:0:
489,349,219461,1,0,0:0:0:0:
483,360,219529,1,10,0:2:0:0:
325,136,219666,6,0,P|244:118|189:296,1,287.999991210938,12|0,0:1|0:0,0:0:0:0:
328,305,220075,1,8,0:1:0:0:
311,37,220211,2,0,P|197:43|76:177,1,287.999991210938,8|8,0:2|0:1,0:0:0:0:
167,378,220620,6,0,P|145:238|229:126,1,287.999991210938,8|8,0:1|0:0,0:0:0:0:
418,89,221029,1,4,0:0:0:0:
334,194,221166,1,4,0:0:0:0:
445,11,221302,2,0,L|474:179,1,143.999995605469,12|0,0:1|0:0,0:0:0:0:
260,17,221575,1,2,0:0:0:0:
220,274,221711,1,2,0:0:0:0:
21,60,221847,5,12,0:1:0:0:
302,158,221984,1,8,0:2:0:0:
82,210,222120,1,8,0:1:0:0:
82,210,222257,1,8,0:1:0:0:
310,26,222393,2,0,P|336:146|378:315,1,287.999991210938,8|8,0:2|0:2,0:0:0:0:
131,330,222802,6,0,P|94:256|250:256,1,287.999991210938,8|8,0:1|0:2,0:0:0:0:
277,380,223211,1,8,0:1:0:0:
277,380,223347,1,8,0:1:0:0:
410,112,223484,2,0,P|423:172|444:256,1,143.999995605469,8|0,0:2|0:0,0:0:0:0:
289,51,223757,1,8,0:2:0:0:
173,262,223893,1,8,0:2:0:0:
304,194,224029,5,12,0:1:0:0:
35,77,224166,1,8,0:2:0:0:
196,24,224302,1,8,0:1:0:0:
196,24,224438,1,8,0:1:0:0:
25,257,224575,2,0,P|71:159|245:146,1,287.999991210938,8|8,0:2|0:2,0:0:0:0:
422,261,224984,6,0,P|498:255|397:190,1,287.999991210938,8|8,0:1|0:2,0:0:0:0:
241,333,225393,1,8,0:1:0:0:
339,230,225529,1,8,0:1:0:0:
159,78,225666,6,0,L|132:242,1,155.999992858887,10|0,0:2|0:0,0:0:0:0:
121,340,225870,1,0,0:0:0:0:
119,351,225938,1,8,0:2:0:0:
0,110,226075,5,12,0:1:0:0:
