osu file format v14

[General]
AudioFilename: audio.mp3
AudioLeadIn: 0
PreviewTime: 44515
Countdown: 0
SampleSet: Soft
StackLeniency: 0.4
Mode: 0
LetterboxInBreaks: 0
WidescreenStoryboard: 1

[Editor]
Bookmarks: 1765,9674,27129,35856,40220,44583,62038,66402,83856,92583,110038,125311,127493,134038,136757,154211,167302,171666,186938,189120,197847,206575,226075
DistanceSpacing: 1.1
BeatDivisor: 6
GridSize: 4
TimelineZoom: 3.499999

[Metadata]
Title:ROB THE FRONTIER
TitleUnicode:ROB THE FRONTIER
Artist:UVERworld
ArtistUnicode:UVERworld
Creator:Crissa
Version:Expert
Source:七つの大罪 神々の逆鱗
Tags:nanatsu no taizai kamigami no gekirin the seven deadly sins anime japanese op opening full ver version [-crissaegrim-]
BeatmapID:2234164
BeatmapSetID:1067110

[Difficulty]
HPDrainRate:6
CircleSize:4.2
OverallDifficulty:9
ApproachRate:9.2
SliderMultiplier:1.2
SliderTickRate:1

[Events]
//Background and Video events
0,0,"bg3.jpg",0,0
//Break Periods
2,127765,131310
//Storyboard Layer 0 (Background)
//Storyboard Layer 1 (Fail)
//Storyboard Layer 2 (Pass)
//Storyboard Layer 3 (Foreground)
//Storyboard Layer 4 (Overlay)
//Storyboard Sound Samples

[TimingPoints]
947,272.727272727273,4,3,60,60,1,0
947,-100,4,3,60,60,0,0
2719,-62.5,4,3,60,60,0,0
5719,-100,4,3,60,60,0,0
6128,-62.5,4,3,60,60,0,0
6537,-100,4,3,60,60,0,0
6947,-62.5,4,3,60,60,0,0
9674,-55.5555555555556,4,3,60,80,0,0
27128,-71.4285714285714,4,3,60,70,0,0
35037,-55.5555555555556,4,3,60,70,0,0
35856,-50,4,3,60,80,0,0
40219,-66.6666666666667,4,3,60,75,0,0
42401,-100,4,3,60,70,0,0
44037,-200,4,3,60,60,0,0
44583,-50,4,3,60,90,0,1
62106,-100,4,3,60,20,0,0
65037,-100,4,3,60,60,0,0
66401,-62.5,4,3,60,80,0,0
83856,-71.4285714285714,4,3,60,70,0,0
88219,-62.5,4,3,60,75,0,0
90401,-55.5555555555556,4,3,60,80,0,0
91492,-55.5555555555556,4,3,60,80,0,0
91765,-66.6666666666667,4,3,60,80,0,0
92583,-50,4,3,60,90,0,1
107856,-50,4,3,60,80,0,0
108265,-66.6666666666667,4,3,60,80,0,0
108674,-50,4,3,60,80,0,0
110037,-45.4545454545455,4,3,60,90,0,1
123674,-55.5555555555556,4,3,60,90,0,1
124083,-45.4545454545455,4,3,60,90,0,1
125310,-100,4,3,60,70,0,0
126947,-125,4,3,60,80,0,0
134037,-50,4,3,60,80,0,0
134598,307.692307692308,4,3,60,75,1,0
134598,-50,4,3,60,75,0,0
135213,400,4,3,60,70,1,0
135213,-62.5,4,3,60,70,0,0
135479,500,4,3,60,65,1,0
135479,-71.4285714285714,4,3,60,65,0,0
135812,800,4,3,60,60,1,0
135812,-83.3333333333333,4,3,60,60,0,0
136212,272.727272727273,4,2,20,70,1,0
136757,272.727272727273,4,3,65,80,1,0
136757,-62.5,4,3,65,80,0,0
140575,-166.666666666667,4,3,65,80,0,0
141120,-62.5,4,3,65,80,0,0
153666,-55.5555555555556,4,3,65,80,0,0
154484,-100,4,2,60,50,0,0
167029,-166.666666666667,4,3,60,60,0,0
167302,-62.5,4,3,60,80,0,0
171666,-50,4,3,60,90,0,1
186938,-71.4285714285714,4,3,60,80,0,0
188029,-62.5,4,3,60,80,0,0
189120,-100,4,3,60,70,0,0
195666,-66.6666666666667,4,3,60,70,0,0
197847,-55.5555555555556,4,3,60,80,0,0
206575,-50,4,3,60,90,0,1
215302,-62.5,4,3,60,90,0,1
219666,-47.6190476190476,4,3,60,90,0,1
225666,-43.4782608695652,4,3,60,90,0,1
226075,-100,4,3,60,80,0,0

[Colours]
Combo1 : 201,155,139
Combo2 : 128,163,255
Combo3 : 255,128,128
Combo4 : 149,226,255
Combo5 : 198,170,213
Combo6 : 239,204,165

[HitObjects]
78,197,947,5,2,2:0:0:0:
171,207,1083,1,2,2:0:0:0:
265,218,1219,1,2,2:0:0:0:
359,228,1356,1,2,2:0:0:0:
371,217,1628,1,0,2:0:0:0:
305,102,1765,5,2,2:0:0:0:
211,112,1901,1,2,2:0:0:0:
117,122,2037,1,2,2:0:0:0:
23,133,2174,1,2,2:0:0:0:
13,144,2447,1,0,2:0:0:0:
183,352,2583,5,8,0:2:0:0:
240,247,2719,2,0,P|313:242|332:352,1,192,12|0,0:1|0:0,0:0:0:0:
125,240,3128,6,0,L|97:34,1,192,12|0,0:1|0:0,0:0:0:0:
203,312,3537,2,0,L|231:106,1,192,12|0,0:1|0:0,0:0:0:0:
0,258,3947,6,0,L|218:227,1,192,12|0,0:1|0:0,0:0:0:0:
0,12,4356,2,0,L|218:43,1,192,12|0,0:1|0:0,0:0:0:0:
356,251,4765,1,8,0:3:0:0:
269,351,4901,1,8,0:3:0:0:
321,170,5037,1,4,0:0:0:0:
437,232,5174,1,4,0:0:0:0:
176,279,5310,5,8,0:2:0:0:
172,255,5378,1,8,0:2:0:0:
168,230,5447,1,8,0:2:0:0:
164,206,5515,1,8,0:2:0:0:
159,182,5583,2,0,L|148:115,1,48,8|0,0:2|0:0,0:0:0:0:
252,12,5719,2,0,L|267:80,1,60,12|2,2:1|2:0,2:0:0:0:
263,4,5992,1,0,0:0:0:0:
396,85,6128,5,8,0:2:0:0:
392,109,6196,1,8,0:2:0:0:
388,134,6265,1,8,0:2:0:0:
384,158,6333,1,8,0:2:0:0:
379,182,6401,2,0,L|368:249,1,48,8|0,0:2|0:0,0:0:0:0:
473,351,6537,2,0,L|456:290,1,60,12|2,0:1|2:0,0:0:0:0:
479,339,6810,1,2,0:0:0:0:
257,374,6947,5,8,0:2:0:0:
207,182,7083,2,0,P|258:201|190:285,1,192,12|8,0:1|0:1,0:0:0:0:
19,155,7492,5,8,0:2:0:0:
144,237,7628,2,0,L|49:227,1,96,8|8,0:1|0:1,0:0:0:0:
223,24,7901,5,8,0:2:0:0:
207,182,8037,1,8,0:1:0:0:
77,89,8174,1,8,0:1:0:0:
307,47,8310,5,8,0:2:0:0:
297,224,8447,2,0,L|283:128,1,96,8|8,0:1|0:1,0:0:0:0:
432,22,8719,2,0,L|404:212,1,192,8|0,0:2|0:0,0:0:0:0:
457,341,9128,6,0,P|482:321|520:311,2,64,8|8|8,3:0|3:0|3:0,0:0:0:0:
375,378,9401,5,4,3:0:0:0:
323,373,9492,1,4,3:0:0:0:
278,369,9583,1,4,3:0:0:0:
230,365,9674,6,0,P|204:287|274:226,1,161.999995056153,12|0,0:1|0:0,0:0:0:0:
343,210,9947,2,0,P|390:160|389:108,1,107.999996704102,10|0,0:2|0:0,0:0:0:0:
203,119,10219,2,0,L|314:132,1,107.999996704102,2|8,0:0|0:1,0:0:0:0:
209,17,10492,2,0,P|139:21|57:47,1,143.999995605469,10|2,0:2|0:0,0:0:0:0:
0,102,10765,5,10,0:1:0:0:
114,234,10901,2,0,P|116:168|87:130,1,107.999996704102,2|8,0:0|0:2,0:0:0:0:
26,286,11174,2,0,P|24:352|53:390,1,107.999996704102,10|0,0:1|0:0,0:0:0:0:
216,318,11447,2,0,L|104:319,1,107.999996704102,10|8,0:1|0:2,0:0:0:0:
216,165,11719,6,0,L|323:165,1,107.999996704102,2|8,0:0|0:1,0:0:0:0:
323,364,11992,2,0,L|294:246,1,107.999996704102,2|8,0:0|0:2,0:0:0:0:
430,202,12265,2,0,L|459:84,1,107.999996704102,10|0,0:1|0:0,0:0:0:0:
283,3,12537,1,8,0:1:0:0:
208,65,12674,6,0,P|249:27|239:119,1,215.999993408203,10|8,0:2|0:1,0:0:0:0:
312,231,13083,2,0,L|425:219,1,107.999996704102,8|8,0:1|0:2,0:0:0:0:
239,341,13356,2,0,L|126:329,1,107.999996704102,8|0,0:1|0:1,0:0:0:0:
44,237,13628,1,8,0:1:0:0:
230,162,13765,1,8,0:2:0:0:
100,24,14037,6,0,L|136:226,1,161.999995056153,12|0,0:1|0:0,0:0:0:0:
202,241,14310,2,0,L|182:352,1,107.999996704102,10|0,0:2|0:0,0:0:0:0:
346,284,14583,2,0,P|372:221|351:179,1,107.999996704102,2|8,0:0|0:1,0:0:0:0:
226,71,14856,2,0,P|303:96|385:102,1,143.999995605469,10|2,0:2|0:0,0:0:0:0:
469,62,15128,6,0,L|444:184,1,107.999996704102,10|0,0:1|0:0,0:0:0:0:
446,366,15401,1,10,0:2:0:0:
346,284,15537,2,0,L|232:271,1,107.999996704102,10|0,0:1|0:0,0:0:0:0:
144,356,15810,2,0,L|30:369,1,107.999996704102,10|8,0:1|0:2,0:0:0:0:
8,178,16083,6,0,P|58:145|111:164,1,107.999996704102,2|8,0:0|0:1,0:0:0:0:
238,271,16356,2,0,P|289:280|331:249,1,107.999996704102,2|8,0:0|0:2,0:0:0:0:
241,95,16628,2,0,P|195:151|153:305,1,215.999993408203,10|8,0:1|0:1,0:0:0:0:
94,384,17037,6,0,P|55:303|53:169,1,215.999993408203,8|8,0:2|0:1,0:0:0:0:
93,80,17447,1,8,0:1:0:0:
257,195,17583,1,8,0:2:0:0:
345,96,17719,2,0,P|402:97|412:246,1,215.999993408203,8|0,0:1|0:0,0:0:0:0:
269,333,18128,1,8,0:2:0:0:
93,83,18401,6,0,L|289:55,1,161.999995056153,12|0,0:1|0:0,0:0:0:0:
314,0,18674,2,0,P|339:49|324:108,1,107.999996704102,10|8,0:2|0:1,0:0:0:0:
218,215,18947,2,0,P|209:267|234:314,1,107.999996704102,2|8,0:1|0:1,0:0:0:0:
502,265,19219,2,0,P|423:237|349:239,1,143.999995605469,10|2,0:2|0:0,0:0:0:0:
292,255,19492,6,0,P|346:230|355:182,1,107.999996704102,10|0,0:1|0:0,0:0:0:0:
225,67,19765,2,0,P|176:85|161:135,1,107.999996704102,10|0,0:2|0:0,0:0:0:0:
234,314,20037,1,2,0:0:0:0:
105,283,20174,2,0,P|74:235|66:171,1,107.999996704102,10|8,0:1|0:2,0:0:0:0:
159,31,20447,6,0,L|282:44,1,107.999996704102,2|8,0:0|0:1,0:0:0:0:
293,172,20719,2,0,L|416:159,1,107.999996704102,2|8,0:0|0:2,0:0:0:0:
461,9,20992,2,0,L|478:135,1,107.999996704102,10|0,0:1|0:0,0:0:0:0:
439,241,21265,1,10,0:1:0:0:
304,92,21401,6,0,P|235:116|255:246,1,215.999993408203,10|8,0:2|0:1,0:0:0:0:
393,324,21810,2,0,P|348:271|303:279,1,107.999996704102,8|8,0:1|0:2,0:0:0:0:
168,381,22083,2,0,P|152:296|88:171,1,215.999993408203,8|8,0:1|0:1,0:0:0:0:
0,96,22492,1,8,0:2:0:0:
303,26,22765,6,0,L|265:248,1,215.999993408203,12|10,0:1|0:2,0:0:0:0:
290,338,23174,1,10,0:1:0:0:
367,160,23310,1,2,0:0:0:0:
181,190,23447,2,0,L|200:301,1,107.999996704102,10|8,0:1|0:2,0:0:0:0:
381,362,23719,6,0,P|438:346|464:300,1,107.999996704102,2|8,0:0|0:1,0:0:0:0:
367,160,23992,2,0,P|310:176|284:222,1,107.999996704102,2|8,0:0|0:2,0:0:0:0:
162,378,24265,2,0,P|112:313|121:278,1,107.999996704102,10|0,0:1|0:0,0:0:0:0:
197,156,24537,2,0,P|190:103|149:71,1,107.999996704102,10|8,0:1|0:2,0:0:0:0:
0,209,24810,6,0,L|107:196,1,107.999996704102,2|8,0:0|0:1,0:0:0:0:
219,267,25083,2,0,L|326:279,1,107.999996704102,2|8,0:0|0:2,0:0:0:0:
485,141,25356,2,0,P|443:108|381:213,1,215.999993408203,10|10,0:1|0:1,0:0:0:0:
492,267,25765,2,0,P|479:361|387:338,1,215.999993408203,8|12,0:2|0:1,0:0:0:0:
322,108,26174,6,0,L|298:240,1,107.999996704102,10|8,0:2|0:2,0:0:0:0:
198,14,26447,2,0,L|222:146,1,107.999996704102,10|0,0:1|0:0,0:0:0:0:
97,189,26720,2,0,L|73:321,1,107.999996704102,10|8,0:0|0:0,0:0:0:0:
178,384,26992,1,4,0:0:0:0:
314,236,27128,6,0,P|302:188|270:165,1,83.9999974365235,12|2,0:1|0:2,0:0:0:0:
390,285,27401,2,0,P|424:250|427:212,1,83.9999974365235,10|2,0:2|0:2,0:0:0:0:
385,375,27674,2,0,P|431:388|465:372,1,83.9999974365235,2|10,0:2|0:1,0:0:0:0:
310,325,27947,2,0,L|172:335,1,125.999996154785,8|0,0:2|0:0,0:0:0:0:
173,347,28219,6,0,L|187:153,1,167.999994873047,8|8,0:1|0:2,0:0:0:0:
119,74,28628,1,2,0:2:0:0:
237,11,28765,2,0,P|281:22|305:60,1,83.9999974365235,2|2,0:2|0:2,0:0:0:0:
311,180,29037,2,0,P|336:212|376:220,1,83.9999974365235,10|2,0:2|0:2,0:0:0:0:
509,127,29310,5,10,0:1:0:0:
509,127,29447,2,0,L|492:225,1,83.9999974365235,10|8,0:1|0:2,0:0:0:0:
443,297,29719,2,0,L|460:395,1,83.9999974365235,2|0,0:1|0:0,0:0:0:0:
283,354,29992,2,0,L|377:343,1,83.9999974365235,10|8,0:1|0:2,0:0:0:0:
264,260,30265,6,0,L|170:249,1,83.9999974365235,2|8,0:0|0:1,0:0:0:0:
283,166,30537,2,0,L|377:155,1,83.9999974365235,2|8,0:0|0:2,0:0:0:0:
264,72,30810,1,2,0:2:0:0:
175,166,30947,2,0,P|125:171|91:154,1,83.9999974365235,2|10,0:2|0:1,0:0:0:0:
67,65,31219,2,0,P|117:60|151:77,1,83.9999974365235,8|0,0:2|0:0,0:0:0:0:
246,261,31492,6,0,P|213:305|176:314,1,83.9999974365235,12|2,0:1|0:2,0:0:0:0:
333,277,31765,2,0,P|354:327|343:364,1,83.9999974365235,10|2,0:2|0:2,0:0:0:0:
390,209,32037,2,0,P|444:215|470:243,1,83.9999974365235,2|10,0:2|0:1,0:0:0:0:
302,191,32310,2,0,L|293:58,1,125.999996154785,8|0,0:2|0:0,0:0:0:0:
303,51,32583,6,0,L|130:62,1,167.999994873047,8|8,0:1|0:2,0:0:0:0:
52,168,32992,1,2,0:2:0:0:
174,221,33128,2,0,P|200:267|189:312,1,83.9999974365235,2|10,0:2|0:1,0:0:0:0:
0,354,33401,2,0,L|91:340,1,83.9999974365235,10|2,0:2|0:2,0:0:0:0:
96,351,33605,1,2,0:2:0:0:
110,359,33674,6,0,L|129:263,1,83.9999974365235,8|8,0:1|0:1,0:0:0:0:
164,116,33947,1,10,0:2:0:0:
264,204,34083,2,0,L|245:108,1,83.9999974365235,2|0,0:0|0:0,0:0:0:0:
221,3,34356,1,8,0:1:0:0:
372,115,34492,2,0,P|433:114|463:40,1,125.999996154785,14|0,0:2|0:0,0:0:0:0:
459,47,34765,2,0,L|471:155,1,83.9999974365235,8|0,0:1|0:0,0:0:0:0:
424,351,35037,6,0,L|436:243,1,107.999996704102,8|0,0:2|0:0,0:0:0:0:
267,333,35310,2,0,L|255:225,1,107.999996704102,8|0,0:2|0:0,0:0:0:0:
131,367,35583,1,8,0:2:0:0:
56,193,35719,1,8,0:2:0:0:
8,384,35856,5,12,0:1:0:0:
8,384,35992,1,8,0:1:0:0:
142,266,36128,2,0,P|166:199|122:101,1,180,8|0,0:2|0:0,0:0:0:0:
102,94,36401,2,0,L|238:83,1,120,2|8,0:0|0:1,0:0:0:0:
369,200,36674,2,0,P|345:133|389:35,1,180,8|0,0:2|0:0,0:0:0:0:
407,25,36947,5,10,0:1:0:0:
456,127,37083,1,8,0:1:0:0:
221,84,37219,2,0,P|186:152|302:257,1,240,8|0,0:2|0:0,0:0:0:0:
285,160,37628,1,8,0:1:0:0:
79,236,37765,2,0,P|64:172|85:55,1,160,8|2,0:2|0:0,0:0:0:0:
122,8,38037,5,10,0:1:0:0:
208,103,38174,2,0,P|190:171|160:214,1,120,10|8,0:1|0:2,0:0:0:0:
250,289,38447,2,0,P|182:307|129:302,1,120,2|0,0:0|0:0,0:0:0:0:
282,199,38719,2,0,P|349:180|402:185,1,120,10|8,0:1|0:2,0:0:0:0:
413,54,38992,6,0,P|462:103|485:151,1,120,2|8,0:0|0:1,0:0:0:0:
399,338,39265,6,0,P|426:284|470:244,1,120,10|8,0:1|0:2,0:0:0:0:
301,128,39537,2,0,P|314:186|346:236,1,120,10|0,0:1|0:0,0:0:0:0:
240,375,39810,2,0,P|237:315|254:258,1,120,10|8,0:1|0:2,0:0:0:0:
385,152,40083,1,0,0:0:0:0:
210,74,40219,5,12,0:1:0:0:
210,74,40356,2,0,L|111:88,1,90.0000034332277,10|0,0:1|0:0,0:0:0:0:
45,149,40628,1,10,0:1:0:0:
229,218,40765,1,8,0:2:0:0:
170,296,40901,1,2,0:0:0:0:
354,354,41037,1,12,0:1:0:0:
354,354,41174,1,0,0:2:0:0:
362,163,41310,6,0,L|334:95,2,60.0000022888184,8|8|8,0:0|0:0|0:0,0:0:0:0:
472,246,41583,2,0,L|500:178,2,60.0000022888184,8|8|8,0:0|0:0|0:0,0:0:0:0:
289,309,41856,5,4,0:0:0:0:
278,262,41947,1,4,0:0:0:0:
269,221,42037,1,4,0:0:0:0:
261,185,42128,5,4,0:0:0:0:
290,191,42219,1,4,0:0:0:0:
313,195,42310,1,4,0:0:0:0:
330,198,42401,5,4,0:1:0:0:
296,92,42537,2,0,L|236:99,1,60,2|0,2:2|2:0,0:0:0:0:
458,21,42810,2,0,L|338:6,1,120,2|0,2:2|2:0,0:0:0:0:
512,118,43219,2,0,L|442:126,1,60,2|0,2:2|2:0,0:0:0:0:
205,222,43492,2,0,P|244:214|264:288,1,120,2|0,2:2|2:2,0:0:0:0:
24,143,44037,5,2,2:0:0:0:
24,143,44174,2,0,P|56:131|72:110,1,60,2|0,2:0|2:0,0:0:0:0:
12,251,44583,5,12,0:1:0:0:
198,207,44719,1,2,0:0:0:0:
102,288,44856,1,10,0:2:0:0:
160,111,44992,2,0,P|237:109|282:147,1,120,10|0,0:1|0:0,0:0:0:0:
331,259,45265,2,0,P|382:287|441:279,1,120,10|8,0:1|0:2,0:0:0:0:
428,83,45537,6,0,L|399:200,1,120,2|8,0:0|0:1,0:0:0:0:
277,322,45810,2,0,P|250:226|277:189,1,120,10|8,0:1|0:2,0:0:0:0:
339,108,46083,2,0,P|348:49|317:0,1,120,10|0,0:1|0:0,0:0:0:0:
145,80,46356,2,0,L|265:66,1,120,10|8,0:1|0:2,0:0:0:0:
399,200,46628,1,2,0:0:0:0:
494,137,46765,5,12,0:1:0:0:
459,292,46901,2,0,P|397:312|325:288,1,120,2|8,0:0|0:2,0:0:0:0:
166,158,47174,2,0,P|226:214|236:398,1,240,10|8,0:1|0:1,0:0:0:0:
14,329,47583,2,0,P|24:267|157:304,1,240,10|8,0:2|0:1,0:0:0:0:
102,384,47992,1,8,0:1:0:0:
51,214,48128,6,0,L|67:80,1,120,10|0,0:2|0:0,0:0:0:0:
180,277,48401,2,0,L|164:143,1,120,2|8,0:0|0:1,0:0:0:0:
286,340,48674,2,0,L|302:206,1,120,10|0,0:2|0:0,0:0:0:0:
398,140,48947,5,12,0:1:0:0:
278,36,49083,2,0,P|350:18|499:121,1,240,2|0,0:1|0:0,0:0:0:0:
446,252,49492,2,0,P|374:270|225:167,1,240,0|8,0:2|0:2,0:0:0:0:
137,20,49901,6,0,L|160:260,1,240,2|8,0:2|0:1,0:0:0:0:
54,370,50310,2,0,L|67:226,1,120,10|0,0:2|0:0,0:0:0:0:
230,120,50583,2,0,L|241:239,1,120,10|8,0:1|0:1,0:0:0:0:
375,360,50856,2,0,L|388:216,1,120,10|0,0:2|0:0,0:0:0:0:
382,49,51128,6,0,P|359:128|447:135,1,180,12|0,0:1|0:0,0:0:0:0:
449,133,51401,2,0,L|321:148,1,120,10|0,0:2|0:0,0:0:0:0:
147,49,51674,2,0,L|275:64,1,120,10|8,0:1|0:1,0:0:0:0:
366,252,51947,6,0,P|293:288|226:171,1,240,10|8,0:2|0:1,0:0:0:0:
329,146,52356,1,8,0:1:0:0:
138,136,52492,2,0,L|118:272,1,120,10|8,0:2|0:1,0:0:0:0:
17,370,52765,2,0,L|0:251,1,120,2|10,0:0|0:1,0:0:0:0:
205,264,53037,2,0,P|149:334|103:334,1,120,8|0,0:2|0:0,0:0:0:0:
9,147,53310,5,12,0:1:0:0:
9,147,53447,2,0,L|138:160,1,120,2|8,0:0|0:2,0:0:0:0:
312,106,53719,2,0,P|224:93|234:166,1,180,2|0,0:1|0:0,0:0:0:0:
241,170,53992,2,0,L|232:39,1,120,10|8,0:1|0:2,0:0:0:0:
128,159,54265,6,0,L|119:278,1,120,2|8,0:0|0:1,0:0:0:0:
294,359,54537,1,10,0:1:0:0:
176,384,54674,1,8,0:2:0:0:
313,275,54810,2,0,P|375:320|380:371,1,120,2|0,0:0|0:1,0:0:0:0:
214,276,55083,2,0,P|221:199|263:169,1,120,10|8,0:1|0:2,0:0:0:0:
456,122,55356,6,0,L|324:109,1,120,2|12,0:0|0:1,0:0:0:0:
209,10,55628,2,0,L|77:23,1,120,2|8,0:0|0:2,0:0:0:0:
40,227,55901,2,0,P|10:158|129:166,1,240,10|8,0:1|0:1,0:0:0:0:
38,310,56310,2,0,P|134:341|125:240,1,240,10|8,0:2|0:1,0:0:0:0:
40,227,56719,1,8,0:1:0:0:
253,159,56856,6,0,L|385:176,1,120,10|0,0:2|0:0,0:0:0:0:
195,281,57128,2,0,L|327:264,1,120,2|8,0:0|0:1,0:0:0:0:
168,48,57401,2,0,L|300:65,1,120,10|0,0:2|0:0,0:0:0:0:
443,87,57674,5,12,0:1:0:0:
314,265,57810,2,0,P|291:191|390:236,1,240,2|0,0:2|0:0,0:0:0:0:
287,353,58219,1,10,0:1:0:0:
287,353,58356,1,8,0:1:0:0:
248,192,58492,1,8,0:2:0:0:
141,288,58628,6,0,P|107:193|185:65,1,240,12|8,0:1|0:1,0:0:0:0:
348,173,59037,2,0,P|298:209|246:191,1,120,10|0,0:2|0:0,0:0:0:0:
436,162,59310,2,0,P|492:187|502:242,1,120,10|8,0:1|0:1,0:0:0:0:
382,92,59583,2,0,P|376:31|418:-5,1,120,10|0,0:2|0:0,0:0:0:0:
404,246,59856,6,0,L|225:226,1,180,12|0,0:1|0:0,0:0:0:0:
214,240,60128,2,0,L|88:254,1,120,10|0,0:2|0:0,0:0:0:0:
181,154,60401,1,10,0:1:0:0:
253,341,60537,2,0,L|378:355,1,120,8|10,0:1|0:2,0:0:0:0:
490,203,60810,6,0,P|427:186|465:289,1,240,12|8,0:1|0:1,0:0:0:0:
501,186,61219,2,0,L|478:50,1,120,10|0,0:2|0:0,0:0:0:0:
273,222,61492,2,0,L|250:358,1,120,6|0,0:0|0:0,0:0:0:0:
381,177,61765,1,8,0:2:0:0:
169,91,61901,1,8,0:2:0:0:
303,67,62037,5,12,0:1:0:0:
256,192,62106,12,0,65037,0:0:0:0:
189,77,65310,6,0,L|195:107,1,20,8|8,0:0|0:0,0:0:0:0:
223,19,65447,2,0,L|198:141,1,120,8|8,0:0|0:1,0:0:0:0:
83,204,65856,2,0,L|97:277,1,60,8|0,0:2|0:0,0:0:0:0:
254,362,66128,1,8,0:2:0:0:
280,357,66197,1,8,0:2:0:0:
306,352,66265,1,8,0:2:0:0:
332,347,66333,1,8,0:2:0:0:
358,342,66401,6,0,B|371:305|371:305|350:242|350:242|365:184,1,144,12|0,0:1|0:0,0:0:0:0:
373,199,66674,2,0,L|408:77,1,96,10|0,0:2|0:0,0:0:0:0:
276,152,66947,2,0,L|241:30,1,96,2|0,0:2|0:0,0:0:0:0:
141,246,67219,2,0,L|176:124,1,96,10|0,0:2|0:0,0:0:0:0:
6,64,67492,6,0,P|49:89|114:15,1,144,10|0,0:1|0:0,0:0:0:0:
114,19,67765,2,0,L|95:119,1,96,10|0,0:2|0:0,0:0:0:0:
254,176,68037,1,2,0:2:0:0:
180,246,68174,2,0,L|199:346,1,96,10|8,0:1|0:2,0:0:0:0:
341,216,68447,6,0,P|350:162|322:107,1,96,2|8,0:0|0:1,0:0:0:0:
207,99,68719,2,0,P|192:53|202:7,1,96,2|8,0:1|0:2,0:0:0:0:
377,30,68992,2,0,L|271:47,1,96,10|0,0:1|0:0,0:0:0:0:
153,163,69265,1,8,0:1:0:0:
337,226,69401,6,0,P|341:296|239:302,1,192,10|8,0:2|0:1,0:0:0:0:
245,209,69810,1,8,0:1:0:0:
356,326,69947,1,8,0:2:0:0:
442,279,70083,2,0,L|465:78,1,192,8|0,0:1|0:0,0:0:0:0:
362,0,70492,1,8,0:2:0:0:
236,224,70765,6,0,P|174:260|136:208,1,144,8|0,0:1|0:0,0:0:0:0:
140,194,71037,2,0,L|162:309,1,96,10|0,0:2|0:0,0:0:0:0:
33,218,71310,2,0,L|51:123,1,96,2|8,0:0|0:1,0:0:0:0:
192,39,71583,2,0,L|214:154,1,96,10|0,0:2|0:0,0:0:0:0:
248,310,71856,6,0,P|257:258|348:248,1,144,10|0,0:1|0:0,0:0:0:0:
350,252,72128,1,10,0:2:0:0:
488,175,72265,2,0,L|473:58,1,96,10|0,0:1|0:0,0:0:0:0:
349,145,72537,2,0,L|336:240,1,96,10|10,0:1|0:2,0:0:0:0:
251,65,72810,1,2,0:0:0:0:
344,50,72947,5,8,0:1:0:0:
344,50,73083,1,8,0:1:0:0:
243,176,73219,2,0,L|261:318,1,144,10|0,0:2|0:0,0:0:0:0:
265,337,73492,1,8,0:1:0:0:
83,225,73628,6,0,L|101:82,1,144,10|0,0:2|0:0,0:0:0:0:
105,63,73901,1,8,0:1:0:0:
326,92,74037,6,0,P|258:110|251:193,1,144,10|0,0:2|0:0,0:0:0:0:
250,192,74310,1,8,0:1:0:0:
425,285,74447,1,10,0:2:0:0:
338,374,74583,6,0,L|194:353,1,144,10|0,0:1|0:0,0:0:0:0:
186,336,74856,2,0,L|42:315,1,144,10|0,0:1|0:0,0:0:0:0:
30,300,75128,1,14,0:1:0:0:
86,89,75401,6,0,P|142:70|183:147,1,144,10|0,0:2|0:0,0:0:0:0:
177,147,75674,2,0,L|201:48,1,96,0|8,0:0|0:1,0:0:0:0:
280,205,75947,1,10,0:2:0:0:
189,243,76083,1,2,0:0:0:0:
351,339,76219,5,10,0:1:0:0:
351,339,76356,2,0,L|375:240,1,96,10|8,0:1|0:2,0:0:0:0:
443,122,76628,2,0,L|465:215,1,96,10|0,0:1|0:0,0:0:0:0:
348,95,76901,2,0,L|372:-4,1,96,10|8,0:1|0:2,0:0:0:0:
361,171,77174,1,2,0:0:0:0:
211,54,77310,5,8,0:1:0:0:
211,54,77447,2,0,P|156:76|145:117,1,96,2|8,0:1|0:2,0:0:0:0:
166,239,77719,2,0,P|144:280|99:292,1,96,10|0,0:1|0:0,0:0:0:0:
81,186,77992,1,10,0:1:0:0:
224,161,78128,6,0,B|356:176|356:176|296:193,1,192,10|8,0:2|0:1,0:0:0:0:
166,239,78537,1,8,0:1:0:0:
330,342,78674,1,8,0:2:0:0:
237,359,78810,2,0,P|240:311|274:263,1,96,8|0,0:1|0:0,0:0:0:0:
399,239,79083,2,0,P|444:190|357:113,1,192,8|0,0:1|0:0,0:0:0:0:
280,132,79492,5,8,0:1:0:0:
112,5,79765,2,0,L|98:127,1,96,10|0,0:2|0:0,0:0:0:0:
0,174,80037,2,0,L|14:296,1,96,2|8,0:0|0:1,0:0:0:0:
151,360,80310,1,10,0:2:0:0:
121,269,80447,1,0,0:0:0:0:
274,201,80583,5,10,0:1:0:0:
194,154,80719,2,0,P|179:105|197:58,1,96,10|8,0:1|0:2,0:0:0:0:
364,96,80992,2,0,L|260:114,1,96,10|0,0:1|0:0,0:0:0:0:
354,242,81265,2,0,L|458:260,1,96,10|8,0:1|0:2,0:0:0:0:
274,201,81537,6,0,P|266:252|293:309,1,96,2|8,0:0|0:1,0:0:0:0:
367,342,81810,1,10,0:1:0:0:
194,379,81947,2,0,L|170:282,2,96,8|2|8,0:2|0:0|0:1,0:0:0:0:
102,181,82356,2,0,L|78:278,2,96,8|0|8,0:2|0:0|0:1,0:0:0:0:
223,151,82765,6,0,P|227:103|199:54,1,96,8|10,0:2|0:2,0:0:0:0:
177,43,82969,1,8,0:2:0:0:
177,43,83037,1,8,0:2:0:0:
50,134,83174,2,0,L|164:121,1,96,10|8,0:2|0:0,0:0:0:0:
239,194,83447,1,10,0:0:0:0:
97,315,83583,1,4,0:0:0:0:
246,205,83719,1,6,0:0:0:0:
133,204,83856,5,12,0:1:0:0:
133,204,83992,2,0,P|161:269|269:304,1,167.999994873047,0|8,0:1|0:1,0:0:0:0:
440,222,84401,1,8,0:2:0:0:
364,155,84537,2,0,P|358:99|386:58,1,83.9999974365235,8|0,0:1|0:0,0:0:0:0:
507,178,84810,6,0,P|520:217|512:257,1,83.9999974365235,8|0,0:1|0:0,0:0:0:0:
401,295,85083,2,0,P|370:267|357:229,1,83.9999974365235,8|0,0:1|0:0,0:0:0:0:
440,222,85356,1,8,0:1:0:0:
367,372,85492,1,8,0:2:0:0:
294,317,85628,2,0,L|208:325,1,83.9999974365235,8|0,0:1|0:0,0:0:0:0:
115,244,85901,1,2,0:0:0:0:
115,244,85969,1,2,0:0:0:0:
115,244,86037,5,10,0:1:0:0:
176,181,86174,2,0,L|183:89,1,83.9999974365235,10|0,0:1|0:0,0:0:0:0:
99,32,86447,2,0,L|105:115,1,83.9999974365235,10|8,0:1|0:2,0:0:0:0:
251,195,86719,2,0,L|244:278,1,83.9999974365235,10|0,0:1|0:0,0:0:0:0:
90,333,86992,6,0,P|122:303|164:299,1,83.9999974365235,10|0,0:1|0:0,0:0:0:0:
286,355,87265,2,0,P|326:349|356:320,1,83.9999974365235,10|0,0:1|0:0,0:0:0:0:
377,218,87537,1,10,0:1:0:0:
457,336,87674,2,0,L|468:242,1,83.9999974365235,10|0,0:2|0:0,0:0:0:0:
352,107,87947,1,8,0:2:0:0:
271,246,88083,1,10,0:2:0:0:
160,133,88219,5,12,0:1:0:0:
160,133,88356,2,0,P|193:158|97:224,1,192,8|8,0:1|0:1,0:0:0:0:
0,152,88765,2,0,P|46:143|86:168,1,96,8|0,0:2|0:0,0:0:0:0:
165,353,89037,1,10,0:2:0:0:
241,292,89174,6,0,P|287:277|408:357,1,192,12|0,0:1|0:0,0:0:0:0:
511,236,89583,2,0,L|496:125,1,96,8|0,0:2|0:0,0:0:0:0:
356,261,89856,2,0,L|371:150,1,96,8|0,0:2|0:0,0:0:0:0:
241,292,90128,1,8,0:2:0:0:
156,154,90265,1,8,0:2:0:0:
337,73,90401,5,12,0:1:0:0:
337,73,90537,2,0,P|276:73|239:114,1,107.999996704102,10|0,0:1|0:0,0:0:0:0:
161,280,90810,2,0,P|120:313|67:310,1,107.999996704102,2|8,0:0|0:2,0:0:0:0:
0,210,91083,1,10,0:1:0:0:
146,84,91219,2,0,L|172:207,1,107.999996704102,10|0,0:2|0:0,0:0:0:0:
279,331,91492,2,0,L|256:225,1,107.999996704102,2|0,0:0|0:0,0:0:0:0:
405,75,91765,5,8,0:0:0:0:
428,79,91833,1,8,0:0:0:0:
444,95,91901,1,8,0:0:0:0:
453,116,91969,1,8,0:0:0:0:
454,139,92037,2,0,L|437:214,1,45.0000017166138,8|8,0:0|0:0,0:0:0:0:
358,227,92174,2,0,L|375:302,1,45.0000017166138,8|8,0:0|0:0,0:0:0:0:
467,356,92310,2,0,L|413:347,1,45.0000017166138,4|4,0:0|0:0,0:0:0:0:
327,376,92447,2,0,L|273:367,1,45.0000017166138,4|4,0:0|0:0,0:0:0:0:
132,275,92583,6,0,P|186:316|199:195,1,240,12|10,0:1|0:2,0:0:0:0:
7,190,92992,2,0,L|135:183,1,120,10|0,0:1|0:0,0:0:0:0:
239,108,93265,2,0,L|367:115,1,120,10|8,0:1|0:2,0:0:0:0:
495,259,93537,6,0,P|457:310|378:296,1,120,2|8,0:0|0:1,0:0:0:0:
311,272,93810,1,10,0:1:0:0:
423,145,93947,1,8,0:2:0:0:
325,47,94083,2,0,L|303:184,1,120,2|0,0:0|0:0,0:0:0:0:
191,329,94356,2,0,L|171:210,1,120,10|8,0:1|0:2,0:0:0:0:
167,15,94628,6,0,P|217:56|205:125,1,120,2|12,0:1|0:1,0:0:0:0:
58,224,94901,2,0,P|60:281|107:316,1,120,2|8,0:0|0:2,0:0:0:0:
387,218,95174,2,0,L|149:182,1,240,2|8,0:0|0:1,0:0:0:0:
173,36,95583,2,0,L|411:0,1,240,10|8,0:2|0:1,0:0:0:0:
505,37,95992,1,8,0:1:0:0:
341,117,96128,6,0,P|402:128|455:165,1,120,10|0,0:2|0:0,0:0:0:0:
244,286,96401,2,0,P|305:275|358:238,1,120,2|8,0:0|0:1,0:0:0:0:
177,89,96674,2,0,P|224:129|251:187,1,120,10|0,0:2|0:0,0:0:0:0:
226,384,96947,5,12,0:1:0:0:
114,270,97083,2,0,L|360:242,1,240,2|8,0:0|0:1,0:0:0:0:
477,107,97492,2,0,P|506:166|409:124,1,240,2|8,0:0|0:2,0:0:0:0:
512,30,97901,6,0,L|364:13,1,120,2|0,0:0|0:0,0:0:0:0:
268,5,98174,1,8,0:1:0:0:
327,220,98310,2,0,P|395:180|397:132,1,120,10|0,0:2|0:0,0:0:0:0:
237,251,98583,2,0,P|237:329|278:355,1,120,2|8,0:0|0:1,0:0:0:0:
255,157,98856,2,0,P|186:118|143:140,1,120,10|0,0:2|0:0,0:0:0:0:
100,340,99128,6,0,L|66:148,1,180,12|0,0:1|0:0,0:0:0:0:
52,154,99401,2,0,L|75:19,1,120,10|0,0:2|0:0,0:0:0:0:
208,210,99674,2,0,L|228:328,1,120,2|8,0:0|0:1,0:0:0:0:
342,189,99947,6,0,P|348:113|206:83,1,240,10|8,0:2|0:1,0:0:0:0:
208,210,100356,1,8,0:1:0:0:
359,77,100492,2,0,L|500:90,1,120,10|0,0:2|0:0,0:0:0:0:
370,273,100765,1,2,0:0:0:0:
364,174,100901,1,8,0:1:0:0:
435,332,101037,2,0,P|377:360|320:345,1,120,10|0,0:2|0:0,0:0:0:0:
148,212,101310,5,12,0:1:0:0:
148,212,101447,2,0,P|216:188|237:148,1,120,2|8,0:0|0:2,0:0:0:0:
88,8,101719,2,0,L|69:198,1,180,2|0,0:0|0:0,0:0:0:0:
55,198,101992,2,0,L|67:323,1,120,10|8,0:1|0:2,0:0:0:0:
218,384,102265,6,0,L|229:264,1,120,2|8,0:0|0:1,0:0:0:0:
248,132,102537,1,10,0:1:0:0:
378,285,102674,1,8,0:2:0:0:
428,203,102810,2,0,P|363:192|314:218,1,120,2|0,0:0|0:0,0:0:0:0:
258,341,103083,2,0,P|204:365|146:353,1,120,10|8,0:1|0:2,0:0:0:0:
178,162,103356,6,0,L|196:287,1,120,2|12,0:0|0:1,0:0:0:0:
56,201,103628,2,0,L|73:82,1,120,2|8,0:0|0:2,0:0:0:0:
295,123,103901,2,0,P|227:149|252:29,1,240,2|8,0:0|0:1,0:0:0:0:
388,52,104310,2,0,L|345:306,1,240,10|8,0:2|0:1,0:0:0:0:
265,362,104719,1,8,0:1:0:0:
169,214,104856,6,0,P|163:159|193:99,1,120,10|0,0:2|0:0,0:0:0:0:
177,311,105128,2,0,P|227:288|264:232,1,120,2|8,0:2|0:1,0:0:0:0:
119,384,105401,2,0,P|87:339|83:271,1,120,10|0,0:2|0:0,0:0:0:0:
191,101,105674,5,12,0:1:0:0:
321,284,105810,2,0,P|335:215|202:190,1,240,2|0,0:3|0:0,0:0:0:0:
204,328,106219,1,10,0:1:0:0:
262,235,106356,1,8,0:1:0:0:
82,275,106492,1,8,0:2:0:0:
145,85,106628,6,0,L|184:327,1,240,4|8,0:1|0:1,0:0:0:0:
262,235,107037,2,0,L|288:69,1,120,10|0,0:2|0:0,0:0:0:0:
123,209,107310,1,10,0:1:0:0:
183,321,107447,1,8,0:1:0:0:
159,135,107583,2,0,P|84:134|46:177,1,120,10|0,0:2|0:0,0:0:0:0:
7,359,107856,6,0,L|135:375,2,120,10|8|10,0:2|0:1|0:1,0:0:0:0:
271,240,108265,2,0,L|143:256,2,90.0000034332277,8|10|8,0:2|0:1|0:1,0:0:0:0:
69,76,108674,5,12,0:2:0:0:
112,174,108810,2,0,P|170:175|163:33,1,240,0|8,0:0|0:2,0:0:0:0:
6,162,109219,2,0,L|29:296,1,120,10|8,0:1|0:0,0:0:0:0:
260,376,109492,2,0,L|280:257,1,120,10|4,0:0|0:0,0:0:0:0:
168,34,109765,1,8,0:2:0:0:
125,225,109901,1,8,0:2:0:0:
311,89,110037,6,0,P|372:89|428:151,1,132.00000402832,14|0,0:1|0:2,0:0:0:0:
451,368,110310,1,10,0:2:0:0:
354,304,110447,2,0,L|341:160,1,132.00000402832,2|8,0:0|0:1,0:0:0:0:
227,368,110719,2,0,L|240:224,1,132.00000402832,2|8,0:0|0:2,0:0:0:0:
123,65,110992,2,0,L|134:196,1,132.00000402832,2|8,0:0|0:1,0:0:0:0:
24,367,111265,6,0,P|23:297|74:268,1,132.00000402832,2|8,0:0|0:2,0:0:0:0:
300,299,111537,2,0,P|351:263|346:200,1,132.00000402832,2|8,0:0|0:1,0:0:0:0:
268,93,111810,2,0,P|302:31|360:32,1,132.00000402832,2|8,0:0|0:2,0:0:0:0:
510,261,112083,6,0,L|371:275,1,132.00000402832,2|12,0:0|0:1,0:0:0:0:
249,178,112356,2,0,L|110:164,1,132.00000402832,2|8,0:0|0:2,0:0:0:0:
37,345,112628,2,0,L|315:317,1,264.000008056641,2|0,0:0|0:0,0:0:0:0:
406,384,113037,2,0,P|388:297|500:165,1,264.000008056641,10|8,0:2|0:1,0:0:0:0:
274,10,113583,6,0,L|291:164,1,132.00000402832,10|0,0:2|0:0,0:0:0:0:
177,361,113856,2,0,L|191:229,1,132.00000402832,10|0,0:1|0:0,0:0:0:0:
81,163,114128,2,0,L|95:294,1,132.00000402832,10|0,0:2|0:0,0:0:0:0:
263,326,114401,5,12,0:1:0:0:
203,148,114537,2,0,P|226:85|380:135,1,264.000008056641,2|0,0:0|0:0,0:0:0:0:
367,354,114947,2,0,P|273:270|292:145,1,264.000008056641,2|8,0:1|0:2,0:0:0:0:
498,34,115356,6,0,L|221:7,1,264.000008056641,2|0,0:0|0:0,0:0:0:0:
72,114,115765,2,0,L|229:98,1,132.00000402832,10|0,0:2|0:0,0:0:0:0:
380,203,116037,2,0,L|249:181,1,132.00000402832,10|0,0:1|0:0,0:0:0:0:
195,342,116310,2,0,L|315:287,1,132.00000402832,10|0,0:2|0:0,0:0:0:0:
459,83,116583,6,0,P|406:43|338:55,1,132.00000402832,14|0,0:1|0:0,0:0:0:0:
207,247,116856,2,0,P|143:254|92:215,1,132.00000402832,10|0,0:2|0:0,0:0:0:0:
139,71,117128,2,0,P|202:63|253:102,1,132.00000402832,10|0,0:1|0:0,0:0:0:0:
311,313,117401,2,0,L|345:39,1,264.000008056641,10|8,0:2|0:1,0:0:0:0:
437,384,117947,6,0,L|417:226,1,132.00000402832,10|0,0:2|0:0,0:0:0:0:
405,137,118219,1,10,0:1:0:0:
235,304,118356,2,0,L|254:146,1,132.00000402832,8|0,0:2|0:2,0:0:0:0:
268,6,118628,1,8,0:2:0:0:
336,220,118765,5,12,0:1:0:0:
336,220,118901,1,2,0:0:0:0:
198,116,119037,1,10,0:2:0:0:
340,14,119174,2,0,L|316:164,1,132.00000402832,2|8,0:0|0:1,0:0:0:0:
257,312,119447,2,0,L|236:181,1,132.00000402832,2|8,0:0|0:2,0:0:0:0:
147,45,119719,2,0,L|123:195,1,132.00000402832,2|8,0:0|0:1,0:0:0:0:
27,363,119992,6,0,P|53:297|118:293,1,132.00000402832,2|8,0:0|0:2,0:0:0:0:
284,370,120265,2,0,P|345:355|364:295,1,132.00000402832,2|8,0:0|0:1,0:0:0:0:
340,162,120537,2,0,P|395:117|453:146,1,132.00000402832,2|8,0:0|0:2,0:0:0:0:
485,375,120810,6,0,L|515:234,1,132.00000402832,2|12,0:0|0:1,0:0:0:0:
437,18,121083,2,0,L|464:147,1,132.00000402832,2|8,0:0|0:2,0:0:0:0:
351,328,121356,2,0,L|72:292,1,264.000008056641,2|0,0:0|0:0,0:0:0:0:
202,180,121765,2,0,L|481:144,1,264.000008056641,10|8,0:2|0:1,0:0:0:0:
213,51,122310,6,0,P|124:71|95:118,1,132.00000402832,10|0,0:2|0:0,0:0:0:0:
180,277,122583,2,0,P|244:272|291:227,1,132.00000402832,10|0,0:1|0:0,0:0:0:0:
298,22,122856,2,0,L|334:179,1,132.00000402832,10|0,0:2|0:0,0:0:0:0:
366,306,123128,5,12,0:1:0:0:
481,171,123265,2,0,L|215:199,1,264.000008056641,2|0,0:0|0:0,0:0:0:0:
105,329,123674,1,10,0:1:0:0:
55,238,123810,2,0,L|79:108,1,107.999996704102,8|8,0:1|0:2,0:0:0:0:
192,292,124083,6,0,P|275:279|259:108,1,264.000008056641,12|8,0:1|0:0,0:0:0:0:
74,131,124492,1,10,0:2:0:0:
218,198,124628,1,8,0:1:0:0:
98,15,124765,2,0,L|82:175,1,132.00000402832,10|8,0:0|0:0,0:0:0:0:
111,323,125037,1,6,0:0:0:0:
30,246,125174,1,4,0:0:0:0:
249,331,125310,5,12,0:1:0:0:
249,331,125447,2,0,P|263:270|292:218,1,120,8|8,0:1|0:1,0:0:0:0:
315,100,125856,2,0,P|343:152|350:173,1,60,10|8,0:2|0:1,0:0:0:0:
376,358,126128,1,10,0:1:0:0:
372,233,126265,2,0,P|424:204|445:197,1,60,8|0,0:1|0:0,0:0:0:0:
444,111,126537,2,0,P|494:142|511:157,1,60,8|2,0:1|0:0,0:0:0:0:
512,235,126810,1,8,0:1:0:0:
261,325,126947,6,0,P|247:290|244:253,1,72,10|0,0:0|0:0,0:0:0:0:
252,227,127219,1,8,0:1:0:0:
250,220,127287,1,8,0:1:0:0:
247,212,127356,1,8,0:1:0:0:
245,205,127424,1,8,0:1:0:0:
243,198,127492,5,12,0:1:0:0:
256,192,132128,12,2,133765,2:0:0:0:
50,162,134037,6,0,L|154:176,1,80,8|0,0:0|0:0,0:0:0:0:
211,126,134219,2,0,L|315:140,1,80,8|0,0:0|0:0,0:0:0:0:
372,90,134401,2,0,L|476:104,1,80,8|0,0:0|0:0,0:0:0:0:
487,301,134598,6,0,P|468:271|401:260,1,80,4|0,0:0|0:0,0:0:0:0:
409,168,134803,2,0,P|373:169|330:221,1,80,4|0,0:0|0:0,0:0:0:0:
254,169,135008,2,0,P|237:200|261:263,1,80,4|0,0:0|0:0,0:0:0:0:
331,343,135213,6,0,L|320:268,1,64,8|0,0:1|0:0,0:0:0:0:
400,223,135479,2,0,L|411:148,1,55.9999982910157,8|0,0:1|0:0,0:0:0:0:
344,88,135812,2,0,L|335:28,1,35.9999989013672,8|0,0:1|0:0,0:0:0:0:
168,203,136212,6,0,P|137:156|228:160,1,180,4|0,2:0|0:0,0:0:0:0:
212,274,136757,5,12,0:1:0:0:
108,311,136893,1,2,0:0:0:0:
209,290,137029,1,2,0:0:0:0:
105,327,137165,1,2,0:0:0:0:
327,366,137302,5,10,0:2:0:0:
306,272,137438,1,2,0:0:0:0:
381,211,137575,2,0,L|485:224,1,96,2|0,0:0|0:0,0:0:0:0:
356,58,137847,5,10,0:1:0:0:
291,129,137984,1,2,0:0:0:0:
200,98,138120,2,0,L|177:-11,1,96,2|0,0:0|0:0,0:0:0:0:
11,82,138393,6,0,P|61:70|90:189,1,192,10|2,0:2|0:0,0:0:0:0:
24,235,138802,1,0,0:0:0:0:
74,316,138938,2,0,L|209:332,1,96,14|0,0:1|0:0,0:0:0:0:
236,258,139211,1,2,0:0:0:0:
323,297,139347,1,2,0:0:0:0:
395,233,139484,5,10,0:2:0:0:
395,233,139620,1,2,0:0:0:0:
387,136,139757,2,0,L|404:21,1,96,2|0,0:0|0:0,0:0:0:0:
475,175,140029,1,10,0:1:0:0:
487,270,140166,1,2,0:0:0:0:
413,330,140302,2,0,L|297:311,1,96,2|0,0:0|0:0,0:0:0:0:
42,229,140575,6,0,B|88:200|88:200|25:193,1,107.999996704102,12|0,0:2|0:0,0:0:0:0:
131,328,141120,5,14,0:1:0:0:
220,293,141257,1,2,0:0:0:0:
127,339,141393,1,2,0:0:0:0:
216,304,141530,1,2,0:0:0:0:
34,194,141666,1,10,0:2:0:0:
153,129,141802,1,0,0:0:0:0:
45,107,141938,6,0,L|141:117,1,96,2|2,0:0|0:0,0:0:0:0:
310,29,142211,1,10,0:1:0:0:
192,40,142347,1,2,0:0:0:0:
296,16,142484,2,0,L|200:26,1,96,0|2,0:0|0:0,0:0:0:0:
409,108,142757,2,0,L|404:13,1,96,10|0,0:2|0:0,0:0:0:0:
496,201,143029,2,0,L|490:302,1,96,2|0,0:0|0:0,0:0:0:0:
412,353,143302,5,8,0:1:0:0:
145,273,143575,2,0,P|206:240|218:205,1,96,2|0,0:0|0:0,0:0:0:0:
294,147,143847,2,0,P|233:114|221:79,1,96,10|0,0:2|0:0,0:0:0:0:
212,0,144120,1,2,0:0:0:0:
123,132,144257,6,0,L|17:119,1,96,2|8,0:0|0:1,0:0:0:0:
27,120,144666,1,8,0:1:0:0:
52,229,144802,1,8,0:1:0:0:
77,338,144938,6,0,P|87:324|103:312,1,32,8|0,0:0|0:0,0:0:0:0:
99,299,145029,2,0,P|116:300|134:308,1,32,8|0,0:0|0:0,0:0:0:0:
143,298,145120,2,0,P|150:313|152:333,1,32,8|0,0:0|0:0,0:0:0:0:
165,335,145211,6,0,P|180:340|195:341,3,32,4|0|4|0,0:0|0:0|0:0|0:0,0:0:0:0:
106,159,145484,5,12,0:1:0:0:
203,128,145620,1,2,0:0:0:0:
100,148,145757,1,2,0:0:0:0:
197,117,145893,1,2,0:0:0:0:
127,304,146029,5,10,0:2:0:0:
214,263,146166,1,2,0:0:0:0:
293,316,146302,2,0,P|330:323|393:300,1,96,2|8,0:0|0:2,0:0:0:0:
418,135,146575,2,0,L|433:241,1,96,10|2,0:1|0:0,0:0:0:0:
314,207,146847,1,2,0:0:0:0:
484,71,147120,6,0,P|379:112|302:67,1,192,10|2,0:2|0:0,0:0:0:0:
259,0,147529,1,2,0:0:0:0:
184,142,147666,2,0,L|207:253,1,96,10|0,0:1|0:0,0:0:0:0:
92,140,147938,2,0,L|111:45,1,96,2|0,0:0|0:0,0:0:0:0:
292,200,148211,5,10,0:2:0:0:
203,236,148347,1,2,0:0:0:0:
301,209,148484,1,2,0:0:0:0:
137,315,148620,1,2,0:0:0:0:
211,376,148757,5,10,0:1:0:0:
211,376,148893,1,2,0:0:0:0:
297,334,149029,2,0,L|283:217,1,96,2|0,0:0|0:0,0:0:0:0:
379,384,149302,1,10,0:2:0:0:
396,289,149438,1,2,0:0:0:0:
413,194,149575,2,0,L|429:89,1,96,2|0,0:0|0:0,0:0:0:0:
205,15,149847,5,14,0:1:0:0:
225,109,149984,1,2,0:0:0:0:
191,10,150120,1,2,0:0:0:0:
211,104,150257,1,2,0:0:0:0:
380,4,150393,1,10,0:2:0:0:
338,120,150529,6,0,L|356:239,1,96,2|0,0:0|0:0,0:0:0:0:
211,104,150802,2,0,L|196:198,1,96,2|8,0:0|0:1,0:0:0:0:
56,75,151075,2,0,L|74:194,1,96,2|0,0:0|0:0,0:0:0:0:
88,295,151347,1,2,0:0:0:0:
211,178,151484,2,0,P|258:176|299:212,1,96,10|0,0:2|0:0,0:0:0:0:
332,348,151757,2,0,P|369:376|416:374,1,96,2|0,0:0|0:0,0:0:0:0:
493,318,152029,5,8,0:1:0:0:
468,63,152302,2,0,L|365:77,1,96,2|0,0:0|0:0,0:0:0:0:
253,225,152575,2,0,L|150:211,1,96,10|0,0:2|0:0,0:0:0:0:
65,112,152847,1,2,0:0:0:0:
179,21,152984,6,0,P|228:72|142:95,1,192,10|8,0:1|0:1,0:0:0:0:
287,9,153393,1,8,0:2:0:0:
360,197,153529,1,8,0:1:0:0:
369,10,153666,2,0,L|345:117,1,107.999996704102,10|0,0:2|0:0,0:0:0:0:
300,307,153938,1,10,0:2:0:0:
176,191,154075,6,0,P|233:189|261:233,1,107.999996704102,8|2,0:2|0:0,0:0:0:0:
74,361,154484,5,2,0:0:0:0:
74,361,154620,2,0,P|61:305|35:239,1,120,2|2,0:0|0:0,0:0:0:0:
173,128,155166,1,2,0:0:0:0:
173,128,155302,6,0,P|151:183|137:242,1,120,2|2,0:0|0:0,0:0:0:0:
186,317,155711,2,0,P|227:273|273:235,1,120,2|2,0:0|0:0,0:0:0:0:
358,265,156120,2,0,L|420:259,1,60,2|2,0:0|0:0,0:0:0:0:
499,129,156393,5,2,0:0:0:0:
499,129,156529,2,0,L|437:123,1,60,2|2,0:0|0:0,0:0:0:0:
363,172,156802,2,0,P|349:121|382:56,1,120,2|0,0:0|0:0,0:0:0:0:
455,19,157211,2,0,L|388:28,1,60,2|0,0:0|0:0,0:0:0:0:
315,107,157484,6,0,L|181:89,1,120,2|0,0:0|0:0,0:0:0:0:
62,149,157893,1,2,0:0:0:0:
62,149,158029,2,0,P|104:138|156:200,1,120,2|2,0:0|0:0,0:0:0:0:
159,276,158438,1,0,0:0:0:0:
159,276,158575,6,0,P|195:320|252:313,1,120,2|2,0:0|0:0,0:0:0:0:
311,243,158984,2,0,P|358:226|449:234,1,120,2|2,0:0|0:0,0:0:0:0:
512,169,159393,2,0,L|500:240,1,60,2|0,0:0|0:0,0:0:0:0:
483,317,159666,6,0,L|351:340,1,120
270,341,160075,1,2,0:0:0:0:
270,341,160211,1,2,0:0:0:0:
256,206,160484,2,0,L|268:142,1,60,2|2,0:0|0:0,0:0:0:0:
186,136,160757,6,0,P|151:146|96:76,1,120,2|2,0:0|0:0,0:0:0:0:
130,11,161166,1,2,0:0:0:0:
295,0,161438,1,2,0:0:0:0:
332,156,161711,1,2,0:0:0:0:
332,156,161847,6,0,P|341:112|415:70,1,120,2|0,0:0|0:0,0:0:0:0:
486,97,162257,1,0,0:0:0:0:
486,97,162393,1,2,0:0:0:0:
413,261,162666,1,2,0:0:0:0:
242,225,162938,5,2,0:0:0:0:
242,225,163075,2,0,P|183:217|163:220,1,60,2|2,0:0|0:0,0:0:0:0:
105,290,163347,2,0,L|87:149,1,120,2|2,0:0|0:0,0:0:0:0:
12,135,163757,2,0,L|22:50,1,60,2|0,0:0|0:0,0:0:0:0:
81,10,164029,5,2,0:0:0:0:
233,69,164438,1,2,0:0:0:0:
233,69,164575,2,0,P|196:78|176:159,1,120,2|2,0:0|0:0,0:0:0:0:
248,288,165120,5,2,0:0:0:0:
248,288,165257,2,0,L|176:302,1,60
68,277,165529,2,0,P|69:204|129:172,2,120,2|2|2,0:0|0:0|0:0,0:0:0:0:
129,343,166211,5,2,0:0:0:0:
293,344,166484,1,2,0:0:0:0:
293,344,166620,2,0,L|257:208,1,120,2|0,0:0|0:0,0:0:0:0:
172,179,167029,6,0,L|187:243,1,53.9999983520508,2|0,0:0|0:0,0:0:0:0:
198,309,167302,6,0,P|189:259|278:239,1,144,12|0,0:1|0:0,0:0:0:0:
344,283,167575,2,0,P|409:268|422:238,1,96,8|8,0:1|0:1,0:0:0:0:
432,88,167847,1,8,0:2:0:0:
432,88,168120,1,10,0:2:0:0:
289,148,168257,6,0,L|398:168,1,96,8|10,0:2|0:1,0:0:0:0:
196,128,168529,1,8,0:2:0:0:
206,255,168666,2,0,L|315:235,1,96,12|0,0:1|0:0,0:0:0:0:
256,58,168938,1,8,0:2:0:0:
157,201,169075,2,0,P|113:122|170:52,1,192,10|8,0:1|0:2,0:0:0:0:
291,135,169484,6,0,L|171:125,1,96,12|0,0:1|0:0,0:0:0:0:
57,219,169757,1,8,0:0:0:0:
57,219,169893,1,8,0:0:0:0:
193,310,170029,1,10,0:2:0:0:
193,310,170302,1,8,0:1:0:0:
231,174,170438,1,10,0:1:0:0:
228,164,170507,1,8,0:1:0:0:
225,154,170575,6,0,L|377:164,1,144,12|0,0:1|0:0,0:0:0:0:
446,169,170847,1,12,0:1:0:0:
193,310,171257,5,10,0:1:0:0:
219,24,171666,5,12,0:1:0:0:
313,227,171802,1,2,0:0:0:0:
359,71,171938,1,10,0:2:0:0:
175,191,172075,2,0,L|195:325,1,120,10|0,0:1|0:0,0:0:0:0:
329,213,172347,2,0,L|346:94,1,120,10|8,0:1|0:2,0:0:0:0:
219,24,172620,6,0,L|239:158,1,120,2|8,0:0|0:1,0:0:0:0:
366,293,172893,1,10,0:1:0:0:
423,169,173029,1,8,0:2:0:0:
250,266,173166,2,0,L|230:400,1,120,2|0,0:0|0:0,0:0:0:0:
117,300,173438,2,0,L|99:181,1,120,10|8,0:1|0:2,0:0:0:0:
306,67,173711,6,0,P|236:123|210:119,1,120,2|12,0:0|0:1,0:0:0:0:
93,21,173984,2,0,P|34:27|0:73,1,120,2|8,0:0|0:2,0:0:0:0:
13,305,174257,2,0,L|257:264,1,240,2|8,0:0|0:1,0:0:0:0:
449,159,174666,2,0,L|205:118,1,240,10|8,0:2|0:1,0:0:0:0:
125,167,175075,1,8,0:1:0:0:
333,293,175211,6,0,L|321:159,1,120,10|0,0:2|0:0,0:0:0:0:
149,361,175484,2,0,L|159:241,1,120,2|8,0:0|0:1,0:0:0:0:
254,384,175757,2,0,L|242:250,1,120,10|0,0:2|0:0,0:0:0:0:
227,141,176029,5,12,0:1:0:0:
370,260,176166,2,0,P|410:188|355:19,1,240,2|0,0:0|0:0,0:0:0:0:
209,58,176575,2,0,P|274:67|312:118,1,120,10|8,0:1|0:1,0:0:0:0:
292,303,176847,1,8,0:2:0:0:
143,212,176984,6,0,L|398:186,1,240,2|8,0:0|0:1,0:0:0:0:
480,359,177393,2,0,L|327:343,1,120,10|0,0:2|0:0,0:0:0:0:
208,125,177666,2,0,L|361:109,1,120,10|8,0:1|0:1,0:0:0:0:
292,303,177938,2,0,L|139:287,1,120,10|0,0:2|0:0,0:0:0:0:
24,125,178211,6,0,P|89:117|96:223,1,180,14|0,0:1|0:0,0:0:0:0:
94,220,178484,2,0,L|247:204,1,120,10|0,0:2|0:0,0:0:0:0:
298,102,178757,2,0,L|451:117,1,120,2|8,0:1|0:1,0:0:0:0:
449,337,179029,6,0,P|367:346|407:235,1,240,10|8,0:2|0:1,0:0:0:0:
511,239,179438,1,8,0:1:0:0:
335,162,179575,1,10,0:2:0:0:
445,105,179711,1,0,0:0:0:0:
307,29,179847,2,0,L|319:150,1,120,2|8,0:0|0:1,0:0:0:0:
499,250,180120,2,0,L|510:130,1,120,8|0,0:2|0:0,0:0:0:0:
216,177,180393,1,12,0:1:0:0:
216,177,180529,6,0,P|269:171|311:221,1,120,2|8,0:0|0:2,0:0:0:0:
174,359,180802,2,0,P|161:289|260:287,1,180,2|0,0:0|0:0,0:0:0:0:
256,290,181074,2,0,L|135:274,1,120,10|8,0:1|0:2,0:0:0:0:
20,167,181347,6,0,L|141:151,1,120,2|8,0:0|0:1,0:0:0:0:
305,201,181620,1,10,0:1:0:0:
268,82,181757,1,8,0:2:0:0:
445,168,181893,2,0,L|408:305,1,120,2|0,0:1|0:1,0:0:0:0:
244,369,182166,2,0,L|212:253,1,120,10|8,0:1|0:2,0:0:0:0:
343,59,182438,6,0,P|336:119|275:158,1,120,2|12,0:0|0:1,0:0:0:0:
98,165,182711,2,0,P|52:202|46:260,1,120,2|8,0:0|0:2,0:0:0:0:
230,345,182984,2,0,L|180:80,1,240,10|8,0:1|0:1,0:0:0:0:
405,26,183393,2,0,L|360:261,1,240,8|12,0:2|0:1,0:0:0:0:
336,369,183802,1,8,0:1:0:0:
245,201,183938,6,0,P|306:166|373:168,1,120,10|0,0:2|0:0,0:0:0:0:
165,261,184211,2,0,P|226:296|293:294,1,120,2|8,0:0|0:1,0:0:0:0:
55,252,184484,2,0,P|90:191|149:159,1,120,10|0,0:2|0:0,0:0:0:0:
278,128,184757,5,12,0:1:0:0:
117,30,184893,1,0,0:0:0:0:
326,2,185029,2,0,L|298:137,1,120,10|8,0:2|0:1,0:0:0:0:
248,302,185302,2,0,L|223:184,1,120,2|8,0:0|0:1,0:0:0:0:
502,185,185575,2,0,L|365:204,1,120,10|8,2:2|2:1,2:0:0:0:
231,37,185847,5,8,0:2:0:0:
474,45,185984,2,0,P|403:19|347:153,1,240,12|8,0:1|0:2,0:0:0:0:
486,260,186393,1,10,0:2:0:0:
409,98,186529,1,8,0:0:0:0:
347,255,186666,2,0,L|371:383,1,120,10|0,0:0|0:0,0:0:0:0:
154,280,186938,5,6,0:0:0:0:
267,221,187075,1,8,0:2:0:0:
267,221,187211,2,0,P|226:215|183:199,1,83.9999974365235,10|0,0:0|0:0,0:0:0:0:
414,155,187484,1,10,0:2:0:0:
330,106,187620,2,0,P|289:112|246:128,1,83.9999974365235,8|2,0:0|0:0,0:0:0:0:
502,259,187893,1,8,0:2:0:0:
404,259,188029,2,0,P|367:233|334:189,1,96,8|0,0:2|0:0,0:0:0:0:
493,3,188302,2,0,P|488:48|467:98,1,96,10|0,0:2|0:0,0:0:0:0:
227,130,188575,6,0,P|219:91|207:49,2,64,10|8|8,0:0|0:0|0:0,0:0:0:0:
213,208,188847,1,4,0:0:0:0:
155,214,188938,1,4,0:0:0:0:
97,220,189029,1,4,0:0:0:0:
61,223,189120,6,0,B|29:177|55:110|55:110|166:143|121:348|121:348|178:259|304:292|304:292|231:275|233:199|233:199|311:175|350:242,1,840,12|0,0:1|0:0,0:0:0:0:
489,373,191302,6,0,P|436:298|472:161,1,240,12|0,0:1|0:0,0:0:0:0:
295,18,192120,2,0,P|257:54|180:60,1,120,8|0,0:0|0:0,0:0:0:0:
331,212,192529,2,0,P|280:197|237:133,1,120,4|4,0:0|0:0,0:0:0:0:
164,321,192938,5,8,0:2:0:0:
129,281,193029,1,8,0:0:0:0:
123,233,193120,1,8,0:0:0:0:
142,193,193211,6,0,P|151:170|155:141,2,40,4|4|4,0:0|0:0|0:0,0:0:0:0:
69,205,193484,6,0,L|313:225,1,240,12|0,0:1|0:0,0:0:0:0:
152,112,194302,1,8,0:0:0:0:
152,112,194438,6,0,P|202:104|213:42,1,120,8|8,0:2|0:0,0:0:0:0:
101,3,194847,1,8,0:0:0:0:
101,3,194984,1,8,0:0:0:0:
52,154,195120,1,8,0:2:0:0:
197,233,195257,1,8,0:0:0:0:
84,269,195393,1,4,0:0:0:0:
84,269,195529,1,4,0:0:0:0:
183,156,195666,6,0,P|226:159|273:203,1,90.0000034332277,12|0,0:1|0:0,0:0:0:0:
329,131,195938,2,0,P|347:169|333:232,1,90.0000034332277,8|0,0:1|0:0,0:0:0:0:
204,324,196211,2,0,P|228:288|289:269,1,90.0000034332277,8|0,0:2|0:0,0:0:0:0:
285,357,196484,1,8,0:1:0:0:
150,259,196620,1,4,0:0:0:0:
150,259,196688,1,4,0:0:0:0:
150,259,196757,5,4,0:0:0:0:
329,131,196893,1,8,0:2:0:0:
221,39,197029,2,0,L|206:147,1,90.0000034332277,4|4,0:0|0:0,0:0:0:0:
323,267,197302,1,8,0:2:0:0:
90,354,197575,1,8,0:2:0:0:
86,318,197643,1,8,0:2:0:0:
82,282,197711,1,8,0:2:0:0:
78,246,197779,1,8,0:2:0:0:
74,210,197847,5,12,0:1:0:0:
176,281,197984,1,2,0:0:0:0:
220,98,198120,1,10,0:2:0:0:
322,169,198257,1,2,0:0:0:0:
133,172,198393,1,10,0:1:0:0:
176,281,198529,1,2,0:0:0:0:
220,98,198666,2,0,P|175:66|111:61,1,107.999996704102,10|0,0:2|0:0,0:0:0:0:
60,266,198938,5,10,0:1:0:0:
211,205,199075,1,2,0:0:0:0:
40,252,199211,2,0,L|71:355,1,107.999996704102,10|0,0:2|0:0,0:0:0:0:
272,319,199484,2,0,P|278:242|206:206,1,161.999995056153,10|0,0:1|0:0,0:0:0:0:
119,235,199757,2,0,P|63:216|43:154,1,107.999996704102,10|0,0:2|0:0,0:0:0:0:
154,15,200029,5,10,0:1:0:0:
191,100,200166,1,2,0:0:0:0:
314,62,200302,5,10,0:2:0:0:
277,147,200439,1,2,0:0:0:0:
147,24,200575,5,10,0:1:0:0:
184,109,200712,1,2,0:0:0:0:
320,71,200847,2,0,P|354:106|360:169,1,107.999996704102,10|0,0:2|0:0,0:0:0:0:
248,293,201120,5,10,0:1:0:0:
343,274,201257,1,2,0:0:0:0:
238,305,201393,2,0,L|126:285,1,107.999996704102,10|0,0:2|0:0,0:0:0:0:
105,206,201666,2,0,L|217:226,1,107.999996704102,8|0,0:1|0:0,0:0:0:0:
248,384,201938,2,0,L|136:364,1,107.999996704102,8|0,0:2|0:0,0:0:0:0:
17,169,202211,5,12,0:1:0:0:
29,261,202347,1,2,0:0:0:0:
138,122,202484,5,10,0:2:0:0:
126,214,202620,1,2,0:0:0:0:
7,165,202757,5,10,0:1:0:0:
108,289,202893,1,10,0:1:0:0:
147,117,203029,1,10,0:2:0:0:
291,274,203166,6,0,P|340:244|266:137,1,215.999993408203,12|10,0:1|0:1,0:0:0:0:
103,198,203575,2,0,L|236:215,1,107.999996704102,10|0,0:2|0:0,0:0:0:0:
332,359,203847,1,10,0:1:0:0:
332,359,203984,1,8,0:1:0:0:
445,259,204120,2,0,P|452:198|432:142,1,107.999996704102,10|0,0:2|0:2,0:0:0:0:
281,33,204393,5,12,0:1:0:0:
211,309,204666,2,0,P|243:253|164:228,1,161.999995056153,10|0,0:2|0:0,0:0:0:0:
164,237,204938,2,0,L|285:230,1,107.999996704102,10|8,0:1|0:1,0:0:0:0:
388,68,205211,1,10,0:2:0:0:
182,138,205347,6,0,L|424:152,1,215.999993408203,12|8,0:1|0:1,0:0:0:0:
499,225,205757,2,0,L|378:232,1,107.999996704102,4|0,0:0|0:0,0:0:0:0:
201,312,206029,2,0,P|178:253|139:220,1,107.999996704102,10|0,0:2|0:0,0:0:0:0:
325,343,206302,1,10,0:2:0:0:
397,150,206438,1,8,0:2:0:0:
450,280,206575,5,12,0:1:0:0:
216,178,206847,2,0,P|235:147|246:100,1,60,10|0,0:2|0:0,0:0:0:0:
244,44,206984,2,0,P|257:101|293:176,1,120,2|0,0:0|0:0,0:0:0:0:
457,207,207257,2,0,P|401:179|386:305,1,240,10|2,0:1|0:0,0:0:0:0:
483,353,207666,6,0,P|421:312|367:323,1,120,10|8,0:1|0:1,0:0:0:0:
179,384,207938,2,0,L|213:133,1,240,10|0,0:2|0:0,0:0:0:0:
223,45,208347,1,8,0:1:0:0:
323,226,208484,2,0,L|306:100,1,120,10|0,0:2|0:0,0:0:0:0:
94,265,208757,6,0,L|111:139,1,120,10|0,0:1|0:0,0:0:0:0:
233,306,209029,2,0,L|199:55,1,240,10|0,0:2|0:0,0:0:0:0:
113,30,209438,1,8,0:1:0:0:
246,183,209575,2,0,P|312:196|331:100,1,180,10|0,0:2|0:0,0:0:0:0:
320,94,209847,6,0,L|333:248,1,120,10|10,0:1|0:1,0:0:0:0:
337,243,210052,1,0,0:0:0:0:
337,243,210120,1,10,0:2:0:0:
246,183,210257,2,0,P|186:178|145:228,1,120,10|0,0:1|0:0,0:0:0:0:
63,350,210529,2,0,P|41:277|104:119,1,240,10|0,0:1|0:0,0:0:0:0:
185,69,210938,5,12,0:1:0:0:
346,294,211211,2,0,P|354:262|368:224,1,60,10|0,0:2|0:0,0:0:0:0:
445,172,211347,2,0,P|405:215|346:222,1,120,2|0,0:0|0:0,0:0:0:0:
220,176,211620,1,10,0:1:0:0:
250,365,211757,2,0,P|274:313|259:246,1,120,8|2,0:2|0:0,0:0:0:0:
61,281,212029,6,0,L|180:299,1,120,10|8,0:1|0:1,0:0:0:0:
284,123,212302,2,0,P|158:124|169:241,1,240,10|0,0:2|0:0,0:0:0:0:
250,365,212711,1,8,0:1:0:0:
397,176,212847,2,0,L|324:184,1,60,10|0,0:2|0:0,0:0:0:0:
263,253,212984,2,0,L|336:261,1,60,2|0,0:0|0:0,0:0:0:0:
388,58,213120,6,0,P|348:32|265:64,1,120,10|0,0:1|0:0,0:0:0:0:
129,226,213393,2,0,P|115:139|238:159,1,240,8|0,0:2|0:0,0:0:0:0:
247,273,213802,1,8,0:1:0:0:
329,110,213938,2,0,P|398:104|438:150,1,120,10|0,0:2|0:0,0:0:0:0:
391,369,214211,6,0,L|371:240,1,120,10|10,0:1|0:1,0:0:0:0:
368,220,214416,1,2,0:0:0:0:
368,220,214484,1,10,0:2:0:0:
243,384,214620,2,0,L|263:255,1,120,10|0,0:1|0:0,0:0:0:0:
80,354,214893,1,10,0:1:0:0:
24,168,215029,1,8,0:2:0:0:
179,294,215166,1,8,0:2:0:0:
10,250,215302,5,12,0:1:0:0:
10,250,215438,1,8,0:1:0:0:
200,194,215575,2,0,P|141:188|95:168,1,96,10|8,0:1|0:1,0:0:0:0:
271,274,215847,2,0,P|212:280|166:300,1,96,10|0,0:2|0:0,0:0:0:0:
350,225,216120,2,0,P|301:190|272:149,1,96,10|8,0:1|0:1,0:0:0:0:
399,24,216393,6,0,P|390:71|369:114,1,96,2|8,0:0|0:1,0:0:0:0:
209,211,216666,1,2,0:0:0:0:
350,225,216802,2,0,P|365:271|367:341,1,96,10|8,0:1|0:2,0:0:0:0:
205,337,217075,2,0,P|227:262|288:148,1,192,10|2,0:1|0:0,0:0:0:0:
437,72,217484,6,0,P|382:85|341:87,1,96,10|0,0:1|0:0,0:0:0:0:
253,69,217757,1,10,0:1:0:0:
253,69,217893,1,0,0:0:0:0:
357,190,218029,2,0,P|287:163|154:142,1,192,10|2,0:2|0:1,0:0:0:0:
43,286,218438,6,0,P|71:215|77:174,1,96,10|0,0:1|0:0,0:0:0:0:
71,88,218711,1,10,0:1:0:0:
172,237,218847,2,0,P|266:222|356:189,1,192,2|8,0:0|0:2,0:0:0:0:
461,0,219393,2,0,P|452:26|446:57,1,48,10|0,0:1|0:0,0:0:0:0:
490,126,219529,2,0,P|499:152|505:183,1,48,10|0,0:2|0:0,0:0:0:0:
432,311,219666,6,0,P|389:243|210:216,1,251.999992309571,12|0,0:1|0:0,0:0:0:0:
122,270,220075,1,8,0:1:0:0:
242,374,220211,2,0,L|187:108,1,251.999992309571,8|8,0:2|0:1,0:0:0:0:
295,14,220620,6,0,L|243:260,1,251.999992309571,8|8,0:1|0:0,0:0:0:0:
118,373,221029,1,4,0:0:0:0:
58,230,221166,1,4,0:0:0:0:
242,374,221302,2,0,L|187:108,1,251.999992309571,12|2,0:1|0:0,0:0:0:0:
166,28,221711,1,2,0:0:0:0:
333,160,221847,5,12,0:1:0:0:
374,53,221984,2,0,P|318:99|337:169,1,125.999996154785,8|8,0:2|0:1,0:0:0:0:
512,221,222257,2,0,L|254:243,1,251.999992309571,8|0,0:1|0:0,0:0:0:0:
64,347,222666,1,8,0:2:0:0:
170,384,222802,6,0,L|148:126,1,251.999992309571,8|8,0:1|0:2,0:0:0:0:
142,17,223211,1,8,0:1:0:0:
142,17,223347,1,8,0:1:0:0:
263,181,223484,2,0,L|415:196,1,125.999996154785,8|0,0:2|0:0,0:0:0:0:
241,92,223757,1,8,0:2:0:0:
286,284,223893,1,8,0:2:0:0:
97,226,224029,5,12,0:1:0:0:
263,181,224166,1,8,0:2:0:0:
128,136,224302,1,8,0:1:0:0:
128,136,224438,1,8,0:1:0:0:
222,305,224575,2,0,L|261:40,1,251.999992309571,8|8,0:2|0:2,0:0:0:0:
346,189,224984,6,0,L|81:228,1,251.999992309571,8|8,0:1|0:2,0:0:0:0:
4,178,225393,1,8,0:1:0:0:
4,178,225529,1,8,0:1:0:0:
166,336,225666,2,0,L|191:100,1,207.000003948212,10|0,0:2|0:0,0:0:0:0:
198,39,225938,1,8,0:2:0:0:
305,212,226075,5,12,0:1:0:0:
