osu file format v14

[General]
AudioFilename: audio.mp3
AudioLeadIn: 0
PreviewTime: 73433
Countdown: 1
SampleSet: Normal
StackLeniency: 0.7
Mode: 3
LetterboxInBreaks: 0
SpecialStyle: 0
WidescreenStoryboard: 1

[Editor]
DistanceSpacing: 1
BeatDivisor: 4
GridSize: 32
TimelineZoom: 3.199999

[Metadata]
Title:ODD FUTURE (short ver.)
TitleUnicode:ODD FUTURE (short ver.)
Artist:UVERworld
ArtistUnicode:UVERworld
Creator:AlisceaSparku
Version:7K MX
Source:
Tags:boku no hero academia my academy bnha op opening
BeatmapID:1636882
BeatmapSetID:775188

[Difficulty]
HPDrainRate:8.9
CircleSize:7
OverallDifficulty:8.4
ApproachRate:5
SliderMultiplier:1.4
SliderTickRate:1

[Events]
//Background and Video events
0,0,"819836.png",0,0
//Break Periods
//Storyboard Layer 0 (Background)
//Storyboard Layer 1 (Fail)
//Storyboard Layer 2 (Pass)
//Storyboard Layer 3 (Foreground)
//Storyboard Sound Samples

[TimingPoints]
430,468.75,4,1,0,30,1,0
73555,-100,4,1,0,5,0,1
88555,-100,4,1,0,5,0,0

[HitObjects]
256,192,430,128,0,664:0:0:0:0:
402,192,430,128,0,664:0:0:0:0:
36,192,664,128,0,898:0:0:0:0:
256,192,781,128,0,898:0:0:0:0:
402,192,781,128,0,898:0:0:0:0:
182,192,898,1,0,0:0:0:0:
182,192,1015,1,0,0:0:0:0:
329,192,1133,128,0,1836:0:0:0:0:
475,192,1133,128,0,2187:0:0:0:0:
36,192,1250,128,0,2187:0:0:0:0:
182,192,1836,128,0,2187:0:0:0:0:
36,192,2305,128,0,2773:0:0:0:0:
182,192,2305,128,0,2773:0:0:0:0:
329,192,2305,128,0,2773:0:0:0:0:
475,192,2305,128,0,2773:0:0:0:0:
256,192,2773,1,0,0:0:0:0:
256,192,3008,1,0,0:0:0:0:
109,192,3242,128,0,3476:0:0:0:0:
256,192,3242,128,0,3476:0:0:0:0:
402,192,3242,128,0,3476:0:0:0:0:
36,192,3594,128,0,3828:0:0:0:0:
256,192,3594,128,0,3828:0:0:0:0:
475,192,3594,128,0,3828:0:0:0:0:
109,192,3945,128,0,4180:0:0:0:0:
256,192,3945,128,0,4180:0:0:0:0:
402,192,3945,128,0,4180:0:0:0:0:
36,192,4180,128,0,4648:0:0:0:0:
475,192,4297,128,0,4531:0:0:0:0:
475,192,4648,128,0,4883:0:0:0:0:
182,192,4648,128,0,5000:0:0:0:0:
475,192,5000,128,0,5234:0:0:0:0:
36,192,5117,128,0,5351:0:0:0:0:
329,192,5117,1,0,0:0:0:0:
475,192,5351,128,0,5586:0:0:0:0:
36,192,5469,128,0,5703:0:0:0:0:
329,192,5469,1,0,0:0:0:0:
475,192,5703,128,0,5937:0:0:0:0:
256,192,5820,128,0,9805:0:0:0:0:
109,192,5820,128,0,6523:0:0:0:0:
36,192,5820,1,0,0:0:0:0:
329,192,5820,128,0,6992:0:0:0:0:
475,192,6055,1,0,0:0:0:0:
36,192,6523,128,0,7226:0:0:0:0:
402,192,6992,128,0,7461:0:0:0:0:
182,192,7226,128,0,7695:0:0:0:0:
475,192,7461,128,0,7930:0:0:0:0:
109,192,7695,128,0,8164:0:0:0:0:
329,192,7930,128,0,9805:0:0:0:0:
36,192,8164,128,0,9805:0:0:0:0:
475,192,8398,1,0,0:0:0:0:
475,192,8867,1,0,0:0:0:0:
475,192,9336,1,0,0:0:0:0:
475,192,9805,128,0,10390:0:0:0:0:
182,192,9922,128,0,10390:0:0:0:0:
329,192,10039,128,0,10390:0:0:0:0:
36,192,10156,128,0,10390:0:0:0:0:
402,192,10508,1,0,0:0:0:0:
109,192,10566,1,0,0:0:0:0:
402,192,10625,1,0,0:0:0:0:
109,192,10683,1,0,0:0:0:0:
402,192,10742,1,0,0:0:0:0:
109,192,10859,128,0,11094:0:0:0:0:
182,192,10859,128,0,11328:0:0:0:0:
402,192,10859,128,0,11211:0:0:0:0:
329,192,10859,128,0,11445:0:0:0:0:
109,192,11211,128,0,11680:0:0:0:0:
402,192,11328,128,0,11680:0:0:0:0:
182,192,11445,128,0,11680:0:0:0:0:
329,192,11562,128,0,11680:0:0:0:0:
256,192,11680,128,0,12148:0:0:0:0:
475,192,11680,128,0,11914:0:0:0:0:
36,192,11680,128,0,11914:0:0:0:0:
182,192,12031,1,0,0:0:0:0:
109,192,12031,128,0,12500:0:0:0:0:
329,192,12148,1,0,0:0:0:0:
402,192,12148,128,0,12500:0:0:0:0:
182,192,12383,1,0,0:0:0:0:
329,192,12500,1,0,0:0:0:0:
256,192,12617,128,0,12851:0:0:0:0:
109,192,12617,1,0,0:0:0:0:
402,192,12617,1,0,0:0:0:0:
475,192,12734,128,0,13086:0:0:0:0:
36,192,12734,128,0,13086:0:0:0:0:
109,192,13086,128,0,13437:0:0:0:0:
256,192,13086,128,0,13320:0:0:0:0:
402,192,13086,128,0,13437:0:0:0:0:
36,192,13320,1,0,0:0:0:0:
475,192,13320,1,0,0:0:0:0:
329,192,13437,1,0,0:0:0:0:
182,192,13437,1,0,0:0:0:0:
36,192,13555,128,0,14023:0:0:0:0:
256,192,13555,128,0,13906:0:0:0:0:
475,192,13555,128,0,13789:0:0:0:0:
329,192,13789,1,0,0:0:0:0:
475,192,13906,1,0,0:0:0:0:
256,192,14023,1,0,0:0:0:0:
36,192,14140,1,0,0:0:0:0:
182,192,14258,1,0,0:0:0:0:
402,192,14258,1,0,0:0:0:0:
36,192,14492,1,0,0:0:0:0:
182,192,14609,1,0,0:0:0:0:
402,192,14609,1,0,0:0:0:0:
36,192,14844,1,0,0:0:0:0:
182,192,14961,1,0,0:0:0:0:
475,192,14961,1,0,0:0:0:0:
109,192,15195,1,0,0:0:0:0:
36,192,15430,128,0,15664:0:0:0:0:
256,192,15430,128,0,15781:0:0:0:0:
475,192,15430,128,0,15898:0:0:0:0:
182,192,15664,1,0,0:0:0:0:
36,192,15781,1,0,0:0:0:0:
256,192,15898,1,0,0:0:0:0:
475,192,16015,1,0,0:0:0:0:
329,192,16133,1,0,0:0:0:0:
109,192,16133,1,0,0:0:0:0:
475,192,16367,1,0,0:0:0:0:
329,192,16484,1,0,0:0:0:0:
109,192,16484,1,0,0:0:0:0:
475,192,16719,1,0,0:0:0:0:
329,192,16836,1,0,0:0:0:0:
36,192,16836,1,0,0:0:0:0:
256,192,16953,1,0,0:0:0:0:
182,192,17070,1,0,0:0:0:0:
475,192,17305,128,0,17656:0:0:0:0:
256,192,17305,128,0,17539:0:0:0:0:
36,192,17305,128,0,17773:0:0:0:0:
402,192,17539,1,0,0:0:0:0:
256,192,17656,1,0,0:0:0:0:
475,192,17773,1,0,0:0:0:0:
36,192,17890,1,0,0:0:0:0:
182,192,18008,1,0,0:0:0:0:
329,192,18008,1,0,0:0:0:0:
36,192,18242,1,0,0:0:0:0:
182,192,18359,1,0,0:0:0:0:
329,192,18359,1,0,0:0:0:0:
402,192,18476,128,0,18828:0:0:0:0:
256,192,18594,128,0,18945:0:0:0:0:
36,192,18711,128,0,19180:0:0:0:0:
109,192,18711,1,0,0:0:0:0:
475,192,18828,128,0,19180:0:0:0:0:
329,192,18945,128,0,19180:0:0:0:0:
182,192,19062,128,0,19180:0:0:0:0:
109,192,19180,128,0,19531:0:0:0:0:
256,192,19180,128,0,19414:0:0:0:0:
402,192,19180,128,0,19648:0:0:0:0:
475,192,19414,1,0,0:0:0:0:
256,192,19531,1,0,0:0:0:0:
109,192,19648,1,0,0:0:0:0:
402,192,19765,1,0,0:0:0:0:
36,192,19883,1,0,0:0:0:0:
256,192,19883,1,0,0:0:0:0:
402,192,20117,1,0,0:0:0:0:
256,192,20234,1,0,0:0:0:0:
36,192,20234,1,0,0:0:0:0:
475,192,20351,1,0,0:0:0:0:
182,192,20469,1,0,0:0:0:0:
36,192,20586,1,0,0:0:0:0:
329,192,20586,1,0,0:0:0:0:
329,192,20703,1,0,0:0:0:0:
329,192,20820,1,0,0:0:0:0:
182,192,20820,1,0,0:0:0:0:
329,192,20937,1,0,0:0:0:0:
109,192,21055,128,0,21289:0:0:0:0:
256,192,21055,128,0,21406:0:0:0:0:
402,192,21055,128,0,21523:0:0:0:0:
475,192,21289,1,0,0:0:0:0:
109,192,21406,1,0,0:0:0:0:
256,192,21523,1,0,0:0:0:0:
402,192,21640,1,0,0:0:0:0:
36,192,21758,1,0,0:0:0:0:
182,192,21758,1,0,0:0:0:0:
402,192,21992,1,0,0:0:0:0:
36,192,22109,1,0,0:0:0:0:
182,192,22109,1,0,0:0:0:0:
329,192,22226,1,0,0:0:0:0:
182,192,22461,128,0,22930:0:0:0:0:
329,192,22461,128,0,22930:0:0:0:0:
475,192,22695,128,0,22930:0:0:0:0:
402,192,22930,128,0,23164:0:0:0:0:
256,192,22930,128,0,23281:0:0:0:0:
109,192,22930,128,0,23398:0:0:0:0:
36,192,23164,1,0,0:0:0:0:
402,192,23281,1,0,0:0:0:0:
256,192,23398,1,0,0:0:0:0:
109,192,23515,1,0,0:0:0:0:
475,192,23633,1,0,0:0:0:0:
329,192,23633,1,0,0:0:0:0:
109,192,23867,1,0,0:0:0:0:
475,192,23984,1,0,0:0:0:0:
329,192,23984,1,0,0:0:0:0:
182,192,24101,1,0,0:0:0:0:
36,192,24336,128,0,24453:0:0:0:0:
256,192,24453,128,0,24570:0:0:0:0:
475,192,24570,128,0,24687:0:0:0:0:
256,192,24805,128,0,25039:0:0:0:0:
36,192,24805,128,0,25156:0:0:0:0:
475,192,24805,128,0,25273:0:0:0:0:
402,192,25039,1,0,0:0:0:0:
256,192,25156,1,0,0:0:0:0:
36,192,25273,1,0,0:0:0:0:
475,192,25390,1,0,0:0:0:0:
182,192,25508,128,0,25742:0:0:0:0:
36,192,25625,128,0,26094:0:0:0:0:
475,192,25742,128,0,26211:0:0:0:0:
182,192,25859,128,0,26094:0:0:0:0:
329,192,25976,128,0,26328:0:0:0:0:
36,192,26211,128,0,26680:0:0:0:0:
182,192,26211,128,0,26445:0:0:0:0:
475,192,26328,128,0,26680:0:0:0:0:
329,192,26445,128,0,26680:0:0:0:0:
109,192,26680,1,0,0:0:0:0:
256,192,26680,1,0,0:0:0:0:
182,192,26797,1,0,0:0:0:0:
475,192,26797,1,0,0:0:0:0:
109,192,26914,1,0,0:0:0:0:
402,192,26914,1,0,0:0:0:0:
329,192,27031,1,0,0:0:0:0:
36,192,27031,1,0,0:0:0:0:
256,192,27148,1,0,0:0:0:0:
475,192,27148,1,0,0:0:0:0:
402,192,27265,1,0,0:0:0:0:
182,192,27265,1,0,0:0:0:0:
109,192,27383,1,0,0:0:0:0:
329,192,27383,1,0,0:0:0:0:
475,192,27500,1,0,0:0:0:0:
256,192,27500,1,0,0:0:0:0:
36,192,27617,1,0,0:0:0:0:
402,192,27617,1,0,0:0:0:0:
182,192,27617,1,0,0:0:0:0:
329,192,27734,1,0,0:0:0:0:
109,192,27734,1,0,0:0:0:0:
402,192,27851,1,0,0:0:0:0:
182,192,27851,1,0,0:0:0:0:
475,192,27969,1,0,0:0:0:0:
256,192,27969,1,0,0:0:0:0:
402,192,28086,1,0,0:0:0:0:
109,192,28086,1,0,0:0:0:0:
256,192,28203,1,0,0:0:0:0:
36,192,28203,1,0,0:0:0:0:
329,192,28320,1,0,0:0:0:0:
109,192,28320,1,0,0:0:0:0:
402,192,28437,1,0,0:0:0:0:
182,192,28437,1,0,0:0:0:0:
36,192,28555,128,0,28789:0:0:0:0:
329,192,28555,128,0,29023:0:0:0:0:
475,192,28555,128,0,29023:0:0:0:0:
256,192,28555,1,0,0:0:0:0:
109,192,28789,128,0,29023:0:0:0:0:
256,192,28906,1,0,0:0:0:0:
402,192,29023,128,0,29258:0:0:0:0:
36,192,29023,1,0,0:0:0:0:
182,192,29023,1,0,0:0:0:0:
475,192,29258,128,0,30430:0:0:0:0:
329,192,29258,128,0,29726:0:0:0:0:
36,192,29258,128,0,29492:0:0:0:0:
182,192,29375,128,0,29492:0:0:0:0:
36,192,29726,128,0,29961:0:0:0:0:
182,192,29726,128,0,30430:0:0:0:0:
402,192,29961,1,0,0:0:0:0:
256,192,29961,1,0,0:0:0:0:
109,192,29961,1,0,0:0:0:0:
329,192,30078,128,0,30430:0:0:0:0:
109,192,30430,128,0,31133:0:0:0:0:
256,192,30430,128,0,30898:0:0:0:0:
402,192,30430,128,0,30898:0:0:0:0:
36,192,30781,1,0,0:0:0:0:
182,192,30898,1,0,0:0:0:0:
329,192,30898,1,0,0:0:0:0:
475,192,30898,1,0,0:0:0:0:
475,192,31133,128,0,32305:0:0:0:0:
182,192,31133,128,0,31601:0:0:0:0:
36,192,31133,128,0,31367:0:0:0:0:
329,192,31250,128,0,31367:0:0:0:0:
36,192,31601,128,0,32305:0:0:0:0:
329,192,31601,128,0,32305:0:0:0:0:
109,192,31836,1,0,0:0:0:0:
256,192,31836,1,0,0:0:0:0:
402,192,31836,1,0,0:0:0:0:
182,192,31953,128,0,32305:0:0:0:0:
109,192,32305,128,0,32773:0:0:0:0:
402,192,32305,128,0,32773:0:0:0:0:
256,192,32305,128,0,33008:0:0:0:0:
475,192,32656,1,0,0:0:0:0:
182,192,32773,1,0,0:0:0:0:
36,192,32773,1,0,0:0:0:0:
329,192,32773,1,0,0:0:0:0:
36,192,33008,128,0,33476:0:0:0:0:
329,192,33008,128,0,33242:0:0:0:0:
475,192,33125,128,0,33242:0:0:0:0:
475,192,33476,128,0,33711:0:0:0:0:
329,192,33476,128,0,33711:0:0:0:0:
109,192,33711,128,0,34180:0:0:0:0:
36,192,33711,1,0,0:0:0:0:
256,192,33711,1,0,0:0:0:0:
402,192,33828,128,0,34180:0:0:0:0:
182,192,33828,1,0,0:0:0:0:
256,192,33945,128,0,34180:0:0:0:0:
475,192,34180,128,0,34414:0:0:0:0:
329,192,34414,128,0,34648:0:0:0:0:
109,192,34531,1,0,0:0:0:0:
36,192,34531,1,0,0:0:0:0:
182,192,34648,128,0,34883:0:0:0:0:
256,192,34648,1,0,0:0:0:0:
402,192,34648,1,0,0:0:0:0:
36,192,34883,128,0,36055:0:0:0:0:
475,192,34883,128,0,35117:0:0:0:0:
329,192,35000,128,0,35117:0:0:0:0:
475,192,35351,128,0,36055:0:0:0:0:
329,192,35351,128,0,36055:0:0:0:0:
109,192,35586,1,0,0:0:0:0:
256,192,35586,1,0,0:0:0:0:
402,192,35586,1,0,0:0:0:0:
182,192,35703,128,0,36055:0:0:0:0:
256,192,36055,128,0,38164:0:0:0:0:
109,192,36758,128,0,39805:0:0:0:0:
475,192,37461,128,0,39805:0:0:0:0:
329,192,38164,128,0,39805:0:0:0:0:
36,192,39805,128,0,42617:0:0:0:0:
402,192,40508,128,0,42617:0:0:0:0:
182,192,41211,128,0,42617:0:0:0:0:
36,192,43555,1,0,0:0:0:0:
182,192,43555,1,0,0:0:0:0:
329,192,43555,1,0,0:0:0:0:
475,192,43555,1,0,0:0:0:0:
36,192,43789,1,0,0:0:0:0:
109,192,43789,1,0,0:0:0:0:
402,192,43789,1,0,0:0:0:0:
475,192,43789,1,0,0:0:0:0:
109,192,44726,1,0,0:0:0:0:
256,192,44726,1,0,0:0:0:0:
402,192,44726,1,0,0:0:0:0:
475,192,44726,1,0,0:0:0:0:
36,192,45664,1,0,0:0:0:0:
109,192,45664,1,0,0:0:0:0:
256,192,45664,1,0,0:0:0:0:
402,192,45664,1,0,0:0:0:0:
182,192,46367,1,0,0:0:0:0:
109,192,46367,1,0,0:0:0:0:
36,192,46367,1,0,0:0:0:0:
329,192,46367,1,0,0:0:0:0:
329,192,46601,1,0,0:0:0:0:
402,192,46601,1,0,0:0:0:0:
475,192,46601,1,0,0:0:0:0:
182,192,46601,1,0,0:0:0:0:
256,192,47305,1,0,0:0:0:0:
329,192,47305,1,0,0:0:0:0:
402,192,47305,1,0,0:0:0:0:
475,192,47305,1,0,0:0:0:0:
256,192,47539,1,0,0:0:0:0:
182,192,47539,1,0,0:0:0:0:
109,192,47539,1,0,0:0:0:0:
36,192,47539,1,0,0:0:0:0:
36,192,48476,1,0,0:0:0:0:
182,192,48476,1,0,0:0:0:0:
329,192,48476,1,0,0:0:0:0:
475,192,48476,1,0,0:0:0:0:
109,192,49414,1,0,0:0:0:0:
182,192,49414,1,0,0:0:0:0:
329,192,49414,1,0,0:0:0:0:
402,192,49414,1,0,0:0:0:0:
36,192,50117,1,0,0:0:0:0:
329,192,50117,1,0,0:0:0:0:
402,192,50117,1,0,0:0:0:0:
475,192,50117,1,0,0:0:0:0:
256,192,50351,1,0,0:0:0:0:
36,192,50351,1,0,0:0:0:0:
329,192,50351,1,0,0:0:0:0:
402,192,50351,1,0,0:0:0:0:
475,192,51055,1,0,0:0:0:0:
182,192,51055,1,0,0:0:0:0:
256,192,51055,1,0,0:0:0:0:
109,192,51055,1,0,0:0:0:0:
475,192,51289,1,0,0:0:0:0:
36,192,51289,1,0,0:0:0:0:
182,192,51289,1,0,0:0:0:0:
109,192,51289,1,0,0:0:0:0:
36,192,52226,1,0,0:0:0:0:
329,192,52226,1,0,0:0:0:0:
475,192,52226,1,0,0:0:0:0:
256,192,52226,1,0,0:0:0:0:
36,192,53164,1,0,0:0:0:0:
182,192,53164,1,0,0:0:0:0:
256,192,53164,1,0,0:0:0:0:
475,192,53164,1,0,0:0:0:0:
36,192,53867,1,0,0:0:0:0:
475,192,53867,1,0,0:0:0:0:
109,192,53867,1,0,0:0:0:0:
402,192,53867,1,0,0:0:0:0:
36,192,54101,1,0,0:0:0:0:
475,192,54101,1,0,0:0:0:0:
182,192,54101,1,0,0:0:0:0:
329,192,54101,1,0,0:0:0:0:
256,192,54570,128,0,58437:0:0:0:0:
109,192,54570,128,0,55273:0:0:0:0:
402,192,54570,128,0,55742:0:0:0:0:
182,192,55273,128,0,55976:0:0:0:0:
329,192,55742,128,0,56211:0:0:0:0:
36,192,55976,128,0,56445:0:0:0:0:
402,192,56211,128,0,56680:0:0:0:0:
109,192,56445,128,0,56914:0:0:0:0:
475,192,56680,128,0,58437:0:0:0:0:
182,192,56914,128,0,58437:0:0:0:0:
36,192,57148,1,0,0:0:0:0:
36,192,57617,1,0,0:0:0:0:
36,192,58086,1,0,0:0:0:0:
475,192,58555,1,0,0:0:0:0:
36,192,58555,1,0,0:0:0:0:
256,192,58555,128,0,58672:0:0:0:0:
182,192,58555,1,0,0:0:0:0:
36,192,58789,1,0,0:0:0:0:
475,192,58789,1,0,0:0:0:0:
329,192,58789,128,0,58906:0:0:0:0:
402,192,59023,128,0,59140:0:0:0:0:
256,192,59258,128,0,59375:0:0:0:0:
329,192,59492,128,0,59609:0:0:0:0:
36,192,59726,1,0,0:0:0:0:
475,192,59726,1,0,0:0:0:0:
402,192,59726,128,0,59844:0:0:0:0:
256,192,59961,128,0,60078:0:0:0:0:
329,192,60195,128,0,60312:0:0:0:0:
402,192,60430,128,0,60547:0:0:0:0:
36,192,60664,1,0,0:0:0:0:
475,192,60664,1,0,0:0:0:0:
182,192,60664,128,0,60781:0:0:0:0:
109,192,60898,128,0,61015:0:0:0:0:
182,192,61133,128,0,61250:0:0:0:0:
36,192,61367,1,0,0:0:0:0:
475,192,61367,1,0,0:0:0:0:
329,192,61367,128,0,61484:0:0:0:0:
475,192,61601,1,0,0:0:0:0:
36,192,61601,1,0,0:0:0:0:
256,192,61601,128,0,61719:0:0:0:0:
402,192,61836,128,0,61953:0:0:0:0:
329,192,62070,128,0,62187:0:0:0:0:
36,192,62305,1,0,0:0:0:0:
475,192,62305,1,0,0:0:0:0:
256,192,62305,128,0,62422:0:0:0:0:
475,192,62539,1,0,0:0:0:0:
36,192,62539,1,0,0:0:0:0:
402,192,62539,128,0,62656:0:0:0:0:
329,192,62773,128,0,62890:0:0:0:0:
256,192,63008,128,0,63125:0:0:0:0:
402,192,63242,128,0,63359:0:0:0:0:
36,192,63476,1,0,0:0:0:0:
475,192,63476,1,0,0:0:0:0:
329,192,63476,128,0,63594:0:0:0:0:
256,192,63711,128,0,63828:0:0:0:0:
402,192,63945,128,0,64062:0:0:0:0:
329,192,64180,128,0,64297:0:0:0:0:
36,192,64414,1,0,0:0:0:0:
475,192,64414,1,0,0:0:0:0:
182,192,64414,128,0,64531:0:0:0:0:
109,192,64648,128,0,64765:0:0:0:0:
182,192,64883,128,0,65000:0:0:0:0:
36,192,65117,1,0,0:0:0:0:
475,192,65117,1,0,0:0:0:0:
329,192,65117,128,0,65234:0:0:0:0:
475,192,65351,1,0,0:0:0:0:
36,192,65351,1,0,0:0:0:0:
256,192,65351,128,0,65469:0:0:0:0:
329,192,65586,128,0,65703:0:0:0:0:
402,192,65820,128,0,65937:0:0:0:0:
36,192,66055,1,0,0:0:0:0:
475,192,66055,1,0,0:0:0:0:
329,192,66055,128,0,66172:0:0:0:0:
475,192,66289,1,0,0:0:0:0:
36,192,66289,1,0,0:0:0:0:
256,192,66289,128,0,66406:0:0:0:0:
329,192,66523,128,0,66640:0:0:0:0:
402,192,66758,128,0,66875:0:0:0:0:
329,192,66992,128,0,67109:0:0:0:0:
36,192,67226,1,0,0:0:0:0:
475,192,67226,1,0,0:0:0:0:
256,192,67226,128,0,67344:0:0:0:0:
329,192,67461,128,0,67578:0:0:0:0:
402,192,67695,128,0,67812:0:0:0:0:
329,192,67930,128,0,68047:0:0:0:0:
36,192,68164,1,0,0:0:0:0:
475,192,68164,1,0,0:0:0:0:
182,192,68164,128,0,68281:0:0:0:0:
109,192,68398,128,0,68515:0:0:0:0:
182,192,68633,128,0,68750:0:0:0:0:
475,192,68867,1,0,0:0:0:0:
36,192,68867,1,0,0:0:0:0:
329,192,68867,128,0,68984:0:0:0:0:
36,192,69101,1,0,0:0:0:0:
475,192,69101,1,0,0:0:0:0:
402,192,69101,128,0,69219:0:0:0:0:
256,192,69336,128,0,69453:0:0:0:0:
475,192,69570,128,0,71680:0:0:0:0:
36,192,69570,128,0,71680:0:0:0:0:
182,192,69570,128,0,70273:0:0:0:0:
329,192,69570,128,0,70742:0:0:0:0:
109,192,70273,128,0,70976:0:0:0:0:
256,192,70742,128,0,71211:0:0:0:0:
402,192,70976,128,0,71562:0:0:0:0:
182,192,71211,128,0,71680:0:0:0:0:
329,192,71562,128,0,71680:0:0:0:0:
109,192,71680,1,0,0:0:0:0:
256,192,71680,1,0,0:0:0:0:
182,192,71797,1,0,0:0:0:0:
329,192,71797,1,0,0:0:0:0:
36,192,71914,1,0,0:0:0:0:
475,192,71914,1,0,0:0:0:0:
109,192,71914,1,0,0:0:0:0:
402,192,71914,1,0,0:0:0:0:
182,192,72148,1,0,0:0:0:0:
329,192,72148,1,0,0:0:0:0:
256,192,72265,1,0,0:0:0:0:
475,192,72265,1,0,0:0:0:0:
36,192,72265,1,0,0:0:0:0:
109,192,72500,1,0,0:0:0:0:
402,192,72500,1,0,0:0:0:0:
402,192,72617,1,0,0:0:0:0:
109,192,72617,1,0,0:0:0:0:
182,192,72851,1,0,0:0:0:0:
475,192,72851,1,0,0:0:0:0:
329,192,72969,1,0,0:0:0:0:
36,192,72969,1,0,0:0:0:0:
475,192,73086,1,0,0:0:0:0:
256,192,73086,1,0,0:0:0:0:
182,192,73203,1,0,0:0:0:0:
402,192,73203,1,0,0:0:0:0:
109,192,73320,1,0,0:0:0:0:
329,192,73320,1,0,0:0:0:0:
256,192,73437,1,0,0:0:0:0:
36,192,73437,1,0,0:0:0:0:
329,192,73555,1,0,0:0:0:0:
475,192,73555,1,0,0:0:0:0:
182,192,73555,1,0,0:0:0:0:
402,192,73789,1,0,0:0:0:0:
109,192,73789,1,0,0:0:0:0:
256,192,73906,1,0,0:0:0:0:
36,192,74023,1,0,0:0:0:0:
182,192,74023,1,0,0:0:0:0:
329,192,74023,1,0,0:0:0:0:
475,192,74023,1,0,0:0:0:0:
109,192,74258,1,0,0:0:0:0:
402,192,74258,1,0,0:0:0:0:
36,192,74609,1,0,0:0:0:0:
256,192,74609,1,0,0:0:0:0:
475,192,74609,1,0,0:0:0:0:
109,192,74726,1,0,0:0:0:0:
329,192,74726,1,0,0:0:0:0:
36,192,74961,1,0,0:0:0:0:
256,192,74961,1,0,0:0:0:0:
475,192,74961,1,0,0:0:0:0:
402,192,75078,1,0,0:0:0:0:
182,192,75078,1,0,0:0:0:0:
329,192,75430,1,0,0:0:0:0:
109,192,75430,1,0,0:0:0:0:
402,192,75664,1,0,0:0:0:0:
182,192,75664,1,0,0:0:0:0:
256,192,75781,1,0,0:0:0:0:
36,192,75898,1,0,0:0:0:0:
329,192,75898,1,0,0:0:0:0:
475,192,75898,1,0,0:0:0:0:
109,192,75898,1,0,0:0:0:0:
182,192,76133,1,0,0:0:0:0:
402,192,76133,1,0,0:0:0:0:
256,192,76484,1,0,0:0:0:0:
475,192,76484,1,0,0:0:0:0:
36,192,76484,1,0,0:0:0:0:
402,192,76601,1,0,0:0:0:0:
109,192,76601,1,0,0:0:0:0:
256,192,76836,1,0,0:0:0:0:
475,192,76836,1,0,0:0:0:0:
36,192,76836,1,0,0:0:0:0:
182,192,76953,1,0,0:0:0:0:
329,192,76953,1,0,0:0:0:0:
402,192,77305,1,0,0:0:0:0:
109,192,77305,1,0,0:0:0:0:
329,192,77539,1,0,0:0:0:0:
182,192,77539,1,0,0:0:0:0:
256,192,77656,1,0,0:0:0:0:
475,192,77773,1,0,0:0:0:0:
109,192,77773,1,0,0:0:0:0:
36,192,77773,1,0,0:0:0:0:
402,192,77773,1,0,0:0:0:0:
182,192,78008,1,0,0:0:0:0:
329,192,78008,1,0,0:0:0:0:
36,192,78359,1,0,0:0:0:0:
475,192,78359,1,0,0:0:0:0:
256,192,78359,1,0,0:0:0:0:
182,192,78476,1,0,0:0:0:0:
402,192,78476,1,0,0:0:0:0:
36,192,78711,1,0,0:0:0:0:
475,192,78711,1,0,0:0:0:0:
256,192,78711,1,0,0:0:0:0:
329,192,78828,1,0,0:0:0:0:
109,192,78828,1,0,0:0:0:0:
36,192,79180,1,0,0:0:0:0:
475,192,79180,1,0,0:0:0:0:
182,192,79414,1,0,0:0:0:0:
329,192,79414,1,0,0:0:0:0:
256,192,79531,1,0,0:0:0:0:
475,192,79648,1,0,0:0:0:0:
402,192,79648,1,0,0:0:0:0:
36,192,79648,1,0,0:0:0:0:
109,192,79648,1,0,0:0:0:0:
329,192,79883,1,0,0:0:0:0:
182,192,79883,1,0,0:0:0:0:
182,192,80000,1,0,0:0:0:0:
329,192,80000,1,0,0:0:0:0:
36,192,80117,1,0,0:0:0:0:
475,192,80117,1,0,0:0:0:0:
109,192,80234,1,0,0:0:0:0:
402,192,80234,1,0,0:0:0:0:
182,192,80351,1,0,0:0:0:0:
329,192,80351,1,0,0:0:0:0:
256,192,80469,1,0,0:0:0:0:
109,192,80586,1,0,0:0:0:0:
36,192,80586,1,0,0:0:0:0:
475,192,80586,1,0,0:0:0:0:
402,192,80586,1,0,0:0:0:0:
36,192,80820,1,0,0:0:0:0:
182,192,80820,1,0,0:0:0:0:
475,192,80820,1,0,0:0:0:0:
329,192,80820,1,0,0:0:0:0:
256,192,80937,1,0,0:0:0:0:
36,192,80937,1,0,0:0:0:0:
475,192,80937,1,0,0:0:0:0:
109,192,81055,1,0,0:0:0:0:
402,192,81055,1,0,0:0:0:0:
329,192,81289,1,0,0:0:0:0:
182,192,81289,1,0,0:0:0:0:
256,192,81406,1,0,0:0:0:0:
36,192,81523,1,0,0:0:0:0:
109,192,81523,1,0,0:0:0:0:
402,192,81523,1,0,0:0:0:0:
475,192,81523,1,0,0:0:0:0:
182,192,81758,1,0,0:0:0:0:
329,192,81758,1,0,0:0:0:0:
36,192,82109,1,0,0:0:0:0:
109,192,82109,1,0,0:0:0:0:
475,192,82109,1,0,0:0:0:0:
329,192,82226,1,0,0:0:0:0:
182,192,82226,1,0,0:0:0:0:
475,192,82461,1,0,0:0:0:0:
36,192,82461,1,0,0:0:0:0:
402,192,82461,1,0,0:0:0:0:
182,192,82578,1,0,0:0:0:0:
329,192,82578,1,0,0:0:0:0:
36,192,82930,1,0,0:0:0:0:
475,192,82930,1,0,0:0:0:0:
402,192,83164,1,0,0:0:0:0:
109,192,83164,1,0,0:0:0:0:
256,192,83281,1,0,0:0:0:0:
36,192,83398,1,0,0:0:0:0:
475,192,83398,1,0,0:0:0:0:
329,192,83398,1,0,0:0:0:0:
182,192,83398,1,0,0:0:0:0:
109,192,83633,1,0,0:0:0:0:
402,192,83633,1,0,0:0:0:0:
36,192,83984,1,0,0:0:0:0:
475,192,83984,1,0,0:0:0:0:
256,192,83984,1,0,0:0:0:0:
109,192,84101,1,0,0:0:0:0:
402,192,84101,1,0,0:0:0:0:
36,192,84336,1,0,0:0:0:0:
475,192,84336,1,0,0:0:0:0:
256,192,84336,1,0,0:0:0:0:
256,192,84570,128,0,88555:0:0:0:0:
109,192,84570,128,0,85273:0:0:0:0:
402,192,84570,128,0,85742:0:0:0:0:
182,192,85273,1,0,0:0:0:0:
36,192,85273,128,0,85976:0:0:0:0:
329,192,85508,1,0,0:0:0:0:
182,192,85742,1,0,0:0:0:0:
475,192,85742,128,0,86211:0:0:0:0:
329,192,85976,1,0,0:0:0:0:
109,192,85976,128,0,86445:0:0:0:0:
182,192,86211,1,0,0:0:0:0:
402,192,86211,128,0,88555:0:0:0:0:
329,192,86445,1,0,0:0:0:0:
36,192,86445,128,0,88555:0:0:0:0:
182,192,86680,1,0,0:0:0:0:
475,192,86680,128,0,88555:0:0:0:0:
329,192,86914,1,0,0:0:0:0:
109,192,86914,128,0,88555:0:0:0:0:
182,192,87148,1,0,0:0:0:0:
329,192,87383,1,0,0:0:0:0:
182,192,87617,1,0,0:0:0:0:
329,192,87851,1,0,0:0:0:0:
182,192,88086,1,0,0:0:0:0:
329,192,88320,1,0,0:0:0:0:
