osu file format v14

[General]
AudioFilename: audio.mp3
AudioLeadIn: 0
PreviewTime: 73437
Countdown: 1
SampleSet: Normal
StackLeniency: 0.7
Mode: 3
LetterboxInBreaks: 0
SpecialStyle: 0
WidescreenStoryboard: 0

[Editor]
DistanceSpacing: 1
BeatDivisor: 4
GridSize: 32
TimelineZoom: 2.6

[Metadata]
Title:ODD FUTURE (short ver.)
TitleUnicode:ODD FUTURE (short ver.)
Artist:UVERworld
ArtistUnicode:UVERworld
Creator:AlisceaSparku
Version:4K EZ
Source:
Tags:boku no hero academia my academy bnha op opening
BeatmapID:1629019
BeatmapSetID:775188

[Difficulty]
HPDrainRate:7.4
CircleSize:4
OverallDifficulty:6.6
ApproachRate:5
SliderMultiplier:1.4
SliderTickRate:1

[Events]
//Background and Video events
0,0,"819836.png",0,0
//Break Periods
//Storyboard Layer 0 (Background)
//Storyboard Layer 1 (Fail)
//Storyboard Layer 2 (Pass)
//Storyboard Layer 3 (Foreground)
//Storyboard Sound Samples

[TimingPoints]
430,468.75,4,1,0,5,1,0
73555,-100,4,1,0,5,0,1
88555,-100,4,1,0,5,0,0

[HitObjects]
192,192,430,128,0,664:0:0:0:0:
320,192,781,1,0,0:0:0:0:
448,192,1133,128,0,1836:0:0:0:0:
64,192,1836,128,0,2305:0:0:0:0:
192,192,2305,128,0,2773:0:0:0:0:
320,192,2305,128,0,2773:0:0:0:0:
448,192,3242,128,0,3594:0:0:0:0:
320,192,3594,128,0,3945:0:0:0:0:
192,192,3945,128,0,4180:0:0:0:0:
64,192,4180,128,0,4648:0:0:0:0:
448,192,4648,128,0,5000:0:0:0:0:
192,192,5117,128,0,5351:0:0:0:0:
64,192,5469,128,0,5703:0:0:0:0:
448,192,5820,128,0,6523:0:0:0:0:
320,192,5820,1,0,0:0:0:0:
64,192,6523,128,0,6758:0:0:0:0:
64,192,6992,128,0,7226:0:0:0:0:
192,192,7226,128,0,7461:0:0:0:0:
448,192,7461,128,0,7695:0:0:0:0:
320,192,7695,128,0,7930:0:0:0:0:
192,192,7930,128,0,8164:0:0:0:0:
64,192,8164,128,0,9805:0:0:0:0:
448,192,9805,128,0,10273:0:0:0:0:
64,192,10508,128,0,10859:0:0:0:0:
320,192,10859,1,0,0:0:0:0:
448,192,11211,128,0,11680:0:0:0:0:
192,192,11680,128,0,12148:0:0:0:0:
64,192,11680,1,0,0:0:0:0:
320,192,12148,128,0,12500:0:0:0:0:
192,192,12617,1,0,0:0:0:0:
64,192,12617,128,0,12851:0:0:0:0:
320,192,13086,1,0,0:0:0:0:
448,192,13086,128,0,13320:0:0:0:0:
192,192,13555,128,0,14023:0:0:0:0:
64,192,13555,1,0,0:0:0:0:
448,192,14258,1,0,0:0:0:0:
192,192,14609,1,0,0:0:0:0:
320,192,14961,1,0,0:0:0:0:
64,192,15430,128,0,15898:0:0:0:0:
192,192,15430,1,0,0:0:0:0:
448,192,16133,1,0,0:0:0:0:
64,192,16484,1,0,0:0:0:0:
192,192,16836,1,0,0:0:0:0:
320,192,17305,128,0,17773:0:0:0:0:
448,192,17305,1,0,0:0:0:0:
192,192,18008,1,0,0:0:0:0:
64,192,18359,1,0,0:0:0:0:
320,192,18711,1,0,0:0:0:0:
448,192,19180,128,0,19648:0:0:0:0:
192,192,19180,1,0,0:0:0:0:
64,192,19883,1,0,0:0:0:0:
192,192,20234,1,0,0:0:0:0:
448,192,20586,1,0,0:0:0:0:
64,192,21055,128,0,21523:0:0:0:0:
192,192,21055,1,0,0:0:0:0:
320,192,21758,1,0,0:0:0:0:
448,192,22109,1,0,0:0:0:0:
64,192,22461,128,0,22930:0:0:0:0:
192,192,22930,128,0,23398:0:0:0:0:
320,192,22930,1,0,0:0:0:0:
448,192,23633,1,0,0:0:0:0:
320,192,23984,1,0,0:0:0:0:
192,192,24336,128,0,24570:0:0:0:0:
320,192,24805,128,0,25273:0:0:0:0:
64,192,24805,1,0,0:0:0:0:
64,192,25508,128,0,25859:0:0:0:0:
192,192,25859,128,0,26211:0:0:0:0:
320,192,26211,1,0,0:0:0:0:
448,192,26680,128,0,27148:0:0:0:0:
192,192,26680,1,0,0:0:0:0:
64,192,27148,128,0,27617:0:0:0:0:
320,192,27617,128,0,28086:0:0:0:0:
448,192,27617,1,0,0:0:0:0:
192,192,28086,128,0,28555:0:0:0:0:
64,192,28555,1,0,0:0:0:0:
448,192,28555,128,0,29023:0:0:0:0:
192,192,29023,1,0,0:0:0:0:
64,192,29023,1,0,0:0:0:0:
320,192,29258,128,0,29492:0:0:0:0:
192,192,29726,128,0,29961:0:0:0:0:
320,192,29961,1,0,0:0:0:0:
448,192,29961,1,0,0:0:0:0:
64,192,30430,128,0,30898:0:0:0:0:
192,192,30898,1,0,0:0:0:0:
320,192,30898,1,0,0:0:0:0:
448,192,31133,128,0,31367:0:0:0:0:
64,192,31601,128,0,31836:0:0:0:0:
320,192,31836,1,0,0:0:0:0:
448,192,31836,1,0,0:0:0:0:
192,192,32070,128,0,32305:0:0:0:0:
448,192,32305,1,0,0:0:0:0:
320,192,32773,1,0,0:0:0:0:
64,192,32773,1,0,0:0:0:0:
448,192,33008,128,0,33242:0:0:0:0:
320,192,33476,128,0,33711:0:0:0:0:
192,192,33711,1,0,0:0:0:0:
64,192,33711,128,0,34180:0:0:0:0:
448,192,34180,128,0,34648:0:0:0:0:
64,192,34648,1,0,0:0:0:0:
320,192,34648,1,0,0:0:0:0:
192,192,34883,128,0,35117:0:0:0:0:
320,192,35351,128,0,35586:0:0:0:0:
192,192,35586,1,0,0:0:0:0:
64,192,35586,1,0,0:0:0:0:
448,192,36055,128,0,36758:0:0:0:0:
192,192,36758,128,0,37461:0:0:0:0:
320,192,37461,128,0,38164:0:0:0:0:
64,192,38164,128,0,39805:0:0:0:0:
448,192,39805,128,0,40508:0:0:0:0:
320,192,40508,128,0,41211:0:0:0:0:
64,192,41211,128,0,42617:0:0:0:0:
64,192,43555,5,0,0:0:0:0:
192,192,43555,1,0,0:0:0:0:
320,192,43789,1,0,0:0:0:0:
448,192,43789,1,0,0:0:0:0:
64,192,44726,1,0,0:0:0:0:
448,192,44726,1,0,0:0:0:0:
64,192,45664,1,0,0:0:0:0:
320,192,45664,1,0,0:0:0:0:
64,192,46367,1,0,0:0:0:0:
320,192,46367,1,0,0:0:0:0:
192,192,46601,1,0,0:0:0:0:
448,192,46601,1,0,0:0:0:0:
192,192,47305,1,0,0:0:0:0:
448,192,47305,1,0,0:0:0:0:
320,192,47539,1,0,0:0:0:0:
64,192,47539,1,0,0:0:0:0:
448,192,48476,1,0,0:0:0:0:
64,192,48476,1,0,0:0:0:0:
192,192,49414,1,0,0:0:0:0:
448,192,49414,1,0,0:0:0:0:
64,192,50117,1,0,0:0:0:0:
192,192,50117,1,0,0:0:0:0:
320,192,50351,1,0,0:0:0:0:
448,192,50351,1,0,0:0:0:0:
320,192,51055,1,0,0:0:0:0:
448,192,51055,1,0,0:0:0:0:
192,192,51289,1,0,0:0:0:0:
64,192,51289,1,0,0:0:0:0:
64,192,52226,1,0,0:0:0:0:
448,192,52226,1,0,0:0:0:0:
64,192,53164,1,0,0:0:0:0:
320,192,53164,1,0,0:0:0:0:
64,192,53867,1,0,0:0:0:0:
320,192,53867,1,0,0:0:0:0:
192,192,54101,1,0,0:0:0:0:
448,192,54101,1,0,0:0:0:0:
64,192,54570,128,0,55273:0:0:0:0:
448,192,55273,128,0,55742:0:0:0:0:
192,192,55742,128,0,55976:0:0:0:0:
320,192,55976,128,0,56211:0:0:0:0:
448,192,56211,128,0,56445:0:0:0:0:
64,192,56445,128,0,56680:0:0:0:0:
320,192,56680,128,0,56914:0:0:0:0:
192,192,56914,128,0,58555:0:0:0:0:
64,192,58555,1,0,0:0:0:0:
320,192,58789,1,0,0:0:0:0:
448,192,59023,1,0,0:0:0:0:
64,192,59258,1,0,0:0:0:0:
320,192,59492,1,0,0:0:0:0:
448,192,59726,1,0,0:0:0:0:
64,192,59961,1,0,0:0:0:0:
320,192,60195,1,0,0:0:0:0:
448,192,60430,1,0,0:0:0:0:
64,192,60664,1,0,0:0:0:0:
192,192,60898,1,0,0:0:0:0:
64,192,61133,1,0,0:0:0:0:
320,192,61367,1,0,0:0:0:0:
448,192,61601,1,0,0:0:0:0:
192,192,61836,1,0,0:0:0:0:
64,192,62070,1,0,0:0:0:0:
448,192,62305,1,0,0:0:0:0:
192,192,62539,1,0,0:0:0:0:
64,192,62773,1,0,0:0:0:0:
448,192,63008,1,0,0:0:0:0:
192,192,63242,1,0,0:0:0:0:
64,192,63476,1,0,0:0:0:0:
448,192,63711,1,0,0:0:0:0:
192,192,63945,1,0,0:0:0:0:
64,192,64180,1,0,0:0:0:0:
448,192,64414,1,0,0:0:0:0:
320,192,64648,1,0,0:0:0:0:
448,192,64883,1,0,0:0:0:0:
192,192,65117,1,0,0:0:0:0:
64,192,65351,1,0,0:0:0:0:
448,192,65586,1,0,0:0:0:0:
320,192,65820,1,0,0:0:0:0:
64,192,66055,1,0,0:0:0:0:
448,192,66289,1,0,0:0:0:0:
320,192,66523,1,0,0:0:0:0:
64,192,66758,1,0,0:0:0:0:
448,192,66992,1,0,0:0:0:0:
320,192,67226,1,0,0:0:0:0:
64,192,67461,1,0,0:0:0:0:
448,192,67695,1,0,0:0:0:0:
320,192,67930,1,0,0:0:0:0:
64,192,68164,1,0,0:0:0:0:
192,192,68398,1,0,0:0:0:0:
64,192,68633,1,0,0:0:0:0:
448,192,68867,1,0,0:0:0:0:
320,192,69101,1,0,0:0:0:0:
192,192,69336,1,0,0:0:0:0:
448,192,69570,128,0,70273:0:0:0:0:
64,192,70273,128,0,70742:0:0:0:0:
320,192,70742,128,0,70976:0:0:0:0:
448,192,70976,128,0,71211:0:0:0:0:
192,192,71211,128,0,71680:0:0:0:0:
64,192,71680,1,0,0:0:0:0:
320,192,71914,1,0,0:0:0:0:
448,192,71914,1,0,0:0:0:0:
192,192,72148,1,0,0:0:0:0:
448,192,72265,1,0,0:0:0:0:
64,192,72500,5,0,0:0:0:0:
320,192,72617,1,0,0:0:0:0:
192,192,72851,128,0,73555:0:0:0:0:
448,192,73555,5,0,0:0:0:0:
64,192,73555,1,0,0:0:0:0:
320,192,73789,1,0,0:0:0:0:
192,192,74023,1,0,0:0:0:0:
448,192,74023,1,0,0:0:0:0:
64,192,74258,1,0,0:0:0:0:
320,192,74609,1,0,0:0:0:0:
448,192,74609,1,0,0:0:0:0:
192,192,74961,1,0,0:0:0:0:
64,192,74961,1,0,0:0:0:0:
192,192,75430,1,0,0:0:0:0:
448,192,75664,1,0,0:0:0:0:
64,192,75898,1,0,0:0:0:0:
320,192,75898,1,0,0:0:0:0:
192,192,76133,1,0,0:0:0:0:
64,192,76484,1,0,0:0:0:0:
320,192,76484,1,0,0:0:0:0:
192,192,76836,1,0,0:0:0:0:
448,192,76836,1,0,0:0:0:0:
320,192,77305,1,0,0:0:0:0:
192,192,77539,1,0,0:0:0:0:
448,192,77773,1,0,0:0:0:0:
64,192,77773,1,0,0:0:0:0:
320,192,78008,1,0,0:0:0:0:
192,192,78359,1,0,0:0:0:0:
448,192,78359,1,0,0:0:0:0:
320,192,78711,1,0,0:0:0:0:
64,192,78711,1,0,0:0:0:0:
192,192,79180,1,0,0:0:0:0:
320,192,79414,1,0,0:0:0:0:
192,192,79648,1,0,0:0:0:0:
448,192,79648,1,0,0:0:0:0:
64,192,79883,128,0,80586:0:0:0:0:
320,192,80586,1,0,0:0:0:0:
448,192,80586,1,0,0:0:0:0:
192,192,80820,1,0,0:0:0:0:
64,192,81055,1,0,0:0:0:0:
448,192,81055,1,0,0:0:0:0:
192,192,81289,1,0,0:0:0:0:
320,192,81523,1,0,0:0:0:0:
64,192,81523,1,0,0:0:0:0:
448,192,81758,1,0,0:0:0:0:
64,192,82109,1,0,0:0:0:0:
192,192,82109,1,0,0:0:0:0:
320,192,82461,1,0,0:0:0:0:
448,192,82461,1,0,0:0:0:0:
192,192,82930,1,0,0:0:0:0:
320,192,83164,1,0,0:0:0:0:
448,192,83398,1,0,0:0:0:0:
64,192,83398,1,0,0:0:0:0:
192,192,83633,1,0,0:0:0:0:
320,192,83984,1,0,0:0:0:0:
64,192,83984,1,0,0:0:0:0:
448,192,84336,1,0,0:0:0:0:
192,192,84336,1,0,0:0:0:0:
64,192,84570,128,0,85273:0:0:0:0:
448,192,85273,128,0,85508:0:0:0:0:
448,192,85742,128,0,85976:0:0:0:0:
192,192,85976,128,0,86211:0:0:0:0:
320,192,86211,128,0,86445:0:0:0:0:
448,192,86445,128,0,86680:0:0:0:0:
192,192,86680,128,0,86914:0:0:0:0:
64,192,86914,128,0,88555:0:0:0:0:
