osu file format v14

[General]
AudioFilename: audio.mp3
AudioLeadIn: 0
PreviewTime: 101483
Countdown: 1
SampleSet: None
StackLeniency: 0.2
Mode: 0
LetterboxInBreaks: 0
WidescreenStoryboard: 0

[Editor]
DistanceSpacing: 0.3
BeatDivisor: 4
GridSize: 16
TimelineZoom: 1

[Metadata]
Title:ODD FUTURE
TitleUnicode:ODD FUTURE
Artist:UVERworld
ArtistUnicode:UVERworld
Creator:Idrise
Version:Hero
Source:
Tags:
BeatmapID:1677467
BeatmapSetID:798864

[Difficulty]
HPDrainRate:5
CircleSize:3
OverallDifficulty:8
ApproachRate:9.3
SliderMultiplier:2.2
SliderTickRate:1

[Events]
//Background and Video events
//Break Periods
//Storyboard Layer 0 (Background)
//Storyboard Layer 1 (Fail)
//Storyboard Layer 2 (Pass)
//Storyboard Layer 3 (Foreground)
//Storyboard Sound Samples

[TimingPoints]
1288,468.75,4,1,0,40,1,0
4452,-50,4,1,0,40,0,0
8905,-500,4,1,0,40,0,0
10545,-100,4,1,0,40,0,0
11952,-50,4,1,0,40,0,0
25545,-50,4,1,0,14,0,0
27420,-100,4,1,0,40,0,0
34803,-100,4,1,0,17,0,0
40545,-50,4,1,0,17,0,0
41717,-100,4,1,0,17,0,0
53319,-50,4,1,0,17,0,0
72303,-66.6666666666667,4,1,0,17,0,0

[HitObjects]
108,153,1288,6,0,B|172:108|172:108|210:110|210:110|232:158|232:158|185:198,1,220
113,240,1991,1,0,0:0:0:0:
113,240,2225,1,0,0:0:0:0:
170,309,2459,2,0,B|227:319|227:319|280:285,1,110
345,135,2928,2,0,B|356:185|356:185|327:236,1,110
388,341,3397,2,0,L|302:269,1,110
218,194,3866,5,0,0:0:0:0:
218,194,4100,1,0,0:0:0:0:
472,44,4569,5,0,0:0:0:0:
381,67,4803,2,0,B|189:86|146:82|127:59|133:35|158:28|198:35|345:148,1,440
431,194,5506,2,0,B|420:333|383:333|384:189,1,220
413,107,5975,2,0,P|311:58|393:135,1,220
286,217,6444,1,0,0:0:0:0:
149,313,6678,2,0,L|75:84,2,220
178,91,7381,5,0,0:0:0:0:
263,70,7850,1,0,0:0:0:0:
350,82,8319,1,0,0:0:0:0:
366,120,8788,5,0,0:0:0:0:
304,182,8905,1,0,0:0:0:0:
272,264,9022,1,0,0:0:0:0:
253,349,9139,2,0,L|235:349,1,11
91,124,9491,6,0,L|88:117,4,5.5
77,212,9842,1,0,0:0:0:0:
82,171,9959,1,0,0:0:0:0:
124,176,10077,1,0,0:0:0:0:
120,216,10194,1,0,0:0:0:0:
137,131,10311,1,0,0:0:0:0:
148,250,10428,1,0,0:0:0:0:
176,95,10546,1,0,0:0:0:0:
190,277,10663,6,0,P|253:283|304:256,1,110
260,138,11131,1,0,0:0:0:0:
421,280,11366,2,0,L|460:327,2,55
85,71,11834,1,0,0:0:0:0:
348,147,12069,2,0,P|299:259|198:328,1,220
251,53,12538,6,0,B|374:118|285:181|432:214,1,220
108,208,13006,1,0,0:0:0:0:
234,308,13241,1,0,0:0:0:0:
105,71,13475,1,0,0:0:0:0:
215,168,13709,1,0,0:0:0:0:
88,333,13944,1,0,0:0:0:0:
208,71,14178,1,0,0:0:0:0:
273,332,14413,6,0,L|414:88,1,220
303,77,14881,1,0,0:0:0:0:
341,182,15116,1,0,0:0:0:0:
215,151,15350,1,0,0:0:0:0:
303,77,15584,1,0,0:0:0:0:
259,263,15819,2,0,L|239:322,3,55
430,308,16288,6,0,P|246:329|145:249,1,220
61,275,16756,1,0,0:0:0:0:
268,89,16991,1,0,0:0:0:0:
89,112,17225,1,0,0:0:0:0:
272,260,17459,6,0,L|360:173,1,110
413,182,17694,2,0,L|247:346,1,220
144,309,18045,1,0,0:0:0:0:
144,216,18163,2,0,B|134:86|99:55|61:64|52:103|210:172,1,220
196,129,18514,1,0,0:0:0:0:
286,105,18631,2,0,P|417:102|323:338,1,440
375,194,19334,1,0,0:0:0:0:
297,304,19569,6,0,B|204:194|180:107|201:59|240:50|279:81|276:107|269:146|108:207,1,440
44,193,20155,1,0,0:0:0:0:
81,281,20272,2,0,L|169:206,1,110
245,175,20506,1,0,0:0:0:0:
332,175,20623,2,0,P|390:152|421:100,1,110
340,68,20858,2,0,P|280:57|210:94,2,110
395,195,21444,6,0,B|310:294|310:294|410:283|410:283|230:167,1,440
162,133,22030,1,0,0:0:0:0:
90,81,22147,2,0,L|34:192,1,110
83,254,22381,1,0,0:0:0:0:
162,294,22498,2,0,L|232:175,1,110
302,226,22733,2,0,L|232:356,2,110
94,51,23319,6,0,B|292:91|109:300|441:363,1,440
436,279,23905,1,0,0:0:0:0:
436,191,24022,2,0,P|428:131|389:85,1,110
312,74,24256,1,0,0:0:0:0:
230,105,24373,2,0,P|168:106|113:144,1,110
187,193,24608,2,0,P|138:217|84:216,2,110
273,175,24959,1,0,0:0:0:0:
404,292,25194,6,0,L|294:346,2,110
410,115,25663,1,0,0:0:0:0:
374,195,25780,1,0,0:0:0:0:
321,124,25897,1,0,0:0:0:0:
288,205,26014,1,0,0:0:0:0:
233,136,26131,1,0,0:0:0:0:
206,219,26248,1,0,0:0:0:0:
148,151,26366,1,0,0:0:0:0:
132,237,26483,1,0,0:0:0:0:
61,184,26600,5,0,0:0:0:0:
132,294,26717,1,0,0:0:0:0:
148,151,26834,1,0,0:0:0:0:
215,265,26952,1,0,0:0:0:0:
236,135,27069,1,0,0:0:0:0:
293,253,27186,1,0,0:0:0:0:
323,124,27303,1,0,0:0:0:0:
357,251,27420,1,0,0:0:0:0:
400,131,27538,6,0,P|426:103|463:91,2,55
394,249,28006,2,0,P|368:313|315:344,1,110
127,104,28475,1,0,0:0:0:0:
103,189,28709,1,0,0:0:0:0:
190,166,28944,2,0,P|245:136|313:136,1,110
356,232,29413,6,0,P|296:210|243:218,1,110
110,242,29881,1,0,0:0:0:0:
169,140,30116,2,0,P|217:106|279:102,1,110
395,126,30584,6,0,L|388:254,1,110
250,241,31053,2,0,P|195:240|241:271,1,110
114,163,31522,2,0,P|130:93|170:63,2,110
117,272,32225,1,0,0:0:0:0:
156,69,32459,2,0,P|120:109|114:163,1,110
117,272,32928,1,0,0:0:0:0:
360,323,33163,6,0,P|401:262|406:214,1,110
368,143,33631,1,0,0:0:0:0:
256,217,33866,1,0,0:0:0:0:
219,126,34100,1,0,0:0:0:0:
147,156,34334,1,0,0:0:0:0:
121,91,34569,1,0,0:0:0:0:
88,91,34803,1,0,0:0:0:0:
88,91,35038,5,0,0:0:0:0:
88,91,35272,2,0,P|59:180|69:223,1,110
88,293,35741,2,0,P|63:244|60:189,1,110
204,176,36209,1,0,0:0:0:0:
204,176,36444,1,0,0:0:0:0:
347,120,36678,6,0,P|418:162|434:192,1,110
108,118,37147,2,0,P|183:80|235:87,1,110
113,251,37616,1,0,0:0:0:0:
113,251,37850,1,0,0:0:0:0:
113,251,38084,1,0,0:0:0:0:
113,251,38319,1,0,0:0:0:0:
392,265,38553,5,0,0:0:0:0:
298,127,38788,2,0,L|345:82,2,55
220,129,39139,2,0,P|236:200|214:253,1,110
225,234,39491,2,0,P|169:219|106:260,1,110
141,253,39959,1,0,0:0:0:0:
458,341,40194,1,0,0:0:0:0:
441,283,40428,1,0,0:0:0:0:
355,306,40663,1,0,0:0:0:0:
364,218,40780,5,0,0:0:0:0:
275,282,40897,1,0,0:0:0:0:
302,164,41014,1,0,0:0:0:0:
205,254,41131,1,0,0:0:0:0:
241,127,41248,1,0,0:0:0:0:
147,236,41366,1,0,0:0:0:0:
183,86,41483,1,0,0:0:0:0:
83,217,41600,1,0,0:0:0:0:
118,56,41717,1,0,0:0:0:0:
27,197,41834,6,0,B|15:237|15:237|9:267|47:281|47:281|79:288|92:257|92:257|109:198,1,220
394,303,42538,2,0,B|364:219|364:219|316:197|316:197|274:207|274:207|254:245|254:245|257:261,1,220
220,321,43241,1,0,0:0:0:0:
220,321,43475,1,0,0:0:0:0:
107,261,43709,2,0,B|123:182|123:182|168:189,1,110
274,95,44178,2,0,B|303:148|303:148|264:198,1,110
282,334,44647,2,0,B|300:265|300:265|363:269,1,110
423,196,45116,2,0,B|434:136|434:136|401:93,1,110
166,91,45584,6,0,L|105:80,2,55
265,111,46053,2,0,B|318:130|318:130|323:188,1,110
344,261,46522,2,0,B|344:317|344:317|291:341,1,110
227,223,46991,1,0,0:0:0:0:
227,223,47225,1,0,0:0:0:0:
140,119,47459,6,0,L|63:27,1,110
69,34,47928,2,0,L|140:119,1,110
393,300,48397,2,0,L|427:241,2,55
301,262,48866,2,0,L|331:145,1,110
242,64,49334,2,0,B|181:65|181:65|134:101,1,110
102,198,49803,2,0,B|165:185|165:185|216:129,1,110
264,342,50272,6,0,L|218:231,1,110
185,145,50741,1,0,0:0:0:0:
185,145,50975,1,0,0:0:0:0:
286,125,51209,6,0,B|310:184|310:184|286:244,1,110
90,225,51678,2,0,B|71:176|71:176|96:122,1,110
185,145,52147,2,0,L|185:81,2,55
186,245,52616,2,0,L|186:368,1,110
389,110,53084,6,0,L|462:250,1,110
291,161,53553,6,0,B|254:295|277:341|334:351|367:325|373:269|354:237|132:167,1,440
201,86,54256,2,0,P|89:123|60:227,1,220
104,322,54725,2,0,P|238:279|331:290,1,220
440,333,55194,1,0,0:0:0:0:
364,43,55428,2,0,P|402:181|407:290,1,220
191,72,56131,5,0,0:0:0:0:
110,176,56600,1,0,0:0:0:0:
184,284,57069,1,0,0:0:0:0:
247,301,57303,5,0,0:0:0:0:
367,45,57538,2,0,P|318:168|338:318,1,220
434,186,58006,1,0,0:0:0:0:
358,279,58123,1,0,0:0:0:0:
251,337,58241,1,0,0:0:0:0:
117,86,58475,1,0,0:0:0:0:
119,257,58709,6,0,P|217:151|353:60,1,220
443,82,59178,6,0,L|425:326,1,220
341,315,59647,2,0,L|140:83,1,220
271,55,60116,1,0,0:0:0:0:
77,124,60350,6,0,P|58:191|60:245,2,110
186,293,60819,1,0,0:0:0:0:
298,248,60936,1,0,0:0:0:0:
379,158,61053,1,0,0:0:0:0:
149,78,61288,2,0,P|159:228|217:331,1,220
300,76,61756,2,0,P|318:199|313:338,1,220
140,128,62225,1,0,0:0:0:0:
378,87,62459,6,0,P|245:51|132:56,1,220
199,291,62928,2,0,P|319:207|370:124,1,220
163,104,63397,2,0,P|207:217|308:301,1,220
434,309,63866,5,0,0:0:0:0:
377,117,64100,2,0,P|258:197|196:304,1,220
318,39,64569,1,0,0:0:0:0:
204,80,64686,1,0,0:0:0:0:
132,177,64803,1,0,0:0:0:0:
373,157,65038,6,0,L|352:275,2,110
389,302,65506,1,0,0:0:0:0:
268,305,65623,1,0,0:0:0:0:
156,255,65741,1,0,0:0:0:0:
337,95,65975,1,0,0:0:0:0:
95,84,66209,2,0,P|86:235|134:326,1,220
351,256,66678,1,0,0:0:0:0:
216,53,66913,1,0,0:0:0:0:
181,189,67147,6,0,P|301:167|403:82,1,220
266,326,67616,1,0,0:0:0:0:
102,148,67850,2,0,L|210:51,2,110
100,309,68319,1,0,0:0:0:0:
340,327,68553,6,0,P|421:187|406:61,1,220
310,108,69256,1,0,0:0:0:0:
178,113,69725,1,0,0:0:0:0:
120,231,70194,1,0,0:0:0:0:
151,257,70663,6,0,B|246:334|354:331|430:262|454:153|428:46|290:14|233:18|161:149|186:182|274:211,1,660
236,194,71600,2,0,B|206:165|167:139|228:73|271:42|313:53|374:60|431:138|430:204|401:262|298:313|272:300,2,440
256,297,72655,5,0,0:0:0:0:
230,307,72772,2,0,P|122:266|97:203,1,165.000006294251
65,77,73241,2,0,P|62:128|82:169,1,82.5000031471254
259,89,73475,5,0,0:0:0:0:
297,92,73592,2,0,P|341:141|351:176,1,82.5000031471254
290,364,73944,2,0,P|355:290|371:215,1,165.000006294251
122,293,74295,1,0,0:0:0:0:
101,273,74413,2,0,P|95:178|126:105,1,165.000006294251
251,182,74881,2,0,P|219:284|231:324,2,82.5000031471254
436,275,75350,6,0,L|445:175,1,82.5000031471254
434,84,75584,1,0,0:0:0:0:
315,158,75819,2,0,L|320:76,1,82.5000031471254
303,267,76053,1,0,0:0:0:0:
156,296,76170,5,0,0:0:0:0:
122,279,76288,2,0,P|113:195|158:102,1,165.000006294251
