osu file format v14

[General]
AudioFilename: audio.mp3
AudioLeadIn: 0
PreviewTime: 51335
Countdown: 0
SampleSet: Soft
StackLeniency: 0.7
Mode: 0
LetterboxInBreaks: 0
WidescreenStoryboard: 0

[Editor]
DistanceSpacing: 1.9
BeatDivisor: 4
GridSize: 4
TimelineZoom: 3.299999

[Metadata]
Title:Itteki no Eikyou (short ver.)
TitleUnicode:一滴の影響 (short ver.)
Artist:UVERworld
ArtistUnicode:UVERworld
Creator:kanor
Version:Yukirin
Source:青の祓魔師 京都不浄王篇
Tags:opening blue ao no exorcist [_Abhor_]
BeatmapID:1199897
BeatmapSetID:566434

[Difficulty]
HPDrainRate:6
CircleSize:4
OverallDifficulty:8
ApproachRate:9
SliderMultiplier:1.6
SliderTickRate:1

[Events]
//Background and Video events
Video,0,"video.avi"
0,0,"BG.jpg",0,0
//Break Periods
//Storyboard Layer 0 (Background)
//Storyboard Layer 1 (Fail)
//Storyboard Layer 2 (Pass)
//Storyboard Layer 3 (Foreground)
//Storyboard Sound Samples

[TimingPoints]
809,315.789473684211,4,2,0,30,1,0
809,-133.333333333333,4,2,0,30,0,0
18493,-100,4,2,2,60,0,0
51335,-111.111111111111,4,2,3,40,0,0
56387,-111.111111111111,4,2,2,50,0,0
60966,-111.111111111111,4,2,2,25,0,0
61124,-111.111111111111,4,2,2,50,0,0
61282,-111.111111111111,4,2,2,25,0,0
61440,-83.3333333333333,4,2,2,60,0,1
86703,-83.3333333333333,4,2,2,60,0,0
88914,-83.3333333333333,4,2,2,5,0,0

[Colours]
Combo1 : 192,64,192
Combo2 : 255,64,64
Combo3 : 255,128,64
Combo4 : 255,255,96
Combo5 : 96,255,64
Combo6 : 0,128,255

[HitObjects]
135,49,809,6,0,P|194:62|256:44,2,120.000004577637,4|0|0,0:0|0:0|0:0,0:0:0:0:
135,49,1756,2,0,P|180:160|60:79,1,360.000013732911,2|0,0:0|0:0,0:0:0:0:
235,117,3177,1,0,0:0:0:0:
235,117,3335,6,0,P|176:104|114:122,2,120.000004577637,2|0|0,0:0|0:0|0:0,0:0:0:0:
246,242,4282,2,0,P|135:197|137:293,1,240.000009155274,2|0,0:0|0:0,0:0:0:0:
290,312,5230,2,2,P|326:264|314:190,1,120.000004577637,2|0,0:0|0:0,0:0:0:0:
372,116,5861,6,0,P|436:120|496:76,2,120.000004577637,2|0|0,0:0|0:0|0:0,0:0:0:0:
294,20,6809,2,0,P|254:87|378:104,1,240.000009155274,2|0,0:0|0:0,0:0:0:0:
184,48,7756,1,2,0:0:0:0:
77,89,8072,1,0,0:0:0:0:
168,269,8387,6,0,P|186:213|168:157,1,120.000004577637,2|0,0:0|0:0,0:0:0:0:
4,257,9019,1,0,0:0:0:0:
168,157,9335,2,0,P|282:124|411:174,1,240.000009155274,2|0,0:0|0:0,0:0:0:0:
393,160,10282,2,0,P|389:130|374:104,2,60.0000022888184,2|0|0,0:0|0:0|0:0,0:0:0:0:
441,235,10756,6,0,P|384:251|332:225,1,120.000004577637,2|0,0:0|0:0,0:0:0:0:
183,157,11387,2,0,P|235:131|292:148,1,120.000004577637,2|0,0:0|0:0,0:0:0:0:
243,211,11861,1,0,0:0:0:0:
243,211,12019,2,0,L|246:68,1,120.000004577637,2|0,0:0|0:0,0:0:0:0:
243,211,12809,2,0,P|238:181|223:155,2,60.0000022888184,0|2|0,0:0|0:0|0:0,0:0:0:0:
181,274,13283,6,0,P|234:301|291:285,1,120.000004577637,2|0,0:0|0:0,0:0:0:0:
125,220,13914,2,0,P|68:203|17:230,1,120.000004577637,2|0,0:0|0:0,0:0:0:0:
78,285,14387,1,0,0:0:0:0:
78,285,14545,2,0,L|81:142,1,120.000004577637,2|0,0:0|0:0,0:0:0:0:
80,165,15335,2,0,P|69:136|69:107,2,60.0000022888184,0|2|0,0:0|0:0|0:0,0:0:0:0:
130,45,15809,6,0,P|76:18|21:34,1,120.000004577637,2|0,0:0|0:0,0:0:0:0:
256,80,16756,2,0,P|251:50|236:24,2,60.0000022888184,0|2|0,0:0|0:0|0:0,0:0:0:0:
196,144,17230,2,0,P|248:170|304:153,1,120.000004577637,2|0,0:0|0:0,0:0:0:0:
458,96,17861,1,0,0:0:0:0:
458,96,18019,2,0,P|409:128|395:185,1,120.000004577637,2|0,0:0|0:0,0:0:0:0:
384,260,18414,1,0,0:0:0:0:
385,282,18493,6,2,P|344:249|282:254,1,80,6|0,0:0|0:0,0:0:0:0:
456,320,18809,2,2,P|464:267|428:216,1,80,2|0,0:0|0:0,0:0:0:0:
383,358,19124,1,2,0:0:0:0:
395,185,19282,1,0,0:0:0:0:
228,276,19440,1,2,0:0:0:0:
385,282,19598,1,0,0:0:0:0:
208,200,19756,6,2,P|259:206|299:253,1,80,0|2,0:0|0:0,0:0:0:0:
132,178,20072,2,2,P|163:136|223:125,1,80,0|2,0:0|0:0,0:0:0:0:
148,253,20387,1,2,0:0:0:0:
106,84,20545,1,2,0:0:0:0:
208,200,20703,1,10,0:0:0:0:
54,234,20861,1,8,0:0:0:0:
40,36,21019,1,6,0:0:0:0:
40,36,21177,6,0,P|120:71|193:17,1,160,2|0,0:0|0:0,0:0:0:0:
326,121,21651,2,0,P|246:156|173:102,1,160,2|0,0:0|0:0,0:0:0:0:
336,32,22282,6,0,P|408:72|399:157,1,160,2|0,0:0|0:0,0:0:0:0:
356,312,22756,1,2,0:0:0:0:
356,312,22914,2,0,L|332:224,1,80
456,280,23230,2,0,L|432:368,1,80,2|0,0:0|0:0,0:0:0:0:
252,372,23545,5,6,0:0:0:0:
240,336,24177,1,2,0:0:0:0:
228,296,24809,6,0,L|316:272,1,80,2|0,0:0|0:0,0:0:0:0:
244,208,25124,2,0,L|156:184,1,80,2|0,0:0|0:0,0:0:0:0:
252,120,25440,2,2,L|316:104,3,40
232,40,25756,2,2,L|168:24,3,40
121,72,26072,5,6,0:0:0:0:
172,224,26230,1,0,0:0:0:0:
36,180,26387,1,8,0:0:0:0:
252,120,26545,2,0,P|324:88|396:132,1,160,2|2,0:0|0:0,0:0:0:0:
316,264,27019,5,8,0:0:0:0:
320,172,27177,2,0,P|392:140|464:184,1,160,2|2,0:0|0:0,0:0:0:0:
392,320,27651,5,8,0:0:0:0:
386,223,27809,2,0,P|318:187|248:220,1,160,2|2,0:0|0:0,0:0:0:0:
304,352,28282,1,8,0:0:0:0:
247,220,28440,1,2,0:0:0:0:
168,328,28598,1,2,0:0:0:0:
40,200,28756,1,8,0:0:0:0:
40,200,28835,1,8,0:0:0:0:
40,200,28914,1,10,0:0:0:0:
92,321,29072,1,0,0:0:0:0:
152,172,29230,5,10,0:0:0:0:
100,293,29388,1,0,0:0:0:0:
48,120,29545,1,10,0:0:0:0:
110,265,29703,1,10,0:0:0:0:
180,96,29861,6,0,L|160:192,1,80
112,60,30177,2,0,P|220:28|256:80,1,160,14|0,0:0|0:0,0:0:0:0:
216,220,30651,5,2,0:0:0:0:
180,96,30809,1,2,0:0:0:0:
348,136,30966,6,0,L|332:224,1,80,2|6,0:0|0:0,0:0:0:0:
252,196,31282,1,0,0:0:0:0:
216,72,31440,1,8,0:0:0:0:
366,116,31598,2,0,L|350:204,1,80,2|0,0:0|0:0,0:0:0:0:
470,52,31914,6,0,L|486:140,1,80,2|8,0:0|0:0,0:0:0:0:
366,68,32230,2,0,L|350:156,1,80,0|2,0:0|0:0,0:0:0:0:
470,4,32545,2,0,L|486:92,1,80,0|8,0:0|0:0,0:0:0:0:
360,24,32861,2,0,B|332:204,1,160,2|2,0:0|0:0,0:0:0:0:
340,336,33335,1,8,0:0:0:0:
340,336,33493,1,0,0:0:0:0:
286,243,33651,6,0,P|332:228|374:242,1,80,2|0,0:0|0:0,0:0:0:0:
232,340,33966,2,0,P|192:346|156:331,1,80,8|2,0:0|0:0,0:0:0:0:
166,161,34282,1,0,0:0:0:0:
204,254,34440,1,2,0:0:0:0:
84,312,34598,2,0,P|77:272|92:236,1,80,8|0,0:0|0:0,0:0:0:0:
264,108,34914,6,0,P|278:144|272:183,1,80,2|0,0:0|0:0,0:0:0:0:
200,64,35230,1,8,0:0:0:0:
348,192,35387,2,0,P|332:228|300:251,1,80,2|0,0:0|0:0,0:0:0:0:
320,24,35703,1,2,0:0:0:0:
358,117,35861,1,8,0:0:0:0:
472,36,36019,6,0,P|464:80|438:117,1,80,2|0,0:0|0:0,0:0:0:0:
316,64,36335,1,0,0:0:0:0:
354,157,36493,1,8,0:0:0:0:
504,60,36651,2,0,P|496:104|470:141,1,80,2|0,0:0|0:0,0:0:0:0:
348,192,36966,6,0,P|327:157|321:118,1,80,2|8,0:0|0:0,0:0:0:0:
396,288,37282,2,0,P|416:322|422:361,1,80,0|2,0:0|0:0,0:0:0:0:
424,216,37598,2,0,P|458:195|497:189,1,80,0|8,0:0|0:0,0:0:0:0:
323,260,37914,2,0,P|260:280|160:248,1,160,2|2,0:0|0:0,0:0:0:0:
168,160,38387,1,8,0:0:0:0:
109,308,38545,1,0,0:0:0:0:
28,228,38703,6,0,P|74:213|116:227,1,80,2|0,0:0|0:0,0:0:0:0:
28,88,39019,2,0,P|71:109|90:149,1,80,8|2,0:0|0:0,0:0:0:0:
144,0,39335,2,0,P|159:46|145:88,1,80,0|2,0:0|0:0,0:0:0:0:
248,40,39651,1,8,0:0:0:0:
252,184,39809,1,0,0:0:0:0:
388,116,39966,6,2,L|300:164,1,80,2|10,0:0|0:0,0:0:0:0:
496,216,40282,2,2,L|399:187,1,80,2|10,0:0|0:0,0:0:0:0:
496,360,40598,2,2,L|448:271,1,80,2|10,0:0|0:0,0:0:0:0:
288,332,40914,1,10,0:0:0:0:
388,352,41072,1,10,0:0:0:0:
360,264,41230,5,2,0:0:0:0:
260,240,41387,1,0,0:0:0:0:
188,308,41545,1,8,0:0:0:0:
80,220,41703,2,0,P|116:212|164:224,1,80,2|0,0:0|0:0,0:0:0:0:
284,284,42019,1,2,0:0:0:0:
193,323,42177,1,8,0:0:0:0:
112,184,42335,2,0,P|148:188|189:216,1,80,0|2,0:0|0:0,0:0:0:0:
292,340,42651,5,0,0:0:0:0:
193,345,42809,1,8,0:0:0:0:
116,288,42966,1,2,0:0:0:0:
196,128,43124,2,0,P|228:145|257:185,1,80,0|2,0:0|0:0,0:0:0:0:
132,80,43440,2,0,P|208:52|260:80,1,120,8|0,0:0|0:0,0:0:0:0:
264,76,43756,6,0,P|308:88|364:68,1,80,2|0,0:0|0:0,0:0:0:0:
440,32,44072,1,8,0:0:0:0:
400,180,44230,1,2,0:0:0:0:
496,128,44387,1,0,0:0:0:0:
341,81,44545,1,2,0:0:0:0:
352,244,44703,2,0,P|412:260|472:216,1,120,8|0,0:0|0:0,0:0:0:0:
476,216,45019,6,0,P|488:256|476:308,1,80,2|0,0:0|0:0,0:0:0:0:
284,288,45335,1,8,0:0:0:0:
284,288,45493,2,0,P|272:248|284:196,1,80,2|0,0:0|0:0,0:0:0:0:
240,360,45809,1,2,0:0:0:0:
240,360,45966,2,0,B|176:361|176:361|132:341|132:341|80:341,1,160,8|2,0:0|0:0,0:0:0:0:
140,240,46440,5,0,0:0:0:0:
28,200,46598,1,8,0:0:0:0:
7,338,46756,2,0,P|51:349|103:329,1,80,2|0,0:0|0:0,0:0:0:0:
32,168,47072,1,2,0:0:0:0:
0,316,47230,2,0,P|44:327|96:307,1,80,8|0,0:0|0:0,0:0:0:0:
176,116,47545,6,0,P|132:105|80:125,1,80,2|0,0:0|0:0,0:0:0:0:
256,158,47861,1,8,0:0:0:0:
385,116,48019,1,2,0:0:0:0:
256,74,48177,1,0,0:0:0:0:
336,184,48335,1,2,0:0:0:0:
336,48,48493,1,8,0:0:0:0:
284,200,48651,1,0,0:0:0:0:
440,176,48809,6,0,L|448:260,1,80,2|0,0:0|0:0,0:0:0:0:
320,224,49124,1,8,0:0:0:0:
468,144,49282,2,0,L|476:228,1,80,2|0,0:0|0:0,0:0:0:0:
352,244,49598,1,2,0:0:0:0:
496,116,49756,2,0,L|504:200,1,80,8|0,0:0|0:0,0:0:0:0:
388,264,50072,5,2,0:0:0:0:
312,340,50230,1,10,0:0:0:0:
276,236,50387,1,2,0:0:0:0:
276,236,50545,1,2,0:0:0:0:
168,276,50703,5,10,0:0:0:0:
213,373,50861,1,10,0:0:0:0:
238,301,51019,1,10,0:0:0:0:
142,347,51177,1,2,0:0:0:0:
124,204,51335,6,0,P|160:192|212:208,1,71.9999978027344,2|0,0:0|0:0,0:0:0:0:
184,120,51651,2,0,P|221:127|258:167,1,71.9999978027344,0|2,0:0|0:0,0:0:0:0:
308,208,51966,2,0,P|284:136|322:68,2,143.999995605469,8|2|2,0:0|0:0|0:0,0:0:0:0:
394,148,52914,5,2,0:0:0:0:
232,48,53230,1,8,0:0:0:0:
401,76,53545,2,0,L|393:152,1,71.9999978027344,2|0,0:0|0:0,0:0:0:0:
308,208,53861,6,0,L|480:200,1,143.999995605469,2|0,0:0|0:0,0:0:0:0:
496,284,54335,2,0,L|324:292,1,143.999995605469,10|0,0:0|0:0,0:0:0:0:
192,260,54809,2,0,P|230:266|271:305,1,71.9999978027344,2|0,0:0|0:0,0:0:0:0:
124,304,55124,6,0,P|110:267|123:212,1,71.9999978027344,2|0,0:0|0:0,0:0:0:0:
196,340,55440,2,0,L|24:348,1,143.999995605469,2|10,0:0|0:0,0:0:0:0:
32,160,55914,1,0,0:0:0:0:
112,235,56072,1,0,0:0:0:0:
128,52,56230,1,0,0:0:0:0:
128,52,56309,1,0,0:0:0:0:
128,52,56387,6,0,P|166:52|208:76,1,71.9999978027344,6|0,0:0|0:0,0:0:0:0:
264,8,56703,2,0,P|283:41|283:89,1,71.9999978027344,2|0,0:0|0:0,0:0:0:0:
376,80,57019,2,0,P|365:117|332:151,1,71.9999978027344,2|0,0:0|0:0,0:0:0:0:
404,208,57335,2,0,P|370:227|322:227,1,71.9999978027344,2|0,0:0|0:0,0:0:0:0:
264,180,57651,5,2,0:0:0:0:
180,280,57809,1,8,0:0:0:0:
180,280,57966,1,2,0:0:0:0:
312,308,58124,1,8,0:0:0:0:
184,180,58282,5,2,0:0:0:0:
252,363,58440,1,8,0:0:0:0:
337,230,58598,1,2,0:0:0:0:
153,298,58756,1,8,0:0:0:0:
376,356,58914,5,10,0:0:0:0:
376,356,59230,2,0,L|400:260,1,71.9999978027344,2|0,0:0|0:0,0:0:0:0:
328,80,59545,2,8,L|352:176,1,71.9999978027344,10|0,0:0|0:0,0:0:0:0:
432,36,59861,1,10,0:0:0:0:
448,208,60019,1,10,0:0:0:0:
448,208,60335,5,10,0:0:0:0:
328,80,60493,1,10,0:0:0:0:
512,60,60651,1,10,0:0:0:0:
448,208,60809,2,0,L|328:176,1,107.999996704102
343,180,61124,2,0,L|463:148,1,107.999996704102
447,152,61440,6,0,L|332:120,1,95.9999970703126,6|0,0:0|0:0,0:0:0:0:
212,140,61756,1,2,0:0:0:0:
300,243,61914,1,0,0:0:0:0:
375,54,62072,2,0,P|328:57|292:88,1,95.9999970703126,2|0,0:0|0:0,0:0:0:0:
216,224,62387,1,2,0:0:0:0:
343,180,62545,1,0,0:0:0:0:
212,56,62703,6,0,P|133:101|145:191,1,191.999994140625,6|0,0:0|0:0,0:0:0:0:
212,140,63177,1,0,0:0:0:0:
220,316,63335,2,0,P|175:296|126:309,1,95.9999970703126,2|0,0:0|0:0,0:0:0:0:
328,336,63651,2,0,P|371:315|420:327,1,95.9999970703126,2|0,0:0|0:0,0:0:0:0:
300,243,63966,6,0,P|305:194|344:159,1,95.9999970703126,6|0,0:0|0:0,0:0:0:0:
496,208,64282,1,2,0:0:0:0:
376,228,64440,1,0,0:0:0:0:
328,80,64598,2,0,P|377:85|412:124,1,95.9999970703126,6|0,0:0|0:0,0:0:0:0:
300,243,64914,1,2,0:0:0:0:
250,104,65072,1,0,0:0:0:0:
152,192,65230,6,0,P|113:160|61:163,1,95.9999970703126,6|0,0:0|0:0,0:0:0:0:
217,275,65545,2,0,P|255:243|307:246,1,95.9999970703126,2|0,0:0|0:0,0:0:0:0:
108,272,65861,2,0,P|69:240|17:243,1,95.9999970703126,2|0,0:0|0:0,0:0:0:0:
252,356,66177,2,0,P|290:324|342:327,1,95.9999970703126,2|0,0:0|0:0,0:0:0:0:
488,216,66493,6,0,L|456:331,1,95.9999970703126,6|0,0:0|0:0,0:0:0:0:
336,162,66809,1,2,0:0:0:0:
424,265,66967,1,0,0:0:0:0:
428,120,67124,2,0,L|396:5,1,95.9999970703126,2|0,0:0|0:0,0:0:0:0:
263,192,67440,1,2,0:0:0:0:
368,68,67598,1,0,0:0:0:0:
320,248,67756,6,0,L|200:232,1,95.9999970703126,6|0,0:0|0:0,0:0:0:0:
96,152,68072,2,0,L|216:136,1,95.9999970703126,2|0,0:0|0:0,0:0:0:0:
364,256,68387,2,0,L|244:240,1,95.9999970703126,2|0,0:0|0:0,0:0:0:0:
56,160,68703,2,0,L|176:144,1,95.9999970703126,2|0,0:0|0:0,0:0:0:0:
399,60,69019,6,0,P|350:65|315:104,1,95.9999970703126,6|0,0:0|0:0,0:0:0:0:
364,256,69335,1,2,0:0:0:0:
384,136,69493,1,0,0:0:0:0:
236,88,69651,2,0,P|241:137|280:172,1,95.9999970703126,6|0,0:0|0:0,0:0:0:0:
399,60,69967,1,2,0:0:0:0:
260,10,70125,1,0,0:0:0:0:
272,168,70282,5,4,0:0:0:0:
125,195,70440,1,8,0:0:0:0:
181,109,70598,1,0,0:0:0:0:
208,256,70756,1,8,0:0:0:0:
40,132,70914,5,8,0:0:0:0:
29,157,70992,1,8,0:0:0:0:
23,183,71071,1,8,0:0:0:0:
19,209,71150,1,8,0:0:0:0:
19,236,71229,1,8,0:0:0:0:
23,263,71308,1,8,0:0:0:0:
30,289,71387,1,8,0:0:0:0:
40,314,71466,1,8,0:0:0:0:
56,336,71545,6,0,L|164:324,1,95.9999970703126,6|0,0:0|0:0,0:0:0:0:
189,200,71861,2,0,L|297:212,1,95.9999970703126,8|2,0:0|0:0,0:0:0:0:
416,268,72177,1,0,0:0:0:0:
304,340,72335,1,2,0:0:0:0:
236,164,72493,2,0,L|344:176,1,95.9999970703126,8|0,0:0|0:0,0:0:0:0:
452,268,72809,5,2,0:0:0:0:
340,340,72967,1,0,0:0:0:0:
292,136,73125,2,0,L|400:148,1,95.9999970703126,8|2,0:0|0:0,0:0:0:0:
484,132,73440,1,0,0:0:0:0:
423,250,73598,1,2,0:0:0:0:
344,104,73756,1,8,0:0:0:0:
264,249,73914,6,0,P|233:200|239:156,1,95.9999970703126,0|2,0:0|0:0,0:0:0:0:
404,196,74230,1,0,0:0:0:0:
192,216,74387,1,8,0:0:0:0:
315,18,74545,2,0,P|345:66|340:111,1,95.9999970703126,2|0,0:0|0:0,0:0:0:0:
188,32,74861,1,2,0:0:0:0:
400,52,75018,1,8,0:0:0:0:
308,184,75177,1,0,0:0:0:0:
124,128,75335,6,0,L|12:104,1,95.9999970703126,2|0,0:0|0:0,0:0:0:0:
192,216,75651,2,0,L|304:192,1,95.9999970703126,8|2,0:0|0:0,0:0:0:0:
200,56,75966,1,0,0:0:0:0:
172,240,76124,1,2,0:0:0:0:
80,76,76282,1,8,0:0:0:0:
60,272,76440,1,8,0:0:0:0:
60,272,76519,1,8,0:0:0:0:
60,272,76598,6,0,L|36:384,1,95.9999970703126,2|0,0:0|0:0,0:0:0:0:
285,195,76914,2,0,L|309:83,1,95.9999970703126,8|2,0:0|0:0,0:0:0:0:
124,128,77230,1,0,0:0:0:0:
248,260,77387,1,2,0:0:0:0:
368,56,77545,2,0,P|303:27|240:64,1,143.999995605469,8|0,0:0|0:0,0:0:0:0:
232,80,77861,6,0,P|221:137|241:173,1,95.9999970703126,2|0,0:0|0:0,0:0:0:0:
312,348,78177,2,0,P|336:307|332:260,1,95.9999970703126,8|2,0:0|0:0,0:0:0:0:
112,252,78493,1,0,0:0:0:0:
264,292,78651,1,2,0:0:0:0:
272,136,78809,1,8,0:0:0:0:
224,318,78967,1,0,0:0:0:0:
419,281,79124,6,0,P|378:256|331:260,1,95.9999970703126,6|0,0:0|0:0,0:0:0:0:
448,356,79440,1,8,0:0:0:0:
496,174,79598,1,2,0:0:0:0:
309,203,79756,6,2,P|317:243|349:271,2,63.9999980468751
368,104,80072,2,2,P|360:64|328:36,2,63.9999980468751
288,124,80387,2,2,P|248:132|220:164,2,63.9999980468751
387,183,80703,2,2,P|427:175|455:143,2,63.9999980468751
160,92,81019,1,2,0:0:0:0:
184,292,81177,1,8,0:0:0:0:
144,176,81335,1,2,0:0:0:0:
276,216,81493,1,10,0:0:0:0:
60,152,81651,5,4,0:0:0:0:
60,152,81809,2,0,P|124:92|220:140,1,191.999994140625,2|2,0:0|0:0,0:0:0:0:
141,271,82282,2,0,L|144:175,1,95.9999970703126,8|0,0:0|0:0,0:0:0:0:
224,296,82598,1,0,0:0:0:0:
224,296,82756,6,0,P|160:356|64:308,2,191.999994140625,2|2|0,0:0|0:0|0:0,0:0:0:0:
368,92,83545,2,0,P|416:80|468:104,1,95.9999970703126,8|2,0:0|0:0,0:0:0:0:
308,202,83861,2,0,P|260:214|208:190,1,95.9999970703126,0|2,0:0|0:0,0:0:0:0:
240,16,84177,5,8,0:0:0:0:
264,176,84335,1,8,0:0:0:0:
320,40,84809,5,8,0:0:0:0:
255,204,84967,1,8,0:0:0:0:
172,32,85440,5,8,0:0:0:0:
252,228,85598,2,0,P|344:196|396:272,1,191.999994140625,8|2,0:0|0:0,0:0:0:0:
320,368,86072,2,0,L|316:228,1,95.9999970703126,8|0,0:0|0:0,0:0:0:0:
484,184,86387,2,0,L|480:324,1,95.9999970703126,12|0,0:0|0:0,0:0:0:0:
251,227,86703,5,6,0:0:0:0:
332,56,86861,1,0,0:0:0:0:
362,202,87018,1,8,0:0:0:0:
184,136,87177,2,0,P|92:100|20:156,1,191.999994140625,2|2,0:0|0:0,0:0:0:0:
60,320,87651,5,8,0:0:0:0:
108,192,87809,1,2,0:0:0:0:
0,254,87966,1,8,0:0:0:0:
147,309,88124,1,2,0:0:0:0:
184,136,88282,1,4,0:0:0:0:
256,192,88361,12,0,89151,0:0:0:0:
