osu file format v14

[General]
AudioFilename: audio.mp3
AudioLeadIn: 0
PreviewTime: 51335
Countdown: 0
SampleSet: Soft
StackLeniency: 0.7
Mode: 0
LetterboxInBreaks: 0
WidescreenStoryboard: 0

[Editor]
Bookmarks: 47545
DistanceSpacing: 1.1
BeatDivisor: 4
GridSize: 4
TimelineZoom: 3.299999

[Metadata]
Title:Itteki no Eikyou (short ver.)
TitleUnicode:一滴の影響 (short ver.)
Artist:UVERworld
ArtistUnicode:UVERworld
Creator:kanor
Version:Normal
Source:青の祓魔師 京都不浄王篇
Tags:opening blue ao no exorcist [_Abhor_]
BeatmapID:1205470
BeatmapSetID:566434

[Difficulty]
HPDrainRate:4
CircleSize:3.2
OverallDifficulty:4
ApproachRate:5
SliderMultiplier:1
SliderTickRate:1

[Events]
//Background and Video events
Video,0,"video.avi"
0,0,"BG.jpg",0,0
//Break Periods
//Storyboard Layer 0 (Background)
//Storyboard Layer 1 (Fail)
//Storyboard Layer 2 (Pass)
//Storyboard Layer 3 (Foreground)
//Storyboard Sound Samples

[TimingPoints]
809,315.789473684211,4,2,0,30,1,0
809,-133.333333333333,4,2,0,30,0,0
18493,-100,4,2,2,60,0,0
51335,-100,4,2,3,40,0,0
56387,-100,4,2,2,50,0,0
61440,-100,4,2,2,60,0,1
86703,-100,4,2,2,60,0,0
88282,-100,4,2,2,20,0,0
89072,-100,4,2,2,25,0,0

[Colours]
Combo1 : 192,64,192
Combo2 : 255,64,64
Combo3 : 255,128,64
Combo4 : 255,255,96
Combo5 : 96,255,64
Combo6 : 0,128,255

[HitObjects]
320,64,809,6,0,L|408:48,1,75.000002861023,4|0,0:0|0:0,0:0:0:0:
464,92,1440,1,0,0:0:0:0:
394,137,1756,2,0,B|283:156|283:156|388:204,1,225.000008583069,2|0,0:0|0:0,0:0:0:0:
320,64,3335,6,0,L|246:77,1,75.000002861023,2|0,0:0|0:0,0:0:0:0:
166,56,3966,1,0,0:0:0:0:
106,113,4282,2,0,B|68:188|68:188|49:47,1,225.000008583069,2|0,0:0|0:0,0:0:0:0:
176,248,5861,6,0,P|169:291|182:333,1,75.000002861023,2|0,0:0|0:0,0:0:0:0:
251,354,6493,1,0,0:0:0:0:
328,324,6809,2,0,P|351:253|333:181,1,150.000005722046,2|0,0:0|0:0,0:0:0:0:
288,112,7756,1,2,0:0:0:0:
213,75,8072,1,0,0:0:0:0:
130,74,8387,6,0,P|87:67|45:80,1,75.000002861023,2|0,0:0|0:0,0:0:0:0:
30,149,9019,1,0,0:0:0:0:
54,226,9335,2,0,P|124:249|196:231,1,150.000005722046,2|0,0:0|0:0,0:0:0:0:
223,153,10282,2,0,P|266:146|308:159,1,75.000002861023,2|0,0:0|0:0,0:0:0:0:
334,168,10756,6,0,P|377:175|419:162,1,75.000002861023,2|0,0:0|0:0,0:0:0:0:
487,147,11387,2,0,P|471:106|439:76,1,75.000002861023,2|0,0:0|0:0,0:0:0:0:
389,27,12019,2,0,P|361:60|351:103,1,75.000002861023,2|0,0:0|0:0,0:0:0:0:
314,251,12966,1,2,0:0:0:0:
271,180,13282,6,0,P|255:139|223:109,1,75.000002861023,2|0,0:0|0:0,0:0:0:0:
177,58,13914,2,0,P|149:91|139:134,1,75.000002861023,2|0,0:0|0:0,0:0:0:0:
122,203,14545,2,0,P|165:210|207:196,1,75.000002861023,2|0,0:0|0:0,0:0:0:0:
355,163,15493,1,2,0:0:0:0:
432,190,15809,6,0,P|459:223|469:266,1,75.000002861023,2|0,0:0|0:0,0:0:0:0:
287,352,16914,1,2,0:0:0:0:
210,325,17230,2,0,P|182:291|172:248,1,75.000002861023,2|0,0:0|0:0,0:0:0:0:
92,276,17861,2,0,P|96:232|119:195,1,75.000002861023,0|0,0:0|0:0,0:0:0:0:
44,116,18493,6,0,P|91:95|156:106,1,100,6|2,0:0|0:0,0:0:0:0:
211,182,19124,2,0,P|268:183|331:147,2,100,2|2|0,0:0|0:0|0:0,0:0:0:0:
244,76,20072,1,0,0:0:0:0:
337,19,20387,2,0,P|391:9|440:25,1,100,2|10,0:0|0:0,0:0:0:0:
462,123,21019,6,0,P|448:194|466:272,1,150,6|0,0:0|0:0,0:0:0:0:
463,324,21651,2,0,P|416:312|368:326,1,100,2|2,0:0|0:0,0:0:0:0:
267,370,22282,2,0,P|219:382|171:368,1,100,2|0,0:0|0:0,0:0:0:0:
83,302,22914,1,0,0:0:0:0:
45,198,23230,1,2,0:0:0:0:
64,90,23545,6,0,B|119:63|161:86|198:112|262:84,2,200,6|2|2,0:0|0:0|0:0,0:0:0:0:
45,198,25124,1,2,0:0:0:0:
83,302,25440,1,0,0:0:0:0:
164,228,25756,1,0,0:0:0:0:
188,336,26072,6,0,P|240:324|302:339,1,100,6|8,0:0|0:0,0:0:0:0:
336,352,26545,2,0,L|340:239,1,100,2|2,0:0|0:0,0:0:0:0:
322,199,27019,1,8,0:0:0:0:
322,199,27177,2,0,P|374:211|436:196,1,100,2|2,0:0|0:0,0:0:0:0:
469,179,27651,1,8,0:0:0:0:
469,179,27809,2,0,L|473:66,1,100,2|2,0:0|0:0,0:0:0:0:
459,25,28282,1,8,0:0:0:0:
357,68,28598,6,0,P|305:80|243:65,1,100,2|10,0:0|0:0,0:0:0:0:
209,52,29071,2,0,L|205:165,1,100,0|0,0:0|0:0,0:0:0:0:
207,207,29545,1,10,0:0:0:0:
207,207,29703,2,0,P|155:195|93:210,1,100,10|0,0:0|0:0,0:0:0:0:
60,228,30177,2,0,L|61:78,1,150,14|2,0:0|0:0,0:0:0:0:
164,37,30966,6,0,P|216:49|278:34,1,100,2|0,0:0|0:0,0:0:0:0:
315,29,31440,1,8,0:0:0:0:
315,29,31598,2,0,L|318:132,1,100,2|2,0:0|0:0,0:0:0:0:
419,172,32230,2,0,L|422:69,2,100,0|0|2,0:0|0:0|0:0,0:0:0:0:
457,332,33335,1,8,0:0:0:0:
353,295,33651,6,0,P|301:283|239:298,1,100,2|8,0:0|0:0,0:0:0:0:
223,335,34125,1,2,0:0:0:0:
223,335,34282,2,0,P|171:347|109:332,1,100,0|8,0:0|0:0,0:0:0:0:
39,269,34914,2,0,P|15:195|41:124,1,150,2|2,0:0|0:0,0:0:0:0:
123,60,35703,1,2,0:0:0:0:
146,167,36019,6,0,P|198:155|260:170,1,100,2|0,0:0|0:0,0:0:0:0:
283,201,36493,1,8,0:0:0:0:
283,201,36651,2,0,L|286:304,1,100,2|2,0:0|0:0,0:0:0:0:
377,239,37283,2,0,L|380:342,2,100,0|0|2,0:0|0:0|0:0,0:0:0:0:
449,90,38387,1,8,0:0:0:0:
352,37,38703,6,0,P|300:25|238:40,1,100,2|8,0:0|0:0,0:0:0:0:
222,77,39177,1,2,0:0:0:0:
222,77,39335,2,0,P|170:89|108:74,1,100,0|8,0:0|0:0,0:0:0:0:
18,51,39966,2,0,L|25:167,1,100,2|2,0:0|0:0,0:0:0:0:
128,188,40598,2,0,L|135:288,2,100,2|10|2,0:0|0:0|0:0,0:0:0:0:
176,160,41387,6,0,L|238:143,2,50,0|8|2,0:0|0:0|0:0,0:0:0:0:
268,220,42019,2,0,L|330:203,2,50,2|8|0,0:0|0:0|0:0,0:0:0:0:
356,284,42651,2,0,L|419:267,2,50,0|8|2,0:0|0:0|0:0,0:0:0:0:
316,320,43124,2,0,P|269:307|208:316,1,100,0|8,0:0|0:0,0:0:0:0:
112,336,43756,6,0,P|65:348|4:340,1,100,2|8,0:0|0:0,0:0:0:0:
36,236,44387,2,0,L|4:172,2,50,0|2|8,0:0|0:0|0:0,0:0:0:0:
148,240,45019,2,0,L|134:140,1,100,2|8,0:0|0:0,0:0:0:0:
120,88,45493,2,0,P|171:77|227:90,1,100,2|2,0:0|0:0,0:0:0:0:
272,96,45966,2,0,P|323:107|379:93,1,100,8|2,0:0|0:0,0:0:0:0:
420,76,46440,6,0,L|410:28,2,50,0|8|2,0:0|0:0|0:0,0:0:0:0:
472,176,47072,2,0,L|482:224,2,50,2|8|0,0:0|0:0|0:0,0:0:0:0:
428,208,47545,2,0,P|380:198|331:209,1,100,2|8,0:0|0:0,0:0:0:0:
287,239,48019,1,2,0:0:0:0:
287,239,48177,2,0,L|175:231,1,100,0|8,0:0|0:0,0:0:0:0:
229,333,48809,6,0,L|130:340,1,100,2|8,0:0|0:0,0:0:0:0:
75,352,49282,2,0,P|65:303|74:254,1,100,2|2,0:0|0:0,0:0:0:0:
91,202,49756,1,8,0:0:0:0:
40,104,50072,2,0,P|89:93|138:102,1,100,2|2,0:0|0:0,0:0:0:0:
167,1,50703,2,0,P|210:27|237:68,1,100,10|10,0:0|0:0,0:0:0:0:
221,177,51335,6,0,L|321:181,2,100,2|0|8,0:0|0:0|0:0,0:0:0:0:
148,273,52282,1,2,0:0:0:0:
213,363,52598,2,0,L|313:367,1,100,2|2,0:0|0:0,0:0:0:0:
377,277,53230,1,8,0:0:0:0:
430,181,53545,1,2,0:0:0:0:
480,83,53861,6,0,P|431:72|375:87,1,100,2|0,0:0|0:0,0:0:0:0:
331,103,54335,2,0,P|282:92|226:107,1,100,10|0,0:0|0:0,0:0:0:0:
191,138,54809,1,2,0:0:0:0:
121,53,55124,2,0,P|73:43|25:53,2,100,2|2|10,0:0|0:0|0:0,0:0:0:0:
191,138,56072,1,0,0:0:0:0:
272,212,56387,6,0,P|320:222|368:212,1,100,6|2,0:0|0:0,0:0:0:0:
471,169,57019,2,0,L|468:60,1,100,2|2,0:0|0:0,0:0:0:0:
440,21,57493,2,8,P|371:12|328:34,1,100,10|8,0:0|0:0,0:0:0:0:
323,130,58124,1,10,0:0:0:0:
239,58,58440,1,10,0:0:0:0:
221,166,58756,1,8,0:0:0:0:
221,166,58914,6,0,B|159:197|124:173|80:144|17:175,1,200,10|10,0:0|0:0,0:0:0:0:
17,280,59861,2,0,L|24:351,1,50,10|10,0:0|0:0,0:0:0:0:
124,288,60335,2,0,L|131:359,2,50,10|10|10,0:0|0:0|0:0,0:0:0:0:
144,232,60809,2,0,P|195:242|246:231,1,100,0|0,0:0|0:0,0:0:0:0:
296,136,61440,6,0,P|347:126|398:137,1,100,6|2,0:0|0:0,0:0:0:0:
448,232,62072,1,2,0:0:0:0:
440,340,62387,2,0,P|344:362|229:321,1,200,2|0,0:0|0:0,0:0:0:0:
144,300,63335,2,0,L|122:186,1,100,2|2,0:0|0:0,0:0:0:0:
220,148,63966,6,0,L|238:49,1,100,6|2,0:0|0:0,0:0:0:0:
349,41,64598,1,6,0:0:0:0:
455,72,64914,1,2,0:0:0:0:
496,174,65230,2,0,P|501:226|484:271,1,100,6|2,0:0|0:0,0:0:0:0:
391,211,65861,2,0,P|339:206|294:223,1,100,2|2,0:0|0:0,0:0:0:0:
203,283,66493,6,0,P|186:236|191:187,1,100,6|2,0:0|0:0,0:0:0:0:
207,78,67124,1,2,0:0:0:0:
308,34,67440,2,0,B|374:63|374:63|504:14,1,200,2|2,0:0|0:0,0:0:0:0:
472,125,68387,2,0,L|370:162,1,100,2|2,0:0|0:0,0:0:0:0:
458,234,69019,6,0,L|356:271,1,100,6|2,0:0|0:0,0:0:0:0:
275,202,69651,1,6,0:0:0:0:
165,198,69966,1,2,0:0:0:0:
75,261,70282,2,0,L|60:338,2,50,0|8|0,0:0|0:0|0:0,0:0:0:0:
59,151,70914,2,0,L|44:74,2,50,8|8|8,0:0|0:0|0:0,0:0:0:0:
108,174,71387,1,8,0:0:0:0:
108,174,71545,6,0,P|176:156|226:170,1,100,6|8,0:0|0:0,0:0:0:0:
228,268,72177,2,0,L|221:326,2,50,0|2|8,0:0|0:0|0:0,0:0:0:0:
274,238,72651,2,0,P|341:256|431:222,1,150,2|8,0:0|0:0,0:0:0:0:
478,130,73441,2,0,L|485:72,2,50,0|2|8,0:0|0:0|0:0,0:0:0:0:
424,115,73914,6,0,P|351:93|273:113,1,150,0|8,0:0|0:0,0:0:0:0:
248,212,74703,2,0,L|314:197,2,50,0|2|8,0:0|0:0|0:0,0:0:0:0:
204,248,75177,2,0,L|196:96,1,150,2|8,0:0|0:0,0:0:0:0:
108,32,75966,2,0,L|174:17,2,50,0|2|8,0:0|0:0|0:0,0:0:0:0:
82,81,76440,6,0,L|93:239,1,150,8|8,0:0|0:0,0:0:0:0:
49,332,77230,2,0,P|97:341|148:324,1,100,0|8,0:0|0:0,0:0:0:0:
199,319,77703,1,0,0:0:0:0:
199,319,77861,2,0,P|247:309|296:319,1,100,2|8,0:0|0:0,0:0:0:0:
348,301,78335,1,2,0:0:0:0:
348,301,78493,2,0,L|338:215,1,50,0|2,0:0|0:0,0:0:0:0:
397,246,78809,2,0,L|387:160,1,50,8|0,0:0|0:0,0:0:0:0:
405,143,79124,6,0,P|357:153|304:142,1,100,6|8,0:0|0:0,0:0:0:0:
206,188,79756,2,0,P|211:246|230:283,2,100,0|0|0,0:0|0:0|0:0,0:0:0:0:
215,78,80703,1,0,0:0:0:0:
120,22,81019,2,0,P|70:23|10:49,1,100,2|2,0:0|0:0,0:0:0:0:
7,149,81651,6,0,P|74:169|182:133,1,150,4|2,0:0|0:0,0:0:0:0:
201,131,82282,2,0,P|247:113|298:117,1,100,8|0,0:0|0:0,0:0:0:0:
347,139,82756,2,0,P|401:157|443:157,1,100,2|2,0:0|0:0,0:0:0:0:
461,48,83387,1,0,0:0:0:0:
461,48,83545,2,0,P|414:30|364:29,1,100,8|0,0:0|0:0,0:0:0:0:
317,57,84019,1,2,0:0:0:0:
317,57,84177,6,0,L|255:45,1,50,8|8,0:0|0:0,0:0:0:0:
107,89,84809,2,0,L|45:77,1,50,8|8,0:0|0:0,0:0:0:0:
84,242,85440,2,0,L|146:254,1,50,8|8,0:0|0:0,0:0:0:0:
292,200,86072,2,0,L|396:222,1,100,8|12,0:0|0:0,0:0:0:0:
326,310,86703,6,0,L|430:332,1,100,6|8,0:0|0:0,0:0:0:0:
477,318,87177,2,0,P|488:269|479:220,1,100,2|2,0:0|0:0,0:0:0:0:
474,171,87651,2,0,L|481:98,2,50,8|2|8,0:0|0:0|0:0,0:0:0:0:
369,135,88282,2,0,B|297:138|242:109|242:109|196:134|82:129,1,275,4|0,0:0|0:0,0:0:0:0:
