osu file format v14

[General]
AudioFilename: audio.mp3
AudioLeadIn: 0
PreviewTime: 51335
Countdown: 0
SampleSet: Soft
StackLeniency: 0.7
Mode: 0
LetterboxInBreaks: 0
WidescreenStoryboard: 0

[Editor]
DistanceSpacing: 1.4
BeatDivisor: 4
GridSize: 4
TimelineZoom: 3.299999

[Metadata]
Title:Itteki no Eikyou (short ver.)
TitleUnicode:一滴の影響 (short ver.)
Artist:UVERworld
ArtistUnicode:UVERworld
Creator:kanor
Version:Hard
Source:青の祓魔師 京都不浄王篇
Tags:opening blue ao no exorcist [_Abhor_]
BeatmapID:1207218
BeatmapSetID:566434

[Difficulty]
HPDrainRate:5
CircleSize:3.8
OverallDifficulty:6
ApproachRate:8
SliderMultiplier:1.3
SliderTickRate:1

[Events]
//Background and Video events
Video,0,"video.avi"
0,0,"BG.jpg",0,0
//Break Periods
//Storyboard Layer 0 (Background)
//Storyboard Layer 1 (Fail)
//Storyboard Layer 2 (Pass)
//Storyboard Layer 3 (Foreground)
//Storyboard Sound Samples

[TimingPoints]
809,315.789473684211,4,2,0,30,1,0
809,-133.333333333333,4,2,0,30,0,0
18493,-100,4,2,2,60,0,0
51335,-111.111111111111,4,2,3,40,0,0
56387,-111.111111111111,4,2,2,50,0,0
61440,-83.3333333333333,4,2,2,60,0,1
86703,-83.3333333333333,4,2,2,60,0,0
88914,-83.3333333333333,4,2,2,5,0,0

[Colours]
Combo1 : 192,64,192
Combo2 : 255,64,64
Combo3 : 255,128,64
Combo4 : 255,255,96
Combo5 : 96,255,64
Combo6 : 0,128,255

[HitObjects]
49,300,809,6,0,P|101:294|150:309,1,97.50000371933,4|0,0:0|0:0,0:0:0:0:
206,377,1440,1,0,0:0:0:0:
206,377,1756,2,0,L|192:175,1,195.00000743866,2|0,0:0|0:0,0:0:0:0:
192,182,3335,6,0,P|244:190|292:174,1,97.50000371933,2|0,0:0|0:0,0:0:0:0:
233,84,3966,1,0,0:0:0:0:
233,84,4282,2,0,P|141:73|59:145,1,195.00000743866,2|0,0:0|0:0,0:0:0:0:
23,232,5230,2,0,P|75:240|123:224,1,97.50000371933,2|0,0:0|0:0,0:0:0:0:
211,277,5861,6,0,P|263:271|312:286,1,97.50000371933,2|0,0:0|0:0,0:0:0:0:
368,354,6492,1,0,0:0:0:0:
368,354,6808,2,0,L|354:152,1,195.00000743866,2|0,0:0|0:0,0:0:0:0:
392,58,7756,1,2,0:0:0:0:
461,139,8072,1,0,0:0:0:0:
354,159,8387,6,0,P|307:146|259:153,1,97.50000371933,2|0,0:0|0:0,0:0:0:0:
151,161,9019,1,0,0:0:0:0:
151,161,9335,2,0,P|196:73|298:48,1,195.00000743866,2|0,0:0|0:0,0:0:0:0:
389,64,10282,2,0,L|447:57,1,48.750001859665,2|0,0:0|0:0,0:0:0:0:
478,23,10598,1,0,0:0:0:0:
478,23,10756,6,0,L|483:110,1,73.1250027894975,2|0,0:0|0:0,0:0:0:0:
485,123,11072,1,0,0:0:0:0:
466,228,11387,2,0,P|419:215|371:222,1,97.50000371933,2|0,0:0|0:0,0:0:0:0:
270,259,11861,1,0,0:0:0:0:
270,259,12019,2,0,P|223:271|175:264,1,97.50000371933,2|0,0:0|0:0,0:0:0:0:
175,264,12809,2,0,L|117:271,1,48.750001859665,0|2,0:0|0:0,0:0:0:0:
86,305,13125,1,0,0:0:0:0:
86,305,13283,6,0,L|81:218,1,73.1250027894975,2|0,0:0|0:0,0:0:0:0:
79,205,13599,1,0,0:0:0:0:
25,112,13914,2,0,P|71:99|119:106,1,97.50000371933,2|0,0:0|0:0,0:0:0:0:
221,70,14387,1,0,0:0:0:0:
221,70,14545,2,0,P|300:88|360:60,1,146.250005578995,2|0,0:0|0:0,0:0:0:0:
376,56,15335,2,0,L|375:112,1,48.750001859665,0|2,0:0|0:0,0:0:0:0:
459,128,15651,1,0,0:0:0:0:
459,129,15809,6,0,L|459:31,1,97.50000371933,2|0,0:0|0:0,0:0:0:0:
445,230,16756,2,0,L|396:229,1,48.750001859665,0|2,0:0|0:0,0:0:0:0:
374,311,17072,1,0,0:0:0:0:
373,311,17230,2,0,L|470:311,1,97.50000371933,2|0,0:0|0:0,0:0:0:0:
313,360,17861,1,0,0:0:0:0:
313,360,18019,2,0,P|296:302|316:257,1,97.50000371933,2|0,0:0|0:0,0:0:0:0:
307,268,18493,6,0,L|299:189,1,65,6|0,0:0|0:0,0:0:0:0:
384,218,18809,2,0,L|375:138,1,65,2|0,0:0|0:0,0:0:0:0:
460,165,19124,2,0,L|451:85,1,65,2|0,0:0|0:0,0:0:0:0:
376,64,19440,1,2,0:0:0:0:
376,64,19598,1,0,0:0:0:0:
294,40,19756,6,0,L|214:48,1,65,0|2,0:0|0:0,0:0:0:0:
190,122,20072,2,0,L|269:130,1,65,0|2,0:0|0:0,0:0:0:0:
214,203,20387,2,0,L|134:211,1,65,2|2,0:0|0:0,0:0:0:0:
69,179,20703,1,10,0:0:0:0:
69,179,20861,1,8,0:0:0:0:
79,262,21019,6,0,B|121:292|121:292|198:281,1,130,6|0,0:0|0:0,0:0:0:0:
282,268,21492,1,0,0:0:0:0:
282,268,21651,2,0,L|361:276,1,65,2|0,0:0|0:0,0:0:0:0:
398,341,21966,1,2,0:0:0:0:
435,265,22124,1,0,0:0:0:0:
500,211,22282,6,0,B|458:181|458:181|363:194,1,130,2|0,0:0|0:0,0:0:0:0:
297,173,22756,1,2,0:0:0:0:
297,173,22914,2,0,P|319:133|346:115,1,65,0|0,0:0|0:0,0:0:0:0:
289,48,23230,2,0,P|332:35|364:41,1,65,2|0,0:0|0:0,0:0:0:0:
433,17,23545,5,6,0:0:0:0:
504,60,24177,1,2,0:0:0:0:
508,144,24809,6,0,L|492:232,1,65,2|0,0:0|0:0,0:0:0:0:
412,200,25124,2,0,L|428:288,1,65,2|0,0:0|0:0,0:0:0:0:
424,348,25440,1,0,0:0:0:0:
424,348,25598,1,0,0:0:0:0:
348,312,25756,1,0,0:0:0:0:
348,312,25914,1,0,0:0:0:0:
264,316,26072,6,0,P|232:320|192:344,1,65,6|0,0:0|0:0,0:0:0:0:
136,284,26387,1,8,0:0:0:0:
136,284,26545,2,0,L|5:271,1,130,2|2,0:0|0:0,0:0:0:0:
40,192,27019,1,8,0:0:0:0:
40,192,27177,2,0,L|171:205,1,130,2|2,0:0|0:0,0:0:0:0:
200,124,27651,1,8,0:0:0:0:
200,124,27809,2,0,L|69:111,1,130,2|2,0:0|0:0,0:0:0:0:
24,32,28282,1,8,0:0:0:0:
200,32,28598,6,0,L|188:-4,3,32.5,2|0|0|0,0:0|0:0|0:0|0:0,0:0:0:0:
240,24,28914,2,0,P|270:34|296:54,1,65,10|0,0:0|0:0,0:0:0:0:
360,112,29230,2,0,P|329:122|303:142,2,65,10|0|10,0:0|0:0|0:0,0:0:0:0:
436,152,29703,2,0,P|466:141|492:121,2,65,10|10|0,0:0|0:0|0:0,0:0:0:0:
372,208,30177,2,0,B|400:348|400:348|440:284,1,195,14|2,0:0|0:0,0:0:0:0:
472,232,30809,1,2,0:0:0:0:
436,152,30966,6,0,P|411:130|381:118,1,65,2|6,0:0|0:0,0:0:0:0:
300,96,31282,1,0,0:0:0:0:
300,96,31440,1,8,0:0:0:0:
217,128,31598,2,0,P|184:126|154:113,1,65,2|0,0:0|0:0,0:0:0:0:
72,120,31914,2,0,P|39:121|9:134,1,65,2|8,0:0|0:0,0:0:0:0:
16,220,32230,6,0,P|48:218|78:205,1,65,0|2,0:0|0:0,0:0:0:0:
161,212,32546,2,0,P|193:213|223:226,1,65,0|8,0:0|0:0,0:0:0:0:
271,295,32861,2,0,P|259:232|274:169,1,130,2|2,0:0|0:0,0:0:0:0:
344,124,33335,1,8,0:0:0:0:
428,128,33493,1,0,0:0:0:0:
496,180,33651,6,0,P|508:243|493:306,1,130,2|8,0:0|0:0,0:0:0:0:
424,356,34124,1,2,0:0:0:0:
424,356,34282,2,0,P|394:343|361:341,1,65,0|2,0:0|0:0,0:0:0:0:
324,264,34598,2,0,P|298:283|280:310,1,65,8|0,0:0|0:0,0:0:0:0:
204,344,34914,6,0,P|141:359|84:320,1,130,2|8,0:0|0:0,0:0:0:0:
16,280,35387,2,0,P|78:295|136:256,1,130,2|2,0:0|0:0,0:0:0:0:
164,184,35861,1,8,0:0:0:0:
144,100,36019,6,0,P|126:72|100:53,1,65,2|0,0:0|0:0,0:0:0:0:
16,64,36335,1,0,0:0:0:0:
16,64,36493,1,8,0:0:0:0:
36,148,36651,2,0,P|53:175|79:194,1,65,2|0,0:0|0:0,0:0:0:0:
164,184,36966,2,0,P|181:156|207:137,1,65,2|8,0:0|0:0,0:0:0:0:
276,88,37282,6,0,P|293:115|319:134,1,65,0|2,0:0|0:0,0:0:0:0:
404,124,37598,2,0,P|421:96|447:77,1,65,0|8,0:0|0:0,0:0:0:0:
482,155,37914,2,0,P|493:218|479:290,1,130,2|2,0:0|0:0,0:0:0:0:
402,254,38387,1,8,0:0:0:0:
317,245,38545,1,0,0:0:0:0:
233,258,38703,6,0,P|204:243|171:239,1,65,2|0,0:0|0:0,0:0:0:0:
107,184,39019,2,0,P|92:212|88:245,1,65,8|2,0:0|0:0,0:0:0:0:
34,310,39335,2,0,P|62:324|95:328,1,65,0|2,0:0|0:0,0:0:0:0:
161,381,39651,2,0,P|175:352|179:319,1,65,8|0,0:0|0:0,0:0:0:0:
204,239,39966,5,2,0:0:0:0:
204,239,40124,1,10,0:0:0:0:
195,154,40282,2,0,L|107:143,1,65,2|10,0:0|0:0,0:0:0:0:
45,149,40598,1,2,0:0:0:0:
45,149,40756,1,10,0:0:0:0:
54,64,40914,2,0,L|142:53,1,65,10|10,0:0|0:0,0:0:0:0:
199,29,41230,6,0,L|287:40,1,65,2|0,0:0|0:0,0:0:0:0:
311,106,41545,1,8,0:0:0:0:
357,176,41703,2,0,L|445:187,1,65,2|0,0:0|0:0,0:0:0:0:
450,264,42019,1,2,0:0:0:0:
450,264,42177,1,8,0:0:0:0:
397,330,42335,6,0,B|317:319|317:319|276:278,1,130
275,205,42809,1,8,0:0:0:0:
197,205,42966,1,2,0:0:0:0:
143,262,43124,2,0,L|55:251,1,65,0|2,0:0|0:0,0:0:0:0:
18,191,43440,2,0,P|9:144|16:96,1,97.5,10|0,0:0|0:0,0:0:0:0:
29,55,43756,6,0,P|66:48|102:51,1,65,2|0,0:0|0:0,0:0:0:0:
177,61,44072,1,8,0:0:0:0:
223,131,44230,1,2,0:0:0:0:
264,58,44387,2,0,P|301:51|337:54,1,65,0|2,0:0|0:0,0:0:0:0:
390,109,44703,2,0,P|427:116|463:113,1,65,8|0,0:0|0:0,0:0:0:0:
511,51,45019,6,0,B|491:100|491:100|501:189,1,130,2|8,0:0|0:0,0:0:0:0:
442,240,45493,2,0,B|462:191|462:191|452:102,1,130,2|2,0:0|0:0,0:0:0:0:
415,38,45966,1,8,0:0:0:0:
330,35,46124,1,0,0:0:0:0:
249,61,46282,6,0,P|242:98|245:134,1,65,2|0,0:0|0:0,0:0:0:0:
266,206,46598,1,8,0:0:0:0:
327,264,46756,2,0,L|420:247,1,65,2|0,0:0|0:0,0:0:0:0:
469,219,47072,1,2,0:0:0:0:
455,302,47230,2,0,B|444:317|444:317|351:338,1,97.5,8|0,0:0|0:0,0:0:0:0:
326,344,47545,6,0,P|266:331|196:352,1,130,2|8,0:0|0:0,0:0:0:0:
126,307,48019,1,2,0:0:0:0:
42,297,48177,2,0,P|40:264|47:232,1,65,0|2,0:0|0:0,0:0:0:0:
67,150,48493,2,0,P|95:165|119:186,1,65,8|0,0:0|0:0,0:0:0:0:
189,236,48809,6,0,P|219:225|247:208,1,65,2|0,0:0|0:0,0:0:0:0:
279,130,49124,1,8,0:0:0:0:
338,190,49282,2,0,B|390:210|390:210|474:193,1,130,2|2,0:0|0:0,0:0:0:0:
412,126,49756,2,0,L|475:112,1,65,8|0,0:0|0:0,0:0:0:0:
425,43,50072,6,0,L|361:56,1,65,2|10,0:0|0:0,0:0:0:0:
293,107,50387,1,2,0:0:0:0:
293,107,50545,1,2,0:0:0:0:
246,36,50703,2,0,L|182:49,1,65,10|2,0:0|0:0,0:0:0:0:
100,27,51018,1,10,0:0:0:0:
100,27,51176,1,10,0:0:0:0:
24,64,51335,6,0,L|4:126,1,58.4999982147217,2|0,0:0|0:0,0:0:0:0:
76,160,51651,2,0,L|96:222,1,58.4999982147217,0|2,0:0|0:0,0:0:0:0:
138,284,51966,2,0,P|79:295|25:259,2,116.999996429443,8|2|2,0:0|0:0|0:0,0:0:0:0:
277,222,52914,1,2,0:0:0:0:
156,129,53230,1,8,0:0:0:0:
156,129,53545,2,0,L|176:191,1,58.4999982147217,2|0,0:0|0:0,0:0:0:0:
254,148,53861,6,0,L|251:213,1,58.4999982147217,2|0,0:0|0:0,0:0:0:0:
340,201,54177,1,0,0:0:0:0:
340,201,54335,2,0,L|315:261,1,58.4999982147217,10|0,0:0|0:0,0:0:0:0:
403,277,54651,1,0,0:0:0:0:
403,277,54809,2,0,L|359:325,1,58.4999982147217,2|0,0:0|0:0,0:0:0:0:
276,330,55124,2,0,B|232:337|232:337|159:311,2,116.999996429443,2|2|10,0:0|0:0|0:0,0:0:0:0:
317,255,55914,1,0,0:0:0:0:
275,177,56072,1,0,0:0:0:0:
187,165,56230,1,0,0:0:0:0:
187,165,56309,1,0,0:0:0:0:
187,165,56387,6,0,P|155:163|111:169,1,58.4999982147217,6|0,0:0|0:0,0:0:0:0:
40,172,56703,2,0,P|54:200|81:235,1,58.4999982147217,2|0,0:0|0:0,0:0:0:0:
119,295,57019,2,0,P|136:268|153:227,1,58.4999982147217,2|0,0:0|0:0,0:0:0:0:
236,239,57335,1,2,0:0:0:0:
236,239,57493,2,0,P|248:265|264:289,1,58.4999982147217,8|2,0:0|0:0,0:0:0:0:
327,342,57809,2,0,P|343:317|355:291,1,58.4999982147217,8|2,0:0|0:0,0:0:0:0:
433,265,58124,2,0,P|416:240|404:214,1,58.4999982147217,8|2,0:0|0:0,0:0:0:0:
350,151,58440,2,0,P|366:126|378:100,1,58.4999982147217,8|2,0:0|0:0,0:0:0:0:
336,33,58756,1,8,0:0:0:0:
336,33,58914,6,0,P|280:47|201:22,1,116.999996429443,10|2,0:0|0:0,0:0:0:0:
135,28,59387,1,0,0:0:0:0:
135,28,59545,2,0,L|154:107,1,58.4999982147217,8|0,0:0|0:0,0:0:0:0:
60,84,59861,2,0,L|79:163,1,58.4999982147217,10|10,0:0|0:0,0:0:0:0:
174,285,60335,6,0,L|160:228,2,58.4999982147217,10|10|10,0:0|0:0|0:0,0:0:0:0:
113,349,60809,2,0,P|169:336|226:350,1,116.999996429443,0|0,0:0|0:0,0:0:0:0:
459,339,61440,6,0,L|381:329,1,77.999997619629,6|0,0:0|0:0,0:0:0:0:
308,258,61756,2,0,L|386:248,1,77.999997619629,2|0,0:0|0:0,0:0:0:0:
458,177,62072,2,0,L|380:167,1,77.999997619629,2|0,0:0|0:0,0:0:0:0:
293,115,62387,1,2,0:0:0:0:
293,115,62545,1,0,0:0:0:0:
197,80,62703,6,0,P|158:76|120:86,1,77.999997619629,6|0,0:0|0:0,0:0:0:0:
53,162,63019,2,0,P|91:158|129:168,1,77.999997619629,2|0,0:0|0:0,0:0:0:0:
193,247,63335,2,0,P|154:243|116:253,1,77.999997619629,2|0,0:0|0:0,0:0:0:0:
49,329,63651,2,0,P|87:325|125:335,1,77.999997619629,2|0,0:0|0:0,0:0:0:0:
225,348,63966,6,0,L|316:340,1,77.999997619629,6|0,0:0|0:0,0:0:0:0:
391,291,64282,1,2,0:0:0:0:
391,291,64440,1,0,0:0:0:0:
304,237,64598,2,0,L|213:229,1,77.999997619629,6|0,0:0|0:0,0:0:0:0:
133,186,64914,1,2,0:0:0:0:
133,186,65072,1,0,0:0:0:0:
218,131,65230,6,0,P|221:92|211:54,1,77.999997619629,6|0,0:0|0:0,0:0:0:0:
126,109,65545,2,0,P|122:147|132:185,1,77.999997619629,2|0,0:0|0:0,0:0:0:0:
43,235,65861,2,0,P|46:196|36:158,1,77.999997619629,2|0,0:0|0:0,0:0:0:0:
34,56,66177,1,2,0:0:0:0:
34,56,66335,1,0,0:0:0:0:
127,15,66493,6,0,L|218:7,1,77.999997619629,6|0,0:0|0:0,0:0:0:0:
289,65,66809,1,2,0:0:0:0:
289,65,66967,1,0,0:0:0:0:
196,106,67125,2,0,L|105:114,1,77.999997619629,2|0,0:0|0:0,0:0:0:0:
28,160,67440,1,2,0:0:0:0:
28,160,67598,1,0,0:0:0:0:
114,213,67756,6,0,P|110:252|120:290,1,77.999997619629,6|0,0:0|0:0,0:0:0:0:
196,357,68072,2,0,P|192:319|202:281,1,77.999997619629,2|0,0:0|0:0,0:0:0:0:
281,217,68388,2,0,P|277:256|287:294,1,77.999997619629,2|0,0:0|0:0,0:0:0:0:
363,361,68703,2,0,P|359:323|369:285,1,77.999997619629,2|0,0:0|0:0,0:0:0:0:
402,188,69019,6,0,P|439:197|478:194,1,77.999997619629,6|0,0:0|0:0,0:0:0:0:
446,96,69335,1,2,0:0:0:0:
446,96,69493,1,0,0:0:0:0:
349,64,69651,2,0,P|311:54|272:57,1,77.999997619629,6|0,0:0|0:0,0:0:0:0:
188,113,69966,1,2,0:0:0:0:
188,113,70124,1,0,0:0:0:0:
126,193,70282,6,0,P|116:230|119:269,1,77.999997619629,6|8,0:0|0:0,0:0:0:0:
209,318,70598,2,0,P|218:280|215:241,1,77.999997619629,2|8,0:0|0:0,0:0:0:0:
221,140,70914,2,8,L|267:145,3,38.9999988098145,8|8|8|8,0:0|0:0|0:0|0:0,0:0:0:0:
309,130,71230,2,8,L|355:135,3,38.9999988098145,8|8|8|8,0:0|0:0|0:0|0:0,0:0:0:0:
382,97,71545,6,0,L|373:193,1,77.999997619629,6|0,0:0|0:0,0:0:0:0:
468,134,71861,2,0,L|477:230,1,77.999997619629,8|2,0:0|0:0,0:0:0:0:
391,269,72177,1,0,0:0:0:0:
391,269,72335,1,2,0:0:0:0:
297,230,72493,2,0,P|260:220|221:223,1,77.999997619629,8|0,0:0|0:0,0:0:0:0:
154,300,72809,5,2,0:0:0:0:
154,300,72967,1,0,0:0:0:0:
248,339,73125,2,0,P|285:349|324:346,1,77.999997619629,8|2,0:0|0:0,0:0:0:0:
391,269,73440,1,0,0:0:0:0:
391,269,73598,1,2,0:0:0:0:
426,173,73756,1,8,0:0:0:0:
426,173,73914,6,0,L|417:68,1,77.999997619629,0|2,0:0|0:0,0:0:0:0:
339,32,74230,1,0,0:0:0:0:
339,32,74387,1,8,0:0:0:0:
304,128,74546,2,0,L|313:233,1,77.999997619629,2|0,0:0|0:0,0:0:0:0:
285,304,74861,1,2,0:0:0:0:
285,304,75018,1,8,0:0:0:0:
199,359,75177,1,0,0:0:0:0:
199,359,75335,6,0,L|105:351,1,77.999997619629,2|0,0:0|0:0,0:0:0:0:
192,279,75651,2,0,L|98:271,1,77.999997619629,8|2,0:0|0:0,0:0:0:0:
50,193,75966,2,0,L|144:185,1,77.999997619629,0|2,0:0|0:0,0:0:0:0:
55,114,76282,2,0,L|149:106,1,77.999997619629,8|8,0:0|0:0,0:0:0:0:
200,31,76598,6,0,P|237:21|276:24,1,77.999997619629,2|0,0:0|0:0,0:0:0:0:
292,124,76914,2,0,P|329:134|368:131,1,77.999997619629,8|2,0:0|0:0,0:0:0:0:
459,84,77230,1,0,0:0:0:0:
459,84,77387,1,2,0:0:0:0:
459,84,77545,2,0,P|469:121|466:160,1,77.999997619629,8|0,0:0|0:0,0:0:0:0:
477,261,77861,6,0,P|440:251|401:254,1,77.999997619629,2|0,0:0|0:0,0:0:0:0:
385,354,78177,2,0,P|348:364|309:361,1,77.999997619629,8|2,0:0|0:0,0:0:0:0:
235,289,78493,1,0,0:0:0:0:
235,289,78651,1,2,0:0:0:0:
142,331,78809,1,8,0:0:0:0:
142,331,78966,1,0,0:0:0:0:
50,287,79124,6,0,P|40:250|43:211,1,77.999997619629,6|0,0:0|0:0,0:0:0:0:
140,242,79440,2,0,P|143:203|133:165,1,77.999997619629,8|2,0:0|0:0,0:0:0:0:
45,112,79756,2,2,L|19:50,2,51.999998413086
108,66,80072,2,2,L|104:-2,2,51.999998413086
184,52,80387,6,2,L|203:-12,2,51.999998413086
262,60,80703,2,2,L|302:6,2,51.999998413086
344,104,81019,1,2,0:0:0:0:
344,104,81177,1,8,0:0:0:0:
344,104,81335,2,0,L|444:88,1,77.999997619629,2|10,0:0|0:0,0:0:0:0:
492,155,81651,5,4,0:0:0:0:
492,155,81809,2,0,L|338:184,1,155.999995239258,2|2,0:0|0:0,0:0:0:0:
407,247,82282,2,0,L|484:234,1,77.999997619629,8|0,0:0|0:0,0:0:0:0:
448,322,82598,1,0,0:0:0:0:
448,322,82756,6,0,B|362:334|362:334|293:291,1,155.999995239258,2|2,0:0|0:0,0:0:0:0:
172,196,83387,1,2,0:0:0:0:
172,196,83545,2,0,B|258:184|258:184|327:227,1,155.999995239258,8|0,0:0|0:0,0:0:0:0:
145,297,84177,5,8,0:0:0:0:
145,297,84335,1,8,0:0:0:0:
65,144,84809,5,8,0:0:0:0:
65,144,84967,1,8,0:0:0:0:
227,85,85440,5,8,0:0:0:0:
226,85,85598,2,0,P|298:59|368:89,1,155.999995239258,8|2,0:0|0:0,0:0:0:0:
459,114,86072,6,0,L|444:12,1,77.999997619629,8|0,0:0|0:0,0:0:0:0:
368,89,86387,2,0,L|356:166,1,77.999997619629,12|0,0:0|0:0,0:0:0:0:
348,260,86703,6,0,P|389:250|426:257,1,77.999997619629,6|0,0:0|0:0,0:0:0:0:
388,343,87019,1,8,0:0:0:0:
388,343,87177,2,0,L|217:340,1,155.999995239258,2|2,0:0|0:0,0:0:0:0:
188,256,87651,1,8,0:0:0:0:
97,278,87809,2,0,P|87:319|94:356,2,77.999997619629,2|8|2,0:0|0:0|0:0,0:0:0:0:
117,170,88282,1,4,0:0:0:0:
256,192,88361,12,0,89151,0:0:0:0:
