osu file format v14

[General]
AudioFilename: audio.mp3
AudioLeadIn: 0
PreviewTime: 51335
Countdown: 0
SampleSet: Soft
StackLeniency: 0.7
Mode: 0
LetterboxInBreaks: 0
WidescreenStoryboard: 0

[Editor]
Bookmarks: 18493,31124,51335,79124
DistanceSpacing: 1
BeatDivisor: 4
GridSize: 4
TimelineZoom: 1.6

[Metadata]
Title:Itteki no Eikyou (short ver.)
TitleUnicode:一滴の影響 (short ver.)
Artist:UVERworld
ArtistUnicode:UVERworld
Creator:kanor
Version:Easy
Source:青の祓魔師 京都不浄王篇
Tags:opening blue ao no exorcist [_Abhor_]
BeatmapID:1215257
BeatmapSetID:566434

[Difficulty]
HPDrainRate:3
CircleSize:3
OverallDifficulty:3
ApproachRate:4
SliderMultiplier:0.9
SliderTickRate:1

[Events]
//Background and Video events
Video,0,"video.avi"
0,0,"BG.jpg",0,0
//Break Periods
//Storyboard Layer 0 (Background)
//Storyboard Layer 1 (Fail)
//Storyboard Layer 2 (Pass)
//Storyboard Layer 3 (Foreground)
//Storyboard Sound Samples

[TimingPoints]
809,315.789473684211,4,2,0,30,1,0
809,-133.333333333333,4,2,0,30,0,0
18493,-100,4,2,2,60,0,0
51335,-100,4,2,3,40,0,0
56387,-100,4,2,2,50,0,0
61440,-100,4,2,2,60,0,1
86703,-100,4,2,2,60,0,0
89072,-100,4,2,2,25,0,0

[Colours]
Combo1 : 192,64,192
Combo2 : 255,64,64
Combo3 : 255,128,64
Combo4 : 255,255,96
Combo5 : 96,255,64
Combo6 : 0,128,255

[HitObjects]
84,344,809,6,0,P|101:268|82:214,1,135.000005149842,4|0,0:0|0:0,0:0:0:0:
28,156,1756,2,0,P|133:171|218:133,1,202.500007724762,0|2,0:0|0:0,0:0:0:0:
341,28,3335,6,0,P|403:7|463:36,1,135.000005149842,2|0,0:0|0:0,0:0:0:0:
491,111,4282,2,0,P|507:197|448:306,1,202.500007724762,0|2,0:0|0:0,0:0:0:0:
347,180,5861,6,0,L|352:105,2,67.5000025749208,2|0|0,0:0|0:0|0:0,0:0:0:0:
266,177,6809,2,0,P|205:156|130:173,1,135.000005149842,2|0,0:0|0:0,0:0:0:0:
77,223,7756,2,0,P|66:263|71:292,1,67.5000025749208,2|0,0:0|0:0,0:0:0:0:
117,352,8387,6,0,L|208:351,2,67.5000025749208,2|0|0,0:0|0:0|0:0,0:0:0:0:
69,288,9335,2,0,P|70:220|57:143,1,135.000005149842,2|0,0:0|0:0,0:0:0:0:
38,76,10282,2,0,P|95:94|151:82,1,101.250003862381,2|2,0:0|0:0,0:0:0:0:
209,57,11072,5,0,0:0:0:0:
284,84,11387,2,0,P|279:135|294:175,2,67.5000025749208,2|0|2,0:0|0:0|0:0,0:0:0:0:
408,280,12966,1,0,0:0:0:0:
355,341,13282,6,0,P|304:346|267:337,1,67.5000025749208,2|0,0:0|0:0,0:0:0:0:
211,319,13914,2,0,P|160:314|122:329,2,67.5000025749208,2|0|2,0:0|0:0|0:0,0:0:0:0:
48,144,15493,1,0,0:0:0:0:
101,84,15809,6,0,P|143:70|180:77,1,67.5000025749208,2|0,0:0|0:0,0:0:0:0:
365,49,16914,1,2,0:0:0:0:
396,122,17230,2,0,P|409:164|402:201,1,67.5000025749208,2|0,0:0|0:0,0:0:0:0:
377,261,17861,2,0,P|363:303|370:340,1,67.5000025749208,0|0,0:0|0:0,0:0:0:0:
256,192,18493,12,6,19756,0:0:0:0:
412,77,21019,6,0,B|405:144|405:144|436:174|436:174|428:254,1,180,6|2,0:0|0:0,0:0:0:0:
355,295,21966,1,2,0:0:0:0:
278,249,22282,2,0,P|235:237|178:247,1,90,2|0,0:0|0:0,0:0:0:0:
129,308,22914,2,0,P|107:274|108:213,1,90,0|2,0:0|0:0,0:0:0:0:
256,192,23545,12,6,24809,0:0:0:0:
346,326,26072,5,6,0:0:0:0:
444,233,26545,2,0,L|448:136,1,90,2|2,0:0|0:0,0:0:0:0:
384,78,27177,2,0,P|340:85|290:71,1,90,2|2,0:0|0:0,0:0:0:0:
216,32,27809,2,0,P|172:25|122:39,1,90,2|2,0:0|0:0,0:0:0:0:
27,125,28598,5,2,0:0:0:0:
31,260,29072,2,0,P|119:255|188:315,1,180,8|10,0:0|0:0,0:0:0:0:
201,177,30177,2,0,P|268:233|356:228,1,180,14|2,0:0|0:0,0:0:0:0:
368,139,31124,6,0,B|457:151|457:151|501:122,2,135,6|2|8,0:0|0:0|0:0,0:0:0:0:
296,85,32387,2,0,P|248:95|195:80,1,90,2|8,0:0|0:0,0:0:0:0:
120,67,33019,2,0,P|72:57|19:72,1,90,2|8,0:0|0:0,0:0:0:0:
73,145,33651,6,0,B|61:234|61:234|90:278,2,135,2|2|8,0:0|0:0|0:0,0:0:0:0:
150,191,34914,2,0,P|193:199|237:189,1,90,2|8,0:0|0:0,0:0:0:0:
304,127,35545,2,0,P|347:118|391:128,1,90,0|8,0:0|0:0,0:0:0:0:
471,169,36177,6,0,B|483:80|483:80|454:36,2,135,0|2|8,0:0|0:0|0:0,0:0:0:0:
454,257,37440,2,0,P|464:300|455:344,1,90,2|8,0:0|0:0,0:0:0:0:
365,344,38072,2,0,P|356:300|366:256,1,90,2|8,0:0|0:0,0:0:0:0:
384,168,38703,6,0,P|340:159|296:169,1,90,2|8,0:0|0:0,0:0:0:0:
215,130,39335,2,0,P|171:121|127:131,1,90,0|8,0:0|0:0,0:0:0:0:
53,182,39966,2,0,P|44:226|54:270,1,90,2|2,0:0|0:0,0:0:0:0:
122,328,40598,2,0,P|166:337|210:327,1,90,2|10,0:0|0:0,0:0:0:0:
297,309,41230,6,0,B|341:325|341:325|444:316,2,135,2|2|8,0:0|0:0|0:0,0:0:0:0:
353,238,42493,2,0,L|455:230,1,90,2|8,0:0|0:0,0:0:0:0:
463,143,43124,2,0,L|361:151,1,90,0|8,0:0|0:0,0:0:0:0:
319,77,43756,6,0,B|275:61|275:61|172:70,2,135,2|2|8,0:0|0:0|0:0,0:0:0:0:
265,149,45019,2,0,L|163:157,1,90,2|8,0:0|0:0,0:0:0:0:
164,245,45650,2,0,L|253:237,1,90,0|8,0:0|0:0,0:0:0:0:
331,191,46282,6,0,P|396:174|463:205,2,135,2|2|8,0:0|0:0|0:0,0:0:0:0:
253,237,47545,2,0,P|243:193|252:149,1,90,2|8,0:0|0:0,0:0:0:0:
161,151,48177,2,0,P|174:108|204:74,1,90,0|8,0:0|0:0,0:0:0:0:
283,31,48809,6,0,P|348:14|415:45,2,135,2|2|8,0:0|0:0|0:0,0:0:0:0:
204,74,50072,2,0,P|159:71|119:50,1,90,2|2,0:0|0:0,0:0:0:0:
32,71,50703,2,0,P|52:110|53:155,1,90,10|10,0:0|0:0,0:0:0:0:
120,216,51335,6,0,P|203:190|293:219,1,180,2|8,0:0|0:0,0:0:0:0:
372,181,52282,1,2,0:0:0:0:
461,175,52598,2,0,B|466:221|424:254|424:254|431:353,1,180,2|8,0:0|0:0,0:0:0:0:
346,309,53545,1,2,0:0:0:0:
257,328,53861,6,0,B|214:311|170:332|170:332|125:310,2,135,2|10|2,0:0|0:0|0:0,0:0:0:0:
279,240,55124,2,0,P|285:196|268:155,2,90,2|2|10,0:0|0:0|0:0,0:0:0:0:
194,208,56072,1,0,0:0:0:0:
179,119,56387,6,0,P|204:80|247:58,1,90,6|2,0:0|0:0,0:0:0:0:
332,53,57019,2,0,P|417:72|461:37,1,135,2|10,0:0|0:0,0:0:0:0:
489,130,57809,2,8,L|483:221,1,90,10|10,0:0|0:0,0:0:0:0:
395,198,58440,2,8,L|389:289,1,90,10|10,0:0|0:0,0:0:0:0:
383,332,58914,6,0,P|340:317|297:328,1,90,10|2,0:0|0:0,0:0:0:0:
211,352,59545,2,0,P|167:364|119:351,1,90,10|10,0:0|0:0,0:0:0:0:
88,327,60019,2,0,L|96:183,1,135,10|10,0:0|0:0,0:0:0:0:
157,126,60809,2,0,P|204:113|247:131,1,90
319,91,61440,6,0,P|309:47|318:3,1,90,6|2,0:0|0:0,0:0:0:0:
396,48,62072,2,0,P|405:91|396:135,1,90,2|2,0:0|0:0,0:0:0:0:
373,222,62703,2,0,L|478:211,1,90,6|0,0:0|0:0,0:0:0:0:
444,301,63335,2,0,L|339:312,1,90,2|2,0:0|0:0,0:0:0:0:
284,253,63966,6,0,P|240:243|191:255,1,90,6|2,0:0|0:0,0:0:0:0:
137,321,64598,2,0,P|93:330|44:319,1,90,6|2,0:0|0:0,0:0:0:0:
32,232,65230,2,0,L|28:126,2,90,6|2|2,0:0|0:0|0:0,0:0:0:0:
119,210,66177,1,2,0:0:0:0:
207,191,66493,6,0,L|203:85,2,90,6|2|2,0:0|0:0|0:0,0:0:0:0:
295,174,67440,1,2,0:0:0:0:
353,105,67756,2,0,P|379:140|382:184,1,90,6|2,0:0|0:0,0:0:0:0:
466,155,68387,2,0,P|471:199|451:243,1,90,2|2,0:0|0:0,0:0:0:0:
484,324,69019,6,0,L|394:318,1,90,6|2,0:0|0:0,0:0:0:0:
366,232,69651,2,0,L|262:226,1,90,6|2,0:0|0:0,0:0:0:0:
263,316,70282,2,0,L|159:310,1,90,4|0,0:0|0:0,0:0:0:0:
83,325,70914,1,8,0:0:0:0:
29,252,71230,1,8,0:0:0:0:
26,167,71545,6,0,P|68:156|126:167,1,90,6|8,0:0|0:0,0:0:0:0:
187,109,72177,2,0,P|229:120|287:109,1,90,0|8,0:0|0:0,0:0:0:0:
348,62,72809,2,0,P|390:51|448:62,2,90,2|8|0,0:0|0:0|0:0,0:0:0:0:
395,138,73756,1,8,0:0:0:0:
474,181,74072,6,0,L|473:274,1,90,2|8,0:0|0:0,0:0:0:0:
393,313,74703,2,0,L|392:223,1,90,0|8,0:0|0:0,0:0:0:0:
312,265,75335,2,0,L|311:358,2,90,2|8|0,0:0|0:0|0:0,0:0:0:0:
257,193,76282,1,8,0:0:0:0:
167,200,76598,6,0,B|121:210|121:210|74:198,2,90,2|8|0,0:0|0:0|0:0,0:0:0:0:
199,115,77545,1,8,0:0:0:0:
288,102,77861,2,0,B|334:92|334:92|381:104,1,90,2|8,0:0|0:0,0:0:0:0:
465,109,78493,2,0,B|450:153|450:153|416:188,1,90,0|8,0:0|0:0,0:0:0:0:
369,258,79124,6,0,B|337:223|337:223|324:176,1,90,6|8,0:0|0:0,0:0:0:0:
288,102,79756,2,0,B|242:118|200:98|200:98|151:71|109:93,2,180,0|0|2,0:0|0:0|0:0,0:0:0:0:
371,68,81335,1,2,0:0:0:0:
375,157,81651,6,0,P|445:158|496:203,2,135,4|2|0,0:0|0:0|0:0,0:0:0:0:
337,182,82756,2,0,L|339:278,1,90,2|2,0:0|0:0,0:0:0:0:
227,348,83545,2,0,L|225:252,1,90,8|0,0:0|0:0,0:0:0:0:
136,239,84177,6,0,L|84:240,1,45,8|8,0:0|0:0,0:0:0:0:
31,118,84809,2,0,L|75:117,1,45,8|8,0:0|0:0,0:0:0:0:
186,38,85440,2,0,L|230:37,1,45,8|8,0:0|0:0,0:0:0:0:
366,30,86072,2,0,L|364:126,1,90,8|12,0:0|0:0,0:0:0:0:
347,208,86703,6,0,B|436:220|436:220|480:191,2,135,6|2|8,0:0|0:0|0:0,0:0:0:0:
257,200,87966,1,8,0:0:0:0:
165,193,88282,2,0,B|180:259|180:259|170:341|170:341|122:315|60:345,1,247.5,8|0,0:0|0:0,0:0:0:0:
