osu file format v14

[General]
AudioFilename: audio.mp3
AudioLeadIn: 0
PreviewTime: 60629
Countdown: 1
SampleSet: Soft
StackLeniency: 0.7
Mode: 0
LetterboxInBreaks: 0
WidescreenStoryboard: 0

[Editor]
Bookmarks: 31023,36076,41129,46181,51234,56286,61339,66392,71444,76497,79023,81550,86602,88181
DistanceSpacing: 1.4
BeatDivisor: 4
GridSize: 4
TimelineZoom: 1.7

[Metadata]
Title:Itteki no Eikyou (short ver.)
TitleUnicode:一滴の影響 (short ver.)
Artist:UVERworld
ArtistUnicode:UVERworld
Creator:Mao
Version:Insane
Source:青の祓魔師 京都不浄王篇
Tags:Blue Ao no Exorcist Desperate-kun Yuii- Takuya
BeatmapID:1203968
BeatmapSetID:568110

[Difficulty]
HPDrainRate:7
CircleSize:4.2
OverallDifficulty:8
ApproachRate:8.7
SliderMultiplier:1.85
SliderTickRate:1

[Events]
//Background and Video events
Video,0,"video.avi"
0,0,"bg.jpg",0,0
//Break Periods
//Storyboard Layer 0 (Background)
//Storyboard Layer 1 (Fail)
//Storyboard Layer 2 (Pass)
//Storyboard Layer 3 (Foreground)
//Storyboard Sound Samples

[TimingPoints]
708,315.789473684211,4,2,0,40,1,0
708,-133.333333333333,4,2,0,40,0,0
18392,-125,4,2,0,60,0,0
24076,-114.942528735632,4,2,0,60,0,0
24708,-105.263157894737,4,2,0,60,0,0
25971,-100,4,2,0,70,0,0
30076,-133.333333333333,4,2,0,70,0,0
30550,-100,4,2,0,70,0,0
51234,-125,4,3,0,60,0,0
56286,-100,4,2,0,70,0,0
57392,-90.9090909090909,4,2,0,70,0,0
58813,-100,4,2,0,70,0,0
61339,-100,4,2,0,80,0,1
71365,-100,4,2,0,80,0,0
71444,-86.9565217391304,4,2,0,80,0,1
81550,-125,4,2,0,70,0,0
84076,-111.111111111111,4,2,0,70,0,0
86602,-100,4,2,0,70,0,0
88181,-200,4,2,0,50,0,0
88971,-200,4,2,0,5,0,0

[Colours]
Combo1 : 175,113,227
Combo2 : 158,167,207
Combo3 : 185,190,173
Combo4 : 135,194,183
Combo5 : 146,146,146
Combo6 : 111,111,255
Combo7 : 255,255,79
Combo8 : 255,68,47
SliderBorder : 180,180,250
SliderTrackOverride : 30,30,30

[HitObjects]
42,142,708,6,0,L|21:75,1,69.3750026464463,4|0,3:0|2:0,0:0:0:0:
133,98,1023,2,0,L|165:36,1,69.3750026464463,0|0,0:0|2:0,0:0:0:0:
228,131,1339,2,0,L|294:110,1,69.3750026464463,2|0,0:0|2:0,0:0:0:0:
436,30,1655,2,0,P|388:80|482:238,1,277.500010585785,2|0,0:0|0:0,0:0:0:0:
163,361,3076,5,0,0:0:0:0:
163,361,3234,2,0,P|124:349|80:352,1,69.3750026464463,2|0,0:0|0:0,0:0:0:0:
69,244,3550,2,0,P|50:208|17:179,1,69.3750026464463
87,99,3865,2,0,P|99:60|96:16,1,69.3750026464463,2|0,0:0|0:0,0:0:0:0:
235,95,4181,2,0,P|166:201|206:285,1,208.125007939339,2|0,0:0|0:0,0:0:0:0:
258,338,4813,2,0,L|409:316,1,138.750005292893,2|0,0:0|0:0,0:0:0:0:
487,9,5760,6,0,P|462:41|460:76,1,69.3750026464463,2|0,0:0|0:0,0:0:0:0:
352,65,6076,2,0,P|356:105|380:131,1,69.3750026464463
296,200,6392,2,0,P|328:225|362:227,1,69.3750026464463,2|0,0:0|0:0,0:0:0:0:
287,363,6708,2,0,P|264:322|52:332,1,277.500010585785,2|0,0:0|0:0,0:0:0:0:
13,52,7655,6,0,L|18:121,1,69.3750026464463,2|0,0:0|0:0,0:0:0:0:
118,174,7971,2,0,L|123:104,1,69.3750026464463
264,32,8286,70,0,P|299:27|338:46,1,69.3750026464463,2|0,0:0|0:0,0:0:0:0:
472,98,8602,2,0,P|438:92|406:105,1,69.3750026464463
344,206,8918,2,0,L|358:354,1,138.750005292893,2|0,0:0|0:0,0:0:0:0:
221,289,9392,1,2,0:0:0:0:
221,289,9471,1,0,0:0:0:0:
221,289,9550,2,0,L|234:150,1,138.750005292893
21,321,10181,21,2,0:0:0:0:
190,360,10339,1,0,0:0:0:0:
129,226,10497,1,0,0:0:0:0:
109,376,10655,6,0,B|105:289,1,69.3750026464463,2|0,0:0|0:0,0:0:0:0:
230,221,10971,2,0,B|226:290,1,69.3750026464463
130,206,11286,2,0,P|119:162|147:65,1,138.750005292893,2|0,0:0|0:0,0:0:0:0:
217,15,11760,1,0,0:0:0:0:
339,116,11918,2,0,L|331:260,1,138.750005292893,2|0,0:0|0:0,0:0:0:0:
29,344,12708,70,0,B|98:347,1,69.3750026464463,2|0,0:0|0:0,0:0:0:0:
210,351,13023,1,0,0:0:0:0:
162,190,13181,6,0,B|158:259,1,69.3750026464463,2|0,0:0|0:0,0:0:0:0:
79,138,13497,2,0,B|75:68,1,69.3750026464463
254,80,13813,2,0,P|269:128|242:226,1,138.750005292893,2|0,0:0|0:0,0:0:0:0:
167,261,14286,1,0,0:0:0:0:
258,356,14444,2,0,L|412:341,1,138.750005292893,2|0,0:0|0:0,0:0:0:0:
452,31,15234,6,0,L|458:100,1,69.3750026464463,2|0,0:0|0:0,0:0:0:0:
470,202,15550,1,0,0:0:0:0:
308,168,15708,6,0,L|377:161,1,69.3750026464463,2|0,0:0|0:0,0:0:0:0:
346,296,16023,2,0,P|289:295|199:304,1,138.750005292893,2|0,0:0|0:0,0:0:0:0:
18,54,16655,69,2,0:0:0:0:
95,113,16813,1,0,0:0:0:0:
162,42,16971,1,0,0:0:0:0:
162,42,17050,1,0,0:0:0:0:
162,42,17129,2,0,P|214:25|303:43,1,138.750005292893,2|0,0:0|0:0,0:0:0:0:
467,202,17760,6,0,L|453:325,1,104.06250396967,2|0,0:0|0:0,0:0:0:0:
453,321,18076,1,8,3:3:0:0:
303,370,18234,1,4,0:3:0:0:
303,370,18313,1,4,0:3:0:0:
303,370,18392,6,0,P|280:337|177:312,1,148,4|0,1:2|1:0,0:0:0:0:
86,357,18865,1,0,0:0:0:0:
18,173,19023,1,4,0:3:0:0:
18,173,19181,1,4,0:3:0:0:
197,195,19339,1,2,0:0:0:0:
197,195,19497,1,4,0:3:0:0:
129,21,19655,5,4,0:3:0:0:
104,217,19813,1,0,1:0:0:0:
104,217,19892,1,0,0:0:0:0:
104,217,19971,1,4,0:3:0:0:
286,138,20129,1,2,0:0:0:0:
68,104,20286,5,4,0:0:0:0:
206,197,20444,1,0,0:0:0:0:
251,30,20602,5,4,3:0:0:0:
291,149,20760,1,0,0:0:0:0:
422,39,20918,6,0,L|428:194,1,148,4|0,1:0|0:0,0:0:0:0:
438,354,21392,1,4,0:3:0:0:
429,199,21550,2,0,L|432:272,1,74,0|0,1:0|0:0,0:0:0:0:
268,375,21865,2,0,P|249:329|253:280,1,74,4|0,0:0|0:0,0:0:0:0:
295,80,22181,6,0,L|276:165,1,74,2|0,0:2|1:0,0:0:0:0:
276,163,22418,1,0,0:0:0:0:
274,173,22497,1,4,3:0:0:0:
248,305,22655,1,0,0:0:0:0:
164,98,22813,2,0,L|183:13,1,74,0|0,1:0|0:0,0:0:0:0:
132,228,23129,1,4,3:0:0:0:
41,31,23286,1,0,0:0:0:0:
39,41,23365,1,0,0:0:0:0:
37,52,23444,6,0,B|23:97|54:132|54:132|44:151|44:151|116:160|131:221,1,222,4|0,1:0|0:0,0:0:0:0:
222,372,24076,6,0,B|207:324|240:287|240:287|229:267|229:267|305:257|321:193,1,241.425002026119,4|0,3:0|0:0,0:0:0:0:
407,24,24708,6,0,B|421:65|421:65|407:111,1,87.8749976534844,4|0,3:0|0:0,0:0:0:0:
214,153,25023,2,0,B|200:112|200:112|214:66,1,87.8749976534844,4|0,3:0|0:0,0:0:0:0:
321,192,25339,1,4,3:0:0:0:
321,192,25497,1,4,3:0:0:0:
101,237,25655,1,4,3:0:0:0:
79,233,25734,1,0,0:0:0:0:
57,229,25813,1,4,0:3:0:0:
35,226,25892,1,0,0:0:0:0:
13,223,25971,21,4,1:0:0:0:
76,132,26129,1,4,3:0:0:0:
195,263,26286,1,0,1:0:0:0:
238,70,26444,2,2,B|235:135|235:135|199:177|199:177|197:242,1,185,4|4,0:0|3:0,0:0:0:0:
343,178,26918,1,0,1:0:0:0:
300,371,27076,2,2,B|302:305|302:305|338:263|338:263|340:198,1,185,4|4,0:0|3:3,0:0:0:0:
458,302,27550,1,0,1:0:0:0:
501,109,27708,2,2,B|498:174|498:174|462:216|462:216|460:281,1,185,4|4,0:0|3:3,0:0:0:0:
309,374,28181,2,0,L|313:276,1,92.5,0|0,1:0|0:0,0:0:0:0:
293,55,28497,5,4,1:2:0:0:
315,210,28655,1,0,1:0:0:0:
314,234,28734,1,0,1:0:0:0:
313,258,28813,1,0,1:0:0:0:
289,36,28971,5,4,1:0:0:0:
161,248,29129,1,0,1:0:0:0:
390,150,29286,1,4,0:3:0:0:
145,93,29444,1,4,0:3:0:0:
312,281,29602,2,0,L|316:179,1,92.5,4|4,0:0|0:3,0:0:0:0:
242,113,29918,1,0,0:0:0:0:
51,160,30076,6,2,B|45:212|45:212|62:237|62:237|56:294,1,138.750005292893,4|0,1:0|0:0,0:0:0:0:
176,384,30550,1,0,1:0:0:0:
172,361,30629,1,0,0:0:0:0:
168,338,30708,2,0,L|173:275,3,46.25,0|0|0|0,1:0|0:0|0:0|0:0,0:0:0:0:
177,178,31023,5,4,1:0:0:0:
293,283,31181,1,0,0:0:0:0:
444,234,31339,1,0,1:0:0:0:
334,97,31497,2,0,L|347:192,1,92.5,4|0,3:0|0:0,0:0:0:0:
378,375,31813,1,4,3:0:0:0:
350,209,31971,1,0,1:0:0:0:
263,346,32129,6,0,P|213:340|171:371,1,92.5,4|4,0:0|3:0,0:0:0:0:
24,248,32444,2,0,P|74:254|116:223,1,92.5,2|0,0:0|1:0,0:0:0:0:
231,57,32760,2,0,L|222:161,1,92.5,4|0,3:0|0:0,0:0:0:0:
262,331,33076,1,4,3:0:0:0:
221,168,33234,1,0,1:0:0:0:
403,248,33392,1,2,0:0:0:0:
403,248,33471,1,0,0:0:0:0:
403,248,33550,70,0,P|449:246|488:220,1,92.5,4|0,1:0|0:0,0:0:0:0:
399,24,33865,2,2,L|395:129,1,92.5,0|4,1:0|3:0,0:3:0:0:
395,116,34102,1,0,0:0:0:0:
395,116,34181,1,2,0:0:0:0:
266,251,34339,1,4,3:0:0:0:
275,38,34497,2,2,L|271:143,1,92.5,0|0,1:0|0:0,0:3:0:0:
137,263,34813,6,2,P|93:248|65:213,1,92.5,4|0,3:0|0:0,0:3:0:0:
62,199,35050,1,0,0:0:0:0:
59,185,35129,1,0,1:0:0:0:
291,45,35286,2,2,B|288:110|288:110|252:152|252:152|250:217,1,185,4|4,0:0|3:0,0:3:0:0:
250,230,35681,1,0,0:0:0:0:
250,243,35760,1,0,1:0:0:0:
358,357,35918,1,0,0:0:0:0:
358,357,35997,1,0,0:0:0:0:
358,357,36076,5,4,1:0:0:0:
498,285,36234,1,0,0:0:0:0:
366,198,36392,1,0,1:0:0:0:
496,75,36550,2,0,L|476:170,1,92.5,4|0,3:0|0:0,0:0:0:0:
438,345,36865,1,4,3:0:0:0:
472,181,37023,1,0,1:0:0:0:
335,282,37181,70,0,P|277:304|261:349,1,92.5,4|4,0:0|3:0,0:0:0:0:
57,348,37497,2,0,P|115:326|131:281,1,92.5,2|0,0:0|1:0,0:0:0:0:
224,108,37813,2,0,L|212:214,1,92.5,4|0,3:0|0:0,0:0:0:0:
192,380,38129,1,4,3:0:0:0:
211,216,38286,1,0,1:0:0:0:
50,261,38444,1,0,0:0:0:0:
50,261,38523,1,0,0:0:0:0:
50,261,38602,6,0,P|9:222|5:181,1,92.5,4|0,1:0|0:0,0:0:0:0:
134,22,38918,2,2,L|122:128,1,92.5,0|4,1:0|3:0,0:3:0:0:
123,113,39155,1,0,0:0:0:0:
123,113,39234,1,2,0:0:0:0:
225,254,39392,1,4,3:0:0:0:
245,58,39550,2,2,L|233:164,1,92.5,0|0,1:0|0:0,0:3:0:0:
311,324,39865,6,0,P|345:331|399:304,1,92.5,4|0,3:0|1:0,0:0:0:0:
506,140,40181,2,0,B|459:175|419:143|419:140|419:136|380:104|333:140,1,185,4|0,0:0|1:0,0:0:0:0:
203,255,40655,1,4,3:0:0:0:
203,255,40734,1,0,0:0:0:0:
203,255,40813,1,0,1:0:0:0:
64,116,40971,1,0,1:0:0:0:
64,116,41050,1,0,0:0:0:0:
64,116,41129,70,0,L|73:221,1,92.5,4|0,1:0|0:0,0:0:0:0:
176,341,41444,1,0,1:0:0:0:
250,186,41602,2,0,P|286:179|342:204,1,92.5,4|0,3:0|0:0,0:0:0:0:
392,360,41918,1,4,3:0:0:0:
343,214,42076,1,0,1:0:0:0:
493,246,42234,2,0,L|513:117,1,92.5,2|4,0:0|3:0,0:0:0:0:
424,2,42550,5,2,0:0:0:0:
512,131,42708,1,0,1:0:0:0:
348,131,42865,1,4,3:0:0:0:
348,131,42944,1,0,0:0:0:0:
348,131,43023,2,0,P|298:130|258:108,1,92.5,2|4,0:0|3:0,0:0:0:0:
99,17,43339,2,0,L|77:167,1,138.75,0|0,1:0|0:0,0:0:0:0:
80,173,43655,6,0,P|130:176|164:203,1,92.5,4|0,1:0|0:0,0:0:0:0:
265,370,43971,2,2,L|277:278,1,92.5,0|4,1:0|3:0,0:3:0:0:
278,279,44208,1,0,0:0:0:0:
278,279,44286,1,0,0:0:0:0:
410,171,44444,1,4,3:0:0:0:
381,372,44602,2,2,L|393:280,1,92.5,0|0,1:0|0:0,0:3:0:0:
512,113,44918,6,2,P|488:69|438:47,1,92.5,4|0,3:0|0:0,0:3:0:0:
438,54,45155,1,0,0:0:0:0:
425,59,45234,1,0,1:0:0:0:
298,135,45392,2,2,B|244:158|212:118|213:115|214:111|183:71|129:96,1,185,4|0,0:0|1:0,0:0:0:0:
24,154,45865,1,0,1:0:0:0:
20,176,45944,1,0,0:0:0:0:
16,198,46023,1,0,1:0:0:0:
12,220,46102,1,0,0:0:0:0:
9,242,46181,102,0,L|20:340,1,92.5,4|0,1:0|0:0,0:0:0:0:
180,381,46497,1,0,1:0:0:0:
150,217,46655,2,0,P|166:179|232:155,1,92.5,4|0,3:0|0:0,0:0:0:0:
353,271,46971,1,4,3:0:0:0:
233,157,47129,2,0,L|376:174,1,138.75,0|0,1:0|0:0,0:0:0:0:
394,177,47444,6,0,P|412:135|453:114,1,92.5,4|0,3:0|0:0,0:0:0:0:
438,295,47760,2,0,P|419:336|378:357,1,92.5,0|4,1:0|3:0,0:0:0:0:
364,359,47997,1,0,0:0:0:0:
350,360,48076,1,0,0:0:0:0:
209,273,48234,1,4,3:0:0:0:
73,370,48392,2,0,L|84:226,1,138.75,0|0,1:0|0:0,0:0:0:0:
86,209,48708,6,0,P|36:214|0:186,1,92.5,4|0,3:0|0:0,0:0:0:0:
99,42,49023,2,0,P|149:37|185:65,1,92.5,0|4,1:0|3:0,0:0:0:0:
186,73,49260,1,0,0:0:0:0:
191,85,49339,1,0,0:0:0:0:
249,227,49497,1,4,3:0:0:0:
400,182,49655,2,0,P|417:131|403:79,1,92.5,0|0,1:0|0:0,0:0:0:0:
181,60,49971,5,4,3:0:0:0:
181,60,50129,1,4,1:2:0:0:
311,109,50286,1,4,3:0:0:0:
311,109,50444,1,4,3:0:0:0:
157,208,50602,1,4,1:2:0:0:
157,208,50760,1,4,3:0:0:0:
346,255,50918,1,2,0:0:0:0:
346,255,51076,1,2,0:0:0:0:
199,366,51234,70,0,L|211:273,1,74,4|0,1:0|0:0,0:0:0:0:
82,244,51550,2,0,L|91:317,1,74,8|8,0:0|0:2,0:0:0:0:
181,170,51865,2,0,P|203:119|166:28,1,148,2|4,0:0|0:0,0:0:0:0:
106,106,52339,1,0,0:0:0:0:
288,152,52497,6,0,L|364:142,1,74,4|0,0:0|0:0,0:0:0:0:
417,36,52813,2,0,L|341:26,1,74,2|0,0:0|0:0,0:0:0:0:
283,167,53129,2,0,P|292:213|326:234,1,74,8|0,0:2|0:0,0:0:0:0:
455,284,53444,1,0,0:0:0:0:
455,284,53602,1,8,0:0:0:0:
340,358,53760,6,0,P|296:329|202:330,1,148,4|8,0:0|0:0,0:0:0:0:
86,375,54234,2,0,L|65:226,1,148,8|0,0:2|0:0,0:0:0:0:
182,164,54708,2,0,L|169:255,1,74,8|0,0:0|0:0,0:0:0:0:
58,122,55023,22,0,P|45:89|52:53,1,74,4|0,0:0|0:0,0:0:0:0:
167,53,55339,1,0,0:0:0:0:
167,53,55497,1,2,0:0:0:0:
182,164,55655,2,0,P|188:199|175:233,1,74,8|0,0:2|0:0,0:0:0:0:
121,326,55971,1,0,0:0:0:0:
300,364,56129,1,4,0:0:0:0:
300,364,56208,1,4,0:0:0:0:
300,364,56286,6,0,P|340:342|392:348,1,92.5,4|0,1:0|0:0,0:0:0:0:
511,219,56602,2,0,P|471:241|419:235,1,92.5,4|0,3:0|0:0,0:0:0:0:
449,43,56918,2,0,L|457:145,1,92.5,4|0,3:0|0:0,0:0:0:0:
323,260,57234,1,4,3:0:0:0:
179,111,57392,38,0,P|137:88|73:101,1,101.750003105164,4|0,1:0|0:0,0:0:0:0:
333,273,57708,2,0,P|375:296|439:283,1,101.750003105164,4|0,1:0|0:0,0:0:0:0:
175,269,58023,2,0,P|152:311|165:375,1,101.750003105164,4|0,1:0|0:0,0:0:0:0:
337,115,58339,2,0,P|360:73|347:9,1,101.750003105164,4|0,1:0|0:0,0:0:0:0:
256,192,58655,5,4,0:3:0:0:
256,192,58734,1,4,0:3:0:0:
256,192,58813,2,0,L|268:286,1,92.5,4|0,1:0|0:0,0:0:0:0:
417,357,59129,2,0,L|429:263,1,92.5,4|0,3:0|0:0,0:0:0:0:
453,73,59444,1,4,3:0:0:0:
431,249,59602,2,0,L|444:153,1,92.5,2|4,0:0|3:0,0:0:0:0:
256,127,59918,2,0,L|269:223,1,92.5,4|0,0:0|0:0,0:0:0:0:
293,370,60234,21,8,0:3:0:0:
190,265,60392,1,4,3:0:0:0:
351,187,60550,1,4,3:0:0:0:
199,49,60708,1,4,3:0:0:0:
183,47,61339,70,0,L|85:38,1,92.5,4|0,1:0|0:0,0:0:0:0:
26,137,61655,2,0,L|118:146,1,92.5,4|0,3:0|0:0,0:0:0:0:
231,168,61971,1,4,3:0:0:0:
231,168,62129,1,0,0:0:0:0:
163,255,62286,1,4,3:0:0:0:
272,274,62444,2,0,L|321:276,1,46.25
485,332,62602,6,0,B|419:330|419:330|377:294|377:294|312:291,1,185,4|4,0:0|3:0,0:0:0:0:
449,219,63076,1,0,0:0:0:0:
449,219,63155,1,0,0:0:0:0:
449,219,63234,2,0,P|478:180|474:133,1,92.5,4|0,3:0|0:0,0:0:0:0:
403,41,63550,1,4,3:0:0:0:
306,112,63708,2,0,L|314:164,1,46.25
216,296,63865,38,0,P|230:252|218:208,1,92.5,4|0,1:0|0:0,0:0:0:0:
59,284,64181,2,0,P|48:328|62:371,1,92.5,4|0,3:0|0:0,0:0:0:0:
115,185,64497,2,0,L|103:47,1,138.75,4|0,0:0|0:0,0:0:0:0:
102,22,64813,1,4,3:0:0:0:
236,80,64971,2,0,L|231:126,1,46.25
208,300,65129,70,0,L|219:204,1,92.5,4|0,1:0|0:0,0:0:0:0:
323,245,65444,2,0,L|334:341,1,92.5,4|0,3:0|0:0,0:0:0:0:
445,334,65760,2,0,L|455:242,1,92.5,4|0,3:0|0:0,0:0:0:0:
471,87,66076,1,4,3:0:0:0:
448,92,66155,1,0,0:0:0:0:
426,97,66234,1,0,0:0:0:0:
403,101,66313,1,0,0:0:0:0:
379,105,66392,102,0,P|338:68|291:64,1,92.5,4|0,1:0|0:0,0:0:0:0:
211,130,66708,2,0,P|243:163|288:173,1,92.5,4|0,3:0|0:0,0:0:0:0:
390,215,67023,1,4,3:0:0:0:
390,215,67181,1,0,0:0:0:0:
350,318,67339,1,4,3:0:0:0:
248,272,67497,2,0,L|199:279,1,46.25
27,353,67655,6,0,B|92:344|92:344|130:303|130:303|194:294,1,185,4|4,0:0|3:0,0:0:0:0:
226,162,68129,1,0,0:0:0:0:
226,162,68208,1,0,0:0:0:0:
226,162,68286,2,0,L|134:175,1,92.5,4|0,3:0|0:0,0:0:0:0:
15,200,68602,1,4,3:0:0:0:
48,84,68760,2,0,L|93:77,1,46.25
272,50,68918,6,0,L|180:63,1,92.5,4|0,1:0|0:0,0:0:0:0:
289,199,69234,2,0,L|381:212,1,92.5,4|0,3:0|0:0,0:0:0:0:
494,50,69550,2,0,P|499:135|495:207,1,138.75,4|0,0:0|0:0,0:0:0:0:
493,208,69865,1,4,3:0:0:0:
452,328,70023,2,0,L|404:321,1,46.25
228,295,70181,6,0,L|320:308,1,92.5,4|0,1:0|0:0,0:0:0:0:
137,337,70497,1,4,3:0:0:0:
128,315,70576,1,0,0:0:0:0:
113,296,70655,1,0,0:0:0:0:
94,281,70734,1,0,0:0:0:0:
71,274,70813,1,4,3:0:0:0:
40,264,70892,1,0,0:0:0:0:
13,245,70971,1,0,0:0:0:0:
2,214,71050,1,0,0:0:0:0:
9,172,71129,1,0,1:0:0:0:
42,147,71208,1,0,1:0:0:0:
83,149,71286,1,0,1:0:0:0:
115,175,71365,1,0,1:0:0:0:
131,213,71444,5,4,1:0:0:0:
147,371,71602,2,0,P|199:382|253:348,1,106.375002028942,2|0,0:0|1:0,0:0:0:0:
368,202,71918,2,0,P|316:191|262:225,1,106.375002028942,0|4,0:3|3:0,0:0:0:0:
428,337,72234,1,2,0:0:0:0:
446,326,72313,1,0,0:0:0:0:
464,316,72392,1,0,1:0:0:0:
496,96,72550,6,0,L|484:217,1,106.375002028942,4|4,0:0|3:0,0:0:0:0:
428,337,72865,1,0,0:0:0:0:
410,327,72944,1,0,0:0:0:0:
390,315,73023,2,0,P|334:298|280:315,1,106.375002028942,0|4,1:0|0:3,0:0:0:0:
67,357,73339,1,2,0:0:0:0:
275,325,73497,1,4,0:3:0:0:
143,173,73655,1,0,1:0:0:0:
171,378,73813,102,0,L|159:265,1,106.375002028942,4|4,0:0|3:0,0:0:0:0:
309,110,74129,2,0,L|297:215,1,106.375002028942,2|0,0:0|1:0,0:0:0:0:
140,149,74444,1,0,0:0:0:0:
137,127,74523,1,0,0:0:0:0:
134,105,74602,1,4,3:0:0:0:
213,18,74760,1,0,0:0:0:0:
19,77,74918,2,0,L|30:182,1,106.375002028942,0|0,1:0|0:0,0:0:0:0:
32,204,75155,1,0,0:0:0:0:
34,225,75234,6,0,P|76:233|105:291,1,106.375002028942,4|0,0:2|0:0,0:0:0:0:
292,363,75550,2,0,P|250:355|221:297,1,106.375002028942,0|4,1:0|0:3,0:0:0:0:
405,242,75865,1,2,0:0:0:0:
325,104,76023,1,4,0:3:0:0:
325,104,76102,1,0,0:0:0:0:
325,104,76181,2,0,L|306:265,1,159.562503043413,0|0,1:0|0:0,0:0:0:0:
304,284,76497,5,4,1:0:0:0:
149,356,76655,1,0,0:0:0:0:
122,351,76734,1,0,0:0:0:0:
95,347,76813,1,0,1:0:0:0:
40,190,76971,2,0,P|83:184|140:230,1,106.375002028942,2|4,0:0|3:0,0:0:0:0:
259,371,77286,1,0,0:0:0:0:
259,371,77365,1,0,0:0:0:0:
259,371,77444,2,0,L|369:365,1,106.375002028942,0|0,1:0|0:0,0:0:0:0:
490,255,77760,6,0,P|447:261|390:215,1,106.375002028942,4|0,1:0|0:0,0:0:0:0:
390,201,77997,1,0,0:0:0:0:
384,175,78076,1,0,1:0:0:0:
363,41,78234,1,4,0:3:0:0:
254,179,78392,2,0,L|277:293,1,106.375002028942,0|4,0:0|0:3,0:0:0:0:
167,357,78708,1,0,1:0:0:0:
159,127,78865,1,0,0:0:0:0:
159,127,78944,1,0,0:0:0:0:
159,127,79023,6,0,B|173:200|173:200|145:258|145:258|161:331,1,212.750004057884,4|0,1:0|1:0,0:0:0:0:
73,181,79497,1,4,0:0:0:0:
239,66,79655,2,0,B|256:147,2,70.9166680192948,4|0|0,3:0|0:0|0:0,0:0:0:0:
337,83,79971,2,0,B|354:2,2,70.9166680192948,0|0|0,1:0|0:0|0:0,0:0:0:0:
345,181,80286,5,4,3:0:0:0:
378,217,80392,1,0,0:0:0:0:
421,240,80497,1,0,0:0:0:0:
468,252,80602,1,0,1:0:0:0:
505,284,80708,1,0,0:0:0:0:
508,333,80813,1,0,0:0:0:0:
475,370,80918,1,4,3:0:0:0:
426,377,81023,1,0,0:0:0:0:
382,353,81129,1,0,0:0:0:0:
343,321,81234,1,0,1:0:0:0:
296,303,81339,1,0,0:0:0:0:
246,300,81444,1,0,0:0:0:0:
209,323,81550,5,4,1:0:0:0:
78,377,81708,2,0,P|34:347|14:258,1,148,4|4,3:0|3:0,0:0:0:0:
135,198,82181,2,0,L|115:294,1,74,0|0,1:0|0:0,0:0:0:0:
27,130,82497,1,4,3:0:0:0:
129,52,82655,1,4,0:0:0:0:
129,52,82734,1,0,0:0:0:0:
129,52,82813,5,2,0:0:0:0:
231,131,82971,2,0,L|200:275,1,148,4|4,0:3|3:0,0:0:0:0:
208,296,83365,1,0,0:0:0:0:
215,316,83444,2,0,P|244:312|294:339,1,74,0|0,1:0|0:0,0:0:0:0:
396,370,83760,2,0,P|425:374|475:347,1,74,6|0,3:0|0:0,0:0:0:0:
508,141,84076,37,4,1:0:0:0:
411,281,84234,2,0,L|323:261,1,83.2499974594117,4|0,0:1|0:0,0:0:0:0:
4,141,84708,1,4,1:0:0:0:
101,281,84866,2,0,L|189:261,1,83.2499974594117,4|0,0:1|0:0,0:0:0:0:
502,121,85339,37,4,1:0:0:0:
405,261,85497,2,0,L|317:241,1,83.2499974594117,4|0,0:1|0:0,0:0:0:0:
10,121,85971,1,4,1:0:0:0:
107,261,86129,2,0,L|180:244,1,41.6249987297059,4|0,0:1|0:0,0:0:0:0:
270,135,86286,2,0,P|218:161|186:158,1,83.2499974594117,0|2,1:0|0:0,0:0:0:0:
175,143,86523,1,0,0:0:0:0:
156,127,86602,5,4,1:0:0:0:
319,43,86760,1,4,3:0:0:0:
383,215,86918,1,0,1:0:0:0:
426,22,87076,2,2,B|423:87|423:87|387:129|387:129|385:194,1,185,4|4,0:0|3:0,0:0:0:0:
376,361,87550,1,0,1:0:0:0:
273,250,87708,1,4,3:0:0:0:
273,250,87786,1,0,0:0:0:0:
273,250,87865,2,0,P|226:230|178:240,1,92.5,4|0,3:0|0:0,0:0:0:0:
39,366,88181,86,2,B|66:330|42:290|42:290|62:266|62:266|0:231|11:163,1,231.25,4|0,1:0|0:0,0:3:0:0:
