osu file format v14

[General]
AudioFilename: audio.MP3
AudioLeadIn: 0
PreviewTime: 67988
Countdown: 1
SampleSet: Soft
StackLeniency: 0.7
Mode: 2
LetterboxInBreaks: 0
WidescreenStoryboard: 1

[Editor]
Bookmarks: 1384,31971,46610,66565,69499,80894
DistanceSpacing: 1.1
BeatDivisor: 4
GridSize: 32
TimelineZoom: 3.099999

[Metadata]
Title:D-tecnoLife (TV Size)
TitleUnicode:D-tecnoLife (TV Size)
Artist:UVERworld
ArtistUnicode:UVERworld
Creator:Secre
Version:Salad
Source:BLEACH
Tags:chickenbible γƒ–γƒͺーチ anime japanese opening 2 second 2nd ichigo kurosaki jrock rock
BeatmapID:2935355
BeatmapSetID:1364627

[Difficulty]
HPDrainRate:4
CircleSize:3
OverallDifficulty:7
ApproachRate:7
SliderMultiplier:1.6
SliderTickRate:1

[Events]
//Background and Video events
0,0,"pekora would win this fight.jpg",0,0
Video,-147,"bleach_op_2_2.mp4"
//Break Periods
//Storyboard Layer 0 (Background)
//Storyboard Layer 1 (Fail)
//Storyboard Layer 2 (Pass)
//Storyboard Layer 3 (Foreground)
//Storyboard Layer 4 (Overlay)
//Storyboard Sound Samples

[TimingPoints]
805,356.43634937891,4,2,2,30,1,0
805,-100,4,2,2,30,0,0
10789,356.43634937891,4,2,2,30,1,0
12036,-100,4,2,2,70,0,0
12190,357.142857142857,4,2,2,70,1,0
12190,-100,4,2,2,70,0,0
17361,357.142857142857,4,2,2,70,1,0
17730,-100,4,2,2,70,0,0
17882,357.142857142857,4,2,2,70,1,0
17908,-100,4,2,2,70,0,0
18087,-100,4,2,2,70,0,0
20587,-100,4,2,2,70,0,0
20750,-100,4,2,2,70,0,0
20770,356.43634937891,4,2,2,50,1,0
20770,-100,4,2,2,50,0,0
23622,-100,4,2,2,50,0,0
23711,-100,4,2,2,50,0,0
26454,356.43634937891,4,2,2,50,1,0
26479,-100,4,2,2,50,0,0
26568,-100,4,2,2,50,0,0
30943,-100,4,2,2,50,0,0
31300,-100,4,2,2,50,0,0
31653,-100,4,2,2,50,0,0
32170,356.43634937891,4,2,2,60,1,0
32175,-100,4,2,2,60,0,0
35033,356.43634937891,4,2,2,60,1,0
36445,356.43634937891,4,2,2,60,1,0
37884,356.43634937891,4,2,2,60,1,0
40756,356.43634937891,4,2,2,70,1,0
40756,-100,4,2,2,70,0,0
43444,356.43634937891,4,2,2,70,1,0
44168,-100,4,2,2,70,0,0
44850,356.43634937891,4,2,2,70,1,0
45483,-100,4,2,2,70,0,0
45561,-100,4,2,2,70,0,0
46018,-100,4,2,2,70,0,0
46108,-100,4,2,2,70,0,0
46152,-100,4,2,2,70,0,0
46197,-100,4,2,2,70,0,0
46241,-100,4,2,2,70,0,0
46286,-100,4,2,2,70,0,0
46331,-100,4,2,2,70,0,0
46375,-100,4,2,2,70,0,0
46420,-100,4,2,2,70,0,0
46460,356.43634937891,4,2,2,80,1,1
46460,-100,4,2,2,80,0,1
48045,356.43634937891,4,2,2,80,1,1
51084,356.43634937891,4,2,2,80,1,1
57868,356.43634937891,4,2,2,80,1,1
63562,356.43634937891,4,2,2,80,1,1
66439,363.636363636364,4,2,2,70,1,0
66439,-100,4,2,2,70,0,0
67142,363.636363636364,4,2,2,70,1,0
68567,356.43634937891,4,2,2,70,1,0
68741,-100,4,2,2,70,0,0
68773,356.43634937891,4,2,2,70,1,0
68773,-100,4,2,2,70,0,0
69296,356.43634937891,4,2,2,70,1,1
69300,-100,4,2,2,70,0,1
70705,356.43634937891,4,2,2,70,1,1
74970,356.43634937891,4,2,2,70,1,1
76407,356.43634937891,4,2,2,70,1,1
78030,356.43634937891,4,2,2,70,1,1
79470,356.43634937891,4,2,2,70,1,1
80569,357.142857142857,4,2,2,70,1,1
80571,-100,4,2,2,70,0,1
80747,-100,4,2,2,70,0,0
81285,-100,4,2,2,70,0,0
81999,-100,4,2,2,60,0,0
82713,-100,4,2,2,50,0,0
83071,-100,4,2,2,40,0,0
83604,-100,4,2,2,5,0,0

[Colours]
Combo1 : 254,236,14
Combo2 : 30,135,240
Combo3 : 255,128,0

[HitObjects]
363,236,804,6,0,L|217:235,2,120,2|0|2,0:0|0:0|0:0,0:0:0:0:
213,137,1696,1,0,0:0:0:0:
298,131,1874,2,0,L|298:29,1,80,2|0,0:0|0:0,0:0:0:0:
147,135,2408,5,0,0:0:0:0:
309,197,2765,2,0,L|134:205,1,160
228,123,3300,2,0,L|236:33,1,80,2|0,0:0|0:0,0:0:0:0:
153,91,3656,6,0,L|151:-32,1,120,2|0,3:0|0:0,0:0:0:0:
271,52,4191,2,0,L|442:54,1,160,2|0,0:0|0:0,0:0:0:0:
278,162,4904,1,0,0:0:0:0:
205,139,5082,6,0,L|201:38,1,80,2|0,3:0|0:0,0:0:0:0:
278,162,5438,1,0,0:0:0:0:
433,229,5795,1,2,0:0:0:0:
504,205,5973,1,0,0:0:0:0:
503,130,6151,1,2,0:0:0:0:
432,108,6329,1,0,0:0:0:0:
355,101,6507,6,0,L|189:108,1,160,2|0,3:0|0:0,0:0:0:0:
277,185,7042,1,2,0:0:0:0:
481,187,7577,1,2,0:0:0:0:
325,95,7933,6,0,L|138:104,1,160,2|0,3:0|0:0,0:0:0:0:
327,98,8646,2,0,L|337:283,1,160,2|2,0:0|0:0,0:0:0:0:
44,195,9359,6,0,L|225:192,1,160,2|0,3:0|0:0,0:0:0:0:
124,142,9894,2,0,P|74:112|135:49,1,160,2|0,0:0|0:0,0:0:0:0:
202,47,10428,2,0,L|115:46,1,80,2|0,0:0|0:0,0:0:0:0:
285,215,10789,6,0,L|455:216,1,160,2|0,3:0|0:0,0:0:0:0:
362,151,11323,1,0,0:0:0:0:
203,125,11680,1,0,0:0:0:0:
283,94,11858,2,0,L|283:8,1,68.5714285714286,0|0,0:0|3:0,0:0:0:0:
119,187,12190,6,0,L|114:12,1,160,4|8,1:0|0:0,0:0:0:0:
261,74,12904,1,0,3:0:0:0:
181,74,13082,1,0,0:0:0:0:
101,74,13261,1,8,0:0:0:0:
372,270,13618,6,0,L|382:108,1,160,0|8,3:0|0:0,0:0:0:0:
231,148,14332,2,0,L|234:62,1,80,0|0,3:0|0:0,0:0:0:0:
316,74,14690,2,0,L|317:-22,1,80,8|0,0:0|0:0,0:0:0:0:
153,185,15047,6,0,L|145:16,1,160,0|8,3:0|0:0,0:0:0:0:
299,58,15761,1,0,3:0:0:0:
219,58,15939,1,0,0:0:0:0:
139,59,16118,1,8,0:0:0:0:
219,58,16297,6,0,L|408:62,1,160
303,120,16832,1,8,0:0:0:0:
228,172,17011,2,0,L|129:172,1,80,0|0,0:0|3:0,0:0:0:0:
308,246,17361,2,0,L|484:247,1,160,0|0,3:0|3:0,0:0:0:0:
394,178,17882,5,0,3:0:0:0:
256,192,18239,12,0,20382,0:0:0:0:
332,217,20770,6,0,P|383:193|320:137,1,160,2|0,3:0|0:0,0:0:0:0:
179,168,21482,2,0,L|177:79,1,80
256,86,21839,2,0,L|260:-14,1,80,2|0,0:0|0:0,0:0:0:0:
182,53,22195,6,0,L|69:53,1,80
256,158,22730,2,0,L|428:159,1,160
336,97,23265,1,0,0:0:0:0:
69,246,23621,6,0,L|66:68,1,160,2|0,3:0|0:0,0:0:0:0:
153,77,24156,2,0,L|333:78,1,160,2|0,0:0|0:0,0:0:0:0:
234,155,24690,1,2,0:0:0:0:
396,163,25047,6,0,L|396:78,1,80
254,82,25581,1,0,0:0:0:0:
337,84,25760,2,0,L|338:-2,1,80
254,82,26116,2,0,L|247:1,1,80
416,183,26454,6,0,L|415:9,1,160,2|0,3:0|0:0,0:0:0:0:
336,28,26988,1,2,0:0:0:0:
183,146,27345,2,0,L|176:56,1,80,0|2,0:0|0:0,0:0:0:0:
334,135,27879,6,0,L|336:49,1,80
188,70,28414,1,0,0:0:0:0:
265,74,28592,2,0,L|403:70,2,120
102,192,29305,6,0,P|94:139|177:96,1,160,2|0,3:0|0:0,0:0:0:0:
258,103,29840,1,2,0:0:0:0:
412,170,30196,2,0,L|415:75,1,80,0|2,0:0|0:0,0:0:0:0:
338,78,30552,1,0,0:0:0:0:
413,72,30731,1,0,0:0:0:0:
251,168,30909,6,0,L|83:166,1,160
171,114,31444,2,0,L|170:27,1,80
88,37,31800,1,2,0:0:0:0:
365,227,32170,6,0,L|371:59,1,160,8|0,3:0|3:0,0:0:0:0:
291,59,32704,2,0,L|189:64,1,80,0|0,0:0|3:0,0:0:0:0:
374,156,33239,1,0,3:0:0:0:
218,149,33595,6,0,L|218:65,1,80,0|0,3:0|0:0,0:0:0:0:
299,61,33952,2,0,L|309:-50,1,80,0|0,3:0|0:0,0:0:0:0:
225,29,34308,2,0,L|54:34,1,160,0|0,3:0|3:0,0:0:0:0:
323,230,35033,6,0,L|511:232,1,160,0|0,3:0|3:0,0:0:0:0:
398,162,35567,2,0,L|229:160,1,160
318,94,36102,1,0,3:0:0:0:
159,239,36445,5,0,3:0:0:0:
91,206,36623,1,0,0:0:0:0:
96,130,36801,1,0,3:0:0:0:
168,108,36979,1,0,0:0:0:0:
249,114,37158,2,0,L|250:24,1,80,0|0,3:0|0:0,0:0:0:0:
168,108,37514,1,0,3:0:0:0:
433,210,37884,6,0,L|434:107,1,80,8|0,3:0|0:0,0:0:0:0:
356,121,38241,1,0,3:0:0:0:
202,195,38597,2,0,L|205:103,1,80,0|0,3:0|0:0,0:0:0:0:
283,102,38954,2,0,L|285:7,1,80,0|0,3:0|0:0,0:0:0:0:
120,87,39310,5,0,3:0:0:0:
47,104,39488,1,0,0:0:0:0:
41,178,39666,1,0,3:0:0:0:
110,206,39844,1,0,0:0:0:0:
273,157,40201,1,0,0:0:0:0:
197,125,40379,2,0,L|189:20,1,80,0|0,3:0|0:0,0:0:0:0:
361,48,40756,6,0,L|366:140,2,80,8|0|2,3:0|0:0|0:0,0:0:0:0:
206,167,41468,2,0,L|204:76,1,80
288,72,41825,1,2,0:0:0:0:
146,87,42181,6,0,L|56:84,2,80,0|0|2,0:0|0:0|0:0,0:0:0:0:
296,145,42894,2,0,L|293:54,1,80,2|0,0:0|0:0,0:0:0:0:
216,59,43251,1,0,0:0:0:0:
390,85,43444,6,0,L|395:278,1,160,8|0,3:0|0:0,0:0:0:0:
236,241,44156,2,0,L|231:143,1,80
311,145,44513,2,0,L|315:48,1,80
166,60,44850,6,0,L|-9:58,1,160,8|8,3:0|3:0,0:0:0:0:
295,222,45562,2,0,L|492:224,1,160,8|0,3:0|0:0,0:0:0:0:
496,166,46097,1,0,0:0:0:0:
416,228,46275,1,0,0:0:0:0:
238,132,46460,6,0,L|132:133,1,80,8|0,3:0|0:0,0:0:0:0:
303,173,46994,1,0,0:0:0:0:
170,126,47351,1,0,0:0:0:0:
344,110,47529,6,0,L|346:11,1,80,8|0,0:0|0:0,0:0:0:0:
188,204,48045,1,0,0:0:0:0:
466,233,48401,2,0,L|289:232,1,160
386,166,48936,2,0,L|382:82,1,80,8|0,0:0|0:0,0:0:0:0:
222,90,49292,6,0,L|113:91,1,80,0|0,3:0|0:0,0:0:0:0:
303,211,49827,2,0,L|390:73,1,160
99,290,50540,6,0,L|83:103,1,160
163,100,51084,1,8,0:0:0:0:
326,156,51440,1,0,3:0:0:0:
245,147,51618,1,0,0:0:0:0:
163,143,51796,1,8,0:0:0:0:
245,147,51974,1,0,0:0:0:0:
410,239,52152,6,0,L|414:135,1,80,4|0,3:1|0:0,0:0:0:0:
333,147,52509,1,8,0:0:0:0:
413,149,52687,1,0,0:0:0:0:
246,207,53044,2,0,L|238:111,1,80,0|8,0:0|0:0,0:0:0:0:
404,149,53400,6,0,L|407:-21,1,160
253,76,54113,1,0,0:0:0:0:
401,125,54469,2,0,L|404:22,1,80,0|8,0:0|0:0,0:0:0:0:
329,38,54826,6,0,L|134:37,1,160
338,189,55539,2,0,L|501:189,1,160
226,287,56251,6,0,L|221:96,1,160
304,99,56786,1,8,0:0:0:0:
221,96,56964,1,0,0:0:0:0:
57,147,57143,2,0,L|48:47,1,80,0|0,3:0|0:0,0:0:0:0:
132,53,57499,2,0,L|45:52,1,80,8|0,0:0|0:0,0:0:0:0:
225,191,57868,6,0,L|410:190,1,160,4|8,3:1|0:0,0:0:0:0:
293,126,58402,1,0,0:0:0:0:
137,117,58759,1,0,0:0:0:0:
296,187,58937,6,0,L|422:191,1,80,8|0,0:0|0:0,0:0:0:0:
220,103,59471,1,0,0:0:0:0:
495,228,59828,2,0,L|326:226,1,160
414,157,60363,1,8,0:0:0:0:
255,155,60541,6,0,L|79:151,1,160
174,248,61075,1,8,0:0:0:0:
257,266,61254,2,0,L|253:68,1,160
96,97,61966,5,0,0:0:0:0:
254,121,62323,2,0,L|364:122,1,80,0|8,0:0|0:0,0:0:0:0:
180,250,62858,1,0,3:0:0:0:
108,227,63036,1,0,0:0:0:0:
106,152,63214,1,8,0:0:0:0:
177,127,63392,1,0,0:0:0:0:
337,145,63562,6,0,L|520:140,1,160,4|8,3:1|0:0,0:0:0:0:
341,213,64274,2,0,L|336:109,1,80
415,109,64631,1,8,0:0:0:0:
259,104,64987,6,0,L|76:101,1,160,0|8,3:0|0:0,0:0:0:0:
178,183,65523,2,0,L|174:10,1,160
97,81,66057,2,0,L|90:-5,1,80,8|0,0:0|0:0,0:0:0:0:
275,107,66439,6,0,L|464:112,1,160,4|0,3:0|0:0,0:0:0:0:
357,186,66984,1,0,3:0:0:0:
273,214,67142,2,0,L|267:47,1,160,8|0,0:0|3:0,0:0:0:0:
433,59,67687,5,0,3:0:0:0:
433,59,68567,5,8,3:0:0:0:
250,125,68773,1,4,3:0:0:0:
388,193,69296,6,0,L|392:99,1,80,8|0,3:0|0:0,0:0:0:0:
313,109,69652,2,0,L|305:7,1,80,8|0,0:0|0:0,0:0:0:0:
391,37,70008,2,0,L|475:37,2,80,0|0|8,3:0|0:0|0:0,0:0:0:0:
124,193,70705,6,0,L|120:99,1,80,0|0,3:0|0:0,0:0:0:0:
199,109,71061,2,0,L|207:7,1,80,8|0,0:0|0:0,0:0:0:0:
121,37,71417,2,0,L|37:37,2,80,0|0|8,3:0|0:0|0:0,0:0:0:0:
199,117,71952,1,0,0:0:0:0:
355,113,72130,6,0,L|354:7,1,80,0|0,3:0|0:0,0:0:0:0:
280,47,72486,2,0,L|276:-41,1,80,8|0,0:0|0:0,0:0:0:0:
357,10,72843,1,0,3:0:0:0:
205,133,73199,1,8,0:0:0:0:
471,208,73556,6,0,L|471:108,1,80,0|0,3:0|0:0,0:0:0:0:
388,131,73912,2,0,L|379:40,1,80,8|0,0:0|0:0,0:0:0:0:
469,101,74269,2,0,L|466:-59,1,160,0|0,3:0|0:0,0:0:0:0:
181,194,74970,6,0,L|392:175,1,160,4|8,3:1|0:0,0:0:0:0:
182,137,75682,2,0,L|185:37,1,80,0|0,3:0|0:0,0:0:0:0:
266,62,76039,2,0,L|267:-33,1,80,8|0,0:0|0:0,0:0:0:0:
94,140,76407,6,0,L|84:-31,1,160,0|8,3:0|0:0,0:0:0:0:
168,20,76941,1,0,0:0:0:0:
246,74,77119,2,0,L|338:78,1,80,0|0,3:0|0:0,0:0:0:0:
169,178,77654,5,0,0:0:0:0:
244,177,77832,1,0,3:0:0:0:
328,177,78030,1,0,0:0:0:0:
168,127,78387,1,0,0:0:0:0:
325,141,78565,2,0,L|328:28,1,80,2|2,3:0|3:0,0:0:0:0:
251,47,78921,1,2,3:0:0:0:
411,60,79100,5,2,3:0:0:0:
411,60,79470,1,0,3:0:0:0:
332,65,79648,1,0,3:0:0:0:
252,68,79826,1,0,3:0:0:0:
332,65,80004,2,0,L|439:64,2,80,8|0|0,3:0|3:0|3:0,0:0:0:0:
135,212,80569,5,4,1:0:0:0:
256,192,80926,12,0,83604,0:0:0:0:
