osu file format v14

[General]
AudioFilename: audio.MP3
AudioLeadIn: 0
PreviewTime: 67988
Countdown: 1
SampleSet: Soft
StackLeniency: 0.7
Mode: 2
LetterboxInBreaks: 0
WidescreenStoryboard: 1

[Editor]
Bookmarks: 1384,31971,46610,66565,69499,80894
DistanceSpacing: 1.1
BeatDivisor: 4
GridSize: 32
TimelineZoom: 3.099999

[Metadata]
Title:D-tecnoLife (TV Size)
TitleUnicode:D-tecnoLife (TV Size)
Artist:UVERworld
ArtistUnicode:UVERworld
Creator:Secre
Version:Platter
Source:BLEACH
Tags:chickenbible γƒ–γƒͺーチ anime japanese opening 2 second 2nd ichigo kurosaki jrock rock
BeatmapID:2933502
BeatmapSetID:1364627

[Difficulty]
HPDrainRate:5
CircleSize:3.3
OverallDifficulty:8
ApproachRate:8
SliderMultiplier:1.7
SliderTickRate:1

[Events]
//Background and Video events
0,0,"pekora would win this fight.jpg",0,0
Video,-147,"bleach_op_2_2.mp4"
//Break Periods
//Storyboard Layer 0 (Background)
//Storyboard Layer 1 (Fail)
//Storyboard Layer 2 (Pass)
//Storyboard Layer 3 (Foreground)
//Storyboard Layer 4 (Overlay)
//Storyboard Sound Samples

[TimingPoints]
805,356.43634937891,4,2,2,30,1,0
805,-100,4,2,2,30,0,0
10789,356.43634937891,4,2,2,30,1,0
12036,-100,4,2,2,70,0,0
12190,357.142857142857,4,2,2,70,1,0
12190,-100,4,2,2,70,0,0
17361,357.142857142857,4,2,2,70,1,0
17730,-100,4,2,2,70,0,0
17882,357.142857142857,4,2,2,70,1,0
17908,-100,4,2,2,70,0,0
18087,-100,4,2,2,70,0,0
20587,-100,4,2,2,70,0,0
20750,-100,4,2,2,70,0,0
20770,356.43634937891,4,2,2,50,1,0
20770,-100,4,2,2,50,0,0
23622,-100,4,2,2,50,0,0
23711,-100,4,2,2,50,0,0
26454,356.43634937891,4,2,2,50,1,0
26479,-100,4,2,2,50,0,0
26568,-100,4,2,2,50,0,0
30943,-100,4,2,2,50,0,0
31300,-100,4,2,2,50,0,0
31653,-100,4,2,2,50,0,0
32170,356.43634937891,4,2,2,60,1,0
32175,-100,4,2,2,60,0,0
35033,356.43634937891,4,2,2,60,1,0
36445,356.43634937891,4,2,2,60,1,0
37884,356.43634937891,4,2,2,60,1,0
40756,356.43634937891,4,2,2,70,1,0
40756,-100,4,2,2,70,0,0
43444,356.43634937891,4,2,2,70,1,0
44168,-100,4,2,2,70,0,0
44850,356.43634937891,4,2,2,70,1,0
45483,-100,4,2,2,70,0,0
45561,-100,4,2,2,70,0,0
46018,-100,4,2,2,70,0,0
46108,-100,4,2,2,70,0,0
46152,-100,4,2,2,70,0,0
46197,-100,4,2,2,70,0,0
46241,-100,4,2,2,70,0,0
46286,-100,4,2,2,70,0,0
46331,-100,4,2,2,70,0,0
46375,-100,4,2,2,70,0,0
46420,-100,4,2,2,70,0,0
46460,356.43634937891,4,2,2,80,1,1
46460,-100,4,2,2,80,0,1
48045,356.43634937891,4,2,2,80,1,1
51084,356.43634937891,4,2,2,80,1,1
57868,356.43634937891,4,2,2,80,1,1
63562,356.43634937891,4,2,2,80,1,1
66439,363.636363636364,4,2,2,70,1,0
66439,-100,4,2,2,70,0,0
67142,363.636363636364,4,2,2,70,1,0
68567,356.43634937891,4,2,2,70,1,0
68741,-100,4,2,2,70,0,0
68773,356.43634937891,4,2,2,70,1,0
68773,-100,4,2,2,70,0,0
69296,356.43634937891,4,2,2,70,1,1
69300,-100,4,2,2,70,0,1
70705,356.43634937891,4,2,2,70,1,1
74970,356.43634937891,4,2,2,70,1,1
76407,356.43634937891,4,2,2,70,1,1
78030,356.43634937891,4,2,2,70,1,1
79470,356.43634937891,4,2,2,70,1,1
80569,357.142857142857,4,2,2,70,1,1
80571,-100,4,2,2,70,0,1
80747,-100,4,2,2,70,0,0
81285,-100,4,2,2,70,0,0
81999,-100,4,2,2,60,0,0
82713,-100,4,2,2,50,0,0
83071,-100,4,2,2,40,0,0
83604,-100,4,2,2,5,0,0

[Colours]
Combo1 : 254,236,14
Combo2 : 30,135,240
Combo3 : 255,128,0

[HitObjects]
275,211,804,6,0,L|125:211,2,127.5,2|0|2,0:0|0:0|0:0,0:0:0:0:
106,127,1697,1,0,0:0:0:0:
275,211,1875,2,0,L|278:108,1,85,2|0,0:0|0:0,0:0:0:0:
100,111,2409,5,0,0:0:0:0:
320,233,2766,2,0,L|136:233,1,170
230,156,3301,1,2,0:0:0:0:
146,155,3479,1,0,0:0:0:0:
323,113,3657,5,2,3:0:0:0:
204,79,3924,1,0,0:0:0:0:
443,79,4192,2,0,P|487:117|433:207,1,170,2|0,0:0|0:0,0:0:0:0:
288,217,4726,1,2,0:0:0:0:
361,171,4905,1,0,0:0:0:0:
201,194,5083,6,0,L|195:82,1,85,2|0,3:0|0:0,0:0:0:0:
358,129,5439,2,0,L|362:23,1,85
209,257,5796,1,2,0:0:0:0:
118,234,5974,1,0,0:0:0:0:
113,138,6152,1,2,0:0:0:0:
204,136,6330,1,0,0:0:0:0:
369,249,6508,6,0,L|378:129,1,85,2|0,3:0|0:0,0:0:0:0:
225,161,6865,2,0,L|217:50,1,85,0|2,0:0|0:0,0:0:0:0:
303,50,7221,1,0,0:0:0:0:
146,69,7400,2,0,L|149:194,1,85,0|2,0:0|0:0,0:0:0:0:
321,150,7756,1,0,0:0:0:0:
236,214,7934,6,0,L|228:90,1,85,2|0,3:0|0:0,0:0:0:0:
382,149,8291,2,0,L|388:37,1,85
222,161,8647,1,2,0:0:0:0:
222,161,8825,1,0,0:0:0:0:
304,161,9004,1,2,0:0:0:0:
304,161,9182,1,0,0:0:0:0:
136,234,9360,6,0,L|19:234,2,85,2|0|0,3:0|0:0|0:0,0:0:0:0:
301,235,9895,2,0,P|354:203|275:139,1,170,2|0,0:0|0:0,0:0:0:0:
216,117,10429,1,2,0:0:0:0:
128,111,10607,1,0,0:0:0:0:
396,217,10790,6,0,L|398:116,1,85,2|0,3:0|0:0,0:0:0:0:
317,132,11146,1,0,0:0:0:0:
153,228,11324,2,0,L|344:230,1,170
235,127,11858,2,0,L|156:127,1,72.8571428571429,0|0,0:0|3:0,0:0:0:0:
416,171,12191,6,0,L|424:48,1,85,4|0,1:0|0:0,0:0:0:0:
253,90,12547,2,0,L|139:94,1,85,8|0,0:0|0:0,0:0:0:0:
337,277,12904,1,0,3:0:0:0:
414,263,13082,1,0,0:0:0:0:
416,184,13261,1,8,0:0:0:0:
339,167,13439,1,0,0:0:0:0:
180,160,13618,6,0,L|176:47,1,85,0|0,3:0|0:0,0:0:0:0:
341,76,13975,2,0,L|342:-19,1,85,8|0,0:0|0:0,0:0:0:0:
170,188,14332,1,0,3:0:0:0:
93,141,14511,2,0,L|94:35,1,85,0|8,0:0|0:0,0:0:0:0:
265,75,14868,1,0,0:0:0:0:
93,141,15047,5,0,3:0:0:0:
177,124,15225,1,0,0:0:0:0:
261,123,15403,1,8,0:0:0:0:
92,89,15582,2,0,L|288:90,1,170
346,162,16118,1,8,0:0:0:0:
194,145,16297,6,0,L|184:51,1,85,0|0,0:0|3:0,0:0:0:0:
341,83,16654,2,0,L|346:-23,1,85,0|8,0:0|0:0,0:0:0:0:
188,57,17011,2,0,L|68:57,1,85,0|0,0:0|3:0,0:0:0:0:
372,230,17361,2,0,P|425:198|351:141,1,170,0|0,3:0|3:0,0:0:0:0:
123,132,17882,5,0,3:0:0:0:
256,192,18060,12,0,20382,0:0:0:0:
322,252,20770,6,0,P|375:188|316:141,1,170,2|0,3:0|0:0,0:0:0:0:
152,195,21482,2,0,L|148:12,1,170,0|2,0:0|0:0,0:0:0:0:
229,21,22017,1,0,0:0:0:0:
392,139,22195,6,0,L|396:39,1,85
306,44,22552,2,0,L|207:50,1,85
306,44,22908,2,0,L|313:142,1,85
230,168,23265,2,0,L|130:170,1,85
307,279,23621,6,0,L|487:278,1,170,2|0,3:0|0:0,0:0:0:0:
391,209,24156,2,0,L|205:207,1,170,2|0,0:0|0:0,0:0:0:0:
305,157,24690,2,0,L|304:56,1,85,2|0,0:0|0:0,0:0:0:0:
221,66,25047,5,0,0:0:0:0:
143,83,25225,1,0,0:0:0:0:
139,162,25403,1,0,0:0:0:0:
213,189,25581,1,0,0:0:0:0:
302,187,25760,2,0,L|305:99,1,85
220,98,26116,2,0,L|216:4,1,85
379,102,26454,6,0,L|188:110,1,170,2|0,3:0|0:0,0:0:0:0:
296,198,26988,2,0,L|483:192,1,170,2|0,0:0|0:0,0:0:0:0:
376,275,27523,2,0,L|365:171,1,85,2|0,0:0|0:0,0:0:0:0:
446,147,27879,5,0,0:0:0:0:
278,136,28057,2,0,L|266:31,1,85
350,32,28414,1,0,0:0:0:0:
184,187,28592,2,0,L|28:190,2,127.5
351,248,29305,6,0,P|406:224|331:169,1,170,2|0,3:0|0:0,0:0:0:0:
192,161,29840,2,0,L|188:67,1,85,2|0,0:0|0:0,0:0:0:0:
347,88,30196,2,0,L|352:-13,1,85,0|2,0:0|0:0,0:0:0:0:
192,33,30552,6,0,L|87:38,1,85
271,220,30909,2,0,L|459:212,1,170
356,40,31444,2,0,L|268:41,1,85
431,79,31800,2,0,L|432:-12,1,85,2|0,0:0|0:0,0:0:0:0:
176,191,32170,6,0,L|358:181,1,170,8|0,3:0|3:0,0:0:0:0:
184,187,32704,2,0,P|138:154|206:82,1,170
361,124,33239,2,0,L|360:26,1,85,0|0,3:0|0:0,0:0:0:0:
101,244,33595,5,0,3:0:0:0:
28,209,33773,1,0,0:0:0:0:
35,130,33951,1,0,3:0:0:0:
112,108,34129,1,0,0:0:0:0:
278,124,34308,2,0,L|380:127,1,85,0|0,3:0|0:0,0:0:0:0:
206,202,34665,2,0,L|109:202,1,85,0|0,3:0|0:0,0:0:0:0:
386,258,35033,6,0,L|387:72,1,170,0|0,3:0|3:0,0:0:0:0:
221,135,35568,2,0,L|220:47,1,85,0|0,0:0|3:0,0:0:0:0:
385,91,35924,2,0,L|390:-2,1,85,0|0,0:0|3:0,0:0:0:0:
301,28,36280,1,0,0:0:0:0:
151,137,36445,5,0,3:0:0:0:
301,28,36623,1,0,0:0:0:0:
151,137,36801,2,0,L|145:11,1,85,0|0,3:0|0:0,0:0:0:0:
311,144,37158,2,0,L|406:143,1,85,0|0,3:0|0:0,0:0:0:0:
226,215,37514,2,0,L|119:218,1,85,0|0,3:0|0:0,0:0:0:0:
439,242,37884,6,0,L|442:152,1,85,8|0,3:0|0:0,0:0:0:0:
351,143,38240,1,0,3:0:0:0:
186,164,38596,2,0,L|185:52,1,85,0|0,3:0|0:0,0:0:0:0:
355,85,38953,2,0,L|357:-11,1,85,0|0,3:0|0:0,0:0:0:0:
200,102,39309,6,0,L|96:104,2,85,0|0|0,3:0|0:0|3:0,0:0:0:0:
366,155,39844,2,0,L|365:50,1,85,0|0,0:0|3:0,0:0:0:0:
206,134,40200,2,0,L|206:38,1,85,0|0,0:0|3:0,0:0:0:0:
289,34,40557,1,0,0:0:0:0:
18,176,40756,6,0,L|16:62,2,85,8|0|2,3:0|0:0|0:0,0:0:0:0:
179,178,41468,2,0,L|76:179,2,85,0|0|2,0:0|0:0|0:0,0:0:0:0:
338,151,42181,6,0,L|341:32,2,85,0|0|2,0:0|0:0|0:0,0:0:0:0:
182,174,42894,2,0,L|184:71,1,85,2|0,0:0|0:0,0:0:0:0:
276,62,43251,1,0,0:0:0:0:
19,174,43444,6,0,L|17:-13,1,170,8|0,3:0|0:0,0:0:0:0:
178,132,44156,2,0,L|178:41,1,85
91,68,44513,2,0,L|86:-23,1,85
316,108,44850,6,0,L|128:113,1,170,8|8,3:0|3:0,0:0:0:0:
433,269,45562,2,0,L|441:75,1,170,8|0,3:0|0:0,0:0:0:0:
392,104,46008,1,0,0:0:0:0:
345,69,46097,1,0,0:0:0:0:
389,35,46186,1,0,0:0:0:0:
440,31,46275,1,0,0:0:0:0:
160,166,46460,6,0,L|37:162,1,85,8|0,3:0|0:0,0:0:0:0:
336,217,46994,2,0,L|337:98,1,85,0|0,0:0|3:0,0:0:0:0:
251,123,47351,1,0,0:0:0:0:
497,200,47529,6,0,L|500:98,1,85,8|0,0:0|0:0,0:0:0:0:
236,181,48045,2,0,L|227:69,1,85,0|8,0:0|0:0,0:0:0:0:
402,127,48401,2,0,P|450:99|382:36,1,170
221,84,48936,2,0,L|124:85,1,85,8|0,0:0|0:0,0:0:0:0:
306,208,49292,6,0,L|442:209,2,85,0|0|8,3:0|0:0|0:0,0:0:0:0:
141,278,49827,2,0,L|135:165,1,85,0|0,0:0|3:0,0:0:0:0:
299,149,50183,2,0,L|403:152,1,85,0|8,0:0|0:0,0:0:0:0:
126,204,50540,6,0,P|69:169|148:116,1,170
272,142,51084,2,0,L|373:141,1,85,8|0,0:0|0:0,0:0:0:0:
180,225,51440,2,0,L|69:226,2,85,0|0|8,3:0|0:0|0:0,0:0:0:0:
351,144,51974,1,0,0:0:0:0:
180,225,52152,5,4,3:1:0:0:
351,144,52331,2,0,L|352:43,1,85,0|8,0:0|0:0,0:0:0:0:
191,99,52687,2,0,L|185:3,1,85,0|0,0:0|3:0,0:0:0:0:
354,62,53044,2,0,L|455:62,1,85,0|8,0:0|0:0,0:0:0:0:
274,155,53400,6,0,L|80:158,1,170
191,225,53935,1,8,0:0:0:0:
355,201,54113,2,0,L|361:103,1,85,0|0,0:0|3:0,0:0:0:0:
197,104,54469,2,0,L|303:102,1,85,0|8,0:0|0:0,0:0:0:0:
112,212,54826,6,0,L|107:11,1,170
194,45,55360,1,8,0:0:0:0:
355,135,55539,2,0,L|360:26,1,85
194,45,55895,2,0,L|185:-60,1,85,0|8,0:0|0:0,0:0:0:0:
429,253,56251,6,0,P|485:217|420:160,1,170
347,133,56786,2,0,L|264:118,1,85,8|0,0:0|0:0,0:0:0:0:
434,112,57143,2,0,L|441:2,1,85,0|0,3:0|0:0,0:0:0:0:
281,47,57499,2,0,L|370:44,1,85,8|0,0:0|0:0,0:0:0:0:
102,226,57868,6,0,L|101:37,1,170,4|8,3:1|0:0,0:0:0:0:
269,98,58402,1,0,0:0:0:0:
124,126,58759,1,0,0:0:0:0:
290,171,58937,6,0,L|397:163,1,85,8|0,0:0|0:0,0:0:0:0:
102,175,59471,1,0,0:0:0:0:
390,230,59828,2,0,L|205:229,1,170
305,159,60363,1,8,0:0:0:0:
481,185,60541,6,0,L|481:72,1,85,0|0,0:0|3:0,0:0:0:0:
389,91,60897,1,0,0:0:0:0:
223,66,61075,1,8,0:0:0:0:
389,91,61254,2,0,L|396:-25,1,85,0|0,0:0|3:0,0:0:0:0:
223,66,61610,2,0,L|119:67,1,85,0|8,0:0|0:0,0:0:0:0:
310,216,61966,6,0,L|498:209,1,170
298,123,62501,2,0,L|180:119,1,85,8|0,0:0|0:0,0:0:0:0:
394,237,62858,1,0,3:0:0:0:
482,199,63036,1,0,0:0:0:0:
481,119,63214,1,8,0:0:0:0:
389,85,63392,1,0,0:0:0:0:
121,213,63562,6,0,L|115:14,1,170,4|8,3:1|0:0,0:0:0:0:
279,90,64275,1,0,0:0:0:0:
194,89,64453,1,0,0:0:0:0:
109,89,64631,1,8,0:0:0:0:
194,89,64810,1,0,0:0:0:0:
369,214,64988,6,0,L|375:27,1,170,0|8,3:0|0:0,0:0:0:0:
211,149,65523,2,0,L|210:35,1,85
296,62,65879,1,0,0:0:0:0:
135,150,66057,2,0,L|29:155,1,85,8|0,0:0|0:0,0:0:0:0:
320,228,66439,6,0,L|489:214,1,170,4|0,3:0|0:0,0:0:0:0:
395,150,66984,1,0,3:0:0:0:
159,218,67142,2,0,L|153:31,1,170,8|0,0:0|3:0,0:0:0:0:
411,51,67687,5,0,3:0:0:0:
152,151,68567,5,8,3:0:0:0:
427,241,68773,2,0,P|476:216|403:150,1,170,4|0,3:0|0:0,0:0:0:0:
169,221,69296,6,0,L|165:96,1,85,8|0,3:0|0:0,0:0:0:0:
324,134,69652,2,0,L|326:36,1,85,8|0,0:0|0:0,0:0:0:0:
166,143,70008,1,0,3:0:0:0:
82,107,70186,1,0,0:0:0:0:
84,27,70364,1,8,0:0:0:0:
175,2,70542,1,0,0:0:0:0:
332,160,70705,6,0,L|336:47,1,85,0|0,3:0|0:0,0:0:0:0:
171,76,71061,2,0,L|170:-19,1,85,8|0,0:0|0:0,0:0:0:0:
342,188,71417,1,0,3:0:0:0:
419,141,71595,2,0,L|418:35,1,85,0|8,0:0|0:0,0:0:0:0:
247,75,71952,1,0,0:0:0:0:
419,141,72130,5,0,3:0:0:0:
250,214,72308,2,0,L|254:110,1,85,0|8,0:0|0:0,0:0:0:0:
420,89,72665,2,0,L|224:90,1,170
166,162,73199,1,8,0:0:0:0:
318,145,73378,6,0,L|328:51,1,85,0|0,0:0|3:0,0:0:0:0:
171,83,73734,2,0,L|166:-23,1,85,0|8,0:0|0:0,0:0:0:0:
324,57,74090,2,0,L|444:57,1,85,0|0,0:0|3:0,0:0:0:0:
140,230,74447,2,0,P|87:198|161:141,1,170
389,132,74970,6,0,L|398:24,1,85,4|0,3:1|0:0,0:0:0:0:
237,56,75327,2,0,L|131:59,1,85,8|0,0:0|0:0,0:0:0:0:
321,216,75683,1,0,3:0:0:0:
404,182,75861,1,0,0:0:0:0:
403,101,76039,1,8,0:0:0:0:
313,77,76217,1,0,0:0:0:0:
150,133,76407,6,0,L|56:134,2,85,0|0|8,3:0|0:0|0:0,0:0:0:0:
318,138,76941,2,0,L|321:25,1,85,0|0,0:0|3:0,0:0:0:0:
157,243,77298,2,0,P|97:196|167:152,1,170
315,155,77832,5,0,3:0:0:0:
151,155,78030,2,0,L|142:45,1,85,0|8,0:0|0:0,0:0:0:0:
315,155,78387,2,0,L|223:158,2,85,0|2|2,0:0|3:0|3:0,0:0:0:0:
399,142,78922,1,2,3:0:0:0:
149,163,79100,5,2,3:0:0:0:
292,130,79470,2,0,L|295:41,1,85,0|0,3:0|3:0,0:0:0:0:
213,35,79826,1,0,3:0:0:0:
46,159,80004,2,0,L|39:51,1,85,8|0,3:0|3:0,0:0:0:0:
125,62,80361,1,0,3:0:0:0:
419,139,80569,5,4,1:0:0:0:
256,192,80747,12,0,83604,0:0:0:0:
