osu file format v14

[General]
AudioFilename: audio.MP3
AudioLeadIn: 0
PreviewTime: 67988
Countdown: 1
SampleSet: Soft
StackLeniency: 0.7
Mode: 2
LetterboxInBreaks: 0
WidescreenStoryboard: 1

[Editor]
Bookmarks: 1384,31971,46610,66565,69499,80894
DistanceSpacing: 1.1
BeatDivisor: 4
GridSize: 32
TimelineZoom: 3.099999

[Metadata]
Title:D-tecnoLife (TV Size)
TitleUnicode:D-tecnoLife (TV Size)
Artist:UVERworld
ArtistUnicode:UVERworld
Creator:Secre
Version:Cup
Source:BLEACH
Tags:chickenbible γƒ–γƒͺーチ anime japanese opening 2 second 2nd ichigo kurosaki jrock rock
BeatmapID:2935408
BeatmapSetID:1364627

[Difficulty]
HPDrainRate:3
CircleSize:2.7
OverallDifficulty:6
ApproachRate:6
SliderMultiplier:1.45
SliderTickRate:1

[Events]
//Background and Video events
0,0,"pekora would win this fight.jpg",0,0
Video,-147,"bleach_op_2_2.mp4"
//Break Periods
//Storyboard Layer 0 (Background)
//Storyboard Layer 1 (Fail)
//Storyboard Layer 2 (Pass)
//Storyboard Layer 3 (Foreground)
//Storyboard Layer 4 (Overlay)
//Storyboard Sound Samples

[TimingPoints]
805,356.43634937891,4,2,2,30,1,0
805,-100,4,2,2,30,0,0
10789,356.43634937891,4,2,2,30,1,0
12036,-100,4,2,2,70,0,0
12190,357.142857142857,4,2,2,70,1,0
12190,-100,4,2,2,70,0,0
17361,357.142857142857,4,2,2,70,1,0
17718,-92.5925925925926,4,2,2,70,0,0
17882,357.142857142857,4,2,2,70,1,0
17908,-100,4,2,2,70,0,0
18087,-100,4,2,2,70,0,0
20587,-100,4,2,2,70,0,0
20750,-100,4,2,2,70,0,0
20770,356.43634937891,4,2,2,50,1,0
20770,-100,4,2,2,50,0,0
23622,-100,4,2,2,50,0,0
23711,-100,4,2,2,50,0,0
26454,356.43634937891,4,2,2,50,1,0
26479,-100,4,2,2,50,0,0
26568,-100,4,2,2,50,0,0
30943,-100,4,2,2,50,0,0
31300,-100,4,2,2,50,0,0
31653,-100,4,2,2,50,0,0
32170,356.43634937891,4,2,2,60,1,0
32175,-100,4,2,2,60,0,0
35033,356.43634937891,4,2,2,60,1,0
36445,356.43634937891,4,2,2,60,1,0
37884,356.43634937891,4,2,2,60,1,0
40756,356.43634937891,4,2,2,70,1,0
40756,-100,4,2,2,70,0,0
43444,356.43634937891,4,2,2,70,1,0
44168,-100,4,2,2,70,0,0
44850,356.43634937891,4,2,2,70,1,0
45483,-100,4,2,2,70,0,0
45561,-100,4,2,2,70,0,0
46018,-100,4,2,2,70,0,0
46108,-100,4,2,2,70,0,0
46152,-100,4,2,2,70,0,0
46197,-100,4,2,2,70,0,0
46241,-100,4,2,2,70,0,0
46286,-100,4,2,2,70,0,0
46331,-100,4,2,2,70,0,0
46375,-100,4,2,2,70,0,0
46420,-100,4,2,2,70,0,0
46460,356.43634937891,4,2,2,80,1,1
46460,-100,4,2,2,80,0,1
48045,356.43634937891,4,2,2,80,1,1
50540,-103.092783505155,4,2,2,80,0,1
51084,356.43634937891,4,2,2,80,1,1
57868,356.43634937891,4,2,2,80,1,1
63562,356.43634937891,4,2,2,80,1,1
66439,363.636363636364,4,2,2,70,1,0
66439,-100,4,2,2,70,0,0
67142,363.636363636364,4,2,2,70,1,0
68567,356.43634937891,4,2,2,70,1,0
68741,-100,4,2,2,70,0,0
68773,356.43634937891,4,2,2,70,1,0
68773,-100,4,2,2,70,0,0
69296,356.43634937891,4,2,2,70,1,1
69300,-100,4,2,2,70,0,1
70705,356.43634937891,4,2,2,70,1,1
74970,356.43634937891,4,2,2,70,1,1
76407,356.43634937891,4,2,2,70,1,1
78030,356.43634937891,4,2,2,70,1,1
79470,356.43634937891,4,2,2,70,1,1
80569,357.142857142857,4,2,2,70,1,1
80571,-100,4,2,2,70,0,1
80747,-100,4,2,2,70,0,0
81285,-100,4,2,2,70,0,0
81999,-100,4,2,2,60,0,0
82713,-100,4,2,2,50,0,0
83071,-100,4,2,2,40,0,0
83604,-100,4,2,2,5,0,0

[Colours]
Combo1 : 254,236,14
Combo2 : 30,135,240
Combo3 : 255,128,0

[HitObjects]
342,172,804,6,0,L|211:174,2,108.75,2|0|2,0:0|0:0|0:0,0:0:0:0:
205,142,1696,1,0,0:0:0:0:
276,116,1874,2,0,L|276:27,1,72.5,2|0,0:0|0:0,0:0:0:0:
135,126,2408,5,0,0:0:0:0:
272,158,2765,2,0,L|437:150,1,145
345,88,3300,1,2,0:0:0:0:
203,113,3656,6,0,L|116:114,1,72.5,2|0,3:0|0:0,0:0:0:0:
270,193,4191,2,0,L|443:194,1,145,2|0,0:0|0:0,0:0:0:0:
281,261,4904,6,0,L|285:86,1,145
356,93,5438,1,0,0:0:0:0:
216,194,5795,1,2,0:0:0:0:
155,160,5973,1,0,0:0:0:0:
158,91,6151,1,2,0:0:0:0:
221,63,6329,1,0,0:0:0:0:
295,62,6507,6,0,L|450:60,1,145,2|0,3:0|0:0,0:0:0:0:
369,125,7042,1,2,0:0:0:0:
168,146,7577,1,2,0:0:0:0:
307,219,7933,6,0,L|311:74,1,145,2|0,3:0|0:0,0:0:0:0:
168,129,8646,2,0,L|23:132,1,145,2|2,0:0|0:0,0:0:0:0:
176,220,9359,6,0,P|221:182|167:138,1,145,2|0,3:0|0:0,0:0:0:0:
100,113,9894,1,2,0:0:0:0:
301,75,10428,2,0,L|396:74,1,72.5,2|0,0:0|0:0,0:0:0:0:
301,75,10789,6,0,L|125:79,1,145,2|0,3:0|0:0,0:0:0:0:
218,144,11323,2,0,L|389:139,1,145
140,254,12190,6,0,L|134:77,1,145,4|8,1:0|0:0,0:0:0:0:
281,88,12904,1,0,3:0:0:0:
208,90,13082,1,0,0:0:0:0:
136,92,13261,1,8,0:0:0:0:
280,211,13618,6,0,L|451:211,1,145,0|8,3:0|0:0,0:0:0:0:
278,138,14332,2,0,L|279:52,1,72.5,0|0,3:0|0:0,0:0:0:0:
356,62,14690,2,0,L|354:-25,1,72.5,8|0,0:0|0:0,0:0:0:0:
279,34,15047,6,0,L|130:37,1,145,0|8,3:0|0:0,0:0:0:0:
280,187,15761,2,0,L|456:189,1,145,0|8,3:0|0:0,0:0:0:0:
277,185,16475,6,0,L|284:89,1,72.5,0|0,3:0|0:0,0:0:0:0:
354,94,16832,1,8,0:0:0:0:
284,93,17011,1,0,0:0:0:0:
147,181,17361,2,0,L|139:22,1,145,0|0,3:0|3:0,0:0:0:0:
208,22,17882,5,0,3:0:0:0:
256,192,18239,12,0,20382,0:0:0:0:
288,205,20770,6,0,L|464:204,1,145,2|0,3:0|0:0,0:0:0:0:
286,138,21482,2,0,L|283:55,1,72.5
356,57,21839,1,2,0:0:0:0:
202,93,22195,6,0,L|108:97,1,72.5
277,194,22730,2,0,L|434:192,1,145
278,110,23443,1,0,0:0:0:0:
200,147,23621,6,0,L|199:-19,1,145,2|0,3:0|0:0,0:0:0:0:
278,110,24156,1,2,0:0:0:0:
424,139,24512,2,0,L|426:55,1,72.5,0|2,0:0|0:0,0:0:0:0:
280,63,25047,6,0,L|105:66,1,145
277,159,25760,2,0,L|281:78,1,72.5
211,84,26116,1,0,0:0:0:0:
358,140,26454,6,0,L|523:134,1,145,2|0,3:0|0:0,0:0:0:0:
432,214,26988,1,2,0:0:0:0:
287,119,27345,2,0,L|182:117,1,72.5,0|2,0:0|0:0,0:0:0:0:
360,152,27879,6,0,L|364:75,1,72.5
226,67,28414,1,0,0:0:0:0:
300,70,28592,2,0,L|434:72,2,108.75
226,167,29305,6,0,L|217:12,1,145,2|0,3:0|0:0,0:0:0:0:
296,30,29840,1,2,0:0:0:0:
156,79,30196,1,0,0:0:0:0:
291,105,30552,6,0,L|450:109,1,145
287,176,31265,1,0,0:0:0:0:
358,137,31444,2,0,L|359:42,1,72.5
287,176,31800,1,2,0:0:0:0:
129,168,32170,6,0,L|119:7,1,145,8|0,3:0|3:0,0:0:0:0:
268,98,32882,2,0,L|268:10,1,72.5,0|0,3:0|0:0,0:0:0:0:
197,27,33239,1,0,3:0:0:0:
347,194,33595,6,0,L|350:31,1,145,0|0,3:0|3:0,0:0:0:0:
185,134,34308,2,0,L|176:-37,1,145,0|0,3:0|3:0,0:0:0:0:
327,63,35033,6,0,L|169:60,1,145,0|0,3:0|3:0,0:0:0:0:
256,144,35567,2,0,L|403:147,1,145
327,210,36102,1,0,3:0:0:0:
173,179,36445,6,0,L|161:26,1,145,0|0,3:0|3:0,0:0:0:0:
301,75,37158,2,0,L|299:-11,1,72.5,0|0,3:0|0:0,0:0:0:0:
219,36,37514,2,0,L|218:-42,1,72.5,0|0,3:0|0:0,0:0:0:0:
304,133,37884,6,0,L|465:130,1,145,8|0,3:0|3:0,0:0:0:0:
298,202,38596,2,0,L|294:115,1,72.5,0|0,3:0|0:0,0:0:0:0:
369,122,38953,2,0,L|372:32,1,72.5,0|0,3:0|0:0,0:0:0:0:
296,51,39309,5,0,3:0:0:0:
223,51,39487,1,0,0:0:0:0:
151,51,39665,1,0,3:0:0:0:
223,51,39844,1,0,0:0:0:0:
361,162,40200,1,0,0:0:0:0:
221,158,40557,1,0,0:0:0:0:
297,120,40756,5,8,3:0:0:0:
296,47,40934,1,0,0:0:0:0:
296,0,41112,1,2,0:0:0:0:
156,124,41468,1,0,0:0:0:0:
154,51,41646,1,0,0:0:0:0:
223,0,41825,1,2,0:0:0:0:
358,147,42181,5,0,0:0:0:0:
356,74,42359,1,0,0:0:0:0:
354,2,42537,1,2,0:0:0:0:
216,162,42894,2,0,L|116:164,2,72.5,2|0|0,0:0|0:0|0:0,0:0:0:0:
295,132,43444,5,8,3:0:0:0:
295,132,44156,1,0,0:0:0:0:
222,132,44334,1,0,0:0:0:0:
152,107,44513,1,0,0:0:0:0:
287,31,44850,6,0,L|457:32,1,145,8|8,3:0|3:0,0:0:0:0:
283,121,45562,2,0,L|108:123,1,145,8|0,3:0|0:0,0:0:0:0:
361,191,46460,6,0,L|359:94,1,72.5,8|0,3:0|0:0,0:0:0:0:
214,101,46994,1,0,0:0:0:0:
340,65,47351,1,0,0:0:0:0:
268,87,47529,6,0,L|264:0,1,72.5,8|0,0:0|0:0,0:0:0:0:
405,113,48045,1,0,0:0:0:0:
262,133,48401,2,0,L|92:131,1,145
191,211,48936,2,0,L|192:122,1,72.5,8|0,0:0|0:0,0:0:0:0:
113,155,49292,6,0,L|111:57,1,72.5,0|0,3:0|0:0,0:0:0:0:
239,81,49827,2,0,L|408:80,1,145
236,195,50540,6,0,L|233:31,1,140.650003326531
310,47,51084,1,8,0:0:0:0:
160,111,51440,2,0,L|75:110,2,72.5,0|0|8,3:0|0:0|0:0,0:0:0:0:
236,109,51974,1,0,0:0:0:0:
159,107,52152,6,0,L|159:29,1,72.5,4|0,3:1|0:0,0:0:0:0:
306,138,52687,1,0,0:0:0:0:
164,143,53044,2,0,L|161:62,1,72.5,0|8,0:0|0:0,0:0:0:0:
235,70,53400,6,0,L|401:73,1,145
234,181,54113,1,0,0:0:0:0:
91,154,54469,2,0,L|86:59,1,72.5,0|8,0:0|0:0,0:0:0:0:
157,83,54826,6,0,L|306:84,1,145
441,245,55539,2,0,L|280:244,1,145
441,181,56252,6,0,L|441:12,1,145
371,25,56786,1,8,0:0:0:0:
235,189,57143,2,0,L|237:109,1,72.5,0|0,3:0|0:0,0:0:0:0:
316,116,57500,2,0,L|320:34,1,72.5,8|0,0:0|0:0,0:0:0:0:
241,45,57868,6,0,L|74:42,1,145,4|8,3:1|0:0,0:0:0:0:
172,108,58402,1,0,0:0:0:0:
323,110,58759,1,0,0:0:0:0:
249,105,58937,6,0,L|241:15,1,72.5,8|0,0:0|0:0,0:0:0:0:
375,50,59471,1,0,0:0:0:0:
234,146,59828,2,0,L|76:146,1,145
158,214,60363,1,8,0:0:0:0:
229,213,60541,6,0,L|389:215,1,145
305,147,61075,1,8,0:0:0:0:
236,147,61254,1,0,0:0:0:0:
375,102,61610,1,0,0:0:0:0:
236,147,61966,6,0,L|77:146,1,145
161,212,62501,1,8,0:0:0:0:
299,147,62858,2,0,L|301:65,1,72.5,0|0,3:0|0:0,0:0:0:0:
228,74,63214,2,0,L|223:-18,1,72.5,8|0,0:0|0:0,0:0:0:0:
303,39,63562,6,0,L|455:40,1,145,4|8,3:1|0:0,0:0:0:0:
301,141,64275,2,0,L|127:141,1,145,0|8,0:0|0:0,0:0:0:0:
315,217,64988,6,0,L|314:56,1,145,0|8,3:0|0:0,0:0:0:0:
243,72,65523,2,0,L|66:71,1,145
173,146,66057,1,8,0:0:0:0:
334,180,66439,6,0,L|336:29,1,145,4|0,3:0|0:0,0:0:0:0:
176,114,67142,2,0,L|165:-38,1,145,8|0,0:0|3:0,0:0:0:0:
244,13,67687,5,0,3:0:0:0:
392,80,68567,5,8,3:0:0:0:
319,79,68773,1,4,3:0:0:0:
108,209,69296,6,0,L|102:43,1,145,8|8,3:0|0:0,0:0:0:0:
248,67,70009,1,0,3:0:0:0:
175,67,70187,1,0,0:0:0:0:
103,67,70365,1,8,0:0:0:0:
258,170,70705,6,0,L|431:168,1,145,0|8,3:0|0:0,0:0:0:0:
256,170,71417,2,0,L|97:169,1,145,0|8,3:0|0:0,0:0:0:0:
186,238,71952,6,0,L|335:236,1,145
183,153,72665,2,0,L|173:-12,1,145
328,96,73378,6,0,L|168:97,1,145
320,215,74090,2,0,L|481:213,1,145
385,145,74625,1,0,0:0:0:0:
227,206,74970,6,0,L|224:41,1,145,4|8,3:1|0:0,0:0:0:0:
367,49,75682,2,0,L|369:144,1,72.5,0|0,3:0|0:0,0:0:0:0:
294,131,76039,1,8,0:0:0:0:
144,211,76407,6,0,L|314:211,1,145,0|8,3:0|0:0,0:0:0:0:
214,141,76941,1,0,0:0:0:0:
142,130,77119,2,0,L|136:28,1,72.5,0|0,3:0|0:0,0:0:0:0:
273,66,77654,6,0,L|371:66,1,72.5,0|0,0:0|3:0,0:0:0:0:
273,66,78030,1,0,0:0:0:0:
139,137,78386,5,0,0:0:0:0:
212,128,78565,2,0,L|211:33,1,72.5,2|2,3:0|3:0,0:0:0:0:
139,137,78921,1,2,3:0:0:0:
212,128,79100,1,2,3:0:0:0:
355,192,79470,6,0,L|428:187,1,72.5,0|0,3:0|3:0,0:0:0:0:
286,98,80004,2,0,L|182:97,1,72.5,8|0,3:0|3:0,0:0:0:0:
383,215,80569,5,4,1:0:0:0:
256,192,80926,12,0,83604,0:0:0:0:
