osu file format v14

[General]
AudioFilename: audio.MP3
AudioLeadIn: 0
PreviewTime: 67988
Countdown: 1
SampleSet: Soft
StackLeniency: 0.7
Mode: 2
LetterboxInBreaks: 0
WidescreenStoryboard: 1

[Editor]
Bookmarks: 1384,31971,46610,66565,69499,80894
DistanceSpacing: 1.1
BeatDivisor: 4
GridSize: 32
TimelineZoom: 3.099999

[Metadata]
Title:D-tecnoLife (TV Size)
TitleUnicode:D-tecnoLife (TV Size)
Artist:UVERworld
ArtistUnicode:UVERworld
Creator:Secre
Version:Bankai
Source:BLEACH
Tags:chickenbible γƒ–γƒͺーチ anime japanese opening 2 second 2nd ichigo kurosaki jrock rock
BeatmapID:2823090
BeatmapSetID:1364627

[Difficulty]
HPDrainRate:6
CircleSize:3.5
OverallDifficulty:9
ApproachRate:9
SliderMultiplier:1.8
SliderTickRate:1

[Events]
//Background and Video events
0,0,"pekora would win this fight.jpg",0,0
Video,-147,"bleach_op_2_2.mp4"
//Break Periods
//Storyboard Layer 0 (Background)
//Storyboard Layer 1 (Fail)
//Storyboard Layer 2 (Pass)
//Storyboard Layer 3 (Foreground)
//Storyboard Layer 4 (Overlay)
//Storyboard Sound Samples

[TimingPoints]
805,356.43634937891,4,2,2,30,1,0
805,-100,4,2,2,30,0,0
10789,356.43634937891,4,2,2,30,1,0
12036,-100,4,2,2,70,0,0
12190,357.142857142857,4,2,2,70,1,0
12190,-100,4,2,2,70,0,0
17361,357.142857142857,4,2,2,70,1,0
17718,-92.5925925925926,4,2,2,70,0,0
17882,357.142857142857,4,2,2,70,1,0
17908,-100,4,2,2,70,0,0
18087,-100,4,2,2,70,0,0
20587,-100,4,2,2,70,0,0
20750,-100,4,2,2,70,0,0
20770,356.43634937891,4,2,2,50,1,0
20770,-100,4,2,2,50,0,0
23622,-100,4,2,2,50,0,0
23711,-100,4,2,2,50,0,0
26454,356.43634937891,4,2,2,50,1,0
26479,-100,4,2,2,50,0,0
26568,-100,4,2,2,50,0,0
30943,-100,4,2,2,50,0,0
31300,-100,4,2,2,50,0,0
31653,-100,4,2,2,50,0,0
32170,356.43634937891,4,2,2,50,1,0
32175,-100,4,2,2,60,0,0
35033,356.43634937891,4,2,2,60,1,0
36445,356.43634937891,4,2,2,60,1,0
37884,356.43634937891,4,2,2,60,1,0
40756,356.43634937891,4,2,2,70,1,0
40756,-100,4,2,2,70,0,0
43444,356.43634937891,4,2,2,70,1,0
44168,-100,4,2,2,70,0,0
44850,356.43634937891,4,2,2,70,1,0
45483,-100,4,2,2,70,0,0
45561,-100,4,2,2,70,0,0
46018,-100,4,2,2,70,0,0
46108,-100,4,2,2,70,0,0
46152,-100,4,2,2,70,0,0
46197,-100,4,2,2,70,0,0
46241,-100,4,2,2,70,0,0
46286,-100,4,2,2,70,0,0
46331,-100,4,2,2,70,0,0
46375,-100,4,2,2,70,0,0
46420,-100,4,2,2,70,0,0
46460,356.43634937891,4,2,2,80,1,1
46460,-100,4,2,2,80,0,1
48045,356.43634937891,4,2,2,80,1,1
51084,356.43634937891,4,2,2,80,1,1
57868,356.43634937891,4,2,2,80,1,1
63562,356.43634937891,4,2,2,80,1,1
66439,363.636363636364,4,2,2,70,1,0
66439,-100,4,2,2,70,0,0
67142,363.636363636364,4,2,2,70,1,0
68567,356.43634937891,4,2,2,70,1,0
68741,-100,4,2,2,70,0,0
68773,356.43634937891,4,2,2,70,1,0
68773,-100,4,2,2,70,0,0
69296,356.43634937891,4,2,2,70,1,1
69300,-100,4,2,2,70,0,1
70705,356.43634937891,4,2,2,70,1,1
74970,356.43634937891,4,2,2,70,1,1
76407,356.43634937891,4,2,2,70,1,1
78030,356.43634937891,4,2,2,70,1,1
79470,356.43634937891,4,2,2,70,1,1
80569,357.142857142857,4,2,2,70,1,1
80571,-100,4,2,2,70,0,1
80747,-100,4,2,2,70,0,0
81285,-100,4,2,2,70,0,0
81999,-100,4,2,2,60,0,0
82713,-100,4,2,2,50,0,0
83071,-100,4,2,2,40,0,0
83604,-100,4,2,2,5,0,0

[Colours]
Combo1 : 254,236,14
Combo2 : 30,135,240
Combo3 : 255,128,0

[HitObjects]
372,201,804,6,0,L|214:203,2,135,2|0|2,0:0|0:0|0:0,0:0:0:0:
131,119,1696,1,0,0:0:0:0:
374,209,1874,2,0,L|377:99,1,90,2|0,0:0|0:0,0:0:0:0:
106,104,2408,5,0,0:0:0:0:
402,238,2765,2,0,L|208:240,1,180
364,164,3300,1,2,0:0:0:0:
228,161,3478,1,0,0:0:0:0:
470,102,3656,5,2,3:0:0:0:
271,73,3923,1,0,0:0:0:0:
69,74,4191,2,0,P|16:109|79:202,1,180,2|0,0:0|0:0,0:0:0:0:
149,198,4725,1,2,0:0:0:0:
338,183,4904,1,0,0:0:0:0:
99,204,5082,6,0,L|92:99,1,90,2|0,3:0|0:0,0:0:0:0:
266,17,5438,2,0,L|374:16,1,90
83,171,5795,1,2,0:0:0:0:
220,185,5973,1,0,0:0:0:0:
358,187,6151,1,2,0:0:0:0:
220,185,6329,1,0,0:0:0:0:
470,236,6507,6,0,L|481:108,1,90,2|0,3:0|0:0,0:0:0:0:
305,163,6864,2,0,L|296:44,1,90,0|2,0:0|0:0,0:0:0:0:
471,43,7220,1,0,0:0:0:0:
298,73,7399,2,0,L|178:76,1,90,0|2,0:0|0:0,0:0:0:0:
370,151,7755,1,0,0:0:0:0:
105,194,7933,6,0,L|96:64,1,90,2|0,3:0|0:0,0:0:0:0:
271,124,8290,2,0,L|278:6,1,90
35,157,8646,1,2,0:0:0:0:
181,155,8824,1,0,0:0:0:0:
35,157,9003,1,2,0:0:0:0:
304,216,9181,1,0,0:0:0:0:
59,225,9359,6,0,L|43:115,1,90,2|0,3:0|0:0,0:0:0:0:
208,99,9715,1,0,0:0:0:0:
57,142,9894,2,0,P|16:106|91:36,1,180,2|0,0:0|0:0,0:0:0:0:
244,110,10428,1,2,0:0:0:0:
93,109,10606,1,0,0:0:0:0:
399,229,10789,6,0,L|402:122,1,90,2|0,3:0|0:0,0:0:0:0:
245,118,11145,1,0,0:0:0:0:
401,139,11323,2,0,L|193:139,1,180
399,229,11858,2,0,L|405:134,1,77.1428571428571,0|0,0:0|3:0,0:0:0:0:
345,120,12112,1,0,3:0:0:0:
117,131,12190,6,0,L|99:6,1,90,4|0,1:0|0:0,0:0:0:0:
274,109,12547,2,0,L|284:1,1,90,8|0,0:0|0:0,0:0:0:0:
114,129,12904,1,0,3:0:0:0:
288,136,13082,1,0,0:0:0:0:
114,129,13261,1,8,0:0:0:0:
288,136,13440,1,0,0:0:0:0:
28,152,13618,6,0,L|15:27,1,90,0|0,3:0|0:0,0:0:0:0:
176,73,13975,2,0,L|181:-39,1,90,8|0,0:0|0:0,0:0:0:0:
333,36,14332,1,0,3:0:0:0:
176,73,14511,1,0,0:0:0:0:
333,36,14690,1,8,0:0:0:0:
83,145,14868,1,0,0:0:0:0:
349,146,15047,5,0,3:0:0:0:
206,167,15225,2,0,L|196:66,1,90,0|8,0:0|0:0,0:0:0:0:
452,66,15582,2,0,L|348:66,2,90,0|0|0,0:0|3:0|0:0,0:0:0:0:
173,153,16118,1,8,0:0:0:0:
419,189,16297,6,0,L|420:79,1,90,0|0,0:0|3:0,0:0:0:0:
143,133,16654,2,0,L|130:35,1,90,0|8,0:0|0:0,0:0:0:0:
393,205,17011,2,0,L|399:99,1,90,0|0,0:0|3:0,0:0:0:0:
108,163,17361,2,0,L|272:161,1,135,0|0,3:0|0:0,0:0:0:0:
481,227,17718,6,0,L|483:132,1,90,0|0,3:0|3:0,0:0:0:0:
256,192,18060,12,0,20560,0:0:0:0:
217,244,20770,6,0,L|207:141,1,90,2|0,3:0|0:0,0:0:0:0:
298,131,21126,1,0,0:0:0:0:
151,162,21304,1,2,0:0:0:0:
292,168,21482,1,0,0:0:0:0:
151,162,21661,2,0,L|140:57,1,90,0|2,0:0|0:0,0:0:0:0:
292,168,22017,1,0,0:0:0:0:
151,162,22195,5,0,0:0:0:0:
410,233,22373,2,0,L|411:133,1,90
260,158,22730,2,0,L|252:61,1,90
414,144,23086,2,0,L|421:37,1,90
329,61,23443,1,0,0:0:0:0:
64,211,23621,6,0,L|183:210,2,90,2|0|0,3:0|0:0|0:0,0:0:0:0:
228,240,24156,2,0,L|232:134,1,90,2|0,0:0|0:0,0:0:0:0:
138,129,24512,1,0,0:0:0:0:
300,162,24690,2,0,L|304:60,1,90,2|0,0:0|0:0,0:0:0:0:
138,129,25047,5,0,0:0:0:0:
303,162,25225,2,0,L|304:60,1,90
138,129,25581,1,0,0:0:0:0:
227,127,25760,1,0,0:0:0:0:
138,129,25938,1,0,0:0:0:0:
303,215,26116,1,0,0:0:0:0:
138,129,26294,1,0,0:0:0:0:
398,231,26454,6,0,L|402:112,1,90,2|0,3:0|0:0,0:0:0:0:
263,111,26810,1,0,0:0:0:0:
119,105,26988,2,0,L|108:-18,1,90,2|0,0:0|0:0,0:0:0:0:
263,111,27345,1,0,0:0:0:0:
413,151,27523,2,0,L|428:30,1,90,2|0,0:0|0:0,0:0:0:0:
263,111,27879,5,0,0:0:0:0:
413,151,28057,2,0,L|414:37,1,90
161,184,28414,1,0,0:0:0:0:
316,187,28592,2,0,L|159:186,2,135
66,222,29305,6,0,L|55:121,1,90,2|0,3:0|0:0,0:0:0:0:
197,111,29661,1,0,0:0:0:0:
333,137,29840,2,0,L|338:26,1,90,2|0,0:0|0:0,0:0:0:0:
194,43,30196,2,0,L|188:-52,1,90,0|2,0:0|0:0,0:0:0:0:
335,43,30552,1,0,0:0:0:0:
196,44,30731,5,0,0:0:0:0:
438,85,30909,2,0,P|485:111|425:206,1,180
260,145,31444,2,0,L|167:146,1,90
432,109,31800,2,0,L|443:4,1,90,2|0,0:0|0:0,0:0:0:0:
163,274,32170,6,0,P|111:233|188:169,1,180,8|0,3:0|3:0,0:0:0:0:
319,175,32704,1,0,0:0:0:0:
156,159,32882,2,0,L|148:33,1,90,0|0,3:0|0:0,0:0:0:0:
315,106,33239,2,0,L|317:6,1,90,0|0,3:0|0:0,0:0:0:0:
156,157,33595,5,0,3:0:0:0:
298,164,33773,1,0,0:0:0:0:
156,157,33952,1,0,3:0:0:0:
298,164,34130,1,0,0:0:0:0:
25,125,34308,2,0,L|12:8,1,90,0|0,3:0|0:0,0:0:0:0:
169,41,34665,1,0,3:0:0:0:
21,42,34843,1,0,0:0:0:0:
339,64,35033,6,0,L|348:178,1,90,0|0,3:0|0:0,0:0:0:0:
193,168,35389,1,0,3:0:0:0:
37,141,35568,2,0,L|24:28,1,90,0|0,0:0|3:0,0:0:0:0:
186,95,35924,2,0,L|194:-17,1,90,0|0,0:0|3:0,0:0:0:0:
39,30,36280,1,0,0:0:0:0:
335,143,36445,5,0,3:0:0:0:
335,143,36623,1,0,0:0:0:0:
173,142,36801,1,0,3:0:0:0:
173,142,36979,1,0,0:0:0:0:
459,194,37158,2,0,L|463:95,1,90,0|0,3:0|0:0,0:0:0:0:
189,107,37514,2,0,L|175:2,1,90,0|0,3:0|0:0,0:0:0:0:
462,131,37884,5,8,3:0:0:0:
315,149,38063,1,0,0:0:0:0:
462,131,38241,2,0,L|470:25,1,90,0|0,3:0|0:0,0:0:0:0:
171,192,38597,1,0,3:0:0:0:
323,197,38776,1,0,0:0:0:0:
171,192,38954,1,0,3:0:0:0:
323,197,39132,1,0,0:0:0:0:
42,122,39310,5,0,3:0:0:0:
191,119,39488,1,0,0:0:0:0:
42,122,39667,1,0,3:0:0:0:
191,119,39845,2,0,L|197:11,1,90,0|0,0:0|3:0,0:0:0:0:
42,44,40201,1,0,0:0:0:0:
310,137,40379,2,0,L|426:135,1,90,0|0,3:0|0:0,0:0:0:0:
118,173,40756,6,0,L|115:73,1,90,8|0,3:0|0:0,0:0:0:0:
281,63,41112,1,2,0:0:0:0:
65,156,41379,2,0,L|64:62,1,90
120,56,41647,1,0,0:0:0:0:
280,258,41825,2,0,L|153:261,1,90,2|0,0:0|0:0,0:0:0:0:
354,204,42181,6,0,L|352:105,1,90
184,118,42538,1,2,0:0:0:0:
432,268,42894,2,0,L|342:269,1,90,2|0,0:0|0:0,0:0:0:0:
176,170,43251,1,0,0:0:0:0:
452,141,43444,6,0,L|458:252,3,90,8|0|0|2,3:0|0:0|0:0|0:0,0:0:0:0:
171,140,44156,1,0,0:0:0:0:
326,117,44335,1,0,0:0:0:0:
174,76,44513,1,0,0:0:0:0:
21,74,44691,1,0,0:0:0:0:
334,210,44850,6,0,L|345:90,1,90,8|0,3:0|0:0,0:0:0:0:
69,115,45206,2,0,L|56:1,1,90,8|0,3:0|0:0,0:0:0:0:
382,119,45562,2,0,L|393:6,1,90,8|0,3:0|0:0,0:0:0:0:
108,220,45919,1,0,0:0:0:0:
66,203,46008,1,0,0:0:0:0:
42,166,46097,1,0,0:0:0:0:
45,122,46186,1,0,0:0:0:0:
75,88,46275,1,0,0:0:0:0:
120,79,46364,1,0,0:0:0:0:
325,184,46460,5,8,3:0:0:0:
237,132,46638,2,0,L|229:27,1,90,0|8,0:0|0:0,0:0:0:0:
397,94,46994,2,0,L|401:-11,1,90,0|0,0:0|3:0,0:0:0:0:
151,134,47351,1,0,0:0:0:0:
424,148,47529,1,8,0:0:0:0:
277,163,47707,6,0,L|269:55,1,90,0|0,0:0|3:0,0:0:0:0:
434,82,48045,2,0,L|438:-20,1,90,0|8,0:0|0:0,0:0:0:0:
128,167,48401,2,0,L|346:169,1,180
143,90,48936,1,8,0:0:0:0:
311,89,49114,1,0,0:0:0:0:
59,221,49292,5,0,3:0:0:0:
203,167,49470,2,0,L|97:168,1,90,0|8,0:0|0:0,0:0:0:0:
385,230,49827,2,0,L|391:98,1,90,0|0,0:0|3:0,0:0:0:0:
222,123,50183,2,0,L|212:10,1,90,0|8,0:0|0:0,0:0:0:0:
460,91,50540,1,0,0:0:0:0:
187,212,50718,6,0,L|175:92,1,90,0|0,3:0|0:0,0:0:0:0:
436,144,51084,2,0,L|441:33,1,90,8|0,0:0|0:0,0:0:0:0:
119,109,51441,1,0,3:0:0:0:
286,115,51619,1,0,0:0:0:0:
119,109,51797,1,8,0:0:0:0:
373,85,51975,1,0,0:0:0:0:
93,182,52153,5,4,3:1:0:0:
244,165,52332,2,0,L|249:72,1,90,0|8,0:0|0:0,0:0:0:0:
80,92,52688,2,0,L|71:-7,1,90,0|0,0:0|3:0,0:0:0:0:
233,47,53045,1,0,0:0:0:0:
79,92,53223,1,8,0:0:0:0:
385,169,53401,1,0,0:0:0:0:
146,210,53579,5,0,3:0:0:0:
299,212,53757,2,0,L|306:104,1,90,0|8,0:0|0:0,0:0:0:0:
151,115,54114,2,0,L|144:6,1,90,0|0,0:0|3:0,0:0:0:0:
314,45,54470,1,0,0:0:0:0:
145,25,54649,1,8,0:0:0:0:
405,143,54827,5,0,0:0:0:0:
140,145,55005,1,0,3:0:0:0:
286,126,55183,2,0,L|286:27,1,90,0|8,0:0|0:0,0:0:0:0:
126,88,55540,2,0,L|327:89,1,180
139,187,56074,1,8,0:0:0:0:
403,161,56252,5,0,0:0:0:0:
135,104,56431,1,0,3:0:0:0:
280,113,56609,2,0,L|288:18,1,90,0|8,0:0|0:0,0:0:0:0:
22,146,56965,1,0,0:0:0:0:
185,189,57144,1,0,3:0:0:0:
347,171,57322,1,0,0:0:0:0:
185,189,57500,1,8,0:0:0:0:
347,171,57678,1,0,0:0:0:0:
47,248,57868,6,0,P|44:194|162:141,1,180,4|8,3:1|0:0,0:0:0:0:
396,234,58402,2,0,L|408:109,1,90,0|0,0:0|3:0,0:0:0:0:
240,122,58759,1,0,0:0:0:0:
490,102,58937,5,8,0:0:0:0:
228,188,59115,2,0,L|110:188,1,90,0|0,0:0|3:0,0:0:0:0:
288,142,59471,2,0,L|395:143,1,90,0|8,0:0|0:0,0:0:0:0:
99,283,59828,2,0,P|44:244|129:176,1,180
263,156,60363,1,8,0:0:0:0:
20,146,60541,5,0,0:0:0:0:
338,137,60719,1,0,3:0:0:0:
185,122,60897,1,0,0:0:0:0:
338,137,61075,1,8,0:0:0:0:
185,122,61254,2,0,L|178:18,1,90,0|0,0:0|3:0,0:0:0:0:
347,62,61610,2,0,L|356:-50,1,90,0|8,0:0|0:0,0:0:0:0:
88,230,61966,6,0,L|284:222,1,180
19,137,62501,2,0,L|11:22,1,90,8|0,0:0|0:0,0:0:0:0:
331,129,62858,1,0,3:0:0:0:
180,134,63036,1,0,0:0:0:0:
331,129,63214,1,8,0:0:0:0:
75,78,63392,1,0,0:0:0:0:
379,87,63562,5,4,3:1:0:0:
236,109,63740,2,0,L|231:9,1,90,0|8,0:0|0:0,0:0:0:0:
379,87,64097,2,0,L|156:91,1,180
353,192,64632,1,8,0:0:0:0:
107,137,64810,1,0,0:0:0:0:
376,111,64988,5,0,3:0:0:0:
231,121,65166,2,0,L|226:23,1,90,0|8,0:0|0:0,0:0:0:0:
385,60,65523,2,0,L|188:60,1,180
499,207,66057,2,0,L|346:205,1,135,8|0,0:0|0:0,0:0:0:0:
416,142,66439,5,4,3:0:0:0:
507,209,66620,1,0,0:0:0:0:
327,200,66802,2,0,L|220:198,1,90,0|0,0:0|3:0,0:0:0:0:
283,134,67075,1,0,3:0:0:0:
463,130,67142,2,0,L|465:34,1,90,8|0,0:0|0:0,0:0:0:0:
316,52,67505,1,0,3:0:0:0:
462,48,67687,1,0,3:0:0:0:
173,250,67869,6,0,L|329:252,2,135
413,151,68567,1,8,3:0:0:0:
102,183,68773,2,0,P|43:139|128:71,1,180,4|0,3:0|0:0,0:0:0:0:
395,131,69296,6,0,L|413:6,1,90,8|0,3:0|0:0,0:0:0:0:
241,126,69652,2,0,L|231:18,1,90,8|0,0:0|0:0,0:0:0:0:
398,129,70008,1,0,3:0:0:0:
241,126,70187,1,0,0:0:0:0:
398,129,70365,1,8,0:0:0:0:
241,126,70543,1,0,0:0:0:0:
484,152,70705,6,0,L|497:27,1,90,0|0,3:0|0:0,0:0:0:0:
336,73,71061,2,0,L|331:-39,1,90,8|0,0:0|0:0,0:0:0:0:
179,36,71417,1,0,3:0:0:0:
336,73,71595,1,0,0:0:0:0:
179,36,71774,1,8,0:0:0:0:
468,147,71952,1,0,0:0:0:0:
190,146,72130,5,0,3:0:0:0:
333,167,72308,2,0,L|343:66,1,90,0|8,0:0|0:0,0:0:0:0:
83,66,72665,1,0,0:0:0:0:
228,69,72843,1,0,3:0:0:0:
83,66,73021,1,0,0:0:0:0:
375,143,73199,1,8,0:0:0:0:
119,175,73378,6,0,L|118:65,1,90,0|0,0:0|3:0,0:0:0:0:
398,94,73734,2,0,L|411:-4,1,90,0|8,0:0|0:0,0:0:0:0:
96,208,74090,2,0,L|90:102,1,90,0|0,0:0|3:0,0:0:0:0:
383,230,74447,2,0,P|437:191|353:122,1,180
117,131,74970,6,0,L|99:6,1,90,4|0,3:1|0:0,0:0:0:0:
276,113,75326,2,0,L|286:5,1,90,8|0,0:0|0:0,0:0:0:0:
114,129,75682,1,0,3:0:0:0:
276,141,75861,1,0,0:0:0:0:
114,129,76039,1,8,0:0:0:0:
276,141,76217,1,0,0:0:0:0:
24,151,76407,6,0,L|15:26,1,90,0|0,3:0|0:0,0:0:0:0:
178,73,76763,1,8,0:0:0:0:
336,91,76941,1,0,0:0:0:0:
174,248,77119,1,0,3:0:0:0:
335,259,77297,2,0,L|338:163,1,90,0|8,0:0|0:0,0:0:0:0:
176,168,77654,1,0,0:0:0:0:
342,163,77832,5,0,3:0:0:0:
176,168,78030,2,0,L|166:67,1,90,0|8,0:0|0:0,0:0:0:0:
456,66,78387,1,0,0:0:0:0:
293,68,78565,5,2,3:0:0:0:
456,66,78742,1,2,3:0:0:0:
172,98,78921,1,2,3:0:0:0:
456,145,79099,2,0,L|459:47,1,90,2|0,3:0|0:0,0:0:0:0:
159,213,79470,6,0,L|283:213,2,90,0|0|0,3:0|3:0|3:0,0:0:0:0:
454,142,80004,1,8,3:0:0:0:
305,138,80182,1,0,3:0:0:0:
454,142,80361,1,0,3:0:0:0:
106,118,80569,5,4,1:0:0:0:
256,192,80747,12,0,83604,0:0:0:0:
