osu file format v14

[General]
AudioFilename: audio.mp3
AudioLeadIn: 500
PreviewTime: 58975
Countdown: 0
SampleSet: None
StackLeniency: 0.7
Mode: 1
LetterboxInBreaks: 0
WidescreenStoryboard: 1

[Editor]
DistanceSpacing: 1.2
BeatDivisor: 4
GridSize: 4
TimelineZoom: 2.6

[Metadata]
Title:Colors of the Heart (TV Size)
TitleUnicode:Colors of the Heart (TV Size)
Artist:UVERworld
ArtistUnicode:UVERworld
Creator:Hanjamon
Version:Muzukashii
Source:
Tags:blood+ opening 3 spongebob squarepants Patrick Star Evil Squidward Tentacles Sandy Cheeks Mr. Krabs Gary Plankton Normak
BeatmapID:1397018
BeatmapSetID:659679

[Difficulty]
HPDrainRate:5.5
CircleSize:5
OverallDifficulty:4.5
ApproachRate:5
SliderMultiplier:1.4
SliderTickRate:1

[Events]
//Background and Video events
0,0,"lowdiffBG.jpg",0,20
//Break Periods
//Storyboard Layer 0 (Background)
//Storyboard Layer 1 (Fail)
//Storyboard Layer 2 (Pass)
//Storyboard Layer 3 (Foreground)
//Storyboard Sound Samples

[TimingPoints]
2614,352.941176470588,4,1,0,30,1,0
8240,352.941176470588,4,1,0,50,1,1
29416,-100,4,1,0,50,0,0
60475,-100,4,1,0,50,0,1
84298,-100,4,1,0,50,0,0

[HitObjects]
240,52,2437,5,8,0:0:0:0:
232,124,2614,1,0,0:0:0:0:
248,160,2966,1,0,0:0:0:0:
312,184,3319,1,8,0:0:0:0:
312,184,3496,1,0,0:0:0:0:
312,184,4025,1,0,0:0:0:0:
312,184,4378,1,8,0:0:0:0:
312,184,4555,1,0,0:0:0:0:
316,184,4908,1,8,0:0:0:0:
316,184,5084,1,8,0:0:0:0:
316,184,5261,1,0,0:0:0:0:
316,184,5437,1,0,0:0:0:0:
316,184,5790,1,0,0:0:0:0:
316,184,6143,1,8,0:0:0:0:
396,208,6319,1,0,0:0:0:0:
396,208,6672,1,8,0:0:0:0:
264,108,8240,1,4,0:0:0:0:
264,108,8592,1,8,0:0:0:0:
288,196,8769,1,0,0:0:0:0:
288,196,8945,1,0,0:0:0:0:
288,196,9298,1,8,0:0:0:0:
288,196,9651,1,0,0:0:0:0:
288,196,10004,1,8,0:0:0:0:
288,196,10181,1,8,0:0:0:0:
288,196,10357,1,0,0:0:0:0:
288,196,10534,1,0,0:0:0:0:
288,196,10710,1,8,0:0:0:0:
312,208,11063,1,0,0:0:0:0:
432,252,11416,1,8,0:0:0:0:
432,252,11592,1,8,0:0:0:0:
160,104,11681,1,8,0:0:0:0:
432,252,11769,1,8,0:0:0:0:
432,252,11945,1,0,0:0:0:0:
432,252,12122,1,8,0:0:0:0:
432,252,12475,1,0,0:0:0:0:
432,252,13181,1,0,0:0:0:0:
432,252,13534,1,0,0:0:0:0:
432,252,13710,1,8,0:0:0:0:
432,252,13887,1,4,0:0:0:0:
436,260,14239,1,8,0:0:0:0:
436,260,14416,1,0,0:0:0:0:
436,260,14592,1,0,0:0:0:0:
436,260,14945,1,8,0:0:0:0:
436,260,15298,1,0,0:0:0:0:
436,260,15651,1,8,0:0:0:0:
436,260,15828,1,0,0:0:0:0:
436,260,16004,1,0,0:0:0:0:
436,260,16181,1,0,0:0:0:0:
436,260,16357,1,8,0:0:0:0:
436,260,16710,1,0,0:0:0:0:
436,260,17063,1,8,0:0:0:0:
436,260,17239,1,0,0:0:0:0:
212,152,17328,1,0,0:0:0:0:
436,260,17416,1,0,0:0:0:0:
436,260,17592,1,0,0:0:0:0:
436,260,17769,1,8,0:0:0:0:
436,260,18122,1,0,0:0:0:0:
368,176,18828,1,0,0:0:0:0:
368,176,19181,1,0,0:0:0:0:
368,176,19357,1,8,0:0:0:0:
368,176,19534,1,4,0:0:0:0:
368,176,19887,1,8,0:0:0:0:
376,136,20063,1,0,0:0:0:0:
376,136,20239,1,0,0:0:0:0:
376,136,20592,1,8,0:0:0:0:
256,128,20945,1,0,0:0:0:0:
256,128,21298,1,8,0:0:0:0:
256,128,21475,1,8,0:0:0:0:
256,128,21651,1,0,0:0:0:0:
256,128,21828,1,0,0:0:0:0:
256,128,22004,1,8,0:0:0:0:
256,128,22357,1,0,0:0:0:0:
256,128,22710,1,8,0:0:0:0:
256,128,22887,1,0,0:0:0:0:
176,148,22975,1,0,0:0:0:0:
256,128,23063,1,0,0:0:0:0:
256,128,23239,1,0,0:0:0:0:
256,128,23416,1,8,0:0:0:0:
256,128,23769,1,0,0:0:0:0:
256,128,24475,1,0,0:0:0:0:
416,248,24828,1,8,0:0:0:0:
416,248,25004,1,8,0:0:0:0:
416,248,25181,1,4,0:0:0:0:
248,172,25534,1,8,0:0:0:0:
240,64,25887,1,0,0:0:0:0:
248,172,26063,1,8,0:0:0:0:
248,172,26239,1,8,0:0:0:0:
272,104,26416,1,0,0:0:0:0:
272,104,26592,1,12,0:0:0:0:
272,104,26945,1,8,0:0:0:0:
272,104,27298,1,0,0:0:0:0:
272,104,27475,1,8,0:0:0:0:
272,104,27651,1,0,0:0:0:0:
272,104,27828,1,8,0:0:0:0:
272,104,28004,1,4,0:0:0:0:
216,120,28357,1,8,0:0:0:0:
216,120,28710,1,0,0:0:0:0:
224,92,28887,1,8,0:0:0:0:
224,92,29063,1,8,0:0:0:0:
224,92,29239,1,0,0:0:0:0:
224,92,29416,1,4,0:0:0:0:
184,188,30298,1,0,0:0:0:0:
224,188,30475,1,8,0:0:0:0:
260,168,30828,1,4,0:0:0:0:
320,144,31357,1,8,0:0:0:0:
320,144,31534,1,8,0:0:0:0:
320,144,31710,1,8,0:0:0:0:
320,144,32063,1,8,0:0:0:0:
320,144,32239,1,8,0:0:0:0:
320,144,32769,1,8,0:0:0:0:
320,144,33122,1,0,0:0:0:0:
320,144,33298,1,8,0:0:0:0:
320,144,33651,1,4,0:0:0:0:
300,148,34181,1,8,0:0:0:0:
300,148,34357,1,8,0:0:0:0:
300,148,34534,1,8,0:0:0:0:
300,148,34887,1,8,0:0:0:0:
300,148,35063,1,8,0:0:0:0:
300,148,35592,1,0,0:0:0:0:
300,148,35945,1,0,0:0:0:0:
300,148,36122,1,8,0:0:0:0:
300,148,36475,1,4,0:0:0:0:
360,148,36828,1,8,0:0:0:0:
360,148,37181,1,0,0:0:0:0:
360,148,37534,1,8,0:0:0:0:
360,148,37887,1,0,0:0:0:0:
360,148,38063,1,0,0:0:0:0:
360,148,38239,1,8,0:0:0:0:
360,148,38592,1,0,0:0:0:0:
344,164,39298,1,0,0:0:0:0:
248,160,39651,1,8,0:0:0:0:
248,160,39828,1,8,0:0:0:0:
248,160,40181,1,8,0:0:0:0:
236,160,40710,1,0,0:0:0:0:
376,152,41063,1,8,0:0:0:0:
376,152,41239,1,8,0:0:0:0:
376,152,41416,1,0,0:0:0:0:
376,152,41769,1,8,0:0:0:0:
376,152,42122,1,0,0:0:0:0:
292,152,42475,1,8,0:0:0:0:
292,152,42828,1,0,0:0:0:0:
292,152,43181,1,8,0:0:0:0:
280,144,43534,1,0,0:0:0:0:
280,144,43710,1,0,0:0:0:0:
280,144,43887,1,8,0:0:0:0:
280,144,44239,1,0,0:0:0:0:
328,144,44945,1,0,0:0:0:0:
328,144,45298,1,8,0:0:0:0:
328,144,45475,1,8,0:0:0:0:
328,144,45828,1,8,0:0:0:0:
328,144,46357,1,0,0:0:0:0:
328,144,46534,1,0,0:0:0:0:
328,144,46710,1,8,0:0:0:0:
328,144,47063,1,12,0:0:0:0:
328,144,47416,1,8,0:0:0:0:
352,152,47592,1,8,0:0:0:0:
352,152,47769,1,4,0:0:0:0:
368,260,48298,1,0,0:0:0:0:
332,176,48651,1,8,0:0:0:0:
332,176,49181,1,0,0:0:0:0:
332,176,49710,1,0,0:0:0:0:
332,176,50063,1,8,0:0:0:0:
332,176,50592,1,0,0:0:0:0:
332,176,50945,1,8,0:0:0:0:
332,176,51122,1,0,0:0:0:0:
332,176,51475,1,8,0:0:0:0:
332,176,52004,1,0,0:0:0:0:
288,160,52357,1,8,0:0:0:0:
364,204,52534,1,0,0:0:0:0:
320,164,52887,1,8,0:0:0:0:
200,124,53239,1,8,0:0:0:0:
200,124,53416,1,4,0:0:0:0:
272,116,53945,1,8,0:0:0:0:
272,116,54122,1,0,0:0:0:0:
332,212,54475,1,0,0:0:0:0:
328,176,54651,1,8,0:0:0:0:
328,176,54828,1,0,0:0:0:0:
328,176,55357,1,8,0:0:0:0:
328,176,55534,1,8,0:0:0:0:
352,164,55887,1,0,0:0:0:0:
352,164,56239,1,4,0:0:0:0:
304,140,56592,1,0,0:0:0:0:
304,140,56945,1,8,0:0:0:0:
304,140,57122,1,8,0:0:0:0:
304,140,57298,1,8,0:0:0:0:
456,272,57651,1,8,0:0:0:0:
456,272,57828,1,0,0:0:0:0:
456,272,58004,1,0,0:0:0:0:
456,272,58357,1,0,0:0:0:0:
456,272,58710,1,0,0:0:0:0:
456,272,58887,1,0,0:0:0:0:
456,272,59063,1,12,0:0:0:0:
332,148,59945,1,0,0:0:0:0:
332,148,60122,1,8,0:0:0:0:
332,148,60475,1,4,0:0:0:0:
264,108,60828,1,8,0:0:0:0:
288,196,61004,1,0,0:0:0:0:
288,196,61181,1,0,0:0:0:0:
288,196,61534,1,8,0:0:0:0:
288,196,61887,1,0,0:0:0:0:
288,196,62239,1,8,0:0:0:0:
288,196,62416,1,8,0:0:0:0:
288,196,62504,1,8,0:0:0:0:
288,196,62592,1,8,0:0:0:0:
288,196,62769,1,0,0:0:0:0:
288,196,62945,1,8,0:0:0:0:
312,208,63298,1,0,0:0:0:0:
432,252,63651,1,8,0:0:0:0:
432,252,63828,1,8,0:0:0:0:
432,252,63916,1,8,0:0:0:0:
432,252,64004,1,8,0:0:0:0:
432,252,64181,1,0,0:0:0:0:
432,252,64357,1,8,0:0:0:0:
432,252,64710,1,0,0:0:0:0:
432,252,65416,1,0,0:0:0:0:
432,252,65769,1,0,0:0:0:0:
432,252,65945,1,8,0:0:0:0:
432,252,66122,1,4,0:0:0:0:
436,260,66475,1,8,0:0:0:0:
436,260,66651,1,0,0:0:0:0:
436,260,66828,1,0,0:0:0:0:
436,260,67181,1,8,0:0:0:0:
436,260,67534,1,0,0:0:0:0:
436,260,67887,1,8,0:0:0:0:
436,260,68063,1,8,0:0:0:0:
436,260,68151,1,8,0:0:0:0:
436,260,68416,1,0,0:0:0:0:
436,260,68592,1,8,0:0:0:0:
436,260,68945,1,0,0:0:0:0:
436,260,69298,1,8,0:0:0:0:
436,260,69475,1,0,0:0:0:0:
436,260,69563,1,0,0:0:0:0:
436,260,69651,1,0,0:0:0:0:
436,260,69828,1,0,0:0:0:0:
436,260,70004,1,8,0:0:0:0:
436,260,70357,1,0,0:0:0:0:
368,176,71063,1,0,0:0:0:0:
368,176,71416,1,0,0:0:0:0:
368,176,71592,1,8,0:0:0:0:
368,176,71769,1,4,0:0:0:0:
368,176,72122,1,8,0:0:0:0:
376,136,72298,1,0,0:0:0:0:
376,136,72475,1,0,0:0:0:0:
376,136,72828,1,8,0:0:0:0:
256,128,73181,1,0,0:0:0:0:
256,128,73534,1,8,0:0:0:0:
256,128,73710,1,8,0:0:0:0:
256,128,73798,1,8,0:0:0:0:
256,128,73887,1,8,0:0:0:0:
256,128,74063,1,0,0:0:0:0:
256,128,74239,1,8,0:0:0:0:
256,128,74592,1,0,0:0:0:0:
256,128,74945,1,8,0:0:0:0:
256,128,75122,1,0,0:0:0:0:
256,128,75210,1,0,0:0:0:0:
256,128,75298,1,0,0:0:0:0:
256,128,75475,1,0,0:0:0:0:
256,128,75651,1,8,0:0:0:0:
256,128,76004,1,0,0:0:0:0:
256,128,76710,1,0,0:0:0:0:
416,248,76887,1,8,0:0:0:0:
416,248,77063,1,8,0:0:0:0:
416,248,77416,1,4,0:0:0:0:
248,172,77769,1,8,0:0:0:0:
248,172,77945,1,8,0:0:0:0:
240,64,78122,1,0,0:0:0:0:
248,172,78210,1,0,0:0:0:0:
248,172,78298,1,0,0:0:0:0:
248,172,78475,1,8,0:0:0:0:
272,104,78828,1,12,0:0:0:0:
272,104,79181,1,8,0:0:0:0:
272,104,79357,1,8,0:0:0:0:
272,104,79534,1,0,0:0:0:0:
272,104,79622,1,0,0:0:0:0:
272,104,79710,1,0,0:0:0:0:
272,104,79887,1,0,0:0:0:0:
272,104,80239,1,4,0:0:0:0:
216,120,80592,1,8,0:0:0:0:
216,120,80945,1,0,0:0:0:0:
224,92,81122,1,8,0:0:0:0:
224,92,81298,1,0,0:0:0:0:
224,92,81475,1,8,0:0:0:0:
224,92,81651,1,0,0:0:0:0:
348,180,82004,1,8,0:0:0:0:
132,152,82357,1,0,0:0:0:0:
240,172,82534,1,8,0:0:0:0:
240,172,82622,1,8,0:0:0:0:
240,172,82710,1,8,0:0:0:0:
240,172,82887,1,8,0:0:0:0:
240,172,83063,1,12,0:0:0:0:
400,168,83592,1,4,0:0:0:0:
356,184,83945,1,8,0:0:0:0:
356,184,84122,1,8,0:0:0:0:
356,184,84298,1,4,0:0:0:0:
256,192,84475,12,0,87739,0:0:0:0:
