osu file format v14

[General]
AudioFilename: audio.mp3
AudioLeadIn: 0
PreviewTime: 21083
Countdown: 0
SampleSet: Soft
StackLeniency: 0.7
Mode: 0
LetterboxInBreaks: 0
WidescreenStoryboard: 0

[Editor]
DistanceSpacing: 1.2
BeatDivisor: 4
GridSize: 32
TimelineZoom: 2.2

[Metadata]
Title:CORE PRIDE (TV Size)
TitleUnicode:CORE PRIDE (TV Size)
Artist:UVERworld
ArtistUnicode:UVERworld
Creator:wafer
Version:Exorcist
Source:青の祓魔師
Tags:anime blue Ao No Exorcist Opening 1 japanese Rin Okumura iwaifu jrock rock
BeatmapID:2384815
BeatmapSetID:1141873

[Difficulty]
HPDrainRate:6
CircleSize:4
OverallDifficulty:8.2
ApproachRate:9
SliderMultiplier:1.8
SliderTickRate:1

[Events]
//Background and Video events
Video,-740,"AoNoExorcist-OP1.mp4"
0,0,"blacTWO.jpg",0,0
//Break Periods
//Storyboard Layer 0 (Background)
//Storyboard Layer 1 (Fail)
//Storyboard Layer 2 (Pass)
//Storyboard Layer 3 (Foreground)
//Storyboard Layer 4 (Overlay)
//Storyboard Sound Samples

[TimingPoints]
406,324.324324324324,4,2,1,60,1,0
730,365.853658536585,4,2,1,60,1,0
912,324.324324324324,4,2,1,60,1,0
1722,324.324324324324,4,2,1,60,1,0
3992,319.148936170213,4,2,1,70,1,0
4071,-100,4,2,1,5,0,0
4151,-100,4,2,1,70,0,0
4311,324.324324324324,4,2,1,70,1,0
4959,333.333333333333,4,2,1,70,1,0
5375,-100,4,2,1,5,0,0
5458,-100,4,2,1,70,0,0
5625,319.148936170213,4,2,1,70,1,0
6023,-100,4,2,1,5,0,0
6103,-100,4,2,1,70,0,0
6263,329.67032967033,4,2,1,70,1,0
6675,-100,4,2,1,5,0,0
6757,-100,4,2,1,70,0,0
6922,324.324324324324,4,2,1,70,1,0
7894,319.148936170213,4,2,1,70,1,0
8213,324.324324324324,4,2,1,70,1,0
9834,333.333333333333,4,2,1,70,1,0
10000,315.789473684211,4,2,1,70,1,0
10631,333.333333333333,4,2,1,70,1,0
10797,324.324324324324,4,2,1,70,1,0
12013,-100,4,2,1,5,0,0
12094,-100,4,2,1,70,0,0
12337,-100,4,2,1,5,0,0
12418,-100,4,2,1,70,0,0
12661,-100,4,2,1,5,0,0
12742,-100,4,2,1,70,0,0
13634,-100,4,2,1,5,0,0
13715,320.855614973262,4,2,1,70,1,0
14356,324.324324324324,4,2,1,70,1,0
14680,333.333333333333,4,2,1,70,1,0
15013,327.868852459016,4,2,1,70,1,0
15258,-100,4,2,1,5,0,0
15340,-100,4,2,1,70,0,0
15996,324.324324324324,4,2,1,70,1,0
17536,-100,4,2,1,5,0,0
17617,322.58064516129,4,2,1,70,1,0
17858,-100,4,2,1,5,0,0
17939,-100,4,2,1,70,0,0
18262,324.324324324324,4,2,1,70,1,0
18586,319.148936170213,4,2,1,70,1,0
18825,-100,4,2,1,5,0,0
18905,-100,4,2,1,70,0,0
19543,324.324324324324,4,2,1,70,1,0
19867,324.324324324324,4,2,1,70,1,0
20272,-100,4,2,1,5,0,0
20353,-100,4,2,1,70,0,0
21164,329.67032967033,4,2,1,70,1,0
21411,-100,4,2,1,5,0,0
21493,-100,4,2,1,70,0,0
22482,324.324324324324,4,2,1,70,1,0
24022,-100,4,2,1,5,0,0
24103,-100,4,2,1,70,0,0
24509,-100,4,2,1,5,0,0
24591,-100,4,2,1,70,0,0
25400,331.491712707182,4,2,1,70,1,0
25649,-100,4,2,1,5,0,0
25731,324.324324324324,4,2,1,70,1,0
25974,-100,4,2,1,70,0,0
26055,-100,4,2,1,70,0,0
26379,324.324324324324,4,2,1,70,1,0
28324,320.855614973262,4,2,1,70,1,0
28965,324.324324324324,4,2,1,60,1,0
30100,312.5,4,2,1,60,1,0
30256,324.324324324324,4,2,1,60,1,0
30580,340.909090909091,4,2,1,60,1,0
30920,333.333333333333,4,2,1,60,1,0
31253,324.324324324324,4,2,1,60,1,0
31496,-100,4,2,1,5,0,0
31577,320.855614973262,4,2,1,70,1,0
32138,-100,4,2,1,5,0,0
32218,-100,4,2,1,70,0,0
32780,-100,4,2,1,5,0,0
32860,324.324324324324,4,2,1,70,1,0
34400,-100,4,2,1,5,0,0
34481,-100,4,2,1,70,0,0
35697,-100,4,2,1,5,0,0
35778,-100,4,2,1,70,0,0
36995,-100,4,2,1,5,0,0
37076,-100,4,2,1,70,0,0
38941,-100,4,2,1,5,0,0
39022,-100,4,2,1,70,0,0
39346,320.855614973262,4,2,1,70,1,0
39666,324.324324324324,4,2,1,70,1,0
40638,331.491712707182,4,2,1,70,1,0
40886,-100,4,2,1,5,0,0
40969,-100,4,2,1,70,0,0
41218,-100,4,2,1,5,0,0
41300,324.324324324324,4,2,1,70,1,0
41948,322.58064516129,4,2,1,70,1,0
42512,-100,4,2,1,5,0,0
42593,-100,4,2,1,70,0,0
43157,-100,4,2,1,5,0,0
43238,-100,4,2,1,70,0,0
44123,-100,4,2,1,5,0,0
44206,331.491712707182,4,2,1,70,1,0
44537,324.324324324324,4,2,1,70,1,0
44780,-100,4,2,1,5,0,0
44861,-100,4,2,1,70,0,0
45509,315.789473684211,4,2,1,70,1,0
45824,324.324324324324,4,2,1,70,1,0
46067,-100,4,2,1,5,0,0
46148,-100,4,2,1,70,0,0
46391,-100,4,2,1,5,0,0
46472,-100,4,2,1,70,0,0
46712,-100,4,2,1,70,0,0
46715,-100,4,2,1,5,0,0
46796,333.333333333333,4,2,1,70,1,0
47129,331.491712707182,4,2,1,70,1,0
47791,327.868852459016,4,2,1,70,1,0
48118,319.148936170213,4,2,1,70,1,0
48437,307.692307692308,4,2,1,70,1,0
49052,324.324324324324,4,2,1,70,1,0
49700,342.857142857143,4,2,1,70,1,0
50385,324.324324324324,4,2,1,70,1,0
51033,324.324324324324,4,2,1,70,1,0
51843,310.880829015544,4,2,1,70,1,0
52309,329.67032967033,4,2,1,70,1,0
52968,324.324324324324,4,2,1,70,1,0
53616,327.868852459016,4,2,1,70,1,0
54927,324.324324324324,4,2,1,70,1,0
55899,315.789473684211,4,2,1,70,1,0
56214,324.324324324324,4,2,1,70,1,0
56862,320.855614973262,4,2,1,70,1,0
57503,324.324324324324,4,2,1,70,1,0
58313,375,4,2,1,70,1,0
58688,285.714285714286,4,2,1,70,1,0
58830,319.148936170213,4,2,1,70,1,0
60024,-100,4,2,1,5,0,0
60106,324.324324324324,4,2,1,70,1,0
61403,327.868852459016,4,2,1,70,1,0
62058,322.58064516129,4,2,1,70,1,0
62703,329.67032967033,4,2,1,70,1,0
63692,320.855614973262,4,2,1,70,1,0
63852,-101.010101010101,4,2,1,70,0,0
64011,324.324324324324,4,2,1,70,1,0
64984,312.5,4,2,1,70,1,0
65218,-100,4,2,1,5,0,0
65296,324.324324324324,4,2,1,70,1,0
67404,-98.0392156862745,4,2,1,70,0,0
67566,309.278350515464,4,2,1,70,1,0
67643,-100,4,2,1,5,0,0
67720,-100,4,2,1,70,0,0
67875,324.324324324324,4,2,1,70,1,0
68523,329.67032967033,4,2,1,70,1,0
68770,-100,4,2,1,5,0,0
68852,-100,4,2,1,70,0,0
69182,-100,4,2,1,70,0,0
69512,324.324324324324,4,2,1,70,1,0
70484,322.58064516129,4,2,1,70,1,0
73064,357.142857142857,4,2,1,70,1,0
73421,315.789473684211,4,2,1,70,1,0
74684,322.58064516129,4,2,1,70,1,0
75651,329.67032967033,4,2,1,70,1,0
76310,324.324324324324,4,2,1,70,1,0
76958,324.324324324324,4,2,1,70,1,0
79795,-100,4,2,1,5,0,0
79876,331.491712707182,4,2,1,70,1,0
80870,324.324324324324,4,2,1,70,1,0
85410,320.855614973262,4,2,1,70,1,0
86051,324.324324324324,4,2,1,70,1,0
87186,272.727272727273,4,2,1,70,1,0
87322,324.324324324324,4,2,1,70,1,0
87808,333.333333333333,4,2,1,70,1,0
88641,324.324324324324,4,2,1,70,1,0
89451,-100,4,2,2,60,0,0
89613,-100,4,2,1,40,0,0

[Colours]
Combo1 : 85,143,251
Combo2 : 111,209,247
Combo3 : 0,92,185

[HitObjects]
77,31,406,5,8,0:0:0:0:
79,64,487,1,8,0:0:0:0:
82,98,568,1,8,0:0:0:0:
85,131,649,1,8,0:0:0:0:
88,165,730,5,8,0:0:0:0:
16,297,912,1,0,3:0:0:0:
90,249,1074,1,0,3:0:0:0:
152,380,1236,5,10,0:0:0:0:
88,322,1398,1,0,3:0:0:0:
159,308,1560,1,0,3:0:0:0:
88,165,1722,6,0,B|57:158|57:158|41:165|41:165|-4:159,1,90,8|0,0:0|0:0,0:0:0:0:
116,90,2046,1,2,3:2:0:0:
172,218,2208,1,8,0:0:0:0:
246,76,2370,1,8,0:0:0:0:
174,143,2532,1,8,0:0:0:0:
174,143,2857,6,0,B|275:115|241:193|351:170,1,180,6|0,3:2|3:2,0:0:0:0:
396,308,3343,2,0,P|411:219|439:134,1,180,10|0,0:1|3:2,0:0:0:0:
512,23,3830,1,2,3:1:0:0:
439,133,3992,2,0,P|415:130|387:115,1,45,8|0,0:2|0:0,0:0:0:0:
314,72,4151,1,0,3:0:0:0:
280,43,4230,1,0,3:0:0:0:
236,39,4310,5,2,3:1:0:0:
254,237,4473,1,8,0:3:0:0:
259,116,4635,1,8,0:3:0:0:
194,172,4797,1,8,0:3:0:0:
396,308,4959,6,0,B|314:287|314:287|268:315|268:315|143:289,1,225,6|0,3:2|0:0,0:0:0:0:
147,232,5458,1,10,0:2:0:0:
9,365,5625,5,2,3:1:0:0:
43,273,5784,2,0,L|29:116,1,135,2|0,3:1|0:0,0:0:0:0:
48,117,6103,2,0,L|57:7,1,90,2|8,3:1|0:2,0:0:0:0:
166,206,6427,6,0,P|202:160|282:166,1,135,2|0,3:1|0:0,0:0:0:0:
327,218,6757,1,10,0:1:0:0:
330,104,6922,2,0,P|308:64|306:13,1,90,2|0,3:1|3:1,0:0:0:0:
480,15,7246,5,2,0:1:0:0:
406,96,7408,1,0,3:1:0:0:
497,144,7570,1,8,0:0:0:0:
452,207,7732,1,8,0:0:0:0:
452,207,7813,1,8,0:0:0:0:
452,207,7894,1,8,0:0:0:0:
457,247,7973,1,8,0:3:0:0:
462,287,8053,1,8,0:3:0:0:
468,327,8133,1,8,0:3:0:0:
475,359,8213,5,6,3:1:0:0:
256,192,8294,12,2,9834,0:0:0:0:
447,54,10000,5,0,3:0:0:0:
447,54,10078,1,0,3:0:0:0:
447,54,10157,1,0,3:0:0:0:
447,54,10236,1,0,3:0:0:0:
447,54,10315,1,2,3:2:0:0:
415,79,10393,1,0,3:2:0:0:
376,88,10472,1,8,0:2:0:0:
337,78,10551,1,8,0:2:0:0:
309,60,10631,1,8,0:2:0:0:
268,41,10714,1,8,0:2:0:0:
224,48,10797,5,4,3:2:0:0:
241,205,10959,2,0,P|248:156|262:108,1,90,2|8,0:0|0:2,0:0:0:0:
148,23,11283,5,2,0:0:0:0:
131,180,11445,1,2,3:2:0:0:
93,98,11607,1,2,0:0:0:0:
173,243,11769,2,0,P|136:209|54:223,1,135,10|0,0:2|0:0,0:0:0:0:
18,290,12094,1,2,3:2:0:0:
127,358,12256,2,0,P|132:332|132:308,1,45,2|0,0:0|0:0,0:0:0:0:
173,243,12418,6,0,B|245:226|230:283|311:266,1,135,10|0,0:2|0:0,0:0:0:0:
371,329,12742,2,0,P|384:282|441:262,1,90,2|2,3:2|0:2,0:0:0:0:
512,348,13067,1,10,0:2:0:0:
437,187,13229,1,2,3:2:0:0:
437,187,13310,1,0,3:2:0:0:
437,187,13391,6,0,P|443:126|463:36,1,135,2|0,3:2|0:0,0:0:0:0:
487,25,13715,1,8,0:2:0:0:
361,127,13875,2,0,P|319:87|196:95,1,180,2|2,0:2|0:2,0:0:0:0:
187,228,14356,1,10,0:2:0:0:
268,149,14518,1,2,0:2:0:0:
138,30,14680,1,2,3:2:0:0:
138,30,14763,1,2,0:2:0:0:
138,30,14846,1,2,0:2:0:0:
7,238,15013,6,0,P|47:190|125:186,1,135,10|0,0:2|0:0,0:0:0:0:
187,228,15340,2,0,P|181:280|177:348,1,90,2|0,3:2|0:2,0:0:0:0:
87,254,15668,1,10,0:2:0:0:
186,147,15832,1,0,3:2:0:0:
194,124,15914,1,0,3:2:0:0:
188,102,15995,5,2,3:2:0:0:
105,37,16158,2,0,L|3:18,1,90,2|8,0:2|0:2,0:0:0:0:
188,102,16482,1,2,0:2:0:0:
292,42,16644,2,0,L|485:5,1,180,0|8,3:2|0:2,0:0:0:0:
468,9,17131,1,2,0:2:0:0:
405,160,17293,1,2,3:2:0:0:
405,160,17374,1,2,0:2:0:0:
405,160,17455,2,0,P|394:135|397:104,1,45,2|0,0:2|0:0,0:0:0:0:
468,93,17617,6,0,P|493:150|486:221,1,135,10|0,0:2|0:0,0:0:0:0:
420,256,17939,2,0,P|401:296|401:341,1,90,2|0,3:2|0:2,0:0:0:0:
347,214,18262,1,10,0:2:0:0:
271,281,18424,1,0,3:2:0:0:
270,303,18505,1,0,3:2:0:0:
283,324,18586,6,0,L|126:341,1,135,2|0,3:2|0:0,0:0:0:0:
52,364,18905,2,0,P|78:302|63:238,1,135,10|0,0:2|0:2,0:0:0:0:
0,188,19224,1,2,3:2:0:0:
0,188,19383,1,2,0:2:0:0:
80,139,19543,1,10,0:2:0:0:
13,27,19786,1,2,0:2:0:0:
13,27,19867,1,2,3:2:0:0:
97,56,20029,1,2,0:2:0:0:
213,24,20191,6,0,P|203:53|199:81,1,45,10|0,0:2|0:0,0:0:0:0:
246,153,20353,1,0,3:0:0:0:
277,155,20434,1,0,3:0:0:0:
302,139,20515,1,2,3:2:0:0:
355,24,20677,1,8,0:3:0:0:
275,65,20839,1,8,0:3:0:0:
302,139,21001,1,8,0:2:0:0:
507,83,21164,6,0,L|364:100,1,135,6|0,3:1|0:0,0:0:0:0:
302,139,21493,1,10,0:2:0:0:
354,215,21658,1,2,0:2:0:0:
299,367,21823,2,0,P|296:322|291:268,1,90,2|2,3:2|0:2,0:0:0:0:
447,165,22153,1,8,0:2:0:0:
506,217,22317,6,0,P|465:247|426:243,1,90,2|0,0:2|3:2,0:0:0:0:
234,222,22644,2,0,P|275:192|314:196,1,90,2|8,0:2|0:2,0:0:0:0:
213,329,22968,2,0,P|162:321|138:290,1,90,2|2,0:2|3:2,0:0:0:0:
154,210,23292,1,2,0:2:0:0:
0,134,23454,1,10,0:2:0:0:
70,54,23617,1,8,0:2:0:0:
70,54,23698,1,8,0:2:0:0:
70,53,23779,6,0,P|75:121|82:188,1,135,2|0,3:1|0:0,0:0:0:0:
39,251,24103,1,10,0:2:0:0:
113,357,24265,2,0,P|156:307|222:304,1,135,2|0,0:2|0:0,0:0:0:0:
292,340,24590,1,2,0:2:0:0:
439,284,24752,1,10,0:2:0:0:
347,160,24914,2,0,P|361:216|366:251,1,90,2|0,0:2|3:2,0:0:0:0:
459,91,25238,1,2,0:2:0:0:
347,160,25400,2,0,B|259:159|306:119|209:113,1,135,8|0,0:2|0:0,0:0:0:0:
165,61,25731,6,0,B|134:96|134:96|153:140,1,90,2|2,3:2|0:2,0:0:0:0:
239,201,26055,1,8,0:2:0:0:
389,97,26217,1,8,0:2:0:0:
400,73,26298,1,8,0:2:0:0:
391,44,26379,6,0,B|275:57|318:-10|215:6,1,180,2|8,3:1|0:1,0:0:0:0:
163,53,26865,1,2,0:2:0:0:
16,16,27027,1,2,3:2:0:0:
16,16,27189,1,2,0:2:0:0:
71,111,27351,1,10,0:2:0:0:
71,111,27433,1,2,0:2:0:0:
14,192,27595,1,2,0:2:0:0:
14,192,27676,1,2,3:2:0:0:
54,290,27838,1,2,0:2:0:0:
3,377,28000,1,10,0:2:0:0:
3,377,28162,1,2,0:2:0:0:
79,276,28324,6,0,B|190:263,1,90,10|8,0:2|0:2,0:0:0:0:
310,246,28644,1,10,0:2:0:0:
252,365,28805,1,10,0:2:0:0:
168,265,28965,6,0,P|151:225|171:171,1,90,2|0,3:2|3:2,0:0:0:0:
265,145,29289,1,2,0:2:0:0:
227,218,29451,1,2,3:2:0:0:
146,106,29613,1,10,0:2:0:0:
265,145,29775,1,8,0:2:0:0:
286,46,29937,1,2,0:2:0:0:
220,88,30099,1,10,0:2:0:0:
346,199,30256,5,2,3:2:0:0:
331,107,30418,1,2,3:2:0:0:
426,46,30580,1,2,0:2:0:0:
411,138,30750,1,2,3:2:0:0:
500,238,30920,5,8,0:2:0:0:
500,238,31086,1,0,3:2:0:0:
498,149,31253,2,0,P|431:181|421:264,1,135,4|0,0:3|0:0,0:0:0:0:
483,317,31577,6,0,P|509:270|500:238,1,90,6|0,3:1|0:0,0:0:0:0:
356,134,31897,2,0,B|305:126|305:126|277:142|277:142|195:134,1,135,10|0,0:2|0:0,0:0:0:0:
155,103,32218,2,0,L|147:12,1,90,2|0,3:2|0:0,0:0:0:0:
17,145,32539,2,0,P|83:147|121:200,1,135,10|0,0:2|0:0,0:0:0:0:
155,282,32860,6,0,L|147:373,1,90,2|0,3:2|0:0,0:0:0:0:
233,226,33184,2,0,L|225:135,1,90,10|0,0:2|0:0,0:0:0:0:
306,310,33508,2,0,B|422:308|360:255|488:247,1,180,2|10,3:2|0:2,0:0:0:0:
504,140,33995,1,8,0:2:0:0:
508,113,34076,1,8,0:2:0:0:
492,88,34157,6,0,B|333:109,1,135,2|0,3:2|0:0,0:0:0:0:
303,175,34481,1,10,0:2:0:0:
155,103,34643,1,2,0:2:0:0:
228,27,34805,1,2,3:2:0:0:
247,115,34967,1,2,0:2:0:0:
83,141,35130,1,10,0:2:0:0:
150,23,35292,1,2,0:2:0:0:
193,174,35454,6,0,P|203:240|211:307,1,135,2|0,3:2|0:0,0:0:0:0:
274,374,35778,2,0,P|298:310|412:300,1,180,8|2,0:2|3:2,0:0:0:0:
470,351,36265,1,0,0:0:0:0:
500,186,36427,1,8,0:2:0:0:
384,83,36589,1,2,3:2:0:0:
384,83,36670,1,2,3:2:0:0:
384,83,36751,6,0,P|396:146|405:216,1,135,2|0,3:2|0:0,0:0:0:0:
399,292,37076,1,10,0:2:0:0:
237,243,37238,1,2,0:2:0:0:
321,170,37400,1,2,3:2:0:0:
326,259,37562,1,2,0:2:0:0:
186,354,37723,1,10,0:2:0:0:
174,153,37887,1,2,0:2:0:0:
237,243,38049,6,0,B|133:219|171:312|30:269,1,180,2|8,3:2|0:2,0:0:0:0:
0,193,38535,1,2,0:2:0:0:
110,71,38697,2,0,P|100:150|96:211,1,135,2|0,3:2|0:0,0:0:0:0:
67,278,39022,1,8,0:2:0:0:
213,362,39184,1,10,0:2:0:0:
208,340,39265,1,8,0:2:0:0:
203,318,39346,5,2,3:2:0:0:
259,173,39506,1,2,0:2:0:0:
110,71,39666,2,0,P|192:97|261:41,1,180,10|0,0:2|3:2,0:0:0:0:
260,42,40152,1,2,0:2:0:0:
389,155,40314,1,10,0:2:0:0:
470,70,40476,1,2,0:2:0:0:
367,21,40638,6,0,P|381:98|392:185,1,135,2|0,3:2|0:0,0:0:0:0:
381,244,40969,2,0,B|443:212|443:212|505:244,1,135,10|0,0:2|0:0,0:0:0:0:
439,383,41300,2,0,L|444:293,1,90,2|8,3:2|0:2,0:0:0:0:
299,196,41624,2,0,L|304:285,1,90,2|10,3:2|0:2,0:0:0:0:
154,342,41948,6,0,P|168:290|197:274,1,90,6|0,3:1|0:0,0:0:0:0:
218,162,42270,2,0,B|167:154|167:154|139:170|139:170|57:162,1,135,10|0,0:2|0:0,0:0:0:0:
27,114,42593,2,0,L|19:23,1,90,2|0,3:2|0:0,0:0:0:0:
196,6,42915,2,0,P|254:35|267:99,1,135,10|0,0:2|0:0,0:0:0:0:
218,162,43238,6,0,L|128:154,1,90,2|0,3:2|0:0,0:0:0:0:
301,199,43560,2,0,L|390:191,1,90,10|0,0:2|0:0,0:0:0:0:
198,273,43883,2,0,L|63:261,1,135,2|0,3:2|0:0,0:0:0:0:
6,189,44206,1,10,0:2:0:0:
28,361,44371,1,8,0:2:0:0:
198,273,44537,6,0,B|219:210|219:210|186:150,1,135,2|0,3:2|0:0,0:0:0:0:
129,87,44861,1,10,0:2:0:0:
63,261,45023,2,0,P|96:259|141:212,1,90,2|0,0:2|3:0,0:0:0:0:
128,71,45347,1,2,0:2:0:0:
128,71,45509,1,10,0:2:0:0:
71,185,45666,1,2,0:2:0:0:
272,146,45824,6,0,B|367:127|315:189|429:165,1,135,2|0,3:2|0:0,0:0:0:0:
496,118,46148,2,0,P|476:188|466:254,1,135,10|0,0:2|0:0,0:0:0:0:
430,356,46472,2,0,P|393:301|328:288,1,135,2|0,0:2|0:0,0:0:0:0:
237,217,46796,2,0,P|251:292|258:350,1,135,10|0,0:2|0:0,0:0:0:0:
188,384,47129,5,2,3:2:0:0:
117,286,47294,1,2,2:2:0:0:
204,150,47460,1,0,3:2:0:0:
224,141,47542,1,0,3:2:0:0:
247,140,47625,1,0,3:2:0:0:
268,147,47708,1,0,3:2:0:0:
285,162,47791,1,0,3:2:0:0:
310,183,47872,1,0,3:2:0:0:
342,193,47954,1,0,3:2:0:0:
376,190,48036,1,0,3:2:0:0:
406,175,48118,2,0,L|414:114,3,45,8|8|8|8,0:3|0:3|0:3|0:3,0:0:0:0:
502,30,48437,5,4,0:3:0:0:
342,115,48667,1,8,0:1:0:0:
342,115,48744,1,8,0:2:0:0:
225,33,48898,1,8,0:2:0:0:
235,180,49052,1,8,0:2:0:0:
368,17,49214,1,10,0:2:0:0:
313,185,49376,1,8,0:2:0:0:
255,107,49538,2,0,L|206:113,1,45,8|0,0:2|0:0,0:0:0:0:
113,47,49700,6,0,L|152:238,1,180,6|0,3:1|0:0,0:0:0:0:
46,361,50214,1,0,3:1:0:0:
3,271,50385,2,0,P|96:278|141:351,1,180,10|0,0:1|0:0,0:0:0:0:
271,240,50871,2,0,P|228:247|209:300,1,90,2|2,0:2|3:2,0:0:0:0:
334,353,51195,6,0,P|359:317|335:266,1,90,2|0,0:2|3:2,0:0:0:0:
291,152,51519,2,0,P|273:217|270:250,1,90,2|10,0:2|0:2,0:0:0:0:
334,353,51843,1,2,3:2:0:0:
431,311,51998,1,2,0:2:0:0:
502,354,52153,1,2,0:2:0:0:
437,292,52309,5,6,3:1:0:0:
495,223,52473,2,0,P|499:139|507:31,1,180,0|0,0:0|3:1,0:0:0:0:
384,0,52968,6,0,P|390:89|394:179,1,180,10|2,0:1|0:2,0:0:0:0:
346,276,53454,1,2,0:2:0:0:
231,200,53616,5,2,3:2:0:0:
310,146,53779,1,2,0:2:0:0:
253,39,53943,1,2,3:2:0:0:
237,127,54106,1,2,0:2:0:0:
93,60,54271,1,10,0:2:0:0:
179,74,54434,1,0,3:2:0:0:
100,195,54599,2,0,L|93:56,1,135,2|0,0:2|0:0,0:0:0:0:
9,13,54927,5,6,3:2:0:0:
9,13,55089,1,0,3:1:0:0:
100,195,55413,1,2,3:2:0:0:
32,265,55575,1,10,0:2:0:0:
32,265,55737,1,2,3:2:0:0:
70,352,55899,1,2,0:2:0:0:
201,263,56056,6,0,L|110:278,1,90,2|2,3:2|3:2,0:0:0:0:
266,207,56376,1,2,0:2:0:0:
309,297,56538,1,2,3:2:0:0:
263,361,56700,1,2,0:2:0:0:
348,226,56862,1,10,0:2:0:0:
348,226,57022,1,10,0:2:0:0:
415,280,57182,2,0,P|427:324|432:369,1,90,2|2,0:2|0:2,0:0:0:0:
458,211,57503,5,6,3:1:0:0:
458,211,57665,2,0,P|458:126|516:45,1,180,0|0,3:1|3:1,0:0:0:0:
380,77,58151,2,0,P|360:38|320:21,1,90,10|2,0:2|0:2,0:0:0:0:
229,57,58500,1,2,0:2:0:0:
229,57,58830,2,0,P|144:57|63:-1,2,180,6|0|0,3:1|3:1|3:1,0:0:0:0:
192,277,59627,6,0,P|217:170|306:105,1,225,14|0,0:2|0:0,0:0:0:0:
386,156,60106,6,0,P|375:234|371:326,1,135,6|0,3:1|0:0,0:0:0:0:
409,358,60430,1,2,0:2:0:0:
288,288,60592,1,0,3:1:0:0:
180,363,60754,2,0,P|110:361|63:316,1,135,10|0,0:2|0:0,0:0:0:0:
95,249,61078,1,2,0:2:0:0:
42,132,61241,1,2,0:2:0:0:
129,87,61403,6,0,P|121:134|118:181,2,90,2|2|0,3:2|0:2|3:2,0:0:0:0:
195,19,61894,1,2,0:2:0:0:
286,143,62058,1,10,0:2:0:0:
209,106,62219,1,2,3:2:0:0:
316,0,62380,1,2,0:2:0:0:
341,78,62541,1,2,0:2:0:0:
222,184,62703,6,0,P|205:225|198:269,1,90,2|0,3:1|0:0,0:0:0:0:
242,359,63032,1,2,0:2:0:0:
351,305,63197,2,0,P|345:260|329:219,1,90,0|10,3:1|0:2,0:0:0:0:
284,142,63527,1,0,3:0:0:0:
222,184,63692,1,2,0:2:0:0:
351,305,63852,6,0,B|461:297|393:233|519:230,1,178.199999456177,2|2,0:2|0:2,0:0:0:0:
458,122,64335,1,2,3:2:0:0:
512,47,64497,1,2,0:2:0:0:
329,23,64659,1,10,0:2:0:0:
378,110,64821,1,2,3:2:0:0:
328,172,64984,2,0,P|344:254|354:329,1,135,2|0,0:2|0:0,0:0:0:0:
418,366,65296,5,6,3:2:0:0:
418,366,65458,1,0,3:2:0:0:
351,304,65620,1,2,0:2:0:0:
280,351,65782,1,2,3:2:0:0:
175,313,65944,2,0,P|169:268|164:223,2,90,10|2|2,0:2|3:2|0:2,0:0:0:0:
115,371,66431,1,2,0:2:0:0:
27,300,66593,6,0,P|26:245|99:198,1,135,2|0,3:2|0:0,0:0:0:0:
135,142,66917,2,0,P|150:112|137:56,1,90,2|0,3:2|0:0,0:0:0:0:
26,5,67241,1,10,0:2:0:0:
135,142,67404,2,0,B|221:141|186:101|272:101,1,135,2|0,3:2|0:0,0:0:0:0:
328,134,67720,1,2,0:2:0:0:
488,63,67875,5,6,3:2:0:0:
400,12,68037,2,0,P|418:102|436:208,1,180,0|2,3:2|3:2,0:0:0:0:
494,323,68523,2,0,P|451:272|386:269,1,135,10|0,0:2|0:0,0:0:0:0:
348,338,68852,1,2,3:2:0:0:
251,199,69017,6,0,P|263:246|271:293,1,90,2|0,3:2|0:0,0:0:0:0:
358,119,69347,2,0,P|346:166|338:213,1,90,10|0,0:2|3:2,0:0:0:0:
223,120,69674,2,0,P|193:88|149:84,1,90,2|8,0:2|0:2,0:0:0:0:
17,204,69998,1,8,0:3:0:0:
101,262,70160,1,8,0:3:0:0:
64,330,70322,1,8,0:3:0:0:
21,192,70484,6,0,P|16:138|9:96,1,90,10|0,0:2|3:2,0:0:0:0:
10,102,70967,1,2,3:2:0:0:
105,151,71129,2,0,P|195:160|262:96,1,180,10|0,0:2|0:0,0:0:0:0:
276,0,71613,1,2,3:2:0:0:
191,6,71774,6,0,P|169:50|172:102,1,90,8|0,0:2|3:2,0:0:0:0:
168,90,72258,1,2,3:2:0:0:
258,104,72419,2,0,P|252:182|245:293,2,180,10|2|14,0:2|0:2|0:2,0:0:0:0:
258,104,73421,5,10,0:2:0:0:
345,78,73578,1,2,3:2:0:0:
448,268,73736,1,10,0:2:0:0:
333,155,73893,1,10,0:2:0:0:
483,51,74052,1,10,0:2:0:0:
424,113,74210,5,10,0:1:0:0:
439,252,74367,1,8,0:3:0:0:
456,384,74526,1,8,0:3:0:0:
506,306,74684,1,2,3:2:0:0:
388,186,74845,1,8,0:3:0:0:
425,117,75006,1,2,3:2:0:0:
425,117,75167,1,0,3:2:0:0:
490,188,75329,2,0,P|477:245|473:286,1,90,2|2,3:2|3:2,0:0:0:0:
351,360,75651,6,0,P|297:290|210:287,1,180,6|0,0:1|0:0,0:0:0:0:
8,347,76145,1,2,3:2:0:0:
44,278,76310,6,0,P|41:238|33:189,1,90,10|0,0:1|0:0,0:0:0:0:
182,42,76796,1,10,0:2:0:0:
124,110,76958,6,0,P|210:121|274:63,1,180,10|0,0:1|0:0,0:0:0:0:
490,23,77444,1,2,3:2:0:0:
430,95,77606,6,0,P|433:135|440:184,1,90,10|0,0:1|0:0,0:0:0:0:
326,339,78093,1,10,0:2:0:0:
388,274,78255,6,0,P|301:262|237:320,1,180,10|0,0:1|0:0,0:0:0:0:
42,366,78741,1,2,3:2:0:0:
82,289,78903,6,0,P|79:248|71:199,1,90,10|0,0:1|0:0,0:0:0:0:
340,111,79390,1,10,0:2:0:0:
265,188,79552,6,0,P|248:246|235:338,1,135,2|0,3:2|0:0,0:0:0:0:
301,372,79876,2,0,B|412:377|354:323|470:318,1,180,2|10,0:0|0:2,0:0:0:0:
466,318,80373,1,2,3:2:0:0:
512,0,80704,1,2,0:2:0:0:
481,122,80870,6,0,P|349:98|215:77,1,270,14|2,0:1|3:2,0:0:0:0:
95,106,81518,2,0,P|78:67|88:13,1,90,10|0,0:2|0:0,0:0:0:0:
36,288,82005,1,2,3:2:0:0:
95,106,82167,6,0,P|118:238|139:372,1,270,14|2,0:1|3:2,0:0:0:0:
329,337,82815,2,0,P|346:298|336:244,1,90,10|0,0:2|0:0,0:0:0:0:
139,372,83302,1,2,3:2:0:0:
210,287,83464,6,0,P|188:153|165:20,1,270,14|2,0:1|3:2,0:0:0:0:
288,0,84112,2,0,P|305:39|295:93,1,90,10|0,0:2|0:0,0:0:0:0:
194,182,84437,1,2,0:2:0:0:
355,368,84761,1,10,0:2:0:0:
423,298,84924,1,0,3:2:0:0:
312,221,85086,1,8,0:3:0:0:
345,290,85248,1,8,0:2:0:0:
468,220,85410,6,0,P|475:138|484:36,1,180,2|2,3:1|0:2,0:0:0:0:
367,0,85891,1,2,0:2:0:0:
367,0,85971,1,2,0:2:0:0:
367,0,86051,5,6,3:1:0:0:
302,79,86213,2,0,B|195:84|244:16|126:35,1,180,2|2,3:1|3:2,0:0:0:0:
37,189,86699,1,8,0:2:0:0:
115,346,86861,2,0,P|107:299|97:239,1,90,2|0,3:1|0:0,0:0:0:0:
168,119,87186,1,10,0:2:0:0:
168,119,87322,1,2,3:2:0:0:
219,196,87484,1,0,3:2:0:0:
176,282,87646,1,2,3:2:0:0:
255,354,87808,5,8,0:0:0:0:
287,362,87891,1,8,0:0:0:0:
321,360,87974,1,8,0:0:0:0:
353,348,88057,1,8,0:3:0:0:
380,328,88141,1,8,0:3:0:0:
396,312,88224,1,8,0:3:0:0:
416,303,88307,1,0,3:0:0:0:
438,300,88391,1,0,3:0:0:0:
463,314,88474,1,2,3:1:0:0:
463,313,88558,1,0,3:2:0:0:
463,313,88641,6,0,B|445:224|445:224|478:151|478:151|452:17,2,270,6|0|0,3:2|0:0|0:0,0:0:0:0:
