osu file format v14

[General]
AudioFilename: audio.mp3
AudioLeadIn: 0
PreviewTime: -1
Countdown: 0
SampleSet: Normal
StackLeniency: 0.7
Mode: 0
LetterboxInBreaks: 0
WidescreenStoryboard: 1

[Editor]
Bookmarks: 179,2937,3262,8130,9590,20380,30684
DistanceSpacing: 0.8
BeatDivisor: 4
GridSize: 4
TimelineZoom: 1.4

[Metadata]
Title:CORE PRIDE (TV size)
TitleUnicode:CORE PRIDE (TV size)
Artist:UVERworld
ArtistUnicode:UVERworld
Creator:Shogud
Version:Extra
Source:Ao No Exorcist
Tags:ao no exorcist core pride uverworld anime
BeatmapID:920638
BeatmapSetID:426374

[Difficulty]
HPDrainRate:7
CircleSize:4
OverallDifficulty:8.1
ApproachRate:9.3
SliderMultiplier:1.4
SliderTickRate:1

[Events]
//Background and Video events
0,0,"CorePride.jpg",0,0
//Break Periods
//Storyboard Layer 0 (Background)
//Storyboard Layer 1 (Fail)
//Storyboard Layer 2 (Pass)
//Storyboard Layer 3 (Foreground)
//Storyboard Sound Samples

[TimingPoints]
189.092784339058,324.324324324324,4,1,0,100,1,0
3108,-66.6666666666667,4,1,0,100,0,0
4729,-100,4,1,0,100,0,0
5378,-66.6666666666667,4,1,0,100,0,0
6999,-100,4,1,0,100,0,0
7972,-100,4,1,0,100,0,0
19972,-66.6666666666667,4,1,0,100,0,0
20459,-100,4,1,0,100,0,0
37648,-66.6666666666667,4,1,0,100,0,0
38297,-100,4,1,0,100,0,0
39432,-66.6666666666667,4,1,0,100,0,0
39756,-100,4,1,0,100,0,0
45594,-66.6666666666667,4,1,0,100,0,0
45918,-100,4,1,0,100,0,0
57270,-66.6666666666667,4,1,0,100,0,0
57756,-100,4,1,0,100,0,0
58567,-66.6666666666667,4,1,0,100,0,0
59864,-66.6666666666667,4,1,0,100,0,0
60189,-100,4,1,0,100,0,0
64729,-66.6666666666667,4,1,0,100,0,0
65053,-100,4,1,0,100,0,0
67648,-50,4,1,0,100,0,0
68297,-66.6666666666667,4,1,0,100,0,0
74783,-66.6666666666667,4,1,0,100,0,1
79324,-50,4,1,0,100,0,1
79810,-66.6666666666667,4,1,0,100,0,1
85810,-50,4,1,0,100,0,0
87270,-66.6666666666667,4,1,0,100,0,0

[HitObjects]
380,224,189,5,0,0:0:0:0:
352,184,270,1,0,0:0:0:0:
320,144,351,1,0,0:0:0:0:
288,104,432,1,0,0:0:0:0:
256,64,513,1,0,0:0:0:0:
180,148,675,2,0,L|224:208,1,70
180,148,999,1,0,0:0:0:0:
262,260,1162,2,0,L|218:200,1,70
262,260,1486,5,0,0:0:0:0:
164,244,1648,2,0,L|224:200,1,70
164,244,1972,1,0,0:0:0:0:
328,196,2135,1,0,0:0:0:0:
72,92,2297,1,0,0:0:0:0:
72,92,2621,2,0,B|72:136|72:136|128:228,1,140
152,312,3108,6,0,B|207:295|268:320|268:320|272:240|352:200,1,262.500010013581
332,168,3594,2,0,P|252:80|240:200,1,262.500010013581
272,144,4080,2,0,B|116:68|116:68|112:128|40:184,1,315.000012016297
80,204,4648,1,0,0:0:0:0:
116,232,4729,2,0,P|176:220|200:224,1,70
160,292,5053,2,0,P|221:288|243:277,1,70
264,212,5378,6,0,B|356:176|376:52|376:52|304:140,1,315.000012016297
268,124,5945,1,0,0:0:0:0:
232,112,6026,2,0,L|140:224,1,105.000004005432
144,92,6351,1,0,0:0:0:0:
144,92,6513,2,0,L|52:204,1,105.000004005432
108,244,6837,5,0,0:0:0:0:
108,244,6999,2,0,P|136:276|188:288,1,70
176,216,7324,2,0,P|218:222|265:198,1,70
312,168,7648,1,0,0:0:0:0:
64,64,7810,1,0,0:0:0:0:
256,192,7972,12,0,9270,0:0:0:0:
256,96,9594,6,0,L|256:176,1,70
264,248,9918,1,0,0:0:0:0:
300,232,9999,1,0,0:0:0:0:
320,192,10080,1,0,0:0:0:0:
320,144,10162,1,0,0:0:0:0:
288,112,10243,5,0,0:0:0:0:
264,136,10324,1,0,0:0:0:0:
228,128,10405,1,0,0:0:0:0:
212,152,10486,1,0,0:0:0:0:
172,136,10567,6,0,B|148:144|148:144|144:188,1,70
72,188,10891,2,0,B|62:211|62:211|93:242,1,70
52,296,11216,2,0,B|64:318|64:318|108:314,1,70
164,260,11540,2,0,B|188:254|188:254|214:291,1,70
272,236,11864,5,0,0:0:0:0:
416,308,12026,1,0,0:0:0:0:
408,152,12189,1,0,0:0:0:0:
272,236,12351,1,0,0:0:0:0:
316,328,12513,1,0,0:0:0:0:
456,228,12675,1,0,0:0:0:0:
308,144,12837,1,0,0:0:0:0:
316,328,12999,1,0,0:0:0:0:
360,224,13162,6,0,P|392:188|404:148,2,70
308,144,13648,2,0,P|300:96|278:61,2,70
224,128,14135,2,0,P|231:175|253:210,1,70
236,276,14459,5,0,0:0:0:0:
120,200,14621,1,0,0:0:0:0:
196,84,14783,1,0,0:0:0:0:
312,160,14945,1,0,0:0:0:0:
152,276,15108,1,0,0:0:0:0:
120,116,15270,1,0,0:0:0:0:
312,244,15432,1,0,0:0:0:0:
280,84,15594,1,0,0:0:0:0:
208,176,15756,6,0,L|188:264,1,70
288,144,16080,2,0,L|268:232,1,70
152,96,16405,2,0,L|132:184,1,70
208,176,16729,2,0,L|228:88,1,70
280,56,17053,5,0,0:0:0:0:
288,64,17135,1,0,0:0:0:0:
296,72,17216,1,0,0:0:0:0:
304,192,17378,1,0,0:0:0:0:
164,36,17540,1,0,0:0:0:0:
216,192,17702,1,0,0:0:0:0:
348,120,17864,1,0,0:0:0:0:
96,76,18026,1,0,0:0:0:0:
264,124,18189,1,0,0:0:0:0:
428,172,18351,6,0,B|436:200|436:200|420:248,2,70
356,208,18837,1,0,0:0:0:0:
356,208,18999,2,0,B|339:232|339:232|292:250,1,70
288,172,19324,2,0,B|259:175|259:175|214:150,1,70
272,96,19648,1,0,0:0:0:0:
492,256,19810,1,0,0:0:0:0:
324,268,19972,6,0,P|228:240|276:200,1,210.000008010865
276,248,20459,2,0,P|232:244|200:224,1,70
276,248,20783,1,0,0:0:0:0:
348,280,20945,2,0,P|316:311|280:322,1,70
420,248,21270,1,0,0:0:0:0:
420,248,21432,1,0,0:0:0:0:
420,248,21594,2,0,P|423:292|409:327,1,70
420,248,21918,1,0,0:0:0:0:
440,160,22080,6,0,L|392:104,1,70
432,32,22405,2,0,L|358:32,1,70
320,96,22729,2,0,L|273:152,1,70
228,80,23053,1,0,0:0:0:0:
360,176,23216,1,0,0:0:0:0:
212,236,23378,1,0,0:0:0:0:
228,80,23540,6,0,P|184:84|144:104,1,70
204,156,23864,1,0,0:0:0:0:
136,176,24026,2,0,P|104:144|63:127,1,70
70,211,24351,1,0,0:0:0:0:
70,211,24513,1,0,0:0:0:0:
72,280,24675,6,0,P|75:235|62:193,1,70
160,252,24999,2,0,P|196:226|220:189,1,70
160,252,25324,1,0,0:0:0:0:
284,252,25486,1,0,0:0:0:0:
288,264,25567,1,0,0:0:0:0:
292,276,25648,1,0,0:0:0:0:
412,284,25810,1,0,0:0:0:0:
224,200,25972,1,0,0:0:0:0:
228,316,26135,6,0,P|304:352|356:316,1,140
380,224,26621,1,0,0:0:0:0:
320,140,26783,1,0,0:0:0:0:
296,116,26864,1,0,0:0:0:0:
268,136,26945,1,0,0:0:0:0:
244,112,27026,1,0,0:0:0:0:
216,132,27108,2,0,B|188:112|188:112|148:120,1,70
172,192,27432,6,0,L|92:208,2,70
172,192,27918,1,0,0:0:0:0:
32,224,28080,1,0,0:0:0:0:
200,312,28243,1,0,0:0:0:0:
136,72,28405,1,0,0:0:0:0:
32,224,28567,1,0,0:0:0:0:
256,184,28729,6,0,L|332:172,2,70
101,213,29216,2,0,L|25:225,2,70
192,272,29702,2,0,L|204:348,1,70
256,192,30026,12,0,30999,0:0:0:0:
208,84,31324,6,0,L|176:152,1,70
304,300,31648,2,0,L|336:232,1,70
192,64,31972,2,0,L|160:132,1,70
288,280,32296,2,0,L|320:212,1,70
276,44,32621,5,0,0:0:0:0:
324,96,32783,1,0,0:0:0:0:
372,148,32945,1,0,0:0:0:0:
416,200,33108,1,0,0:0:0:0:
236,340,33270,5,0,0:0:0:0:
188,288,33432,1,0,0:0:0:0:
140,236,33594,1,0,0:0:0:0:
96,184,33757,1,0,0:0:0:0:
216,56,33918,6,0,P|200:96|196:136,1,70
224,264,34243,2,0,P|210:231|204:197,1,70
108,96,34567,2,0,P|124:136|128:176,1,70
100,304,34892,2,0,P|113:271|119:237,1,70
48,144,35216,6,0,L|48:232,1,70
204,96,35540,2,0,L|204:184,1,70
208,256,35864,1,0,0:0:0:0:
68,64,36026,1,0,0:0:0:0:
128,304,36189,1,0,0:0:0:0:
208,40,36351,1,0,0:0:0:0:
288,252,36513,6,0,L|340:180,1,70
264,148,36837,2,0,L|316:76,1,70
408,72,37162,1,0,0:0:0:0:
420,140,37324,1,0,0:0:0:0:
432,208,37486,1,0,0:0:0:0:
440,280,37648,6,0,B|408:236|340:228|340:228|376:212|264:164,1,210.000008010865
288,96,38135,1,0,0:0:0:0:
264,248,38297,1,0,0:0:0:0:
212,120,38459,2,0,L|196:200,1,70
136,104,38783,2,0,L|120:184,1,70
64,88,39108,1,0,0:0:0:0:
184,268,39270,1,0,0:0:0:0:
212,120,39432,6,0,P|268:88|252:156,1,157.500006008148
248,120,39756,2,0,L|204:184,2,70
152,100,40243,1,0,0:0:0:0:
312,200,40405,1,0,0:0:0:0:
84,52,40567,1,0,0:0:0:0:
80,132,40729,2,0,L|88:208,1,70
160,188,41053,1,0,0:0:0:0:
160,188,41216,2,0,P|156:236|132:268,2,70
72,232,41702,6,0,P|76:280|100:312,1,70
172,332,42026,1,0,0:0:0:0:
312,272,42189,1,0,0:0:0:0:
96,160,42351,1,0,0:0:0:0:
248,320,42513,1,0,0:0:0:0:
164,128,42675,1,0,0:0:0:0:
344,204,42837,1,0,0:0:0:0:
220,68,42999,6,0,P|176:48|124:56,1,70
68,76,43324,1,0,0:0:0:0:
172,240,43486,1,0,0:0:0:0:
144,72,43648,1,0,0:0:0:0:
96,240,43810,1,0,0:0:0:0:
224,72,43972,1,0,0:0:0:0:
32,200,44135,1,0,0:0:0:0:
264,136,44297,6,0,B|296:140|296:140|332:176,2,70
264,212,44783,1,0,0:0:0:0:
264,212,44945,2,0,B|281:239|281:239|277:289,1,70
264,212,45270,1,0,0:0:0:0:
200,264,45432,1,0,0:0:0:0:
200,264,45594,6,0,B|164:240|164:240|168:208|168:208|128:208|128:208|128:176|128:176|96:184|96:184|72:140,1,210.000008010865
144,92,46080,2,0,L|204:136,2,70
232,60,46567,2,0,L|304:42,1,70
368,88,46891,1,0,0:0:0:0:
388,116,46972,1,0,0:0:0:0:
396,152,47053,1,0,0:0:0:0:
396,188,47135,1,0,0:0:0:0:
388,224,47216,2,0,L|376:260,3,35
304,224,47540,5,0,0:0:0:0:
284,248,47621,1,0,0:0:0:0:
248,256,47702,1,0,0:0:0:0:
216,240,47783,1,0,0:0:0:0:
196,212,47864,2,0,L|176:172,3,35
248,108,48189,5,0,0:0:0:0:
204,88,48270,1,0,0:0:0:0:
156,84,48351,1,0,0:0:0:0:
108,92,48432,1,0,0:0:0:0:
64,116,48513,2,0,L|32:140,3,35
60,236,48837,6,0,L|84:268,1,35
232,316,48999,2,0,L|197:316,1,35
96,104,49162,2,0,L|152:108,1,35
328,224,49324,2,0,L|300:192,1,35
192,36,49486,6,0,B|224:40|224:40|268:88,1,70
188,112,49810,1,0,0:0:0:0:
188,112,49972,1,0,0:0:0:0:
188,112,50135,2,0,L|240:176,2,70
148,184,50621,2,0,L|200:248,1,70
320,280,50945,2,0,L|275:225,1,70
272,96,51270,2,0,L|316:150,1,70
392,144,51594,1,0,0:0:0:0:
156,56,51756,1,0,0:0:0:0:
320,280,51918,1,0,0:0:0:0:
188,184,52080,6,0,P|156:164|132:96,1,105
164,88,52405,1,0,0:0:0:0:
252,232,52567,1,0,0:0:0:0:
84,128,52729,2,0,L|128:204,1,70
56,220,53053,1,0,0:0:0:0:
56,220,53216,2,0,L|26:302,1,70
132,280,53540,5,0,0:0:0:0:
328,320,53702,1,0,0:0:0:0:
172,200,53864,1,0,0:0:0:0:
256,352,54026,1,0,0:0:0:0:
208,128,54189,1,0,0:0:0:0:
404,288,54351,1,0,0:0:0:0:
396,64,54513,1,0,0:0:0:0:
396,64,54675,6,0,L|396:144,1,70
320,92,54999,2,0,L|320:172,1,70
244,190,55324,2,0,L|244:120,2,70
168,148,55810,2,0,L|168:228,1,70
80,156,56135,5,0,0:0:0:0:
240,52,56297,1,0,0:0:0:0:
236,240,56459,1,0,0:0:0:0:
140,80,56621,1,0,0:0:0:0:
284,160,56783,1,0,0:0:0:0:
64,84,56945,1,0,0:0:0:0:
316,232,57108,1,0,0:0:0:0:
144,252,57270,6,0,B|192:196|236:104|236:104|232:192,1,262.500010013581
240,240,57756,1,0,0:0:0:0:
336,92,57918,1,0,0:0:0:0:
144,92,58080,1,0,0:0:0:0:
240,240,58243,2,0,L|240:160,1,70
256,56,58567,6,0,B|332:136|436:80|436:80|360:56,1,262.500010013581
340,32,59053,1,0,0:0:0:0:
320,192,59216,1,0,0:0:0:0:
420,36,59378,1,0,0:0:0:0:
248,224,59540,1,0,0:0:0:0:
420,36,59702,1,0,0:0:0:0:
248,224,59864,6,0,P|220:280|216:324,1,105.000004005432
296,296,60189,2,0,L|344:228,1,70
364,160,60513,2,0,L|294:165,1,70
244,224,60837,1,0,0:0:0:0:
348,72,60999,1,0,0:0:0:0:
312,276,61162,1,0,0:0:0:0:
268,44,61324,1,0,0:0:0:0:
368,216,61486,1,0,0:0:0:0:
424,40,61648,1,0,0:0:0:0:
216,104,61810,6,0,P|184:104|144:128,1,70
200,180,62135,2,0,P|179:204|172:250,1,70
252,240,62459,2,0,L|308:312,1,70
332,220,62783,1,0,0:0:0:0:
332,220,62945,2,0,L|388:292,1,70
372,144,63270,1,0,0:0:0:0:
372,144,63432,1,0,0:0:0:0:
372,144,63594,2,0,L|428:216,1,70
468,264,63918,5,0,0:0:0:0:
404,40,64080,1,0,0:0:0:0:
392,264,64243,1,0,0:0:0:0:
260,64,64405,1,0,0:0:0:0:
468,192,64567,1,0,0:0:0:0:
260,64,64729,2,0,B|184:52|160:112|160:112|120:40,1,157.500006008148
112,40,65053,6,0,L|72:120,1,70
152,148,65378,2,0,L|187:230,1,70
80,180,65702,2,0,L|39:260,1,70
168,232,66026,1,0,0:0:0:0:
200,252,66189,2,0,L|235:334,1,70
296,256,66513,2,0,P|336:252|368:224,1,70
304,184,66837,2,0,P|326:150|325:108,1,70
252,128,67162,2,0,P|241:89|207:62,1,70
176,136,67486,1,0,0:0:0:0:
176,136,67648,6,0,B|112:152|112:152|168:200|168:200|100:216|72:316|72:316|116:280,1,350
152,308,68135,1,0,0:0:0:0:
152,308,68297,2,0,P|200:320|260:300,1,105.000004005432
200,244,68621,1,0,0:0:0:0:
200,244,68783,2,0,P|240:214|263:156,1,105.000004005432
184,160,69108,2,0,L|212:52,1,105.000004005432
296,40,69432,2,0,L|269:141,1,105.000004005432
340,184,69756,2,0,L|366:82,1,105.000004005432
448,148,70080,1,0,0:0:0:0:
448,148,70243,6,0,B|468:180|468:180|464:260,1,105.000004005432
392,208,70567,2,0,B|380:243|380:243|316:292,1,105.000004005432
328,100,70891,2,0,B|308:132|308:132|311:211,1,105.000004005432
232,208,71216,2,0,B|243:243|243:243|307:292,1,105.000004005432
228,128,71540,6,0,L|104:168,1,105.000004005432
308,144,71864,2,0,L|184:184,1,105.000004005432
364,84,72189,2,0,L|240:124,1,105.000004005432
444,100,72513,2,0,L|320:140,1,105.000004005432
436,280,72837,6,0,P|396:232|324:196,1,105.000004005432
348,292,73162,2,0,P|286:280|208:299,1,105.000004005432
280,204,73486,2,0,P|240:156|168:120,1,105.000004005432
192,216,73811,2,0,P|130:204|52:223,1,105.000004005432
84,128,74135,5,0,0:0:0:0:
360,244,74297,1,0,0:0:0:0:
148,64,74459,5,0,0:0:0:0:
296,308,74621,1,0,0:0:0:0:
100,212,74783,5,0,0:0:0:0:
148,196,74864,1,0,0:0:0:0:
200,200,74945,1,0,0:0:0:0:
244,228,75026,1,0,0:0:0:0:
292,248,75108,5,0,0:0:0:0:
344,240,75189,1,0,0:0:0:0:
384,204,75270,1,0,0:0:0:0:
404,156,75351,1,0,0:0:0:0:
392,104,75432,6,0,B|308:76|216:128|216:128|272:48,1,262.500010013581
292,32,75918,1,0,0:0:0:0:
120,96,76080,1,0,0:0:0:0:
296,196,76243,1,0,0:0:0:0:
168,36,76405,1,0,0:0:0:0:
212,248,76567,1,0,0:0:0:0:
212,248,76729,6,0,P|236:312|352:228,1,262.500010013581
312,240,77216,1,0,0:0:0:0:
268,104,77378,1,0,0:0:0:0:
256,300,77540,1,0,0:0:0:0:
340,96,77702,1,0,0:0:0:0:
384,300,77864,1,0,0:0:0:0:
384,300,78026,6,0,B|432:196|380:120|380:120|360:200,1,262.500010013581
324,200,78513,1,0,0:0:0:0:
96,128,78675,1,0,0:0:0:0:
276,268,78837,1,0,0:0:0:0:
168,112,78999,1,0,0:0:0:0:
200,308,79162,1,0,0:0:0:0:
200,308,79324,6,0,B|124:256|124:256|188:240|188:240|140:184|188:104|188:104|212:152,1,350
240,152,79810,1,0,0:0:0:0:
360,76,79972,2,0,L|396:176,1,105.000004005432
308,192,80297,2,0,L|255:282,1,105.000004005432
396,352,80621,6,0,L|360:253,1,105.000004005432
288,52,80945,1,0,0:0:0:0:
296,300,81108,1,0,0:0:0:0:
220,88,81270,1,0,0:0:0:0:
360,253,81432,1,0,0:0:0:0:
364,60,81594,1,0,0:0:0:0:
220,288,81756,1,0,0:0:0:0:
136,96,81918,6,0,P|184:200|184:200,1,105.000004005432
248,340,82243,1,0,0:0:0:0:
212,96,82405,1,0,0:0:0:0:
64,228,82567,1,0,0:0:0:0:
280,136,82729,1,0,0:0:0:0:
144,312,82891,1,0,0:0:0:0:
280,56,83053,1,0,0:0:0:0:
452,264,83216,6,0,P|440:188|396:124,1,105.000004005432
376,228,83540,2,0,P|310:188|232:180,1,105.000004005432
288,268,83864,2,0,P|222:307|144:315,1,105.000004005432
211,232,84188,2,0,P|138:206|82:152,1,105.000004005432
60,108,84513,5,0,0:0:0:0:
400,192,84675,1,0,0:0:0:0:
44,196,84837,5,0,0:0:0:0:
400,292,84999,1,0,0:0:0:0:
180,52,85162,5,0,0:0:0:0:
236,336,85324,1,0,0:0:0:0:
264,80,85486,5,0,0:0:0:0:
320,344,85648,1,0,0:0:0:0:
160,224,85810,6,0,B|256:228|252:56|252:56|364:92|364:92|336:136|356:188,1,420
316,180,86378,1,0,0:0:0:0:
268,184,86459,2,0,L|316:328,1,140
184,200,86783,1,0,0:0:0:0:
184,200,86945,2,0,L|232:344,1,140
140,324,87270,1,0,0:0:0:0:
140,324,87432,6,0,P|88:264|72:216,1,105.000004005432
160,232,87756,2,0,P|172:153|199:110,1,105.000004005432
244,200,88080,1,0,0:0:0:0:
52,52,88243,1,0,0:0:0:0:
256,192,88405,12,0,89378,0:0:0:0:
