osu file format v14

[General]
AudioFilename: audio.mp3
AudioLeadIn: 0
PreviewTime: 49621
Countdown: 0
SampleSet: Soft
StackLeniency: 0.5
Mode: 0
LetterboxInBreaks: 0
WidescreenStoryboard: 1

[Editor]
DistanceSpacing: 1
BeatDivisor: 4
GridSize: 32
TimelineZoom: 2.100001

[Metadata]
Title:CORE PRIDE (TV Size)
TitleUnicode:CORE PRIDE (TV Size)
Artist:UVERworld
ArtistUnicode:UVERworld
Creator:HakuYT
Version:Smoke's Normal
Source:青の祓魔師
Tags:rock jrock anime blue Ao No Exorcist Opening 1 japanese Rin Okumura FuJu NeKroMan4ik Smoke Smoke45 Kuki1537
BeatmapID:2223917
BeatmapSetID:1050996

[Difficulty]
HPDrainRate:3.5
CircleSize:3.2
OverallDifficulty:4.5
ApproachRate:5.2
SliderMultiplier:1
SliderTickRate:1

[Events]
//Background and Video events
0,0,"background.jpg",0,0
Video,-730,"AoNoExorcist-OP1.mp4"
//Break Periods
//Storyboard Layer 0 (Background)
//Storyboard Layer 1 (Fail)
//Storyboard Layer 2 (Pass)
//Storyboard Layer 3 (Foreground)
//Storyboard Layer 4 (Overlay)
//Storyboard Sound Samples

[TimingPoints]
408,324.324324324324,4,2,1,70,1,0
408,-100,4,2,1,70,0,0
732,365.853658536585,4,2,1,70,1,0
914,324.324324324324,4,2,1,70,1,0
1724,324.324324324324,4,2,1,70,1,0
2859,-100,4,2,1,70,0,0
3994,319.148936170213,4,2,1,70,1,0
4313,324.324324324324,4,2,1,70,1,0
4961,333.333333333333,4,2,1,70,1,0
4961,-100,4,2,1,70,0,0
5627,319.148936170213,4,2,1,70,1,0
6265,329.67032967033,4,2,1,70,1,0
6924,324.324324324324,4,2,1,70,1,0
7896,319.148936170213,4,2,1,70,1,0
8215,324.324324324324,4,2,1,70,1,0
9836,333.333333333333,4,2,1,70,1,0
9836,-100,4,2,1,70,0,0
10002,315.789473684211,4,2,1,70,1,0
10633,333.333333333333,4,2,1,70,1,0
10799,324.324324324324,4,2,1,70,1,0
10799,-100,4,2,1,60,0,0
13717,320.855614973262,4,2,1,70,1,0
14358,324.324324324324,4,2,1,70,1,0
14682,333.333333333333,4,2,1,70,1,0
15015,327.868852459016,4,2,1,70,1,0
15998,324.324324324324,4,2,1,70,1,0
17619,322.58064516129,4,2,1,70,1,0
18264,324.324324324324,4,2,1,70,1,0
18588,319.148936170213,4,2,1,70,1,0
19545,324.324324324324,4,2,1,70,1,0
19869,324.324324324324,4,2,1,70,1,0
21166,329.67032967033,4,2,1,70,1,0
21166,-100,4,2,1,60,0,0
22484,324.324324324324,4,2,1,70,1,0
25402,331.491712707182,4,2,1,70,1,0
25733,324.324324324324,4,2,1,70,1,0
26381,324.324324324324,4,2,1,70,1,0
28326,320.855614973262,4,2,1,70,1,0
28967,324.324324324324,4,2,1,70,1,0
28967,-100,4,2,1,60,0,0
30102,312.5,4,2,1,70,1,0
30258,324.324324324324,4,2,1,70,1,0
30582,340.909090909091,4,2,1,70,1,0
30922,333.333333333333,4,2,1,70,1,0
31255,324.324324324324,4,2,1,70,1,0
31579,320.855614973262,4,2,1,70,1,0
31579,-100,4,2,1,60,0,0
32862,324.324324324324,4,2,1,70,1,0
39348,320.855614973262,4,2,1,70,1,0
39668,324.324324324324,4,2,1,70,1,0
40640,331.491712707182,4,2,1,70,1,0
41302,324.324324324324,4,2,1,70,1,0
41950,322.58064516129,4,2,1,70,1,0
41950,-100,4,2,1,60,0,0
44208,331.491712707182,4,2,1,70,1,0
44539,324.324324324324,4,2,1,70,1,0
45511,315.789473684211,4,2,1,70,1,0
45826,324.324324324324,4,2,1,70,1,0
46798,333.333333333333,4,2,1,70,1,0
47131,331.491712707182,4,2,1,70,1,0
47793,327.868852459016,4,2,1,70,1,0
48120,319.148936170213,4,2,1,70,1,0
48439,307.692307692308,4,2,1,70,1,0
49054,324.324324324324,4,2,1,70,1,0
49702,342.857142857143,4,2,1,70,1,0
49702,-100,4,2,1,80,0,0
50387,324.324324324324,4,2,1,70,1,0
50387,-100,4,2,1,80,0,0
51035,324.324324324324,4,2,1,70,1,0
51035,-100,4,2,1,80,0,0
51845,310.880829015544,4,2,1,70,1,0
51845,-100,4,2,1,80,0,0
52311,329.67032967033,4,2,1,70,1,0
52311,-100,4,2,1,80,0,0
52970,324.324324324324,4,2,1,70,1,0
52970,-100,4,2,1,80,0,0
53618,327.868852459016,4,2,1,70,1,0
53618,-100,4,2,1,80,0,0
54929,324.324324324324,4,2,1,70,1,0
54929,-100,4,2,1,80,0,0
55901,315.789473684211,4,2,1,70,1,0
55901,-100,4,2,1,80,0,0
56216,324.324324324324,4,2,1,70,1,0
56216,-100,4,2,1,80,0,0
56864,320.855614973262,4,2,1,70,1,0
56864,-100,4,2,1,80,0,0
57505,324.324324324324,4,2,1,70,1,0
57505,-100,4,2,1,80,0,0
58315,375,4,2,1,70,1,0
58315,-100,4,2,1,80,0,0
58690,285.714285714286,4,2,1,70,1,0
58690,-100,4,2,1,80,0,0
58832,319.148936170213,4,2,1,70,1,0
58832,-100,4,2,1,80,0,0
60108,324.324324324324,4,2,1,70,1,0
60108,-100,4,2,1,80,0,0
61405,327.868852459016,4,2,1,70,1,0
61405,-100,4,2,1,80,0,0
62060,322.58064516129,4,2,1,70,1,0
62060,-100,4,2,1,80,0,0
62705,329.67032967033,4,2,1,70,1,0
62705,-100,4,2,1,80,0,0
63694,320.855614973262,4,2,1,70,1,0
63694,-100,4,2,1,80,0,0
64014,324.324324324324,4,2,1,70,1,0
64014,-100,4,2,1,80,0,0
64986,312.5,4,2,1,70,1,0
64986,-100,4,2,1,80,0,0
65298,324.324324324324,4,2,1,70,1,0
65298,-100,4,2,1,80,0,0
67568,309.278350515464,4,2,1,70,1,0
67568,-100,4,2,1,80,0,0
67877,324.324324324324,4,2,1,70,1,0
67877,-100,4,2,1,80,0,0
68525,329.67032967033,4,2,1,70,1,0
68525,-100,4,2,1,80,0,0
69514,324.324324324324,4,2,1,70,1,0
69514,-100,4,2,1,80,0,0
70486,322.58064516129,4,2,1,70,1,0
70486,-100,4,2,1,80,0,0
73066,357.142857142857,4,2,1,70,1,0
73066,-100,4,2,1,80,0,0
73423,315.789473684211,4,2,1,70,1,0
73423,-100,4,2,1,80,0,0
74686,322.58064516129,4,2,1,70,1,0
74686,-100,4,2,1,80,0,0
75653,329.67032967033,4,2,1,70,1,0
75653,-100,4,2,1,70,0,0
76312,324.324324324324,4,2,1,70,1,0
76960,324.324324324324,4,2,1,70,1,0
79878,331.491712707182,4,2,1,70,1,0
80872,324.324324324324,4,2,1,70,1,0
85412,320.855614973262,4,2,1,70,1,0
86053,324.324324324324,4,2,1,70,1,0
87188,272.727272727273,4,2,1,70,1,0
87324,324.324324324324,4,2,1,70,1,0
87810,333.333333333333,4,2,1,70,1,0
88643,324.324324324324,4,2,1,70,1,0
89778,-100,4,2,1,20,0,0

[Colours]
Combo1 : 193,216,232
Combo2 : 172,253,249
Combo3 : 252,219,173

[HitObjects]
64,270,408,6,0,L|167:280,1,100,8|10,0:0|0:0,0:0:0:0:
262,296,1076,1,0,1:0:0:0:
262,296,1238,1,10,0:0:0:0:
349,345,1562,1,0,1:0:0:0:
349,345,1724,2,0,L|456:333,1,100,10|0,0:0|1:0,0:0:0:0:
484,298,2210,2,0,L|491:233,2,50,8|8|8,0:0|0:0|0:0,0:0:0:0:
398,245,2859,6,0,L|411:129,1,100,4|0,1:2|1:0,0:0:0:0:
417,96,3345,1,10,0:0:0:0:
351,19,3669,1,0,1:0:0:0:
351,19,3832,2,0,P|303:32|240:32,1,99,2|8,1:2|1:0,0:0:0:0:
203,29,4313,2,0,P|235:78|225:130,1,100,10|8,1:0|1:0,0:0:0:0:
158,185,4961,2,0,B|112:171|112:171|61:182,1,100,6|0,1:2|0:0,0:0:0:0:
31,277,5627,6,0,P|77:303|132:297,1,100,2|0,1:2|0:0,0:0:0:0:
215,264,6265,1,8,0:0:0:0:
215,264,6429,2,0,P|262:239|324:248,1,100,2|10,1:2|0:0,0:0:0:0:
354,259,6924,1,0,1:0:0:0:
438,311,7248,2,0,L|443:259,1,50,2|2,0:0|1:2,0:0:0:0:
471,220,7572,2,0,L|462:120,1,100,10|10,0:0|1:0,0:0:0:0:
430,81,8055,1,10,1:0:0:0:
430,81,8215,1,14,1:0:0:0:
256,192,8296,12,2,9837,0:0:0:0:
152,64,10475,6,0,L|96:70,1,50,10|8,0:0|0:0,0:0:0:0:
65,102,10799,6,0,B|80:139|80:139|71:212,1,100,6|8,1:2|0:0,0:0:0:0:
58,297,11447,2,0,L|166:289,1,100,2|10,1:2|0:0,0:0:0:0:
207,292,11934,1,2,0:0:0:0:
207,292,12096,1,2,1:2:0:0:
293,342,12420,2,0,P|337:321|410:339,1,100,10|2,0:0|1:2,0:0:0:0:
482,355,13069,2,0,L|472:297,1,50,10|10,0:0|0:0,0:0:0:0:
454,259,13393,6,0,L|469:145,1,100,2|8,1:2|0:0,0:0:0:0:
445,114,13877,2,0,P|402:90|341:102,1,100,2|0,0:0|0:0,0:0:0:0:
310,121,14358,1,10,0:0:0:0:
221,74,14682,2,0,L|230:195,1,100,2|10,1:2|0:0,0:0:0:0:
164,250,15342,1,2,1:2:0:0:
97,174,15670,2,0,L|105:113,1,50,10|10,0:0|0:0,0:0:0:0:
115,75,15998,5,2,1:2:0:0:
115,75,16160,2,0,L|223:68,1,100,2|2,0:0|0:0,0:0:0:0:
256,96,16646,2,0,B|308:93|308:93|351:68,1,100,2|8,1:2|0:0,0:0:0:0:
436,20,17295,1,2,1:2:0:0:
436,20,17457,2,0,L|442:89,1,50,2|10,0:0|0:0,0:0:0:0:
492,155,17941,2,0,L|483:273,1,100,2|10,1:2|0:0,0:0:0:0:
452,293,18426,5,8,0:0:0:0:
452,293,18588,2,0,B|407:276|407:276|352:284,1,100,2|10,1:2|0:0,0:0:0:0:
268,332,19226,1,2,1:2:0:0:
268,332,19385,2,0,L|256:233,1,101,2|2,0:0|0:0,0:0:0:0:
249,182,19869,1,2,1:2:0:0:
167,239,20193,2,0,P|116:249|64:221,1,100,10|10,0:0|1:0,0:0:0:0:
6,96,21004,5,8,1:0:0:0:
6,96,21166,2,0,B|57:78|57:78|105:82,1,100,6|10,1:2|0:0,0:0:0:0:
143,111,21660,1,2,0:0:0:0:
143,111,21825,2,0,L|248:98,1,100,2|10,1:2|0:0,0:0:0:0:
291,93,22319,1,2,0:0:0:0:
362,162,22646,1,2,0:0:0:0:
457,131,22970,2,0,L|470:191,1,50,2|0,0:0|1:2,0:0:0:0:
507,271,23456,2,0,L|439:278,1,50,10|8,0:0|0:0,0:0:0:0:
413,299,23781,6,0,L|291:287,1,100,2|10,1:2|0:0,0:0:0:0:
264,282,24267,1,2,0:0:0:0:
171,321,24592,2,0,L|100:313,1,50,2|10,0:0|0:0,0:0:0:0:
79,287,24916,1,2,0:0:0:0:
136,205,25240,2,0,L|121:102,1,101,2|0,0:0|0:0,0:0:0:0:
113,56,25733,1,2,1:2:0:0:
211,71,26057,2,0,L|268:62,1,50,10|8,0:0|0:0,0:0:0:0:
301,34,26381,6,0,L|424:46,1,100,2|8,1:2|0:0,0:0:0:0:
453,128,27029,1,2,1:2:0:0:
414,220,27353,1,10,0:0:0:0:
460,308,27678,2,0,L|519:299,2,50,2|2|10,1:2|0:0|0:0,0:0:0:0:
436,352,28164,2,0,L|377:359,1,50,2|8,0:0|0:0,0:0:0:0:
306,295,28646,1,10,0:0:0:0:
209,317,28967,6,0,L|143:311,1,50,6|0,1:2|1:0,0:0:0:0:
109,305,29291,1,2,0:0:0:0:
34,238,29615,2,0,L|42:182,1,50,10|2,0:0|1:2,0:0:0:0:
51,139,29939,1,2,0:0:0:0:
88,48,30258,2,0,L|147:55,1,50,2|2,1:2|1:2,0:0:0:0:
181,36,30582,1,2,0:0:0:0:
181,36,30752,2,0,L|233:41,1,50,2|8,1:2|0:0,0:0:0:0:
259,139,31255,1,8,1:0:0:0:
331,69,31579,6,0,B|384:62|384:62|434:83,1,100,6|10,1:2|0:0,0:0:0:0:
484,162,32220,2,0,B|441:180|441:180|388:173,1,100,2|10,1:2|0:0,0:0:0:0:
343,267,32862,2,0,L|455:281,1,100,2|10,1:2|0:0,0:0:0:0:
433,379,33510,2,0,L|333:366,1,100,2|8,1:2|0:0,0:0:0:0:
288,345,33997,5,10,0:0:0:0:
288,345,34159,2,0,B|233:348|233:348|186:325,1,100,2|10,1:2|0:0,0:0:0:0:
113,284,34807,2,0,L|57:290,1,50,2|2,1:2|0:0,0:0:0:0:
15,302,35132,1,10,0:0:0:0:
15,302,35294,2,0,L|8:189,1,100,2|2,0:0|0:0,0:0:0:0:
10,152,35780,1,8,0:0:0:0:
67,76,36105,2,0,L|185:88,1,100,0|8,1:0|0:0,0:0:0:0:
209,112,36591,5,10,0:0:0:0:
209,112,36753,1,2,1:2:0:0:
303,85,37078,2,0,B|358:82|358:82|405:105,1,100,10|2,0:0|1:2,0:0:0:0:
483,154,37726,1,10,0:0:0:0:
483,154,37889,2,0,L|472:259,1,100,2|0,0:0|0:0,0:0:0:0:
466,303,38375,1,8,0:0:0:0:
376,347,38699,2,0,L|271:331,1,100,2|8,1:2|0:0,0:0:0:0:
234,305,39186,5,8,0:0:0:0:
234,305,39348,2,0,L|161:315,1,50,2|2,1:2|0:0,0:0:0:0:
134,318,39668,2,0,L|149:197,1,100,10|0,0:0|1:0,0:0:0:0:
161,120,40316,1,8,0:0:0:0:
237,184,40640,6,0,L|344:173,1,100,2|8,1:2|0:0,0:0:0:0:
423,125,41302,2,0,P|422:97|408:63,1,50,0|10,1:0|0:0,0:0:0:0:
317,55,41788,5,8,0:0:0:0:
317,55,41950,2,0,B|264:59|264:59|217:40,1,100,6|10,1:2|0:0,0:0:0:0:
158,120,42595,2,0,B|187:163|187:163|195:214,1,100,2|10,1:2|0:0,0:0:0:0:
138,293,43240,2,0,B|108:336|108:336|100:387,1,100,2|10,1:2|0:0,0:0:0:0:
201,375,43885,2,0,L|328:363,1,100,2|10,1:2|0:0,0:0:0:0:
350,358,44373,5,8,0:0:0:0:
350,358,44539,2,0,P|334:308|358:252,1,100,2|10,1:2|0:0,0:0:0:0:
385,230,45025,1,2,0:0:0:0:
476,270,45349,2,0,L|484:202,1,50,2|10,0:0|0:0,0:0:0:0:
508,178,45668,2,0,L|500:71,1,101.5,2|0,0:0|0:0,0:0:0:0:
497,28,46150,1,8,0:0:0:0:
401,57,46474,2,0,L|326:50,2,50,0|2|10,1:0|0:0|0:0,0:0:0:0:
406,156,47131,6,0,L|282:143,1,100,2|8,1:2|0:0,0:0:0:0:
260,124,47628,2,0,L|140:135,1,99.5,10|0,0:0|0:0,0:0:0:0:
110,135,48120,1,10,1:0:0:0:
14,104,48439,2,0,P|11:161|42:208,1,100,10|8,1:0|0:0,0:0:0:0:
123,235,49054,2,0,L|193:228,1,50,8|10,0:0|0:0,0:0:0:0:
218,250,49378,1,8,0:0:0:0:
314,227,49702,6,0,P|367:216|416:244,1,100,6|0,1:2|0:0,0:0:0:0:
498,275,50387,2,0,L|494:171,1,100,10|0,0:0|0:0,0:0:0:0:
459,139,50873,2,0,L|470:40,1,100,2|2,0:0|0:0,0:0:0:0:
372,61,51521,2,0,P|318:63|271:36,1,100,2|2,0:0|1:2,0:0:0:0:
241,8,52000,1,2,0:0:0:0:
157,51,52311,6,0,L|175:162,1,100,2|0,1:2|0:0,0:0:0:0:
216,239,52970,2,0,P|165:249|103:217,1,100,10|2,0:0|0:0,0:0:0:0:
80,203,53456,1,2,0:0:0:0:
12,276,53781,1,2,0:0:0:0:
12,276,53945,2,0,L|20:380,1,100,2|10,1:2|0:0,0:0:0:0:
109,331,54601,1,2,0:0:0:0:
203,364,54929,6,0,L|327:348,1,100,0|0,1:0|0:0,0:0:0:0:
340,318,55415,1,0,1:2:0:0:
340,318,55577,2,0,B|393:311|393:311|446:328,1,100,10|2,0:0|0:0,0:0:0:0:
485,337,56058,1,2,0:0:0:0:
505,239,56378,1,2,0:0:0:0:
505,239,56540,1,2,1:2:0:0:
465,152,56864,1,10,0:0:0:0:
477,52,57184,1,2,0:0:0:0:
380,79,57505,6,0,P|325:84|273:57,1,100,2|0,1:2|0:0,0:0:0:0:
246,34,57991,1,0,1:0:0:0:
246,34,58153,1,10,0:0:0:0:
162,89,58502,1,2,0:0:0:0:
64,68,58832,2,0,L|83:183,1,100,2|0,1:2|1:0,0:0:0:0:
31,256,59470,1,0,1:0:0:0:
31,256,59629,2,0,B|54:304|54:304|45:360,1,100,12|0,0:0|0:0,0:0:0:0:
85,381,60108,6,0,P|138:359|194:366,1,100,6|2,1:2|0:0,0:0:0:0:
228,371,60594,1,2,1:2:0:0:
228,371,60756,1,10,0:0:0:0:
308,311,61080,1,2,0:0:0:0:
248,230,61405,2,0,L|183:231,2,50,2|2|0,1:2|0:0|1:0,0:0:0:0:
322,163,62060,1,10,0:0:0:0:
241,103,62382,1,2,0:0:0:0:
300,22,62705,6,0,P|348:42|394:32,1,100,2|2,1:2|0:0,0:0:0:0:
434,60,63199,2,0,L|416:170,1,100,2|0,1:2|1:0,0:0:0:0:
395,203,63694,2,0,L|402:266,1,50,2|2,0:0|0:0,0:0:0:0:
368,290,64014,2,0,P|321:269|252:271,1,100,0|0,1:0|0:0,0:0:0:0:
173,275,64662,2,0,L|164:334,1,50,10|2,0:0|1:2,0:0:0:0:
155,373,64986,1,2,0:0:0:0:
55,376,65298,6,0,L|77:260,1,100,4|2,1:2|0:0,0:0:0:0:
48,240,65784,1,2,1:2:0:0:
48,240,65946,2,0,L|-19:245,2,50,10|2|2,0:0|1:2|0:0,0:0:0:0:
76,198,66433,1,2,0:0:0:0:
10,122,66757,1,2,0:0:0:0:
49,30,67081,2,0,P|76:22|98:20,1,50,2|8,0:0|0:0,0:0:0:0:
135,52,67405,1,2,1:2:0:0:
236,25,67722,5,2,0:0:0:0:
236,25,67877,2,0,P|277:7|339:21,1,100,6|0,1:2|0:0,0:0:0:0:
354,65,68363,1,2,1:2:0:0:
354,65,68525,2,0,P|343:108|336:173,1,100,10|2,0:0|1:2,0:0:0:0:
328,212,69019,1,2,1:2:0:0:
389,291,69349,1,10,0:0:0:0:
482,253,69676,1,2,0:0:0:0:
499,155,70000,2,0,P|502:133|509:100,2,50,10|8|8,1:0|1:0|1:0,0:0:0:0:
449,165,70486,6,0,P|409:172|352:138,1,100,12|0,0:0|0:0,0:0:0:0:
317,126,70969,1,2,1:2:0:0:
317,126,71131,2,0,L|331:35,2,75,10|2|2,0:0|0:0|1:2,0:0:0:0:
268,139,71776,1,8,0:0:0:0:
171,31,72260,1,2,1:2:0:0:
171,31,72421,2,0,L|52:15,1,100,10|2,0:0|0:0,0:0:0:0:
0,73,73066,6,0,P|17:129|28:179,1,100,8|8,0:0|0:0,0:0:0:0:
60,204,73580,2,0,P|81:195|113:197,2,50,10|10|10,0:0|0:0|0:0,0:0:0:0:
27,299,74212,2,0,P|65:322|129:316,1,100,10|8,0:0|0:0,0:0:0:0:
163,298,74686,1,10,0:0:0:0:
253,341,75008,1,8,0:0:0:0:
332,279,75331,2,0,P|324:254|314:227,1,50,10|10,1:0|1:0,0:0:0:0:
274,204,75653,6,0,L|287:89,1,100,6|0,1:2|0:0,0:0:0:0:
295,58,76147,1,2,1:2:0:0:
295,58,76312,1,10,0:0:0:0:
437,4,76798,1,10,0:0:0:0:
437,4,76960,2,0,P|468:46|465:106,1,100,2|0,1:2|0:0,0:0:0:0:
465,144,77446,1,2,1:2:0:0:
465,144,77608,1,10,0:0:0:0:
329,204,78095,5,10,0:0:0:0:
329,204,78257,2,0,P|333:268|344:316,1,100,2|0,1:2|0:0,0:0:0:0:
352,356,78743,1,2,1:2:0:0:
352,356,78905,1,10,0:0:0:0:
228,280,79392,1,10,0:0:0:0:
228,280,79554,2,0,L|124:284,1,100,2|0,1:2|0:0,0:0:0:0:
58,355,80209,1,8,0:0:0:0:
7,219,80706,5,2,1:2:0:0:
7,219,80872,2,0,L|16:115,1,100,10|0,0:0|0:0,0:0:0:0:
22,73,81358,1,2,1:2:0:0:
22,73,81520,1,10,0:0:0:0:
161,11,82007,1,2,1:2:0:0:
161,11,82169,2,0,P|209:32|256:25,1,100,10|0,0:0|0:0,0:0:0:0:
301,10,82655,1,2,1:2:0:0:
301,10,82817,1,10,0:0:0:0:
383,135,83304,5,2,1:2:0:0:
383,135,83466,2,0,B|363:184|363:184|370:231,1,100,10|0,0:0|0:0,0:0:0:0:
382,278,83953,1,2,1:2:0:0:
382,278,84115,1,10,0:0:0:0:
316,353,84439,1,2,0:0:0:0:
250,276,84763,6,0,L|255:184,2,75,10|0|8,0:0|0:0|1:0,0:0:0:0:
210,307,85412,2,0,P|164:314|110:283,1,100,6|0,1:2|0:0,0:0:0:0:
68,203,86053,2,0,L|75:90,1,100,2|0,1:2|0:0,0:0:0:0:
144,32,86701,2,0,B|195:51|195:51|251:42,1,100,8|0,0:0|0:0,0:0:0:0:
289,35,87188,2,0,L|353:43,1,50,10|0,0:0|1:2,0:0:0:0:
417,102,87648,1,2,0:0:0:0:
417,102,87810,2,0,L|408:173,1,50,10|10,0:0|1:0,0:0:0:0:
383,193,88143,2,0,L|324:181,2,50,10|10|10,1:0|1:0|1:0,0:0:0:0:
395,241,88643,1,14,1:0:0:0:
256,192,88724,12,0,89778,0:0:0:0:
