osu file format v14

[General]
AudioFilename: audio.mp3
AudioLeadIn: 0
PreviewTime: 49621
Countdown: 0
SampleSet: Soft
StackLeniency: 0.5
Mode: 0
LetterboxInBreaks: 0
WidescreenStoryboard: 1

[Editor]
DistanceSpacing: 0.3
BeatDivisor: 4
GridSize: 8
TimelineZoom: 5.299997

[Metadata]
Title:CORE PRIDE (TV Size)
TitleUnicode:CORE PRIDE (TV Size)
Artist:UVERworld
ArtistUnicode:UVERworld
Creator:HakuYT
Version:Kuki's Another
Source:青の祓魔師
Tags:rock jrock anime blue Ao No Exorcist Opening 1 japanese Rin Okumura FuJu NeKroMan4ik Smoke Smoke45 Kuki1537
BeatmapID:2361337
BeatmapSetID:1050996

[Difficulty]
HPDrainRate:5.5
CircleSize:3.8
OverallDifficulty:8.5
ApproachRate:9
SliderMultiplier:1.8
SliderTickRate:1

[Events]
//Background and Video events
0,0,"background.jpg",0,0
Video,-730,"AoNoExorcist-OP1.mp4"
//Break Periods
//Storyboard Layer 0 (Background)
//Storyboard Layer 1 (Fail)
//Storyboard Layer 2 (Pass)
//Storyboard Layer 3 (Foreground)
//Storyboard Layer 4 (Overlay)
//Storyboard Sound Samples

[TimingPoints]
408,324.324324324324,4,2,1,70,1,0
732,365.853658536585,4,2,1,70,1,0
732,-125,4,2,1,70,0,0
914,324.324324324324,4,2,1,70,1,0
914,-125,4,2,1,70,0,0
1724,324.324324324324,4,2,1,70,1,0
1724,-125,4,2,1,70,0,0
2859,-111.111111111111,4,2,1,70,0,0
3994,319.148936170213,4,2,1,70,1,0
3994,-111.111111111111,4,2,1,70,0,0
4313,324.324324324324,4,2,1,70,1,0
4313,-111.111111111111,4,2,1,70,0,0
4961,333.333333333333,4,2,1,70,1,0
4961,-133.333333333333,4,2,1,70,0,0
5627,319.148936170213,4,2,1,65,1,0
5627,-111.111111111111,4,2,1,65,0,0
6265,329.67032967033,4,2,1,65,1,0
6924,324.324324324324,4,2,1,65,1,0
7896,319.148936170213,4,2,1,65,1,0
8215,324.324324324324,4,2,1,65,1,0
9836,333.333333333333,4,2,1,70,1,0
10002,315.789473684211,4,2,1,70,1,0
10002,-125,4,2,1,70,0,0
10633,333.333333333333,4,2,1,60,1,0
10799,324.324324324324,4,2,1,60,1,0
10799,-125,4,2,1,60,0,0
13717,320.855614973262,4,2,1,60,1,0
13717,-125,4,2,1,60,0,0
14358,324.324324324324,4,2,1,60,1,0
14682,333.333333333333,4,2,1,60,1,0
15015,327.868852459016,4,2,1,60,1,0
15015,-125,4,2,1,60,0,0
15998,324.324324324324,4,2,1,60,1,0
15998,-125,4,2,1,60,0,0
17619,322.58064516129,4,2,1,60,1,0
17619,-125,4,2,1,60,0,0
18264,324.324324324324,4,2,1,60,1,0
18264,-125,4,2,1,60,0,0
18588,319.148936170213,4,2,1,60,1,0
18588,-125,4,2,1,60,0,0
19545,324.324324324324,4,2,1,60,1,0
19545,-125,4,2,1,60,0,0
19869,324.324324324324,4,2,1,60,1,0
19869,-125,4,2,1,60,0,0
21166,329.67032967033,4,2,1,65,1,0
21166,-111.111111111111,4,2,1,65,0,0
22484,324.324324324324,4,2,1,65,1,0
22484,-111.111111111111,4,2,1,65,0,0
25402,331.491712707182,4,2,1,65,1,0
25402,-111.111111111111,4,2,1,65,0,0
25733,324.324324324324,4,2,1,65,1,0
26381,324.324324324324,4,2,1,65,1,0
26381,-111.111111111111,4,2,1,65,0,0
28326,320.855614973262,4,2,1,70,1,0
28967,324.324324324324,4,2,1,60,1,0
28967,-142.857142857143,4,2,1,60,0,0
30102,312.5,4,2,1,60,1,0
30258,324.324324324324,4,2,1,60,1,0
30582,340.909090909091,4,2,1,60,1,0
30922,333.333333333333,4,2,1,60,1,0
30922,-142.857142857143,4,2,1,60,0,0
31255,324.324324324324,4,2,1,65,1,0
31579,320.855614973262,4,2,1,65,1,0
31579,-111.111111111111,4,2,1,65,0,0
32862,324.324324324324,4,2,1,65,1,0
32862,-111.111111111111,4,2,1,65,0,0
39348,320.855614973262,4,2,1,65,1,0
39348,-111.111111111111,4,2,1,65,0,0
39668,324.324324324324,4,2,1,65,1,0
39668,-111.111111111111,4,2,1,65,0,0
40640,331.491712707182,4,2,1,65,1,0
40640,-111.111111111111,4,2,1,65,0,0
41302,324.324324324324,4,2,1,65,1,0
41950,322.58064516129,4,2,1,65,1,0
41950,-111.111111111111,4,2,1,65,0,0
44208,331.491712707182,4,2,1,65,1,0
44539,324.324324324324,4,2,1,65,1,0
44539,-111.111111111111,4,2,1,65,0,0
45511,315.789473684211,4,2,1,65,1,0
45511,-111.111111111111,4,2,1,65,0,0
45826,324.324324324324,4,2,1,65,1,0
45826,-111.111111111111,4,2,1,65,0,0
46798,333.333333333333,4,2,1,65,1,0
47131,331.491712707182,4,2,1,65,1,0
47131,-111.111111111111,4,2,1,70,0,0
47793,327.868852459016,4,2,1,70,1,0
48120,319.148936170213,4,2,1,70,1,0
48120,-111.111111111111,4,2,1,70,0,0
48439,307.692307692308,4,2,1,70,1,0
48439,-111.111111111111,4,2,1,70,0,0
49054,324.324324324324,4,2,1,70,1,0
49702,342.857142857143,4,2,1,80,1,0
50387,324.324324324324,4,2,1,80,1,0
51035,324.324324324324,4,2,1,80,1,0
51845,310.880829015544,4,2,1,80,1,0
52311,329.67032967033,4,2,1,80,1,0
52970,324.324324324324,4,2,1,80,1,0
53618,327.868852459016,4,2,1,80,1,0
54929,324.324324324324,4,2,1,80,1,0
55901,315.789473684211,4,2,1,80,1,0
56216,324.324324324324,4,2,1,80,1,0
56864,320.855614973262,4,2,1,80,1,0
57505,324.324324324324,4,2,1,80,1,0
58315,375,4,2,1,80,1,0
58690,285.714285714286,4,2,1,80,1,0
58832,319.148936170213,4,2,1,80,1,0
58832,-125,4,2,1,80,0,0
59629,-100,4,2,1,80,0,0
60108,324.324324324324,4,2,1,80,1,0
61405,327.868852459016,4,2,1,80,1,0
62060,322.58064516129,4,2,1,80,1,0
62705,329.67032967033,4,2,1,80,1,0
63694,320.855614973262,4,2,1,80,1,0
64014,324.324324324324,4,2,1,80,1,0
64986,312.5,4,2,1,80,1,0
65298,324.324324324324,4,2,1,80,1,0
67406,-98.0392156862745,4,2,1,80,0,0
67568,309.278350515464,4,2,1,80,1,0
67877,324.324324324324,4,2,1,80,1,0
68525,329.67032967033,4,2,1,80,1,0
69514,324.324324324324,4,2,1,80,1,0
70486,322.58064516129,4,2,1,80,1,0
73066,357.142857142857,4,2,1,80,1,0
73423,315.789473684211,4,2,1,80,1,0
74686,322.58064516129,4,2,1,80,1,0
75653,329.67032967033,4,2,1,70,1,0
75653,-111.111111111111,4,2,1,70,0,0
76312,324.324324324324,4,2,1,70,1,0
76312,-111.111111111111,4,2,1,70,0,0
76960,324.324324324324,4,2,1,70,1,0
76960,-111.111111111111,4,2,1,70,0,0
79878,331.491712707182,4,2,1,70,1,0
79878,-111.111111111111,4,2,1,70,0,0
80872,324.324324324324,4,2,1,70,1,0
80872,-111.111111111111,4,2,1,70,0,0
85412,320.855614973262,4,2,1,70,1,0
85412,-133.333333333333,4,2,1,70,0,0
86053,324.324324324324,4,2,1,70,1,0
86053,-111.111111111111,4,2,1,70,0,0
87188,272.727272727273,4,2,1,70,1,0
87324,324.324324324324,4,2,1,70,1,0
87324,-111.111111111111,4,2,1,70,0,0
87810,333.333333333333,4,2,1,70,1,0
88643,324.324324324324,4,2,1,70,1,0
89615,-100,4,2,1,20,0,0

[Colours]
Combo1 : 193,216,232
Combo2 : 172,253,249
Combo3 : 252,219,173

[HitObjects]
126,168,408,5,8,0:0:0:0:
149,194,489,1,8,0:0:0:0:
181,209,570,1,8,0:0:0:0:
216,212,651,1,8,0:0:0:0:
245,200,732,6,0,L|254:116,1,72,10|0,0:0|1:0,0:0:0:0:
423,32,1076,1,0,1:0:0:0:
388,226,1238,1,10,0:0:0:0:
315,66,1400,1,0,1:0:0:0:
478,190,1562,1,0,1:0:0:0:
298,264,1724,2,0,P|254:281|219:278,1,72,10|0,0:0|1:0,0:0:0:0:
398,139,2048,1,0,1:0:0:0:
311,377,2210,5,8,0:0:0:0:
252,128,2372,1,8,0:0:0:0:
335,358,2534,1,8,0:0:0:0:
1,181,2859,6,0,B|96:152|69:217|171:186,1,161.999995056153,4|0,1:2|1:0,0:0:0:0:
135,28,3345,2,0,L|125:115,1,80.9999975280763,10|0,0:0|0:0,0:0:0:0:
291,248,3669,1,0,1:0:0:0:
217,110,3832,1,2,1:2:0:0:
151,271,3994,1,8,0:0:0:0:
301,158,4153,1,8,1:0:0:0:
301,158,4233,1,8,1:0:0:0:
301,158,4313,6,0,P|353:145|398:160,1,80.9999975280763,10|8,1:0|1:0,0:0:0:0:
329,327,4637,2,0,P|285:335|242:325,1,80.9999975280763,8|10,1:0|1:0,0:0:0:0:
129,205,4961,2,0,B|124:266|124:266|130:280|130:280|125:350,1,135.000005149842,6|0,1:2|0:0,0:0:0:0:
7,313,5460,1,10,0:0:0:0:
52,155,5627,6,0,P|96:121|199:138,1,161.999995056153,2|0,1:2|0:0,0:0:0:0:
348,230,6105,1,2,1:2:0:0:
250,328,6265,1,8,0:0:0:0:
290,154,6429,2,0,P|342:136|398:146,1,90,2|0,1:2|0:0,0:0:0:0:
452,299,6759,1,10,0:0:0:0:
261,242,6924,5,0,1:0:0:0:
261,242,7248,1,2,0:0:0:0:
400,363,7410,1,2,1:2:0:0:
437,176,7572,1,10,0:0:0:0:
334,310,7734,2,0,L|343:259,1,45,10|8,0:0|0:0,0:0:0:0:
369,124,7896,1,10,1:0:0:0:
396,101,7975,1,8,1:0:0:0:
430,90,8055,1,10,1:0:0:0:
465,93,8135,1,8,1:0:0:0:
496,110,8215,5,14,1:0:0:0:
256,192,8296,12,0,9836,0:0:0:0:
367,106,10002,6,0,L|310:99,1,36,0|0,1:0|1:0,0:0:0:0:
190,30,10159,2,0,L|247:23,1,36,8|8,0:0|0:0,0:0:0:0:
232,175,10317,1,10,0:0:0:0:
198,188,10396,1,8,0:0:0:0:
162,191,10475,1,10,0:0:0:0:
127,179,10554,1,8,0:0:0:0:
96,164,10633,1,8,0:0:0:0:
60,161,10716,1,8,0:0:0:0:
26,175,10799,6,0,B|6:222|6:222|23:327,1,144,6|8,1:2|0:0,0:0:0:0:
138,384,11285,1,2,0:0:0:0:
221,275,11447,2,0,P|259:258|301:260,1,72,2|2,1:2|0:0,0:0:0:0:
390,384,11771,2,0,P|354:382|322:366,1,72,10|2,0:0|0:0,0:0:0:0:
400,274,12096,5,2,1:2:0:0:
512,312,12258,1,2,0:0:0:0:
381,301,12420,2,0,L|373:219,1,72,10|0,0:0|0:0,0:0:0:0:
484,166,12744,2,0,L|492:84,1,72,2|0,1:2|0:0,0:0:0:0:
405,2,13069,1,10,0:0:0:0:
348,111,13231,1,10,0:0:0:0:
348,111,13312,1,8,0:0:0:0:
348,111,13393,6,0,P|313:134|215:108,1,144,2|10,1:2|0:0,0:0:0:0:
182,19,13877,2,0,B|198:67|198:67|178:179,1,144,2|0,0:0|0:0,0:0:0:0:
81,252,14358,1,10,0:0:0:0:
52,120,14520,1,2,0:0:0:0:
174,238,14682,5,2,1:0:0:0:
174,238,14765,1,2,0:0:0:0:
174,238,14848,1,2,0:0:0:0:
65,344,15015,2,0,L|-22:353,1,72,10|0,0:0|0:0,0:0:0:0:
10,212,15342,2,0,L|81:219,1,72,2|0,1:2|0:0,0:0:0:0:
172,372,15670,1,10,0:0:0:0:
256,261,15834,1,10,0:0:0:0:
256,261,15916,1,8,0:0:0:0:
256,261,15998,5,2,1:2:0:0:
338,361,16160,2,0,P|376:347|401:315,1,72,2|8,0:0|0:0,0:0:0:0:
457,250,16484,1,2,0:0:0:0:
333,176,16646,2,0,P|345:214|376:240,1,72,2|0,1:2|0:0,0:0:0:0:
486,166,16970,2,0,P|446:157|408:171,1,72,8|0,0:0|0:0,0:0:0:0:
268,111,17295,5,2,1:2:0:0:
268,111,17376,1,2,0:0:0:0:
268,111,17457,1,2,0:0:0:0:
368,16,17619,2,0,L|362:97,1,72,10|0,0:0|0:0,0:0:0:0:
277,197,17941,2,0,P|228:189|192:161,1,72,2|0,1:2|0:0,0:0:0:0:
160,43,18264,2,0,L|156:89,3,36,10|8|8|8,0:0|0:0|0:0|0:0,0:0:0:0:
143,25,18588,6,0,L|133:123,1,72,2|0,1:2|0:0,0:0:0:0:
7,209,18907,2,0,L|0:137,1,72,10|2,0:0|0:0,0:0:0:0:
60,5,19226,1,2,1:2:0:0:
156,123,19385,2,0,P|172:166|164:208,1,72,2|8,0:0|0:0,0:0:0:0:
71,319,19707,1,2,0:0:0:0:
228,261,19869,5,2,1:2:0:0:
87,173,20031,1,2,0:0:0:0:
167,333,20193,1,10,0:0:0:0:
258,177,20355,1,8,1:0:0:0:
258,177,20436,1,8,1:0:0:0:
258,177,20517,2,0,L|266:97,2,72,10|8|8,1:0|1:0|1:0,0:0:0:0:
339,299,21004,1,8,1:0:0:0:
349,153,21166,6,0,B|437:128|424:184|523:153,1,161.999995056153,6|10,1:2|0:0,0:0:0:0:
470,73,21660,1,2,0:0:0:0:
388,230,21825,1,2,1:2:0:0:
344,70,21990,1,2,0:0:0:0:
507,157,22155,1,10,0:0:0:0:
373,251,22319,6,0,P|331:265|285:257,1,80.9999975280763,2|0,0:0|1:2,0:0:0:0:
194,136,22646,2,0,P|227:165|243:209,1,80.9999975280763,2|8,0:0|0:0,0:0:0:0:
189,347,22970,2,0,P|197:303|227:267,2,80.9999975280763,2|0|0,0:0|1:2|0:0,0:0:0:0:
279,344,23456,1,10,0:0:0:0:
159,215,23619,1,8,0:0:0:0:
159,215,23700,1,8,0:0:0:0:
159,215,23781,6,0,P|116:202|63:219,1,80.9999975280763,2|0,1:2|0:0,0:0:0:0:
0,320,24105,1,10,0:0:0:0:
110,365,24267,2,0,L|119:274,1,80.9999975280763,2|0,0:0|1:0,0:0:0:0:
0,144,24592,1,2,0:0:0:0:
20,298,24754,1,10,0:0:0:0:
101,152,24916,6,0,P|148:130|192:133,1,80.9999975280763,2|0,0:0|1:0,0:0:0:0:
300,243,25240,1,2,0:0:0:0:
167,295,25402,2,0,L|158:208,1,80.9999975280763,8|0,0:0|0:0,0:0:0:0:
344,101,25733,1,2,1:2:0:0:
280,257,25895,1,2,0:0:0:0:
244,78,26057,1,10,0:0:0:0:
379,189,26219,1,8,0:0:0:0:
379,189,26300,1,8,0:0:0:0:
379,189,26381,6,0,B|402:248|402:248|382:363,1,161.999995056153,2|8,1:2|0:0,0:0:0:0:
273,379,26867,1,0,0:0:0:0:
169,243,27029,2,0,P|163:198|177:163,1,80.9999975280763,2|2,1:2|0:0,0:0:0:0:
286,179,27353,2,0,P|292:224|278:259,1,80.9999975280763,10|2,0:0|0:0,0:0:0:0:
148,367,27678,5,2,1:2:0:0:
36,232,27840,1,2,0:0:0:0:
217,317,28002,1,10,0:0:0:0:
51,370,28164,1,2,0:0:0:0:
197,184,28326,5,8,0:0:0:0:
148,367,28486,1,8,0:0:0:0:
0,163,28646,1,10,0:0:0:0:
49,346,28806,1,8,0:0:0:0:
109,142,28967,5,6,1:2:0:0:
109,142,29129,2,0,B|123:42|123:42|137:78,1,125.999996154785,0|2,1:0|1:2,0:0:0:0:
253,110,29615,1,10,0:0:0:0:
253,110,29777,2,0,B|325:91|309:136|393:117,1,125.999996154785,2|10,1:2|0:0,0:0:0:0:
451,33,30258,1,2,1:2:0:0:
451,33,30420,1,2,1:2:0:0:
504,131,30582,1,2,0:0:0:0:
504,131,30752,1,2,1:2:0:0:
433,220,30922,2,0,L|424:309,2,62.9999980773926,8|8|8,0:0|1:0|1:0,0:0:0:0:
433,220,31579,6,0,L|334:231,1,80.9999975280763,6|0,1:2|0:0,0:0:0:0:
229,333,31899,2,0,L|310:342,1,80.9999975280763,10|0,0:0|0:0,0:0:0:0:
250,164,32220,2,0,P|262:211|256:246,1,80.9999975280763,2|0,1:2|0:0,0:0:0:0:
142,366,32541,2,0,P|137:326|149:287,1,80.9999975280763,10|0,0:0|0:0,0:0:0:0:
49,172,32862,6,0,P|80:146|119:139,1,80.9999975280763,2|0,1:2|0:0,0:0:0:0:
257,242,33186,2,0,P|214:234|184:209,1,80.9999975280763,10|0,0:0|0:0,0:0:0:0:
301,15,33510,1,2,1:2:0:0:
250,164,33672,1,0,0:0:0:0:
397,136,33834,1,8,0:0:0:0:
221,68,33997,1,10,0:0:0:0:
221,68,34078,1,8,0:0:0:0:
221,68,34159,6,0,L|136:59,1,80.9999975280763,2|0,1:2|0:0,0:0:0:0:
0,64,34483,1,10,0:0:0:0:
148,178,34645,1,2,0:0:0:0:
73,0,34807,1,2,1:2:0:0:
11,204,34970,1,2,0:0:0:0:
128,76,35132,1,10,0:0:0:0:
175,265,35294,6,0,B|224:294|224:294|348:278,1,161.999995056153,2|2,0:0|0:0,0:0:0:0:
247,131,35780,2,0,P|236:176|245:222,1,80.9999975280763,8|0,0:0|0:0,0:0:0:0:
448,268,36105,1,0,1:0:0:0:
323,179,36267,1,0,0:0:0:0:
470,131,36429,1,8,0:0:0:0:
355,265,36591,1,10,0:0:0:0:
355,265,36672,1,8,0:0:0:0:
355,265,36753,6,0,L|346:348,1,80.9999975280763,2|0,1:2|0:0,0:0:0:0:
512,337,37078,1,10,0:0:0:0:
409,189,37240,1,2,0:0:0:0:
431,372,37402,1,2,1:2:0:0:
512,207,37564,1,2,0:0:0:0:
346,345,37726,1,10,0:0:0:0:
423,171,37889,6,0,B|437:49|437:49|409:82,1,161.999995056153,2|0,0:0|0:0,0:0:0:0:
250,127,38375,1,8,0:0:0:0:
334,6,38537,1,2,0:0:0:0:
313,191,38699,2,0,P|275:213|237:215,1,80.9999975280763,2|0,1:2|0:0,0:0:0:0:
189,47,39024,1,8,0:0:0:0:
143,217,39186,1,8,0:0:0:0:
143,217,39267,1,10,0:0:0:0:
143,217,39348,6,0,L|148:130,1,80.9999975280763,2|2,1:2|0:0,0:0:0:0:
39,4,39668,2,0,B|34:72|34:72|43:91|43:91|37:180,2,161.999995056153,10|0|8,0:0|1:0|0:0,0:0:0:0:
204,28,40478,1,2,0:0:0:0:
147,134,40640,2,0,P|132:182|141:227,1,80.9999975280763,2|2,1:2|0:0,0:0:0:0:
297,192,40971,2,0,L|202:182,1,80.9999975280763,8|0,0:0|0:0,0:0:0:0:
125,363,41302,5,0,1:0:0:0:
306,298,41464,1,10,0:0:0:0:
108,236,41626,5,2,1:2:0:0:
321,300,41788,1,8,0:0:0:0:
96,373,41950,6,0,P|50:381|-5:366,1,80.9999975280763,6|0,1:2|0:0,0:0:0:0:
136,224,42272,2,0,P|175:218|215:226,1,80.9999975280763,10|0,0:0|0:0,0:0:0:0:
55,297,42595,1,2,1:2:0:0:
92,148,42756,1,0,0:0:0:0:
183,308,42917,2,0,P|222:315|262:310,1,80.9999975280763,10|0,0:0|0:0,0:0:0:0:
340,171,43240,6,0,L|348:254,1,80.9999975280763,2|0,1:2|0:0,0:0:0:0:
483,370,43562,2,0,L|490:289,1,80.9999975280763,10|0,0:0|0:0,0:0:0:0:
427,143,43885,1,2,1:2:0:0:
395,324,44046,1,0,0:0:0:0:
501,203,44208,1,10,0:0:0:0:
320,148,44373,1,8,0:0:0:0:
320,148,44456,1,8,0:0:0:0:
320,148,44539,6,0,P|269:162|231:157,1,80.9999975280763,2|0,1:2|0:0,0:0:0:0:
104,87,44863,1,10,0:0:0:0:
264,0,45025,2,0,P|276:42|270:83,1,80.9999975280763,2|0,0:0|1:0,0:0:0:0:
75,178,45349,1,2,0:0:0:0:
190,45,45511,1,10,0:0:0:0:
8,44,45668,1,2,0:0:0:0:
177,181,45826,6,0,P|227:194|264:193,1,80.9999975280763,0|0,1:0|0:0,0:0:0:0:
92,313,46150,2,0,P|51:314|12:325,1,80.9999975280763,8|0,0:0|0:0,0:0:0:0:
177,181,46474,1,0,1:0:0:0:
20,238,46636,1,2,0:0:0:0:
214,282,46798,1,10,0:0:0:0:
214,282,47131,6,0,L|301:294,1,80.9999975280763,2|0,1:2|0:0,0:0:0:0:
349,384,47462,5,8,0:0:0:0:
380,358,47545,1,8,0:0:0:0:
398,321,47628,1,10,0:0:0:0:
401,280,47711,1,8,0:0:0:0:
384,243,47793,5,8,0:0:0:0:
372,213,47874,1,8,0:0:0:0:
368,181,47956,1,10,0:0:0:0:
375,150,48038,1,8,0:0:0:0:
391,122,48120,6,0,L|440:113,1,40.4999987640381,10|8,1:0|1:0,0:0:0:0:
504,202,48279,2,0,L|455:193,1,40.4999987640381,8|8,1:0|1:0,0:0:0:0:
352,50,48439,6,0,L|445:33,1,80.9999975280763,10|8,1:0|0:0,0:0:0:0:
461,28,48669,1,8,0:0:0:0:
461,28,48746,1,8,0:0:0:0:
284,110,48900,1,10,0:0:0:0:
511,120,49054,1,8,0:0:0:0:
267,20,49216,1,10,0:0:0:0:
439,241,49378,1,8,0:0:0:0:
352,50,49540,1,8,0:0:0:0:
255,261,49702,6,0,P|198:296|89:256,1,180,6|0,1:2|0:0,0:0:0:0:
70,150,50216,1,0,1:0:0:0:
181,31,50387,2,0,B|199:128|155:112|176:208,1,180,10|0,0:0|0:0,0:0:0:0:
394,372,50873,2,0,P|408:329|397:279,1,90,2|0,0:0|1:0,0:0:0:0:
265,164,51197,2,0,P|295:197|344:213,1,90,2|0,0:0|1:0,0:0:0:0:
506,155,51521,2,0,P|461:164|423:198,1,90,2|8,0:0|0:0,0:0:0:0:
320,322,51845,1,2,1:2:0:0:
348,122,52000,1,2,0:0:0:0:
505,244,52155,1,2,0:0:0:0:
300,336,52311,6,0,B|243:363|243:363|126:345,1,180,2|0,1:2|0:0,0:0:0:0:
24,241,52805,1,0,1:2:0:0:
214,181,52970,2,0,P|222:228|225:273,1,90,10|0,0:0|1:0,0:0:0:0:
21,349,53294,1,2,0:0:0:0:
89,130,53456,6,0,B|192:105|164:170|267:140,1,180,2|2,0:0|0:0,0:0:0:0:
132,212,53945,1,2,1:2:0:0:
3,66,54109,1,2,0:0:0:0:
225,15,54273,2,0,P|286:7|338:31,1,90,10|0,0:0|0:0,0:0:0:0:
132,212,54601,2,0,P|88:221|44:211,1,90,2|0,0:0|0:0,0:0:0:0:
263,140,54929,5,0,1:0:0:0:
289,328,55091,2,0,B|346:356|346:356|473:333,1,180,0|0,1:0|1:2,0:0:0:0:
366,179,55577,2,0,P|353:229|357:285,1,90,10|2,0:0|1:0,0:0:0:0:
499,325,55901,1,2,0:0:0:0:
438,118,56058,2,0,P|393:94|325:96,1,90,2|0,0:0|1:0,0:0:0:0:
245,246,56378,1,2,0:0:0:0:
446,233,56540,1,2,1:2:0:0:
263,140,56702,1,2,0:0:0:0:
346,356,56864,6,0,L|354:261,1,90,10|2,0:0|1:2,0:0:0:0:
179,100,57184,2,0,L|171:189,1,90,2|2,0:0|0:0,0:0:0:0:
233,374,57505,5,2,1:2:0:0:
34,288,57667,2,0,B|42:210|42:210|34:190|34:190|42:107,1,180,0|0,1:0|1:0,0:0:0:0:
229,14,58153,1,10,0:0:0:0:
171,189,58315,1,2,1:2:0:0:
86,25,58502,2,0,P|39:13|-11:27,1,90,2|0,0:0|0:0,0:0:0:0:
125,273,58832,6,0,P|176:283|261:227,2,144,2|0|0,1:2|1:0|1:0,0:0:0:0:
125,105,59629,2,0,B|223:74|203:141|308:109,1,180,12|0,0:0|0:0,0:0:0:0:
467,42,60108,2,0,P|485:88|480:136,1,90,6|0,1:2|1:2,0:0:0:0:
404,288,60432,1,2,0:0:0:0:
389,97,60594,1,2,1:2:0:0:
512,293,60756,2,0,L|415:305,1,90,10|0,0:0|1:2,0:0:0:0:
237,206,61080,1,2,0:0:0:0:
340,384,61243,1,2,0:0:0:0:
137,309,61405,5,2,1:2:0:0:
339,224,61568,1,2,0:0:0:0:
206,379,61732,1,0,1:0:0:0:
120,174,61896,1,2,0:0:0:0:
282,286,62060,2,0,P|333:305|381:295,1,90,10|2,0:0|1:2,0:0:0:0:
281,117,62382,2,0,P|236:113|195:131,1,90,2|2,0:0|0:0,0:0:0:0:
44,322,62705,6,0,L|37:214,1,90,2|0,1:2|1:0,0:0:0:0:
86,54,63034,1,2,0:0:0:0:
196,219,63199,1,2,1:2:0:0:
238,34,63364,2,0,B|338:2|315:70|431:31,1,180,8|2,0:0|0:0,0:0:0:0:
512,158,63854,6,0,P|456:123|349:193,1,180.3,2|2,0:0|0:0,0:0:0:0:
323,384,64338,1,2,1:2:0:0:
512,290,64500,1,2,0:0:0:0:
296,230,64662,1,10,0:0:0:0:
445,383,64824,1,2,1:2:0:0:
359,166,64986,2,0,P|304:143|242:154,1,90,2|0,0:0|0:0,0:0:0:0:
167,358,65298,6,0,L|157:258,1,90,4|0,1:2|1:0,0:0:0:0:
64,127,65622,1,2,0:0:0:0:
11,289,65784,1,2,1:2:0:0:
210,170,65946,1,10,0:0:0:0:
34,45,66108,1,2,1:2:0:0:
81,249,66270,1,2,0:0:0:0:
226,86,66433,6,0,P|242:38|238:-4,1,90,2|0,0:0|1:0,0:0:0:0:
68,162,66757,2,0,P|65:206|80:248,1,90,2|0,0:0|1:0,0:0:0:0:
277,320,67081,1,2,0:0:0:0:
155,196,67243,1,8,0:0:0:0:
337,149,67406,2,0,B|437:118|422:183|521:152,1,180,2|2,1:2|0:0,0:0:0:0:
457,0,67877,5,6,1:2:0:0:
279,77,68039,2,0,P|243:143|293:241,1,180,0|2,1:0|1:2,0:0:0:0:
464,344,68525,2,0,L|473:240,1,90,10|0,0:0|0:0,0:0:0:0:
413,106,68854,1,2,1:2:0:0:
332,310,69019,6,0,P|289:323|244:315,1,90,2|0,1:2|0:0,0:0:0:0:
124,145,69349,2,0,P|167:132|212:140,1,90,10|0,0:0|1:0,0:0:0:0:
384,235,69676,1,2,0:0:0:0:
165,221,69838,1,8,0:0:0:0:
348,50,70000,1,10,1:0:0:0:
286,238,70162,1,8,1:0:0:0:
205,113,70324,1,8,1:0:0:0:
375,206,70486,5,12,0:0:0:0:
206,307,70647,2,0,B|102:333|126:268|19:300,1,180,0|2,1:0|1:2,0:0:0:0:
0,141,71131,1,10,0:0:0:0:
179,43,71292,2,0,B|169:119|169:119|176:142|176:142|163:228,1,180,2|2,1:2|1:2,0:0:0:0:
67,378,71776,5,8,0:0:0:0:
252,229,71937,2,0,B|307:209|307:209|439:239,1,180,0|2,1:0|1:2,0:0:0:0:
323,384,72421,2,0,L|312:292,1,90,10|0,0:0|1:0,0:0:0:0:
460,124,72744,2,0,L|449:213,1,90,2|0,0:0|1:0,0:0:0:0:
286,109,73066,5,8,0:0:0:0:
286,109,73423,5,8,0:0:0:0:
242,323,73580,1,10,0:0:0:0:
145,128,73738,1,10,0:0:0:0:
307,272,73896,1,10,0:0:0:0:
209,77,74054,1,8,0:0:0:0:
166,291,74212,1,10,0:0:0:0:
286,109,74370,5,8,0:0:0:0:
115,217,74528,1,8,0:0:0:0:
115,217,74607,1,8,0:0:0:0:
115,217,74686,1,10,0:0:0:0:
334,187,74847,1,10,0:0:0:0:
132,45,75008,1,8,0:0:0:0:
219,159,75169,1,10,1:0:0:0:
273,26,75331,1,10,1:0:0:0:
209,77,75492,1,10,1:0:0:0:
354,168,75653,6,0,B|404:164|404:164|433:149|433:149|464:160|464:160|517:157,1,161.999995056153,6|0,1:2|0:0,0:0:0:0:
440,258,76147,1,2,1:2:0:0:
309,248,76312,2,0,P|275:214|288:106,1,161.999995056153,10|0,0:0|0:0,0:0:0:0:
483,78,76798,1,10,0:0:0:0:
331,31,76960,6,0,B|241:4|255:55|165:26,1,161.999995056153,2|0,1:2|0:0,0:0:0:0:
16,10,77446,1,2,1:2:0:0:
128,110,77608,2,0,B|151:160|151:160|124:288,1,161.999995056153,10|0,0:0|0:0,0:0:0:0:
22,374,78095,1,10,0:0:0:0:
152,279,78257,6,0,B|199:259|235:270|235:270|272:304|324:301,1,161.999995056153,2|0,1:2|0:0,0:0:0:0:
442,234,78743,1,2,1:2:0:0:
319,97,78905,2,0,B|304:217|304:217|342:183,1,161.999995056153,10|0,0:0|0:0,0:0:0:0:
455,68,79392,1,10,0:0:0:0:
236,16,79554,6,0,B|228:86|228:86|237:101|237:101|226:185,1,161.999995056153,2|0,1:2|0:0,0:0:0:0:
161,341,80043,1,0,1:0:0:0:
77,176,80209,1,8,0:0:0:0:
256,286,80375,1,0,1:0:0:0:
256,286,80706,5,2,1:2:0:0:
137,109,80872,2,0,P|170:183|125:258,1,161.999995056153,10|0,0:0|0:0,0:0:0:0:
0,186,81358,1,2,1:2:0:0:
73,46,81520,2,0,B|120:18|120:18|250:40,1,161.999995056153,10|0,0:0|0:0,0:0:0:0:
322,186,82007,1,2,1:2:0:0:
487,55,82169,6,0,B|440:55|412:21|412:21|392:61|342:67,1,161.999995056153,10|0,0:0|0:0,0:0:0:0:
246,131,82655,1,2,1:2:0:0:
424,147,82817,2,0,L|437:313,1,161.999995056153,10|0,0:0|0:0,0:0:0:0:
315,378,83304,1,2,1:2:0:0:
297,229,83466,6,0,B|206:200|223:257|126:226,1,161.999995056153,10|0,0:0|0:0,0:0:0:0:
4,157,83953,1,2,1:2:0:0:
168,69,84115,2,0,P|184:113|177:160,1,80.9999975280763,10|0,0:0|0:0,0:0:0:0:
37,309,84439,2,0,P|35:268|50:231,1,80.9999975280763,2|0,0:0|0:0,0:0:0:0:
276,139,84763,5,10,0:0:0:0:
252,307,84926,1,8,1:0:0:0:
181,146,85088,1,8,1:0:0:0:
159,276,85250,1,8,1:0:0:0:
364,188,85412,6,0,P|376:138|325:52,1,135.000005149842,6|0,1:2|0:0,0:0:0:0:
180,53,85893,1,2,0:0:0:0:
180,53,85973,1,0,0:0:0:0:
180,53,86053,6,0,B|108:47|108:47|91:55|91:55|7:48,1,161.999995056153,2|0,1:2|0:0,0:0:0:0:
13,240,86539,1,2,1:2:0:0:
133,130,86701,1,8,0:0:0:0:
106,305,86863,1,2,1:2:0:0:
106,305,87188,5,10,0:0:0:0:
228,170,87324,2,0,B|317:150|296:203|393:180,1,161.999995056153,0|2,1:2|0:0,0:0:0:0:
431,338,87810,1,10,0:0:0:0:
391,330,87893,1,8,0:0:0:0:
351,320,87976,1,10,1:0:0:0:
311,310,88060,1,0,1:0:0:0:
271,300,88143,2,0,P|263:274|260:244,1,45,10|0,1:0|1:0,0:0:0:0:
386,181,88310,2,0,P|382:203|375:224,1,45,10|0,1:0|1:0,0:0:0:0:
213,146,88476,1,10,1:0:0:0:
213,146,88560,1,0,1:0:0:0:
213,146,88643,5,14,1:0:0:0:
256,192,88724,12,0,89615,0:0:0:0:
