osu file format v14

[General]
AudioFilename: audio.mp3
AudioLeadIn: 0
PreviewTime: 176757
Countdown: 0
SampleSet: Soft
StackLeniency: 0.7
Mode: 0
LetterboxInBreaks: 0
WidescreenStoryboard: 1

[Editor]
Bookmarks: 377,2908,10690,18473,28852,39251,59994,80750,85939,96318,106696,124830,145629,156007,161175,176757,187135,220865,241622,252000
DistanceSpacing: 0.9
BeatDivisor: 4
GridSize: 16
TimelineZoom: 2.799999

[Metadata]
Title:CORE PRIDE
TitleUnicode:CORE PRIDE
Artist:UVERworld
ArtistUnicode:UVERworld
Creator:Some Hero
Version:Insane
Source:青の祓魔師
Tags:LIFE 6 SENSE blue ao no exorcist anime opening op full version japanese rock jrock j-rock
BeatmapID:3222191
BeatmapSetID:1577983

[Difficulty]
HPDrainRate:7
CircleSize:4
OverallDifficulty:8
ApproachRate:9
SliderMultiplier:1.4
SliderTickRate:1

[Events]
//Background and Video events
0,0,"uwu.jpg",0,0
//Break Periods
2,176956,183130
//Storyboard Layer 0 (Background)
//Storyboard Layer 1 (Fail)
//Storyboard Layer 2 (Pass)
//Storyboard Layer 3 (Foreground)
//Storyboard Layer 4 (Overlay)
//Storyboard Sound Samples

[TimingPoints]
377,317.460317460317,4,2,1,60,1,0
853,304.568527918782,4,2,1,60,1,0
1309,342.857142857143,4,2,1,60,1,0
1480,240,4,2,1,60,1,0
1621,324.324324324324,4,2,1,60,1,0
2593,315.789473684211,4,2,1,60,1,0
2908,310.880829015544,4,2,1,60,1,0
3218,333.333333333333,4,2,1,60,1,0
3718,324.324324324324,4,2,1,60,1,0
5501,324.324324324324,4,2,1,60,1,0
10041,-125,4,2,1,60,0,1
10609,-125,4,2,1,60,0,0
10690,-100,4,2,1,70,0,1
11014,-100,4,2,1,70,0,0
16203,-100,4,2,1,60,0,0
18473,-125,4,2,1,50,0,0
28852,-111.111111111111,4,2,1,50,0,0
33392,-83.3333333333333,4,2,1,60,0,0
34041,-100,4,2,1,50,0,0
35987,-83.3333333333333,4,2,1,50,0,0
36636,-100,4,2,1,50,0,0
37933,329.67032967033,4,2,1,50,1,0
39251,322.58064516129,4,2,1,60,1,0
41509,327.868852459016,4,2,1,60,1,0
41836,324.324324324324,4,2,1,60,1,0
52214,322.58064516129,4,2,1,60,1,0
54149,329.67032967033,4,2,1,60,1,0
54149,-66.6666666666667,4,2,1,70,0,0
54808,324.324324324324,4,2,1,70,1,0
54808,-90.9090909090909,4,2,1,70,0,0
57402,320.855614973262,4,2,1,70,1,0
57562,-100,4,2,1,50,0,0
58705,320.855614973262,4,2,1,70,1,0
58705,-100,4,2,1,70,0,0
59994,324.324324324324,4,2,1,70,1,0
59994,-83.3333333333333,4,2,1,80,0,1
60318,-100,4,2,1,80,0,0
69885,-100,4,2,1,80,0,1
70291,-100,4,2,1,80,0,0
70372,-83.3333333333333,4,2,1,80,0,1
70696,-100,4,2,1,80,0,0
80750,-200,4,2,1,60,0,1
81723,-200,4,2,1,5,0,1
81804,-200,4,2,1,40,0,1
83345,-200,4,2,0,60,0,0
85939,-200,4,2,1,50,0,0
86264,-125,4,2,1,50,0,0
88534,-200,4,2,1,50,0,0
88858,-125,4,2,1,50,0,0
91129,-200,4,2,1,50,0,0
91453,-125,4,2,1,50,0,0
93723,-200,4,2,1,50,0,0
94048,-125,4,2,1,50,0,0
95669,-200,4,2,1,50,0,0
96318,-111.111111111111,4,2,1,60,0,0
106696,-100,4,2,1,70,0,0
121615,-66.6666666666667,4,2,1,80,0,0
122264,-100,4,2,1,80,0,0
123561,317.460317460317,4,2,1,80,1,0
124830,329.67032967033,4,2,1,80,1,0
124830,-100,4,2,1,80,0,1
125159,-100,4,2,1,80,0,0
127467,324.324324324324,4,2,1,80,1,0
134764,-100,4,2,1,80,0,1
135169,-100,4,2,1,80,0,0
135250,-83.3333333333333,4,2,1,80,0,1
135575,-100,4,2,1,80,0,0
145629,-100,4,2,1,70,0,1
146277,-100,4,2,1,70,0,0
156007,317.460317460317,4,2,1,60,1,0
156007,-125,4,2,1,60,0,0
157276,324.324324324324,4,2,1,60,1,0
159870,333.333333333333,4,2,1,60,1,0
160870,306.122448979592,4,2,1,60,1,0
161175,337.078651685393,4,2,1,70,1,0
161849,319.148936170213,4,2,1,70,1,0
162487,324.324324324324,4,2,1,70,1,0
175459,-83.3333333333333,4,2,1,70,0,0
176108,-200,4,2,1,70,0,0
183730,-83.3333333333333,4,2,1,60,0,0
187135,-83.3333333333333,4,2,1,80,0,1
187459,-100,4,2,1,80,0,0
194919,-83.3333333333333,4,2,1,80,0,1
195243,-100,4,2,1,80,0,0
204811,-100,4,2,1,80,0,1
205216,-100,4,2,1,80,0,0
205297,-83.3333333333333,4,2,1,80,0,1
205622,-100,4,2,1,80,0,0
219405,-83.3333333333333,4,2,1,80,0,0
220865,-90.9090909090909,4,2,1,80,0,1
231243,-90.9090909090909,4,2,1,90,0,1
240973,-142.857142857143,4,2,1,90,0,1
241622,-100,4,2,1,70,0,0
252000,-250,4,2,1,70,0,0
253135,-250,4,2,1,20,0,0

[Colours]
Combo1 : 217,237,244
Combo2 : 89,157,232
Combo3 : 120,210,220

[HitObjects]
39,41,377,5,4,0:3:0:0:
39,41,456,1,8,0:3:0:0:
39,41,535,2,0,L|41:75,3,35,4|8|0|0,0:3|0:3|1:2|1:2,0:2:0:0:
113,139,853,1,4,0:3:0:0:
113,139,929,1,8,0:3:0:0:
113,139,1005,2,0,L|111:173,1,35,4|8,0:3|0:3,0:2:0:0:
181,268,1157,2,0,L|179:234,1,35,0|0,1:2|1:2,0:2:0:0:
238,163,1309,5,8,0:2:0:0:
245,155,1394,1,8,0:2:0:0:
253,147,1480,2,0,L|255:181,1,35,0|0,1:2|1:2,0:2:0:0:
338,297,1621,1,8,0:2:0:0:
378,292,1702,1,8,0:2:0:0:
412,268,1783,1,8,0:2:0:0:
428,226,1864,1,8,0:2:0:0:
425,186,1945,6,0,L|417:151,1,35,8|8,0:2|0:2,0:2:0:0:
352,83,2107,2,0,L|359:48,1,35,8|8,0:2|0:2,0:2:0:0:
431,0,2269,5,8,0:3:0:0:
431,0,2350,1,8,0:3:0:0:
431,0,2431,2,0,L|465:7,1,35,8|8,0:3|0:3,0:2:0:0:
512,86,2593,1,4,0:3:0:0:
512,86,2671,1,4,0:3:0:0:
512,86,2750,2,0,L|477:93,1,35,4|4,1:3|1:3,0:2:0:0:
509,171,2908,5,10,0:2:0:0:
507,198,2985,1,10,0:2:0:0:
505,225,3063,1,10,0:2:0:0:
503,253,3141,1,10,0:2:0:0:
501,280,3218,1,10,0:2:0:0:
441,330,3384,1,0,1:2:0:0:
323,232,3551,5,0,1:2:0:0:
349,156,3718,2,0,B|383:147|383:147|417:151,1,70,10|0,0:2|1:2,0:2:0:0:
300,373,4042,1,0,1:2:0:0:
225,351,4204,2,0,B|216:316|216:316|220:282,1,70,10|0,0:2|1:2,0:2:0:0:
183,105,4528,1,0,1:2:0:0:
117,39,4690,2,0,P|82:43|47:46,1,70,10|0,0:2|1:2,0:2:0:0:
155,193,5015,5,14,0:2:0:0:
268,77,5177,1,14,0:2:0:0:
323,232,5339,1,14,0:2:0:0:
121,277,5501,5,10,0:2:0:0:
107,281,5582,1,10,0:2:0:0:
93,285,5663,1,10,0:2:0:0:
80,289,5744,1,10,0:2:0:0:
67,293,5825,1,10,0:2:0:0:
5,240,5987,1,0,1:2:0:0:
95,121,6149,5,0,1:2:0:0:
182,104,6311,2,0,P|185:139|174:173,1,70,10|0,0:2|1:2,0:2:0:0:
237,285,6636,1,0,1:2:0:0:
324,301,6798,2,0,P|327:266|316:232,1,70,10|0,0:2|1:2,0:2:0:0:
314,81,7122,1,0,1:2:0:0:
270,15,7284,1,10,0:2:0:0:
451,155,7446,5,10,0:2:0:0:
446,5,7609,1,10,0:2:0:0:
444,319,7933,6,0,P|439:253|375:237,1,140,6|0,1:2|1:2,0:2:0:0:
91,343,8419,2,0,B|90:263|146:300|152:225,1,140,10|0,0:2|1:2,0:2:0:0:
200,153,8906,1,0,1:2:0:0:
239,358,9068,1,8,0:2:0:0:
304,198,9230,5,8,0:3:0:0:
309,188,9311,1,8,0:3:0:0:
314,178,9392,1,8,0:3:0:0:
127,272,9555,1,8,0:3:0:0:
203,234,9717,1,4,0:3:0:0:
124,188,9879,1,4,0:3:0:0:
46,237,10041,6,0,B|5:312|5:312|83:340,1,168,6|0,1:1|0:2,0:2:0:0:
127,272,10690,5,4,1:2:0:0:
206,160,10852,2,0,B|210:93|174:95|176:24,1,140,2|0,1:2|1:2,0:2:0:0:
270,76,11338,1,8,0:2:0:0:
31,70,11500,2,0,P|53:98|80:120,1,70,6|0,1:2|0:2,0:2:0:0:
289,2,11825,1,8,0:2:0:0:
348,179,11987,5,4,1:2:0:0:
434,228,12149,2,0,B|439:194|439:194|427:160,1,70,2|0,1:2|0:2,0:2:0:0:
348,277,12473,1,0,1:2:0:0:
480,338,12636,1,8,0:2:0:0:
402,384,12798,2,0,L|263:361,1,140,6|8,1:2|0:2,0:2:0:0:
172,206,13284,5,4,1:2:0:0:
98,281,13446,2,0,P|76:216|105:154,1,140,2|0,1:2|1:2,0:2:0:0:
199,306,13933,1,8,0:2:0:0:
177,383,14095,2,0,P|142:377|110:364,1,70,6|0,1:2|0:2,0:2:0:0:
105,154,14419,5,8,0:2:0:0:
160,96,14582,1,4,1:2:0:0:
215,39,14744,2,0,P|265:81|259:149,1,140,2|0,1:2|1:2,0:2:0:0:
350,280,15230,1,12,0:2:0:0:
378,54,15392,5,8,0:2:0:0:
406,19,15473,1,8,0:2:0:0:
450,12,15555,1,8,1:2:0:0:
492,31,15636,1,8,0:3:0:0:
509,74,15717,2,0,L|510:108,1,35,8|4,0:3|0:3,0:2:0:0:
482,219,15879,6,0,B|410:229|419:187|348:186,1,140,6|0,1:2|3:2,0:2:0:0:
256,192,16284,12,2,17500,3:2:0:0:
72,269,17663,6,0,L|74:303,1,35,0|0,1:2|1:2,0:2:0:0:
145,349,17825,2,0,L|143:384,2,35,8|8|8,0:3|0:2|0:2,0:2:0:0:
201,281,18068,5,8,0:2:0:0:
224,259,18149,1,0,1:2:0:0:
234,229,18230,1,8,0:2:0:0:
235,195,18311,1,8,0:2:0:0:
223,167,18392,1,8,0:2:0:0:
197,147,18473,5,6,1:2:0:0:
113,129,18636,2,0,P|106:155|103:183,1,56,2|8,0:2|1:2,0:2:0:0:
294,87,18960,1,2,0:2:0:0:
294,87,19122,1,2,1:2:0:0:
294,87,19284,1,2,0:2:0:0:
378,81,19446,2,0,P|385:54|388:26,1,56,10|0,0:2|0:2,0:2:0:0:
512,184,19771,5,2,1:2:0:0:
344,199,19933,1,2,0:2:0:0:
488,258,20095,6,0,P|449:243|423:210,1,84,10|0,0:2|0:2,0:2:0:0:
423,210,20419,2,0,B|420:179|420:179|424:154,1,56,2|0,1:2|0:2,0:2:0:0:
310,368,20744,5,10,0:2:0:0:
369,281,20906,1,10,0:2:0:0:
359,275,20987,1,8,0:2:0:0:
349,270,21068,2,0,B|294:266|294:297|242:295,1,112,2|8,1:2|0:2,0:2:0:0:
183,238,21555,2,0,B|183:210|183:210|177:182,1,56,2|0,0:2|1:2,0:2:0:0:
241,294,21879,1,0,0:2:0:0:
122,379,22041,5,10,0:2:0:0:
60,332,22203,1,2,0:2:0:0:
60,332,22284,1,2,0:2:0:0:
60,332,22365,2,0,P|60:305|64:277,1,56,2|2,1:2|0:2,0:2:0:0:
25,164,22690,2,0,P|41:125|29:86,1,84,10|0,0:2|0:2,0:2:0:0:
29,86,23014,2,0,B|25:54|25:54|33:31,1,56,2|0,1:2|0:2,0:2:0:0:
217,1,23338,5,10,0:2:0:0:
133,73,23500,1,10,0:2:0:0:
125,77,23582,1,8,0:2:0:0:
117,81,23663,1,2,1:2:0:0:
246,180,23825,2,0,P|245:152|238:124,1,56,2|8,0:2|0:2,0:2:0:0:
384,29,24149,1,2,0:2:0:0:
441,91,24311,2,0,L|432:202,1,112,2|8,1:2|0:2,0:2:0:0:
324,339,24960,5,2,1:2:0:0:
324,339,25041,1,2,0:2:0:0:
324,339,25122,1,2,0:2:0:0:
470,293,25284,2,0,P|429:283|387:279,1,84,10|0,0:2|0:2,0:2:0:0:
387,279,25609,2,0,B|357:268|357:268|338:252,1,56,2|0,1:2|0:2,0:2:0:0:
197,216,25933,5,10,0:2:0:0:
215,357,26095,1,8,0:2:0:0:
218,347,26176,1,8,0:2:0:0:
224,341,26257,2,0,P|194:311|155:298,1,84,2|0,1:2|0:2,0:2:0:0:
155,298,26582,2,0,B|128:310|128:310|101:306,1,56,10|2,0:2|0:2,0:2:0:0:
28,182,26906,5,2,1:2:0:0:
97,221,27068,1,2,0:2:0:0:
129,93,27230,1,8,0:2:0:0:
53,103,27392,1,2,0:2:0:0:
53,103,27555,1,2,1:2:0:0:
53,103,27717,1,2,0:2:0:0:
261,111,27879,6,0,P|260:84|256:56,1,56,10|8,0:2|0:3,0:2:0:0:
263,49,28122,1,8,0:3:0:0:
269,43,28203,1,6,0:3:0:0:
355,213,28365,1,4,0:3:0:0:
406,158,28528,1,0,1:2:0:0:
334,141,28690,1,8,0:2:0:0:
285,350,28852,6,0,B|283:303|266:296|263:258,1,94.499997116089,6|0,1:2|0:2,0:2:0:0:
263,258,29176,2,0,P|267:226|269:195,1,62.9999980773926,10|2,0:2|0:2,0:2:0:0:
164,164,29500,1,2,1:2:0:0:
89,179,29663,2,0,P|86:211|97:240,1,62.9999980773926,2|10,0:2|0:2,0:2:0:0:
261,111,29987,2,0,P|263:79|252:50,1,62.9999980773926,2|0,0:2|1:2,0:2:0:0:
179,73,30311,1,2,0:2:0:0:
374,18,30473,1,8,0:2:0:0:
433,79,30636,2,0,P|424:142|421:205,1,125.999996154785,2|0,0:2|0:2,0:2:0:0:
500,189,31122,5,10,0:2:0:0:
377,302,31284,1,10,0:2:0:0:
381,310,31365,1,8,0:2:0:0:
385,318,31446,2,0,P|444:327|473:275,1,125.999996154785,2|10,1:2|0:2,0:2:0:0:
421,205,31933,2,0,B|386:204|386:204|358:197,1,62.9999980773926,2|0,0:2|1:2,0:2:0:0:
293,256,32257,5,2,0:2:0:0:
275,332,32419,1,10,0:2:0:0:
160,384,32582,2,0,P|157:352|152:321,1,62.9999980773926,2|0,0:2|1:2,0:2:0:0:
81,185,32906,2,0,P|83:153|88:122,1,62.9999980773926,2|8,0:2|0:2,0:2:0:0:
165,166,33230,1,0,0:2:0:0:
50,337,33392,6,0,B|-6:312|-6:312|29:249|29:249|61:261,1,167.999994873047,2|8,1:1|0:2,0:2:0:0:
215,279,33879,1,8,0:2:0:0:
212,269,33960,1,8,0:2:0:0:
209,259,34041,2,0,B|255:248|255:248|285:268|285:268|289:299|312:315,1,140,2|8,1:2|0:2,0:2:0:0:
388,282,34528,1,2,0:2:0:0:
360,211,34690,1,2,1:2:0:0:
332,138,34852,1,2,0:2:0:0:
464,56,35014,5,10,0:2:0:0:
464,56,35122,1,2,0:2:0:0:
464,56,35230,2,0,L|417:59,1,46.6666666666667,2|2,0:2|1:2,0:2:0:0:
479,139,35500,1,2,0:2:0:0:
479,139,35663,1,10,0:2:0:0:
479,139,35825,1,2,0:2:0:0:
304,66,35987,6,0,B|262:58|262:58|240:92,1,83.9999974365235,2|8,1:1|0:2,0:2:0:0:
289,157,36311,5,10,0:2:0:0:
168,0,36473,1,10,0:2:0:0:
43,201,36636,5,6,1:2:0:0:
176,251,36798,2,0,B|176:176|147:181|149:114,1,140,0|0,1:2|1:2,0:2:0:0:
141,118,37203,1,0,1:2:0:0:
133,123,37284,1,8,0:2:0:0:
275,246,37446,5,4,1:2:0:0:
275,246,37771,1,8,0:2:0:0:
386,382,37933,2,0,P|390:347|384:312,1,70,4|0,1:2|1:2,0:2:0:0:
308,325,38262,1,0,3:2:0:0:
449,142,38427,5,0,1:2:0:0:
449,142,38509,1,0,1:2:0:0:
449,142,38592,2,0,B|443:179|443:179|449:210,1,70,8|0,0:2|1:2,0:2:0:0:
512,80,38922,2,0,P|461:34|394:41,1,140,4|6,0:3|1:2,0:2:0:0:
177,187,39573,6,0,B|231:180|224:157|272:148,1,105,10|0,0:2|0:2,0:2:0:0:
273,147,39896,2,0,P|287:178|287:213,1,70,2|0,1:2|0:2,0:2:0:0:
131,350,40218,2,0,P|116:318|116:283,1,70,10|0,0:2|0:2,0:2:0:0:
283,311,40541,2,0,P|335:316|384:333,1,105,2|0,1:2|0:2,0:2:0:0:
384,333,40863,2,0,B|417:333|417:333|449:315,1,70,10|0,0:2|0:2,0:2:0:0:
464,131,41186,2,0,P|399:145|391:210,1,140,2|8,1:2|0:2,0:2:0:0:
371,61,41672,5,10,0:2:0:0:
371,61,41754,1,8,0:2:0:0:
371,61,41836,2,0,B|301:74|303:25|237:33,1,140,2|10,1:2|0:2,0:2:0:0:
194,105,42322,5,2,0:2:0:0:
247,167,42484,1,2,1:2:0:0:
87,52,42646,5,2,0:2:0:0:
83,171,42808,1,10,0:2:0:0:
182,305,42971,6,0,P|192:271|189:236,1,70,2|0,0:2|1:2,0:2:0:0:
114,254,43295,1,0,3:2:0:0:
268,349,43457,2,0,L|407:337,1,140,8|0,0:2|1:2,0:2:0:0:
474,384,43944,1,0,3:2:0:0:
405,207,44106,1,8,0:2:0:0:
464,274,44268,1,10,0:2:0:0:
464,274,44349,1,8,0:2:0:0:
464,274,44430,5,2,1:2:0:0:
432,78,44754,1,10,0:2:0:0:
432,78,44917,1,2,0:2:0:0:
216,98,45079,2,0,P|232:67|261:47,1,70,2|2,1:2|0:2,0:2:0:0:
300,116,45403,1,10,0:2:0:0:
240,263,45565,6,0,B|164:254|189:203|122:193,1,140,2|2,0:2|0:2,0:2:0:0:
130,307,46052,1,8,0:2:0:0:
243,176,46214,1,2,0:2:0:0:
243,176,46376,1,2,1:2:0:0:
69,135,46538,2,0,P|73:100|73:65,1,70,2|10,0:2|0:2,0:2:0:0:
73,65,46781,2,0,B|64:51|64:51|58:33,2,35,8|8|8,0:2|0:2|0:2,0:2:0:0:
124,194,47025,1,2,1:2:0:0:
242,67,47187,5,2,0:2:0:0:
197,3,47349,2,0,P|158:58|174:125,1,140,10|0,0:2|1:2,0:2:0:0:
243,176,47835,1,0,3:2:0:0:
321,159,47998,1,8,0:2:0:0:
374,224,48160,2,0,P|407:237|441:244,2,70,2|2|2,0:2|1:2|0:2,0:2:0:0:
473,78,48646,5,8,0:2:0:0:
473,78,48971,1,0,1:2:0:0:
441,244,49133,2,0,B|432:206|432:206|433:175,1,70,14|0,0:2|0:2,0:2:0:0:
211,19,49457,2,0,B|220:57|220:57|218:87,1,70,10|6,0:2|1:2,0:2:0:0:
165,149,49944,6,0,P|112:152|61:140,1,105,10|0,0:2|0:2,0:2:0:0:
61,139,50268,2,0,P|51:173|53:208,1,70,2|0,1:2|0:2,0:2:0:0:
214,315,50592,2,0,P|223:281|221:246,1,70,10|0,0:2|0:2,0:2:0:0:
421,287,50917,2,0,P|370:279|331:312,1,105,2|0,1:2|0:2,0:2:0:0:
331,311,51241,2,0,B|325:349|325:349|315:379,1,70,10|0,0:2|0:2,0:2:0:0:
496,228,51565,2,0,P|485:177|480:125,1,105,2|0,1:2|0:2,0:2:0:0:
480,125,51890,2,0,B|474:87|474:87|464:57,1,70,10|8,0:2|0:2,0:2:0:0:
454,53,52133,1,8,0:2:0:0:
444,51,52214,5,2,1:2:0:0:
292,156,52536,1,10,0:2:0:0:
206,190,52697,2,0,P|205:155|216:122,1,70,2|0,0:2|1:2,0:2:0:0:
136,261,53020,1,2,0:2:0:0:
136,261,53181,1,10,0:2:0:0:
55,342,53343,2,0,P|50:272|39:203,1,140,2|0,0:2|0:2,0:2:0:0:
119,21,53826,2,0,B|120:62|120:62|112:90,1,70,8|0,0:2|0:2,0:2:0:0:
345,260,54149,6,0,B|391:160|391:160|291:155,1,210.000008010865,2|8,1:1|0:2,0:2:0:0:
230,209,54643,5,8,0:2:0:0:
230,219,54725,1,8,0:2:0:0:
234,232,54808,2,0,B|241:299|221:290|228:346,1,115.50000352478,2|0,1:2|0:2,0:2:0:0:
228,346,55132,2,0,P|262:362|300:370,1,77.0000023498536,10|2,0:2|0:2,0:2:0:0:
457,224,55456,2,0,P|422:207|384:199,1,77.0000023498536,0|2,1:2|0:2,0:2:0:0:
406,290,55780,1,10,0:2:0:0:
440,358,55943,1,0,3:2:0:0:
498,121,56105,5,2,1:2:0:0:
498,121,56267,1,8,0:2:0:0:
451,119,56348,1,8,0:2:0:0:
413,92,56429,1,8,0:2:0:0:
418,10,56591,5,8,0:3:0:0:
323,163,56753,1,8,0:3:0:0:
323,163,56916,1,8,0:3:0:0:
250,7,57078,1,4,0:3:0:0:
250,7,57240,1,4,0:3:0:0:
40,273,57402,6,0,B|36:235|36:235|40:203,1,70,4|4,1:3|0:3,0:2:0:0:
151,213,58705,5,10,1:2:0:0:
411,125,58865,1,10,1:2:0:0:
316,127,59346,5,8,0:2:0:0:
316,127,59426,1,8,0:2:0:0:
316,127,59507,1,8,0:2:0:0:
316,127,59587,1,8,0:2:0:0:
316,127,59667,1,8,0:2:0:0:
411,125,59994,6,0,B|425:41|425:41|343:56,1,167.999994873047,6|0,1:1|0:2,0:2:0:0:
316,127,60480,1,0,1:2:0:0:
212,255,60642,1,10,0:2:0:0:
151,213,60804,2,0,B|143:143|195:155|192:83,1,140,0|0,1:2|0:2,0:2:0:0:
93,9,61291,6,0,P|26:11|0:72,1,140,2|0,1:2|1:2,0:2:0:0:
63,111,61777,1,2,0:2:0:0:
192,83,61939,1,8,0:2:0:0:
159,220,62102,1,2,1:2:0:0:
159,220,62264,1,2,0:2:0:0:
159,220,62426,1,2,0:2:0:0:
118,375,62588,5,2,1:2:0:0:
187,330,62750,2,0,L|326:340,1,140,0|0,1:2|1:2,0:2:0:0:
469,261,63237,1,10,0:2:0:0:
417,199,63399,2,0,L|278:209,1,140,0|0,1:2|0:2,0:2:0:0:
289,12,63885,6,0,P|349:36|344:101,1,140,2|0,1:2|1:2,0:2:0:0:
277,209,64372,1,2,0:2:0:0:
216,108,64534,1,10,0:2:0:0:
216,108,64696,1,2,1:2:0:0:
216,108,64858,1,2,0:2:0:0:
37,375,65183,5,0,1:2:0:0:
102,335,65345,2,0,B|119:266|66:271|79:200,1,140,0|0,1:2|1:2,0:2:0:0:
220,259,65831,1,10,0:2:0:0:
277,209,65994,2,0,P|277:139|287:69,1,140,0|0,1:2|0:2,0:2:0:0:
145,7,66480,6,0,P|85:36|85:103,1,140,2|0,1:2|1:2,0:2:0:0:
163,132,66966,1,2,0:2:0:0:
217,64,67129,2,0,P|251:67|286:68,1,70,10|2,0:2|1:2,0:2:0:0:
443,290,67453,5,2,0:2:0:0:
443,290,67615,1,2,0:2:0:0:
443,290,67777,2,0,B|391:322|340:262|383:248|337:189|276:209,1,210,2|0,1:2|1:2,0:2:0:0:
144,249,68426,1,10,0:2:0:0:
181,318,68588,2,0,P|250:323|319:334,1,140,0|0,1:2|0:2,0:2:0:0:
277,209,69075,6,0,B|272:170|272:170|251:147,1,70,2|0,1:2|0:2,0:2:0:0:
94,118,69399,2,0,B|130:133|130:133|160:126,1,70,0|0,1:2|0:2,0:2:0:0:
343,145,69723,1,0,1:2:0:0:
301,77,69885,2,0,B|274:12|274:12|228:63,1,140,14|0,0:2|0:2,0:2:0:0:
91,216,70372,6,0,B|7:230|7:230|22:148,1,167.999994873047,6|2,1:1|0:2,0:2:0:0:
94,118,70858,1,2,1:2:0:0:
241,379,71021,2,0,B|229:306|278:315|267:242,1,140,10|2,0:2|0:2,0:2:0:0:
202,214,71507,1,2,0:2:0:0:
347,326,71669,5,2,1:2:0:0:
361,150,71831,1,2,0:2:0:0:
267,245,71993,5,2,1:2:0:0:
412,285,72156,1,2,0:2:0:0:
306,95,72318,5,10,0:2:0:0:
346,249,72480,1,2,1:2:0:0:
463,150,72642,1,2,0:2:0:0:
463,150,72804,1,2,0:2:0:0:
463,150,72966,2,0,P|457:115|453:80,1,70,2|0,1:2|1:2,0:2:0:0:
251,34,73291,1,2,0:2:0:0:
231,112,73453,2,0,P|237:147|241:182,1,70,2|8,1:2|0:2,0:2:0:0:
83,262,73777,2,0,B|95:189|46:198|56:128,1,140,0|0,1:2|0:2,0:2:0:0:
181,56,74264,6,0,P|245:50|268:111,1,140,2|0,1:2|1:2,0:2:0:0:
317,178,74750,1,2,0:2:0:0:
320,337,74912,1,10,0:2:0:0:
454,259,75075,1,2,1:2:0:0:
364,256,75237,1,2,0:2:0:0:
417,92,75561,5,4,1:2:0:0:
472,0,75723,2,0,P|404:12|334:21,1,140,0|0,1:2|1:2,0:2:0:0:
238,106,76210,1,10,0:2:0:0:
180,55,76372,2,0,P|121:83|123:149,1,140,0|0,1:2|0:2,0:2:0:0:
51,278,76858,6,0,P|55:312|57:347,1,70,2|0,1:2|0:2,0:2:0:0:
209,297,77183,2,0,P|204:262|202:227,1,70,0|0,1:2|0:2,0:2:0:0:
278,384,77507,1,8,0:2:0:0:
335,335,77669,2,0,B|404:331|390:290|463:286,1,140,0|0,1:2|0:2,0:2:0:0:
435,180,78156,5,2,1:2:0:0:
367,213,78318,2,0,P|342:151|383:98,1,140,0|0,1:2|1:2,0:2:0:0:
512,1,78804,2,0,P|477:1|442:0,1,70,8|0,0:2|0:2,0:2:0:0:
206,32,79129,1,8,0:2:0:0:
256,96,79291,1,10,0:2:0:0:
256,96,79615,1,8,0:2:0:0:
133,233,79777,5,2,1:3:0:0:
133,233,80102,1,8,0:2:0:0:
75,174,80264,1,8,0:3:0:0:
134,116,80426,1,4,0:3:0:0:
192,175,80588,1,4,0:3:0:0:
256,384,80750,6,0,B|230:338|264:269|292:310|331:244|297:196,1,210,6|0,1:2|0:2,0:2:0:0:
256,192,81804,12,0,83345,3:2:0:0:
256,96,83507,5,0,3:2:0:0:
256,96,83831,1,0,3:2:0:0:
262,23,83993,1,8,0:2:0:0:
191,17,84156,1,0,3:2:0:0:
183,88,84318,2,0,L|179:122,1,35,0|0,3:2|0:2,0:2:0:0:
43,180,84642,2,0,L|47:215,2,35,0|0|0,3:2|0:2|0:2,0:2:0:0:
120,268,85129,5,8,3:3:0:0:
120,268,85210,1,8,0:3:0:0:
120,268,85291,1,8,3:3:0:0:
190,246,85453,1,8,3:3:0:0:
212,319,85615,1,4,3:3:0:0:
142,341,85777,1,4,3:3:0:0:
293,328,85939,6,0,L|292:344,3,17.5,2|0|0|0,1:2|3:2|3:2|3:2,0:2:0:0:
334,262,86264,2,0,B|335:204|361:218|361:154,1,112,10|2,0:2|3:2,0:2:0:0:
311,91,86750,5,0,3:2:0:0:
311,91,86912,2,0,P|283:90|255:88,1,56,10|0,0:2|3:2,0:2:0:0:
369,163,87237,1,2,3:2:0:0:
369,163,87399,1,0,3:2:0:0:
369,163,87561,2,0,P|396:163|424:165,1,56,8|0,0:2|1:2,0:2:0:0:
487,336,87885,1,2,3:2:0:0:
487,336,88048,1,0,1:2:0:0:
487,336,88210,2,0,P|507:286|479:240,1,112,8|2,0:2|1:2,0:2:0:0:
478,239,88615,6,0,L|462:238,2,17.5,0|0|0,3:2|1:2|3:2,0:2:0:0:
402,345,88858,2,0,B|342:352|348:324|292:328,1,112,10|2,0:2|3:2,0:2:0:0:
193,252,89345,1,0,3:2:0:0:
133,302,89507,2,0,P|106:297|78:293,1,56,10|0,0:2|3:2,0:2:0:0:
32,141,89831,2,0,P|59:145|87:149,1,56,2|0,3:2|3:2,0:2:0:0:
232,114,90156,1,8,0:2:0:0:
228,41,90318,2,0,P|175:27|136:63,1,112,0|0,1:2|1:2,0:2:0:0:
231,186,90804,2,0,B|291:193|285:165|341:169,1,112,8|2,0:2|1:2,0:2:0:0:
340,168,91210,6,0,L|341:152,2,17.5,0|0|0,3:2|1:2|3:2,0:2:0:0:
446,109,91453,2,0,P|487:144|486:198,1,112,10|2,0:2|3:2,0:2:0:0:
473,320,91939,1,0,3:2:0:0:
394,299,92102,2,0,P|396:326|399:354,1,56,10|0,0:2|3:2,0:2:0:0:
218,308,92426,5,2,3:2:0:0:
271,250,92588,1,0,3:2:0:0:
231,186,92750,2,0,P|203:183|175:180,1,56,10|0,0:2|1:2,0:2:0:0:
124,246,93075,1,2,3:2:0:0:
124,246,93237,1,0,1:2:0:0:
124,246,93399,1,8,0:2:0:0:
291,45,93723,6,0,L|290:28,3,17.5,0|0|0|0,1:2|3:2|1:2|3:2,0:2:0:0:
214,0,94048,2,0,P|161:1|135:48,1,112,8|2,0:2|3:2,0:2:0:0:
72,103,94534,1,0,3:2:0:0:
72,103,94696,2,0,P|74:130|75:158,1,56,10|0,0:2|3:2,0:2:0:0:
116,316,95021,1,2,3:2:0:0:
186,313,95183,1,0,1:2:0:0:
83,252,95345,1,8,0:2:0:0:
77,376,95507,1,0,1:2:0:0:
243,359,95669,6,0,L|261:357,3,17.5,8|0|8|8,0:2|3:2|3:2|3:2,0:2:0:0:
302,294,95993,1,8,1:2:0:0:
330,256,96075,1,8,0:3:0:0:
372,236,96156,1,4,0:3:0:0:
420,236,96237,1,4,0:3:0:0:
462,256,96318,5,6,1:2:0:0:
479,40,96480,2,0,P|484:71|490:101,1,62.9999980773926,2|8,1:2|0:2,0:2:0:0:
408,0,96804,2,0,B|338:1|351:41|291:41,1,125.999996154785,2|2,1:2|1:2,0:2:0:0:
246,116,97291,1,8,0:2:0:0:
315,162,97453,1,2,0:2:0:0:
162,278,97615,2,0,P|167:246|173:216,1,62.9999980773926,0|2,1:2|1:2,0:2:0:0:
71,153,97939,1,10,0:2:0:0:
0,179,98102,2,0,P|-13:237|31:277,1,125.999996154785,2|2,1:2|1:2,0:2:0:0:
96,384,98588,5,10,0:2:0:0:
165,356,98750,2,0,B|230:345|225:383|287:375,1,125.999996154785,2|2,0:2|1:2,0:2:0:0:
396,258,99237,1,10,0:2:0:0:
481,316,99399,2,0,P|474:253|472:190,1,125.999996154785,2|0,1:2|1:2,0:2:0:0:
374,63,99885,1,10,0:2:0:0:
310,108,100048,2,0,P|313:140|314:171,1,62.9999980773926,2|0,0:2|1:2,0:2:0:0:
184,189,100372,5,0,1:2:0:0:
129,131,100534,1,8,0:2:0:0:
183,76,100696,2,0,B|247:75|237:36|297:30,1,125.999996154785,0|2,1:2|1:2,0:2:0:0:
44,25,101183,1,8,0:2:0:0:
44,25,101507,5,2,1:2:0:0:
4,96,101669,2,0,P|10:126|15:157,1,62.9999980773926,2|8,1:2|0:2,0:2:0:0:
97,272,101993,2,0,P|103:241|108:210,1,62.9999980773926,2|0,1:2|0:2,0:2:0:0:
35,322,102318,1,2,1:2:0:0:
196,375,102480,1,10,0:2:0:0:
255,327,102642,2,0,B|258:265|230:268|230:204,1,125.999996154785,2|2,0:2|1:2,0:2:0:0:
321,93,103129,1,8,0:2:0:0:
379,45,103291,2,0,P|437:63|457:121,1,125.999996154785,2|2,1:2|1:2,0:2:0:0:
376,229,103777,5,8,0:2:0:0:
376,229,104102,1,2,1:2:0:0:
419,296,104264,2,0,P|450:297|481:300,1,62.9999980773926,2|8,1:2|0:2,0:2:0:0:
241,131,104588,1,2,1:2:0:0:
188,69,104750,1,2,3:2:0:0:
309,18,104912,2,0,P|277:16|246:13,1,62.9999980773926,2|8,1:2|0:2,0:2:0:0:
321,93,105237,1,2,3:2:0:0:
162,148,105399,5,2,1:2:0:0:
106,197,105561,1,2,1:2:0:0:
40,162,105723,2,0,B|30:103|65:100|56:39,1,125.999996154785,10|0,0:2|1:2,0:2:0:0:
116,268,106210,1,8,0:2:0:0:
124,271,106291,1,8,0:2:0:0:
133,274,106372,1,0,1:2:0:0:
1,359,106534,1,8,0:3:0:0:
8,354,106615,1,8,0:3:0:0:
19,354,106696,6,0,P|71:355|121:370,1,105,6|0,1:2|0:2,0:2:0:0:
121,370,107021,2,0,B|156:370|156:370|188:357,1,70,10|0,0:2|0:2,0:2:0:0:
346,152,107345,2,0,B|352:215|329:203|335:255,1,105,2|0,1:2|0:2,0:2:0:0:
334,255,107669,2,0,B|330:292|330:292|311:318,1,70,10|2,0:2|0:2,0:2:0:0:
166,152,107993,2,0,P|192:108|242:99,1,105,2|0,1:2|0:2,0:2:0:0:
242,99,108318,2,0,B|272:82|272:82|293:53,1,70,10|0,0:2|0:2,0:2:0:0:
437,73,108642,2,0,P|438:107|440:142,1,70,2|0,1:2|0:2,0:2:0:0:
334,255,108966,1,10,0:2:0:0:
484,323,109129,5,10,0:2:0:0:
486,314,109210,1,8,0:2:0:0:
488,306,109291,2,0,P|421:298|386:355,1,140,2|10,1:2|0:2,0:2:0:0:
309,383,109777,2,0,B|231:378|259:335|186:326,1,140,2|2,0:2|0:2,0:2:0:0:
131,265,110264,5,10,0:2:0:0:
57,290,110426,1,2,0:2:0:0:
4,235,110588,2,0,P|7:182|14:130,1,105,0|0,1:2|0:2,0:2:0:0:
14,130,110912,2,0,B|46:115|46:115|68:88,1,70,8|0,0:2|0:2,0:2:0:0:
54,0,111237,2,0,B|22:15|22:15|0:41,1,70,0|2,1:2|0:2,0:2:0:0:
149,87,111561,5,10,0:2:0:0:
187,67,111642,1,8,0:2:0:0:
231,67,111723,1,10,0:2:0:0:
269,88,111804,1,8,0:2:0:0:
291,130,111885,6,0,B|302:214|263:195|268:265,1,140,2|10,1:2|0:2,0:2:0:0:
454,72,112372,2,0,P|419:68|384:62,1,70,2|0,0:2|1:2,0:2:0:0:
414,146,112696,1,2,0:2:0:0:
468,208,112858,1,10,0:2:0:0:
408,258,113021,2,0,L|268:264,1,140,2|0,0:2|0:2,0:2:0:0:
205,318,113507,2,0,P|191:349|193:384,1,70,8|2,0:2|0:2,0:2:0:0:
323,179,113831,2,0,P|336:147|334:112,1,70,2|2,1:2|0:2,0:2:0:0:
253,117,114156,1,10,0:2:0:0:
144,218,114318,5,8,0:2:0:0:
139,209,114399,1,8,0:2:0:0:
134,199,114480,1,2,1:2:0:0:
105,93,114642,1,2,0:2:0:0:
41,132,114804,2,0,B|26:202|70:204|63:267,2,140,10|0|8,0:2|1:2|0:2,0:2:0:0:
296,52,115777,5,0,1:2:0:0:
363,89,115939,1,0,3:2:0:0:
421,18,116102,2,0,P|454:27|489:32,1,70,8|2,0:2|0:3,0:2:0:0:
495,43,116345,1,2,0:3:0:0:
498,54,116426,1,0,1:2:0:0:
369,165,116588,6,0,B|325:198|325:198|349:241,1,105,14|0,0:2|0:2,0:2:0:0:
422,249,116912,1,14,0:2:0:0:
267,124,117075,6,0,B|210:125|223:156|169:157,1,105,6|0,1:2|0:2,0:2:0:0:
169,157,117399,2,0,B|134:147|134:147|107:126,1,70,10|0,0:2|0:2,0:2:0:0:
9,350,117723,2,0,P|55:325|95:291,1,105,2|0,1:2|0:2,0:2:0:0:
95,291,118048,2,0,P|100:256|88:223,1,70,10|0,0:2|0:2,0:2:0:0:
7,53,118372,2,0,P|1:87|13:120,1,70,2|0,1:2|0:2,0:2:0:0:
88,68,118696,5,10,0:2:0:0:
88,68,119021,1,2,1:2:0:0:
151,20,119183,1,10,0:2:0:0:
214,63,119345,1,2,0:2:0:0:
364,153,119507,5,8,0:2:0:0:
355,159,119588,1,8,0:2:0:0:
346,165,119669,2,0,B|347:97|308:104|318:30,1,140,2|8,1:2|0:2,0:2:0:0:
441,16,120156,2,0,P|436:50|422:82,1,70,2|0,0:2|1:2,0:2:0:0:
272,209,120480,1,0,0:2:0:0:
195,197,120642,2,0,P|199:231|213:263,1,70,10|0,0:2|0:2,0:2:0:0:
343,377,120966,2,0,P|412:367|479:349,1,140,2|8,1:2|0:2,0:2:0:0:
39,369,121615,6,0,B|139:346|139:346|76:259,1,210.000008010865,6|10,1:1|0:2,0:1:0:0:
7,283,122102,1,2,0:2:0:0:
183,121,122264,5,6,1:2:0:0:
183,121,122588,1,8,0:2:0:0:
190,74,122669,1,8,0:2:0:0:
226,44,122750,1,8,0:2:0:0:
273,42,122831,1,8,0:2:0:0:
311,71,122912,6,0,L|317:105,1,35,8|8,0:2|0:2,0:2:0:0:
403,202,123075,2,0,L|396:236,1,35,8|8,0:2|0:2,0:2:0:0:
330,293,123237,5,8,0:3:0:0:
294,298,123318,1,8,0:3:0:0:
259,279,123399,1,4,0:3:0:0:
242,244,123480,1,4,0:3:0:0:
252,206,123561,1,0,1:2:0:0:
435,379,123719,5,8,0:2:0:0:
445,337,123799,1,8,0:2:0:0:
454,293,123878,1,8,0:2:0:0:
419,86,124037,5,8,0:2:0:0:
512,154,124195,1,8,0:2:0:0:
311,71,124354,5,8,0:2:0:0:
374,0,124513,1,8,0:2:0:0:
132,197,124672,5,8,0:2:0:0:
171,53,124830,1,6,1:2:0:0:
113,1,124994,6,0,B|71:39|71:39|99:117,1,140,0|0,1:2|1:2,0:2:0:0:
59,318,125489,1,10,0:2:0:0:
118,368,125654,2,0,B|193:370|180:320|246:321,1,140,0|0,1:2|0:2,0:2:0:0:
301,257,126148,2,0,L|285:117,1,140,2|0,1:2|1:2,0:2:0:0:
363,0,126643,2,0,L|356:69,1,70,2|8,0:2|0:2,0:2:0:0:
454,195,126972,1,2,1:2:0:0:
508,56,127137,5,2,0:2:0:0:
508,56,127467,1,2,1:2:0:0:
479,123,127629,2,0,B|401:125|429:68|356:69,1,140,0|2,1:2|1:2,0:2:0:0:
233,0,128115,1,8,0:2:0:0:
188,63,128277,2,0,P|154:68|119:70,1,70,2|0,1:2|0:2,0:2:0:0:
80,220,128602,2,0,P|114:214|149:212,1,70,2|0,0:2|1:2,0:2:0:0:
32,160,128926,1,2,0:2:0:0:
1,341,129088,5,2,1:2:0:0:
104,146,129250,1,2,0:2:0:0:
185,380,129412,5,10,0:2:0:0:
143,317,129575,1,2,1:2:0:0:
252,347,129737,2,0,B|248:278|281:281|273:210,1,140,2|4,0:2|1:2,0:2:0:0:
199,56,130223,6,0,B|225:95|225:95|315:73,1,140,0|0,1:2|1:2,0:2:0:0:
427,42,130710,1,10,0:2:0:0:
497,9,130872,2,0,P|506:43|504:78,1,70,0|0,1:2|0:2,0:2:0:0:
281,278,131196,2,0,P|271:244|273:209,1,70,2|0,0:2|1:2,0:2:0:0:
351,246,131521,5,2,0:2:0:0:
419,334,131683,1,2,1:2:0:0:
512,259,131845,1,2,0:2:0:0:
439,172,132007,2,0,P|370:159|301:143,1,140,10|2,0:2|0:2,0:2:0:0:
390,71,132494,1,2,0:2:0:0:
193,33,132656,6,0,B|154:71|176:135|197:114|241:166|208:224,1,210,2|0,1:2|1:2,0:2:0:0:
86,324,133304,1,10,0:2:0:0:
27,266,133467,2,0,P|25:231|21:196,1,70,2|2,1:2|0:2,0:2:0:0:
188,310,133791,2,0,P|189:344|193:379,1,70,2|0,0:2|1:2,0:2:0:0:
104,249,134277,1,0,1:2:0:0:
287,52,134602,5,0,1:2:0:0:
359,36,134764,2,0,B|414:107|414:107|335:140,1,175,14|0,0:2|0:2,0:2:0:0:
335,140,135250,6,0,B|320:200|320:200|362:212|362:212|376:151,1,167.999994873047,6|0,1:1|0:2,0:2:0:0:
415,351,135737,1,0,1:2:0:0:
484,324,135899,2,0,B|480:241|517:269|505:188,1,140,10|0,0:2|0:2,0:2:0:0:
356,301,136385,2,0,P|321:307|286:309,1,70,2|0,0:2|1:2,0:2:0:0:
105,362,136710,6,0,P|164:333|153:268,1,140,2|2,0:2|0:2,0:2:0:0:
123,202,137196,1,10,0:2:0:0:
51,226,137358,1,2,1:2:0:0:
0,172,137521,1,2,0:2:0:0:
0,172,137683,1,2,0:2:0:0:
0,172,137845,1,2,1:2:0:0:
69,34,138007,6,0,P|138:36|208:46,1,140,0|0,1:2|1:2,0:2:0:0:
264,175,138494,1,8,0:2:0:0:
329,137,138656,2,0,B|336:73|304:71|312:0,1,140,0|0,1:2|0:2,0:2:0:0:
496,21,139142,2,0,P|463:34|434:53,1,70,2|2,1:2|0:2,0:2:0:0:
448,233,139467,5,2,1:2:0:0:
490,170,139629,1,2,0:2:0:0:
374,223,139791,5,10,0:2:0:0:
471,304,139953,1,2,1:2:0:0:
264,175,140115,6,0,L|124:180,1,140,2|4,0:2|1:1,0:2:0:0:
225,372,140602,2,0,P|245:310|192:271,1,140,0|0,1:2|1:2,0:2:0:0:
124,320,141088,5,10,0:2:0:0:
56,357,141250,1,2,1:2:0:0:
0,306,141412,1,2,0:2:0:0:
55,179,141575,6,0,P|89:172|123:179,1,70,2|0,0:2|1:2,0:2:0:0:
260,272,141899,2,0,P|225:278|191:271,1,70,2|0,0:2|1:2,0:2:0:0:
241,195,142223,1,2,0:2:0:0:
358,106,142385,1,8,0:2:0:0:
406,172,142548,2,0,B|407:251|380:234|382:309,1,140,2|0,1:2|0:2,0:2:0:0:
219,116,143034,5,2,1:2:0:0:
264,41,143196,2,0,P|229:39|194:34,1,70,2|0,1:2|0:2,0:2:0:0:
314,215,143521,1,2,1:2:0:0:
442,103,143683,1,10,0:2:0:0:
442,103,143845,1,2,1:2:0:0:
442,103,144007,1,2,0:2:0:0:
490,256,144169,5,10,0:2:0:0:
503,332,144331,2,0,B|458:355|458:355|381:308,1,140,4|0,1:2|0:2,0:2:0:0:
317,354,144818,1,0,1:2:0:0:
206,218,144980,1,8,0:2:0:0:
185,288,145142,1,2,1:3:0:0:
185,288,145629,6,0,B|143:324|88:274|124:245|66:184|18:216,1,210,4|0,1:1|1:2,0:2:0:0:
136,150,146277,1,10,0:2:0:0:
50,340,146439,1,6,1:2:0:0:
50,340,146764,1,8,0:2:0:0:
18,215,146926,5,4,1:2:0:0:
27,137,147088,2,0,B|30:63|-8:75|3:0,1,140,2|0,1:2|1:2,0:2:0:0:
194,65,147575,1,8,0:2:0:0:
248,118,147737,2,0,P|201:165|136:150,1,140,6|8,1:2|0:2,0:2:0:0:
298,244,148223,5,4,1:2:0:0:
359,290,148385,2,0,B|388:253|388:253|366:162,1,140,2|0,1:2|1:2,0:2:0:0:
426,24,148872,1,8,0:2:0:0:
512,147,149034,1,6,1:2:0:0:
512,147,149358,1,8,0:2:0:0:
366,162,149521,5,4,1:2:0:0:
322,101,149683,1,2,1:2:0:0:
260,142,149845,1,0,0:2:0:0:
301,204,150007,1,0,1:2:0:0:
156,0,150169,5,8,0:2:0:0:
138,41,150250,1,8,0:2:0:0:
104,69,150331,1,8,0:2:0:0:
60,80,150412,1,8,0:2:0:0:
16,73,150494,6,0,P|12:55|9:38,1,35,8|8,1:2|0:2,0:2:0:0:
115,257,150656,2,0,P|118:239|121:222,1,35,8|8,0:3|0:3,0:2:0:0:
47,296,150818,5,6,1:2:0:0:
97,355,150980,2,0,B|171:366|165:323|232:329,1,140,0|0,1:2|1:2,0:2:0:0:
335,242,151466,1,10,0:2:0:0:
362,379,151629,1,6,1:2:0:0:
362,379,151953,1,10,0:2:0:0:
286,179,152115,5,6,1:2:0:0:
368,94,152277,1,2,1:2:0:0:
470,233,152439,5,2,0:2:0:0:
499,148,152602,2,0,P|464:152|429:155,1,70,2|8,1:2|0:2,0:2:0:0:
376,15,152926,2,0,P|309:17|286:79,1,140,6|8,1:2|0:2,0:2:0:0:
218,128,153412,1,6,1:2:0:0:
150,85,153575,1,2,1:2:0:0:
74,117,153737,2,0,P|66:82|70:48,1,70,2|2,0:2|1:2,0:2:0:0:
207,210,154061,5,10,0:2:0:0:
286,179,154223,2,0,P|293:248|268:312,1,140,6|10,1:2|0:2,0:2:0:0:
213,371,154710,1,6,1:2:0:0:
141,333,154872,1,2,1:2:0:0:
81,381,155034,2,0,P|46:380|12:372,1,70,2|2,0:2|1:2,0:2:0:0:
23,269,155358,5,8,0:2:0:0:
53,239,155439,1,8,0:2:0:0:
74,204,155521,1,8,0:2:0:0:
81,161,155602,1,8,0:2:0:0:
74,117,155683,6,0,L|69:82,1,35,4|8,0:3|0:3,0:2:0:0:
226,14,155845,2,0,L|221:49,1,35,8|8,0:3|0:3,0:2:0:0:
270,109,156007,5,6,1:2:0:0:
323,170,156165,2,0,B|380:173|377:142|430:144,1,112,0|0,1:2|1:2,0:2:0:0:
512,262,156641,5,8,0:2:0:0:
478,332,156800,1,4,1:2:0:0:
478,332,157118,1,8,0:2:0:0:
295,244,157276,5,4,1:2:0:0:
246,187,157438,1,0,1:2:0:0:
246,187,157762,1,0,1:2:0:0:
430,144,157924,5,8,0:2:0:0:
424,70,158086,1,4,1:2:0:0:
424,70,158411,1,10,0:2:0:0:
296,41,158573,5,6,1:2:0:0:
222,53,158735,1,2,1:2:0:0:
320,172,158897,5,2,0:2:0:0:
346,99,159059,1,2,1:2:0:0:
196,124,159222,5,10,0:2:0:0:
246,187,159384,1,6,1:2:0:0:
246,187,159708,1,2,1:2:0:0:
215,351,159870,5,10,0:2:0:0:
215,351,160120,1,8,0:2:0:0:
180,373,160203,1,2,1:2:0:0:
138,379,160286,1,8,0:2:0:0:
99,361,160370,1,10,0:2:0:0:
79,326,160453,1,8,0:2:0:0:
73,286,160536,1,0,1:2:0:0:
264,269,160702,5,8,0:3:0:0:
264,269,160786,1,8,0:3:0:0:
264,269,160870,2,0,L|268:303,1,35,8|8,1:3|0:3,0:2:0:0:
84,210,161023,2,0,L|89:175,1,35,4|4,0:3|0:3,0:2:0:0:
151,26,161175,6,0,P|207:59|195:123,1,140,6|8,1:2|0:2,0:2:0:0:
104,92,161680,1,2,0:3:0:0:
104,92,161764,1,2,0:3:0:0:
104,92,161849,1,2,1:2:0:0:
265,163,162008,5,2,1:2:0:0:
313,96,162168,2,0,P|347:92|382:87,1,70,10|2,0:2|0:2,0:2:0:0:
485,238,162487,5,2,1:2:0:0:
455,162,162649,1,2,1:2:0:0:
455,309,162811,5,10,0:2:0:0:
360,283,162973,1,2,0:2:0:0:
429,378,163135,5,2,1:2:0:0:
255,376,163297,1,2,1:2:0:0:
197,336,163459,6,0,B|201:292|184:286|188:231,1,105,10|0,0:2|0:2,0:2:0:0:
187,231,163784,2,0,B|171:199|171:199|158:167,1,70,2|0,1:2|1:2,0:2:0:0:
35,64,164108,5,10,0:2:0:0:
53,93,164270,1,2,0:2:0:0:
71,65,164432,1,2,1:2:0:0:
13,205,164595,2,0,P|47:203|75:183,1,70,2|8,1:2|0:2,0:2:0:0:
248,97,164919,2,0,P|224:34|157:25,1,140,2|2,0:2|1:2,0:2:0:0:
360,207,165405,5,10,0:2:0:0:
393,137,165568,1,2,0:2:0:0:
480,1,165730,5,2,1:2:0:0:
504,73,165892,1,2,1:2:0:0:
316,144,166054,5,10,0:2:0:0:
445,208,166216,1,8,0:3:0:0:
445,208,166297,1,8,0:3:0:0:
445,208,166378,2,0,B|451:261|451:261|437:293|437:293|442:344,1,140,6|8,1:2|0:2,0:2:0:0:
353,352,166865,6,0,P|318:354|284:344,1,70,2|0,0:2|1:2,0:2:0:0:
318,277,167189,1,2,1:2:0:0:
280,211,167351,1,10,0:2:0:0:
316,144,167514,1,2,0:2:0:0:
205,37,167676,6,0,B|135:12|135:12|121:76,1,140,2|8,1:2|0:2,0:2:0:0:
170,216,168162,2,0,B|179:180|179:180|163:152,1,70,2|0,0:2|1:2,0:2:0:0:
92,216,168487,1,2,1:2:0:0:
284,344,168649,1,10,0:2:0:0:
211,375,168811,5,8,0:3:0:0:
211,375,168892,1,8,0:3:0:0:
211,375,168973,2,0,P|142:362|72:356,1,140,6|8,1:2|0:2,0:2:0:0:
352,212,169459,2,0,P|420:199|490:193,1,140,2|0,0:2|1:2,0:2:0:0:
425,32,169946,2,0,B|414:72|414:72|415:100,1,70,12|0,0:2|0:2,0:2:0:0:
494,71,170270,1,2,1:2:0:0:
282,18,170432,5,2,1:2:0:0:
226,70,170595,1,10,0:2:0:0:
144,0,170757,5,2,0:2:0:0:
131,142,170919,1,2,1:2:0:0:
238,191,171081,5,10,0:2:0:0:
245,167,171162,1,8,0:2:0:0:
259,148,171243,1,10,1:2:0:0:
278,135,171324,1,8,0:3:0:0:
304,128,171405,2,0,L|307:162,1,35,8|8,0:3|0:3,0:2:0:0:
191,306,171568,5,6,1:1:0:0:
119,344,171730,1,2,0:1:0:0:
119,344,171892,1,2,0:1:0:0:
69,276,172054,2,0,P|34:273|0:268,1,70,2|12,1:1|0:2,0:2:0:0:
61,133,172378,2,0,P|95:136|130:141,1,70,2|0,0:1|1:2,0:2:0:0:
364,354,172703,5,2,1:1:0:0:
441,372,172865,2,0,P|445:338|437:304,1,70,2|8,0:1|0:2,0:2:0:0:
316,210,173189,1,2,1:1:0:0:
238,191,173351,2,0,P|233:225|241:259,1,70,2|12,1:1|0:2,0:2:0:0:
440,70,173676,2,0,P|405:68|370:65,1,70,2|8,1:1|0:2,0:2:0:0:
399,147,174000,1,10,0:1:0:0:
231,113,174162,5,2,1:2:0:0:
198,0,174324,1,8,0:3:0:0:
163,161,174487,5,8,0:3:0:0:
130,70,174649,1,4,0:3:0:0:
99,212,174811,5,0,1:2:0:0:
63,133,174973,1,4,0:3:0:0:
34,262,175135,5,4,0:3:0:0:
9,190,175297,1,4,0:3:0:0:
218,262,175459,6,0,P|160:279|145:338,1,125.999996154785,6|0,1:2|0:2,0:2:0:0:
258,368,175784,1,0,3:2:0:0:
258,368,175865,1,0,3:2:0:0:
258,368,175946,1,0,3:2:0:0:
258,368,176027,1,0,3:2:0:0:
258,368,176108,2,0,B|330:365|316:321|386:320,1,140,0|2,3:2|0:3,0:2:0:0:
423,131,183730,6,0,B|460:51|460:51|380:50,1,167.999994873047,2|8,0:1|0:3,0:2:0:0:
338,110,184216,5,8,0:3:0:0:
432,261,184378,1,8,0:3:0:0:
287,357,184541,6,0,B|221:360|221:360|238:259,1,167.999994873047,6|8,1:2|0:3,0:2:0:0:
314,255,185027,1,8,0:3:0:0:
71,309,185189,5,4,1:2:0:0:
71,309,185351,1,8,0:3:0:0:
112,309,185432,1,8,0:3:0:0:
146,285,185514,1,8,0:3:0:0:
161,189,185676,1,8,0:3:0:0:
14,76,185838,6,0,B|-12:115|-12:115|0:150,1,83.9999974365235,6|8,1:2|0:3,0:2:0:0:
5,155,186081,1,8,0:3:0:0:
10,160,186162,1,8,0:3:0:0:
85,177,186324,1,8,0:3:0:0:
135,116,186486,2,0,L|133:74,1,41.9999987182618,4|0,0:3|0:2,0:2:0:0:
218,338,186649,6,0,B|252:374|305:338|315:316|285:320|344:253|396:299,1,209.999993591309,6|0,1:2|0:2,0:2:0:0:
279,232,187135,6,0,B|237:190|237:190|274:87,1,167.999994873047,2|2,1:1|0:2,0:2:0:0:
353,96,187622,1,0,1:2:0:0:
396,299,187784,1,10,0:2:0:0:
475,308,187946,2,0,P|475:274|463:241,1,70,0|2,1:2|0:2,0:2:0:0:
344,196,188270,5,2,0:2:0:0:
283,236,188432,2,0,P|231:246|179:248,1,105,2|0,1:2|0:2,0:2:0:0:
179,248,188757,2,0,P|175:281|185:315,1,70,2|2,1:2|0:2,0:2:0:0:
23,141,189081,1,10,0:2:0:0:
100,150,189243,2,0,P|102:115|92:81,1,70,2|0,1:2|0:2,0:2:0:0:
115,343,189568,5,2,0:2:0:0:
185,316,189730,1,2,1:2:0:0:
253,347,189892,2,0,B|322:344|313:385|387:379,1,140,0|2,1:2|1:2,0:2:0:0:
510,201,190378,1,8,0:2:0:0:
450,150,190541,2,0,P|389:179|379:246,1,140,0|2,1:2|0:2,0:2:0:0:
458,271,191027,5,0,1:2:0:0:
365,96,191189,1,2,0:2:0:0:
299,133,191351,1,2,1:2:0:0:
231,100,191514,1,2,0:2:0:0:
163,258,191676,5,10,0:2:0:0:
56,132,191838,1,2,1:2:0:0:
82,331,192000,6,0,P|57:267|93:210,1,140,2|4,0:2|1:2,0:2:0:0:
232,313,192486,2,0,B|308:306|290:271|361:266,1,140,0|0,1:2|1:2,0:2:0:0:
277,208,192973,5,10,0:2:0:0:
331,367,193135,1,2,1:2:0:0:
341,160,193297,5,2,0:2:0:0:
302,90,193459,2,0,L|162:85,1,140,10|2,0:2|0:2,0:2:0:0:
101,174,193946,5,8,0:2:0:0:
152,239,194108,1,8,0:3:0:0:
232,313,194270,5,8,0:3:0:0:
361,266,194432,1,8,0:3:0:0:
428,374,194595,5,4,0:3:0:0:
512,384,194757,1,4,0:3:0:0:
433,70,194919,6,0,B|397:46|397:46|348:63|348:63|350:105|321:128,1,167.999994873047,6|0,1:1|0:2,0:2:0:0:
248,95,195405,1,0,1:2:0:0:
462,172,195568,2,0,B|474:301|416:247|428:375,1,210,10|2,0:2|0:2,0:2:0:0:
344,236,196216,6,0,P|309:239|274:241,1,70,0|2,1:2|0:2,0:2:0:0:
159,319,196541,1,0,1:2:0:0:
207,380,196703,2,0,P|241:376|276:374,1,70,2|8,0:2|0:2,0:2:0:0:
202,251,197027,1,2,1:2:0:0:
145,199,197189,2,0,P|85:229|84:296,1,140,2|2,0:2|1:2,0:2:0:0:
312,152,197676,6,0,B|316:83|279:79|285:16,1,140,0|2,1:2|1:2,0:2:0:0:
362,14,198162,1,10,0:2:0:0:
214,95,198324,2,0,P|163:110|111:117,1,105,2|0,1:2|0:2,0:2:0:0:
111,117,198649,2,0,B|99:155|99:155|103:184,1,70,2|0,0:2|1:2,0:2:0:0:
258,288,198973,2,0,B|231:258|231:258|203:247,1,70,2|0,0:2|1:2,0:2:0:0:
35,335,199297,2,0,B|73:326|73:326|97:307,1,70,2|8,0:2|0:2,0:2:0:0:
24,258,199622,1,2,1:2:0:0:
174,28,199784,6,0,P|112:51|111:117,1,140,2|4,0:2|1:2,0:2:0:0:
258,288,200270,2,0,P|326:275|396:269,1,140,0|2,1:2|1:2,0:2:0:0:
441,202,200757,5,10,0:2:0:0:
373,84,200919,1,2,1:2:0:0:
465,91,201081,5,2,0:2:0:0:
484,14,201243,2,0,P|449:15|414:14,1,70,2|0,0:2|1:2,0:2:0:0:
229,199,201568,2,0,P|263:197|298:198,1,70,2|0,0:2|1:2,0:2:0:0:
204,125,201892,1,2,0:2:0:0:
94,348,202054,2,0,P|85:314|84:279,1,70,10|2,0:2|1:2,0:2:0:0:
160,284,202378,1,2,0:2:0:0:
130,214,202541,1,2,0:2:0:0:
282,315,202703,6,0,B|394:307|328:220|450:210,1,210,6|0,1:2|1:2,0:2:0:0:
454,54,203351,1,12,0:2:0:0:
314,117,203514,2,0,P|306:84|309:49,1,70,2|2,1:2|0:2,0:2:0:0:
450,210,203838,2,0,P|458:243|455:278,1,70,2|12,1:2|0:2,0:2:0:0:
260,191,204162,5,8,0:3:0:0:
390,124,204324,1,8,0:3:0:0:
385,267,204486,1,8,0:3:0:0:
347,194,204649,1,8,0:3:0:0:
87,66,204811,6,0,B|23:82|23:82|9:155|9:155|43:150,1,175,12|0,0:2|0:2,0:2:0:0:
43,150,205297,6,0,B|119:189|119:189|76:259,1,167.999994873047,6|0,1:1|0:2,0:2:0:0:
6,244,205784,1,0,1:2:0:0:
195,355,205946,1,10,0:2:0:0:
272,329,206108,2,0,B|282:260|251:259|260:190,1,140,0|2,1:2|0:2,0:2:0:0:
399,116,206595,6,0,P|405:150|401:184,1,70,0|2,1:2|0:2,0:2:0:0:
260,191,206919,1,0,1:2:0:0:
186,224,207081,2,0,P|179:189|183:155,1,70,2|8,0:2|0:2,0:2:0:0:
380,263,207405,1,2,1:2:0:0:
380,263,207568,1,2,0:2:0:0:
380,263,207730,1,2,0:2:0:0:
272,329,207892,5,2,1:2:0:0:
208,381,208054,2,0,B|131:379|150:335|79:333,1,140,0|2,1:2|1:2,0:2:0:0:
112,159,208541,1,8,0:2:0:0:
177,103,208703,2,0,P|211:161|186:224,1,140,2|2,1:2|0:2,0:2:0:0:
47,214,209189,5,0,1:2:0:0:
97,28,209351,1,2,0:2:0:0:
45,100,209514,5,2,1:2:0:0:
233,41,209676,1,2,0:2:0:0:
10,20,209838,5,10,0:2:0:0:
10,20,210000,1,2,1:2:0:0:
10,20,210162,1,2,0:2:0:0:
295,283,210486,5,4,1:2:0:0:
353,229,210649,2,0,P|352:160|341:90,1,140,0|0,1:2|1:2,0:2:0:0:
457,11,211135,1,10,0:2:0:0:
477,154,211297,1,2,1:2:0:0:
423,97,211459,1,2,0:2:0:0:
426,221,211622,2,0,P|458:234|493:236,1,70,2|0,0:2|1:2,0:2:0:0:
386,372,211946,2,0,P|353:358|318:356,1,70,2|0,0:2|1:2,0:2:0:0:
434,310,212270,1,2,0:2:0:0:
276,203,212432,5,8,0:2:0:0:
184,370,212595,2,0,B|225:287|225:287|198:247,1,140,2|2,1:2|0:2,0:2:0:0:
126,282,213081,5,4,1:2:0:0:
7,254,213243,2,0,B|7:332|47:315|48:384,1,140,0|2,1:2|1:2,0:2:0:0:
138,200,213730,2,0,P|103:197|68:191,1,70,10|0,0:2|0:2,0:2:0:0:
192,30,214054,1,2,1:2:0:0:
271,0,214216,2,0,P|335:20|359:84,1,140,2|10,1:2|0:2,0:2:0:0:
284,108,214703,1,2,1:2:0:0:
420,253,214865,6,0,P|414:218|412:183,1,70,2|8,0:2|0:2,0:2:0:0:
492,218,215189,1,8,0:3:0:0:
368,367,215351,1,4,0:3:0:0:
299,198,215514,1,4,0:3:0:0:
249,313,215676,5,14,0:2:0:0:
188,354,215838,2,0,L|48:340,1,140,0|2,1:2|1:2,0:2:0:0:
1,150,216324,1,10,0:2:0:0:
87,125,216486,2,0,P|91:159|87:194,1,70,0|0,1:2|0:2,0:2:0:0:
228,84,216811,2,0,P|223:49|227:14,1,70,2|8,1:2|0:2,0:2:0:0:
314,64,217135,2,0,P|323:132|299:197,1,140,0|0,1:2|1:2,0:2:0:0:
191,196,217622,1,10,0:2:0:0:
132,247,217784,2,0,P|106:222|87:193,1,70,0|2,1:2|0:2,0:2:0:0:
190,367,218108,5,0,1:2:0:0:
190,367,218189,1,0,1:2:0:0:
190,367,218270,1,14,0:2:0:0:
262,334,218595,1,8,0:2:0:0:
405,262,218757,5,10,0:2:0:0:
477,228,218919,1,10,0:2:0:0:
243,136,219081,5,10,0:2:0:0:
171,112,219243,1,8,0:2:0:0:
426,15,219405,2,0,P|462:84|408:141,1,167.999994873047,10|0,0:2|3:2,0:2:0:0:
400,137,219811,1,0,3:2:0:0:
392,132,219892,1,8,0:2:0:0:
358,63,220054,1,8,0:3:0:0:
228,59,220216,5,4,0:3:0:0:
100,124,220378,1,4,0:3:0:0:
165,251,220541,1,4,0:3:0:0:
292,185,220703,1,4,0:3:0:0:
196,158,220865,5,6,1:2:0:0:
67,222,221027,2,0,P|81:295|147:329,1,154.000004699707,0|2,1:2|1:2,0:2:0:0:
165,251,221514,1,10,0:2:0:0:
269,359,221676,2,0,B|276:319|276:319|267:283,1,77.0000023498536,0|0,1:2|0:2,0:2:0:0:
434,120,222000,5,10,0:2:0:0:
466,188,222162,1,2,1:2:0:0:
427,255,222324,2,0,B|343:253|372:191|294:189,1,154.000004699707,0|2,1:2|1:2,0:2:0:0:
180,161,222811,1,10,0:2:0:0:
260,82,222973,1,0,1:2:0:0:
260,82,223297,1,10,0:2:0:0:
163,257,223459,5,2,1:2:0:0:
88,195,223622,2,0,L|72:41,1,154.000004699707,0|0,1:2|1:2,0:2:0:0:
260,0,224108,1,10,0:2:0:0:
339,26,224270,2,0,P|345:65|344:103,1,77.0000023498536,0|0,1:2|0:2,0:2:0:0:
233,321,224595,5,10,0:2:0:0:
177,168,224757,1,2,1:2:0:0:
320,358,224919,2,0,B|311:268|359:292|350:210,1,154.000004699707,0|0,1:2|1:2,0:2:0:0:
503,217,225405,2,0,P|507:254|497:291,1,77.0000023498536,8|0,0:2|1:2,0:2:0:0:
497,290,225649,2,0,P|443:305|426:358,1,115.50000352478,2|10,0:2|0:2,0:2:0:0:
350,211,226054,5,2,1:2:0:0:
299,150,226216,2,0,L|145:143,1,154.000004699707,0|2,1:2|1:2,0:2:0:0:
11,233,226703,1,10,0:2:0:0:
11,233,226784,1,2,0:2:0:0:
11,233,226865,2,0,L|87:228,1,77.0000023498536,2|0,1:2|0:2,0:2:0:0:
145,143,227189,1,10,0:2:0:0:
205,326,227351,5,2,1:2:0:0:
282,348,227514,2,0,P|283:309|274:272,1,77.0000023498536,0|0,1:2|0:2,0:2:0:0:
299,150,227838,1,2,1:2:0:0:
266,74,228000,1,10,0:2:0:0:
331,25,228162,2,0,P|404:17|446:77,1,154.000004699707,0|10,1:2|0:2,0:2:0:0:
512,204,228649,5,2,1:2:0:0:
512,204,228811,2,0,B|517:289|480:274|482:352,1,154.000004699707,0|2,1:2|1:2,0:2:0:0:
389,255,229297,1,10,0:2:0:0:
370,178,229459,2,0,P|335:161|298:149,1,77.0000023498536,0|0,1:2|0:2,0:2:0:0:
446,77,229784,5,2,1:2:0:0:
311,237,229946,1,14,0:2:0:0:
235,67,230108,1,0,3:2:0:0:
231,58,230189,1,0,3:2:0:0:
227,49,230270,1,8,0:2:0:0:
150,30,230432,1,8,0:3:0:0:
164,188,230595,5,4,0:3:0:0:
234,149,230757,1,4,0:3:0:0:
87,77,230919,5,4,0:3:0:0:
95,150,231081,1,4,0:3:0:0:
24,321,231243,5,14,0:2:0:0:
95,285,231405,2,0,B|179:284|156:333|238:331,1,154.000004699707,0|2,1:2|1:2,0:2:0:0:
287,210,231892,1,14,0:2:0:0:
361,234,232054,2,0,B|445:235|422:186|504:188,1,154.000004699707,0|2,1:2|1:2,0:2:0:0:
440,59,232541,5,14,0:2:0:0:
381,1,232703,2,0,B|340:31|340:31|367:130,1,154.000004699707,0|2,1:2|1:2,0:2:0:0:
215,186,233189,1,14,0:2:0:0:
135,203,233351,2,0,P|131:164|139:127,1,77.0000023498536,0|0,1:2|0:2,0:2:0:0:
245,37,233676,1,2,1:2:0:0:
66,0,233838,5,14,0:2:0:0:
10,60,234000,2,0,L|20:213,1,154.000004699707,0|0,1:2|1:2,0:2:0:0:
107,309,234486,1,14,0:2:0:0:
179,343,234649,2,0,P|189:305|190:267,1,77.0000023498536,0|0,1:2|0:2,0:2:0:0:
212,111,234973,5,2,1:2:0:0:
269,301,235135,1,14,0:2:0:0:
329,242,235297,2,0,B|332:157|292:179|297:93,1,154.000004699707,0|0,1:2|1:2,0:2:0:0:
425,21,235784,1,12,0:2:0:0:
485,82,235946,2,0,B|486:123|486:123|474:157,1,77.0000023498536,0|0,1:2|0:2,0:2:0:0:
276,308,236270,5,2,1:2:0:0:
276,308,236351,1,0,1:2:0:0:
276,308,236432,1,14,0:2:0:0:
376,383,236595,2,0,P|369:306|329:242,1,154.000004699707,0|2,1:2|1:2,0:2:0:0:
173,231,237081,1,14,0:2:0:0:
156,358,237243,1,0,1:2:0:0:
156,358,237568,1,2,1:2:0:0:
272,165,237730,6,0,B|190:174|210:112|131:116,1,154.000004699707,14|0,0:2|0:2,0:2:0:0:
228,58,238216,1,2,1:2:0:0:
64,235,238378,1,14,0:2:0:0:
39,163,238541,1,0,1:2:0:0:
39,163,238865,1,2,1:2:0:0:
228,58,239027,6,0,B|310:67|290:5|368:9,1,154.000004699707,14|0,0:2|0:2,0:2:0:0:
272,165,239514,1,2,1:2:0:0:
164,0,239676,1,14,0:2:0:0:
164,0,239838,1,0,1:2:0:0:
357,191,240000,6,0,P|351:152|352:114,1,77.0000023498536,2|0,0:2|1:2,0:2:0:0:
426,135,240324,1,12,0:2:0:0:
504,268,240486,1,8,0:3:0:0:
316,310,240649,1,4,0:3:0:0:
378,271,240811,1,4,0:3:0:0:
152,281,240973,6,0,B|192:265|192:265|236:291|236:291|233:321|240:343,1,146.999995513916,6|0,1:1|0:2,0:2:0:0:
218,133,241622,5,4,1:2:0:0:
161,68,241784,2,0,P|103:101|90:168,1,140,2|0,1:2|1:2,0:2:0:0:
311,234,242270,1,8,0:2:0:0:
377,193,242432,2,0,P|375:158|371:123,1,70,6|0,1:2|0:2,0:2:0:0:
240,53,242757,1,8,0:2:0:0:
187,207,242919,5,4,1:2:0:0:
152,281,243081,2,0,B|76:279|101:234|24:233,1,140,2|0,1:2|1:2,0:2:0:0:
85,159,243568,1,8,0:2:0:0:
93,351,243730,1,6,1:2:0:0:
93,351,244054,1,8,0:2:0:0:
234,265,244216,5,4,1:2:0:0:
288,206,244378,2,0,P|357:211|425:229,1,140,2|0,1:2|1:2,0:2:0:0:
480,72,244865,1,8,0:2:0:0:
425,6,245027,2,0,P|382:59|378:128,1,140,6|8,1:2|0:2,0:2:0:0:
213,188,245514,5,6,1:2:0:0:
199,113,245676,1,2,1:2:0:0:
186,40,245838,1,2,0:2:0:0:
186,40,246000,1,2,1:2:0:0:
3,71,246162,5,8,0:2:0:0:
8,114,246243,1,8,0:2:0:0:
25,150,246324,1,8,0:2:0:0:
55,174,246405,1,8,0:2:0:0:
90,188,246486,6,0,L|86:222,1,35,8|8,0:3|0:3,0:2:0:0:
178,323,246649,2,0,L|174:288,1,35,4|4,0:3|0:3,0:2:0:0:
253,276,246811,5,6,1:2:0:0:
347,179,246973,1,2,1:2:0:0:
347,179,247054,1,2,0:2:0:0:
347,179,247135,2,0,P|334:244|379:294,1,140,2|8,0:2|0:2,0:2:0:0:
431,235,247622,1,6,1:2:0:0:
431,235,247946,1,8,0:2:0:0:
338,61,248108,5,4,1:2:0:0:
424,96,248270,2,0,P|425:61|418:26,1,70,2|0,1:2|0:2,0:2:0:0:
236,8,248595,1,0,1:2:0:0:
247,124,248757,1,8,0:2:0:0:
202,192,248919,2,0,B|131:185|131:185|136:116,1,140,6|8,1:2|0:2,0:2:0:0:
20,0,249405,5,4,1:2:0:0:
20,0,249568,1,0,1:2:0:0:
20,0,249730,2,0,B|35:73|-5:64|3:136,1,140,2|8,0:2|0:2,0:2:0:0:
119,252,250216,2,0,P|129:219|130:184,1,70,6|0,1:2|0:2,0:2:0:0:
44,225,250541,1,8,0:2:0:0:
193,313,250703,5,6,1:2:0:0:
193,313,250865,2,0,L|332:317,1,140,0|8,1:2|0:2,0:2:0:0:
349,340,251270,5,8,0:2:0:0:
380,358,251351,1,8,0:2:0:0:
417,358,251432,1,8,0:3:0:0:
450,339,251514,1,8,0:3:0:0:
467,301,251595,1,8,0:3:0:0:
466,260,251676,6,0,L|460:225,1,35,4|4,0:3|0:3,0:2:0:0:
321,69,251838,2,0,L|315:103,1,35,4|4,0:3|0:3,0:2:0:0:
382,154,252000,6,0,P|451:94|420:7,1,196,6|0,1:2|3:2,0:2:0:0:
