osu file format v14

[General]
AudioFilename: audio.mp3
AudioLeadIn: 0
PreviewTime: 176748
Countdown: 0
SampleSet: Soft
StackLeniency: 0.7
Mode: 0
LetterboxInBreaks: 0
WidescreenStoryboard: 1

[Editor]
Bookmarks: 399,2911,7938,18478,28856,39235,59992,80748,85938,96316,106694,124856,145613,150802,155992,161181,176748,184532,187127,194910,220856,241613,253208
DistanceSpacing: 1.1
BeatDivisor: 4
GridSize: 32
TimelineZoom: 2.2

[Metadata]
Title:CORE PRIDE
TitleUnicode:CORE PRIDE
Artist:UVERworld
ArtistUnicode:UVERworld
Creator:SeaRasp
Version:Hard
Source:青の祓魔師
Tags:Ao No Exorcist anime Opening OP Life 6 Sense Album Full Version Rin Okumura japanese rock jrock j-rock Yudragen Kudosu
BeatmapID:1963607
BeatmapSetID:938769

[Difficulty]
HPDrainRate:4.5
CircleSize:3.8
OverallDifficulty:7
ApproachRate:8
SliderMultiplier:1.6
SliderTickRate:1

[Events]
//Background and Video events
0,0,"755694.jpg",0,0
//Break Periods
2,176957,182980
//Storyboard Layer 0 (Background)
//Storyboard Layer 1 (Fail)
//Storyboard Layer 2 (Pass)
//Storyboard Layer 3 (Foreground)
//Storyboard Layer 4 (Overlay)
//Storyboard Sound Samples

[TimingPoints]
377,317.460317460317,4,2,1,70,1,0
853,304.568527918782,4,2,1,70,1,0
1309,342.857142857143,4,2,1,70,1,0
1480,240,4,2,1,70,1,0
1621,324.324324324324,4,2,1,70,1,0
2593,315.789473684211,4,2,1,70,1,0
2908,310.880829015544,4,2,1,70,1,0
3218,333.333333333333,4,2,1,70,1,0
3718,324.324324324324,4,2,1,70,1,0
5501,324.324324324324,4,2,1,70,1,0
7771,-100,4,2,1,5,0,0
7933,-100,4,2,1,80,0,0
12230,-100,4,2,1,5,0,0
12311,-100,4,2,1,80,0,0
18473,-117.647058823529,4,2,1,65,0,0
24878,-117.647058823529,4,2,1,5,0,0
24960,-117.647058823529,4,2,1,65,0,0
28851,-111.111111111111,4,2,1,70,0,0
33311,-111.111111111111,4,2,1,5,0,0
33392,-111.111111111111,4,2,1,70,0,0
35905,-111.111111111111,4,2,1,5,0,0
35987,-111.111111111111,4,2,1,70,0,0
36635,-166.666666666667,4,2,1,70,0,0
37933,329.67032967033,4,2,1,70,1,0
37933,-166.666666666667,4,2,1,50,0,0
39251,322.58064516129,4,2,1,70,1,0
39251,-100,4,2,1,70,0,0
39494,-100,4,2,1,5,0,0
39575,-133.333333333333,4,2,1,70,0,0
39833,-133.333333333333,4,2,1,5,0,0
39896,-100,4,2,1,70,0,0
40138,-100,4,2,1,5,0,0
40218,-133.333333333333,4,2,1,70,0,0
40460,-133.333333333333,4,2,1,5,0,0
40541,-100,4,2,1,70,0,0
40783,-100,4,2,1,5,0,0
40863,-133.333333333333,4,2,1,70,0,0
41105,-133.333333333333,4,2,1,5,0,0
41186,-100,4,2,1,70,0,0
41509,327.868852459016,4,2,1,70,1,0
41836,324.324324324324,4,2,1,70,1,0
41836,-111.111111111111,4,2,1,70,0,0
49619,-100,4,2,1,70,0,0
49862,-100,4,2,1,5,0,0
49943,-133.333333333333,4,2,1,70,0,0
50187,-133.333333333333,4,2,1,5,0,0
50268,-100,4,2,1,70,0,0
50511,-100,4,2,1,5,0,0
50592,-133.333333333333,4,2,1,70,0,0
50835,-133.333333333333,4,2,1,5,0,0
50916,-100,4,2,1,70,0,0
51160,-100,4,2,1,5,0,0
51240,-133.333333333333,4,2,1,70,0,0
51484,-133.333333333333,4,2,1,5,0,0
51565,-100,4,2,1,70,0,0
52214,322.58064516129,4,2,1,70,1,0
52214,-111.111111111111,4,2,1,70,0,0
54149,329.67032967033,4,2,1,70,1,0
54149,-111.111111111111,4,2,1,70,0,0
54808,324.324324324324,4,2,1,70,1,0
54808,-111.111111111111,4,2,1,70,0,0
56021,-111.111111111111,4,2,1,5,0,0
56102,-111.111111111111,4,2,1,70,0,0
57402,326.086956521739,4,2,1,70,1,0
57402,-111.111111111111,4,2,1,70,0,0
58705,320.855614973262,4,2,1,70,1,0
59346,-111.111111111111,4,2,1,70,0,0
59994,324.324324324324,4,2,1,90,1,1
59994,-95.2380952380952,4,2,1,90,0,1
61048,-95.2380952380952,4,2,1,5,0,1
61129,-95.2380952380952,4,2,1,90,0,1
64129,-95.2380952380952,4,2,1,5,0,1
64210,-95.2380952380952,4,2,1,90,0,1
67048,-95.2380952380952,4,2,1,5,0,1
67129,-95.2380952380952,4,2,1,90,0,1
69885,-333.333333333333,4,2,1,90,0,1
70291,-333.333333333333,4,2,1,5,0,0
70372,-95.2380952380952,4,2,1,90,0,1
74507,-95.2380952380952,4,2,1,5,0,1
74588,-95.2380952380952,4,2,1,90,0,1
80750,-95.2380952380952,4,2,1,70,0,0
83345,-111.111111111111,4,2,1,70,0,0
90075,-111.111111111111,4,2,1,5,0,0
90156,-111.111111111111,4,2,1,70,0,0
106696,-100,4,2,1,70,0,0
106940,-100,4,2,1,5,0,0
107021,-133.333333333333,4,2,1,70,0,0
107264,-133.333333333333,4,2,1,5,0,0
107345,-100,4,2,1,70,0,0
107588,-100,4,2,1,5,0,0
107669,-133.333333333333,4,2,1,70,0,0
107912,-133.333333333333,4,2,1,5,0,0
107994,-100,4,2,1,70,0,0
108237,-100,4,2,1,5,0,0
108318,-133.333333333333,4,2,1,70,0,0
108561,-133.333333333333,4,2,1,5,0,0
108642,-100,4,2,1,70,0,0
109291,-111.111111111111,4,2,1,70,0,0
117075,-100,4,2,1,70,0,0
117318,-100,4,2,1,5,0,0
117399,-133.333333333333,4,2,1,70,0,0
117642,-133.333333333333,4,2,1,5,0,0
117723,-100,4,2,1,70,0,0
117967,-100,4,2,1,5,0,0
118048,-133.333333333333,4,2,1,70,0,0
118291,-133.333333333333,4,2,1,5,0,0
118372,-100,4,2,1,70,0,0
118615,-100,4,2,1,5,0,0
118696,-133.333333333333,4,2,1,70,0,0
118940,-133.333333333333,4,2,1,5,0,0
119021,-100,4,2,1,70,0,0
119669,-111.111111111111,4,2,1,70,0,0
122183,-111.111111111111,4,2,1,5,0,0
122264,-100,4,2,1,70,0,0
123561,317.460317460317,4,2,1,80,1,0
124830,329.67032967033,4,2,1,80,1,0
124830,-95.2380952380952,4,2,1,90,0,1
125324,-95.2380952380952,4,2,1,90,0,1
125901,-95.2380952380952,4,2,1,5,0,1
125983,-95.2380952380952,4,2,1,90,0,1
126148,-95.2380952380952,4,2,1,90,0,1
127384,-95.2380952380952,4,2,1,5,0,1
127467,324.324324324324,4,2,1,80,1,0
127467,-95.2380952380952,4,2,1,90,0,1
129008,-95.2380952380952,4,2,1,5,0,1
129089,-95.2380952380952,4,2,1,90,0,1
134764,-333.333333333333,4,2,1,90,0,0
135170,-333.333333333333,4,2,1,5,0,0
135250,-95.2380952380952,4,2,1,90,0,1
139386,-95.2380952380952,4,2,1,5,0,1
139467,-95.2380952380952,4,2,1,90,0,1
145548,-95.2380952380952,4,2,1,5,0,1
145629,-100,4,2,1,80,0,0
147981,-100,4,2,1,5,0,0
148062,-100,4,2,1,80,0,0
150818,-100,4,2,1,70,0,0
156007,317.460317460317,4,2,1,60,1,0
156007,-133.333333333333,4,2,1,60,0,0
157276,324.324324324324,4,2,1,60,1,0
157276,-133.333333333333,4,2,1,60,0,0
159870,333.333333333333,4,2,1,60,1,0
159870,-133.333333333333,4,2,1,60,0,0
160870,306.122448979592,4,2,1,60,1,0
160870,-133.333333333333,4,2,1,60,0,0
161175,337.078651685393,4,2,1,70,1,0
161175,-111.111111111111,4,2,1,70,0,0
161849,319.148936170213,4,2,1,70,1,0
161849,-111.111111111111,4,2,1,70,0,0
162487,324.324324324324,4,2,1,70,1,0
162487,-111.111111111111,4,2,1,70,0,0
170189,-111.111111111111,4,2,1,5,0,0
170270,-111.111111111111,4,2,1,70,0,0
176756,-133.333333333333,4,2,1,30,0,0
184540,-133.333333333333,4,2,1,70,0,0
187054,-133.333333333333,4,2,1,5,0,0
187135,-95.2380952380952,4,2,1,90,0,1
191270,-95.2380952380952,4,2,1,5,0,1
191351,-95.2380952380952,4,2,1,90,0,1
193864,-95.2380952380952,4,2,1,5,0,1
193946,-95.2380952380952,4,2,1,90,0,0
194919,-95.2380952380952,4,2,1,90,0,1
195973,-95.2380952380952,4,2,1,5,0,1
196054,-95.2380952380952,4,2,1,90,0,1
197432,-95.2380952380952,4,2,1,5,0,1
197513,-95.2380952380952,4,2,1,90,0,1
198567,-95.2380952380952,4,2,1,5,0,1
198648,-95.2380952380952,4,2,1,90,0,1
204811,-333.333333333333,4,2,1,90,0,0
205216,-333.333333333333,4,2,1,5,0,0
205297,-95.2380952380952,4,2,1,90,0,1
206351,-95.2380952380952,4,2,1,5,0,1
206432,-95.2380952380952,4,2,1,90,0,1
209432,-95.2380952380952,4,2,1,5,0,1
209513,-95.2380952380952,4,2,1,90,0,1
215027,-95.2380952380952,4,2,1,90,0,0
215676,-95.2380952380952,4,2,1,90,0,1
220865,-111.111111111111,4,2,1,90,0,0
241621,-100,4,2,1,80,0,0
249162,-100,4,2,1,5,0,0
249243,-100,4,2,1,80,0,0
253216,-100,4,2,1,5,0,0

[Colours]
Combo1 : 216,216,216
Combo2 : 150,252,247
Combo3 : 251,214,164
Combo4 : 87,147,191

[HitObjects]
86,210,377,6,0,L|78:163,5,40,8|8|8|8|8|8,3:0|3:0|3:0|3:0|3:0|3:0,0:0:0:0:
103,138,853,2,0,L|95:91,5,40,8|0|8|0|0|0,3:0|3:0|3:0|3:0|3:0|3:0,0:0:0:0:
119,65,1309,6,0,L|234:78,1,80,8|0,0:0|3:0,0:0:0:0:
316,82,1621,2,0,L|325:34,7,40,8|8|8|8|8|8|8|8,0:0|0:0|0:0|0:0|0:0|0:0|0:0|0:0,0:0:0:0:
368,27,2269,6,0,L|426:39,3,40,8|8|8|8,3:0|3:0|3:0|3:0,0:0:0:0:
431,66,2593,2,0,L|419:124,3,40,0|0|0|0,3:0|3:0|3:0|3:0,0:0:0:0:
399,137,2908,5,8,0:0:0:0:
463,196,3063,1,8,0:0:0:0:
463,196,3141,1,8,0:0:0:0:
463,196,3218,2,0,P|443:255|433:301,1,80,10|0,0:0|3:0,0:0:0:0:
367,323,3551,1,0,3:0:0:0:
367,323,3718,2,0,L|254:306,1,80,10|0,0:0|3:0,0:0:0:0:
220,253,4042,1,0,3:0:0:0:
220,253,4204,2,0,L|107:270,1,80,10|0,0:0|3:0,0:0:0:0:
66,218,4528,1,0,3:0:0:0:
66,218,4690,2,0,P|50:176|55:117,1,80,10|0,0:0|3:0,0:0:0:0:
114,82,5015,5,10,0:0:0:0:
192,121,5177,1,10,0:0:0:0:
254,58,5339,1,10,3:2:0:0:
332,97,5501,2,0,L|319:140,3,40,8|8|8|8,0:0|0:0|0:0|0:0,0:0:0:0:
291,168,5825,6,0,P|311:220|318:256,1,80,10|0,0:0|3:0,0:0:0:0:
394,284,6150,1,0,3:0:0:0:
394,284,6312,2,0,L|503:267,1,80,10|0,0:0|3:0,0:0:0:0:
488,358,6636,1,0,3:0:0:0:
488,358,6798,2,0,L|379:375,1,80,10|0,0:0|3:0,0:0:0:0:
324,343,7123,1,0,3:0:0:0:
247,325,7284,1,10,0:0:0:0:
247,325,7447,1,10,0:0:0:0:
247,325,7609,1,10,3:2:0:0:
34,376,7933,6,0,P|64:324|47:200,1,160,4|0,0:0|3:0,0:0:0:0:
7,156,8419,2,0,B|59:135|59:135|108:149|108:149|188:124,1,160,10|0,0:0|3:0,0:0:0:0:
233,178,8905,1,2,3:2:0:0:
309,134,9068,2,0,P|328:88|331:39,1,80,8|8,0:0|3:0,0:0:0:0:
437,0,9392,6,0,L|440:183,1,160,2|0,3:2|3:0,0:0:0:0:
489,232,9878,1,10,3:2:0:0:
489,232,9960,1,0,3:0:0:0:
489,232,10041,1,6,0:0:0:0:
420,287,10203,2,0,B|371:275|371:275|325:301|325:301|249:284,1,160,2|0,0:0|3:0,0:0:0:0:
178,361,10689,5,6,3:2:0:0:
100,319,10851,2,0,P|78:272|83:149,1,160,2|2,3:2|3:2,0:0:0:0:
37,86,11338,1,10,0:0:0:0:
111,39,11500,2,0,L|219:60,1,80,2|0,3:2|0:0,0:0:0:0:
254,114,11824,1,10,0:0:0:0:
254,114,11906,1,0,3:0:0:0:
254,114,11987,6,0,P|318:109|414:44,1,160,2|2,3:2|0:0,0:0:0:0:
479,96,12473,1,2,3:2:0:0:
436,173,12635,2,0,L|452:273,1,80,10|2,0:0|3:2,0:0:0:0:
323,376,13122,1,10,0:0:0:0:
292,293,13284,6,0,P|219:260|127:305,1,160,6|0,3:2|0:0,0:0:0:0:
76,336,13770,1,2,3:2:0:0:
13,273,13933,2,0,L|-3:88,1,160,10|0,0:0|0:0,0:0:0:0:
62,53,14419,1,10,0:0:0:0:
62,53,14500,1,0,3:0:0:0:
62,53,14581,6,0,B|112:73|112:73|242:39,1,160,2|2,3:2|0:0,0:0:0:0:
293,5,15068,1,2,3:2:0:0:
350,71,15230,2,0,L|334:173,1,80,10|8,0:0|0:0,0:0:0:0:
306,180,15473,1,8,0:0:0:0:
306,180,15554,2,0,L|319:250,3,40,8|8|8|8,0:0|3:0|3:0|3:0,0:0:0:0:
338,255,15878,5,6,3:2:0:0:
256,192,15960,12,2,17500,0:0:0:0:
258,312,17824,6,0,L|216:301,3,40,0|8|8|8,0:0|0:0|0:0|0:0,0:0:0:0:
180,323,18149,2,0,L|138:312,3,40,8|8|8|8,3:2|0:0|0:0|0:0,0:0:0:0:
112,333,18473,6,0,L|85:174,1,136.000002593994,6|8,3:2|0:0,0:0:0:0:
29,133,18960,1,2,0:0:0:0:
89,69,19122,2,0,P|124:74|170:78,1,68.0000012969971,2|0,3:2|0:0,0:0:0:0:
218,140,19446,2,0,P|253:134|299:131,1,68.0000012969971,10|0,0:0|0:0,0:0:0:0:
344,50,19770,6,0,P|398:8|491:16,2,136.000002593994,2|10|2,3:2|0:0|3:2,0:0:0:0:
295,124,20581,1,0,0:0:0:0:
369,171,20743,2,0,L|378:254,1,68.0000012969971,10|10,0:0|0:0,0:0:0:0:
350,275,20987,1,8,0:0:0:0:
350,275,21068,6,0,P|284:265|185:254,1,136.000002593994,2|8,3:2|0:0,0:0:0:0:
178,337,21554,2,0,P|112:346|13:358,1,136.000002593994,2|0,0:0|0:0,0:0:0:0:
0,276,22041,1,10,0:0:0:0:
60,211,22203,1,0,0:0:0:0:
3,142,22365,6,0,L|-2:107,2,34.0000006484985,2|2|2,3:2|3:2|3:2,0:0:0:0:
86,113,22689,2,0,L|246:132,2,136.000002593994,10|2|10,0:0|3:2|0:0,0:0:0:0:
74,201,23500,1,10,0:0:0:0:
74,201,23581,1,8,0:0:0:0:
74,201,23662,6,0,P|92:247|102:278,1,68.0000012969971,2|2,3:2|0:0,0:0:0:0:
183,287,23987,2,0,P|194:254|206:223,1,68.0000012969971,8|2,0:0|0:0,0:0:0:0:
293,206,24311,2,0,P|350:242|436:223,1,136.000002593994,2|8,3:2|0:0,0:0:0:0:
475,170,24797,1,0,0:0:0:0:
432,92,24960,6,0,L|436:52,2,34.0000006484985,2|2|2,3:2|0:0|0:0,0:0:0:0:
369,154,25284,2,0,L|393:302,2,136.000002593994,10|2|10,0:0|3:2|0:0,0:0:0:0:
314,83,26095,1,10,0:0:0:0:
314,83,26176,1,8,0:0:0:0:
314,83,26257,6,0,P|271:67|228:68,1,68.0000012969971,2|0,3:2|0:0,0:0:0:0:
165,38,26581,2,0,L|196:199,1,136.000002593994,10|2,0:0|3:2,0:0:0:0:
132,238,27068,1,2,0:0:0:0:
256,363,27392,1,2,0:0:0:0:
326,310,27554,6,0,P|368:313|405:328,1,68.0000012969971,2|2,3:2|0:0,0:0:0:0:
464,372,27878,1,10,0:0:0:0:
492,287,28041,1,0,3:0:0:0:
492,287,28122,1,0,3:0:0:0:
492,287,28203,2,0,L|506:212,1,68.0000012969971,2|8,3:2|3:0,0:0:0:0:
416,225,28527,2,0,L|430:150,1,68.0000012969971,0|8,3:0|0:0,0:0:0:0:
338,33,28851,6,0,B|349:65|349:65|321:201,1,143.999995605469,6|10,3:2|0:0,0:0:0:0:
245,220,29338,1,2,0:0:0:0:
184,148,29500,2,0,P|142:134|102:139,1,71.9999978027344,2|0,3:2|0:0,0:0:0:0:
25,106,29824,1,10,0:0:0:0:
25,106,29987,6,0,L|41:187,1,71.9999978027344,2|0,0:0|3:0,0:0:0:0:
112,233,30311,2,0,L|96:314,1,71.9999978027344,2|8,0:0|0:0,0:0:0:0:
32,370,30635,2,0,P|98:351|201:340,1,143.999995605469,2|0,0:0|0:0,0:0:0:0:
259,376,31122,1,10,0:0:0:0:
326,311,31284,1,10,0:0:0:0:
326,311,31365,1,8,0:0:0:0:
326,311,31446,6,0,P|342:240|295:159,1,143.999995605469,2|8,3:2|0:0,0:0:0:0:
247,111,31933,2,0,B|209:107|209:107|158:138|158:138|101:129,1,143.999995605469,2|2,0:0|0:0,0:0:0:0:
12,113,32419,1,10,0:0:0:0:
97,56,32581,6,0,P|89:129|74:229,1,143.999995605469,2|2,0:0|0:0,0:0:0:0:
146,263,33068,2,0,P|176:251|230:235,1,71.9999978027344,8|0,0:0|0:0,0:0:0:0:
288,183,33392,2,0,P|318:194|372:210,1,71.9999978027344,2|0,3:2|0:0,0:0:0:0:
436,254,33716,1,8,0:0:0:0:
493,180,33878,1,8,0:0:0:0:
493,180,33960,1,8,0:0:0:0:
493,180,34041,6,0,P|461:122|491:41,1,143.999995605469,2|8,3:2|0:0,0:0:0:0:
402,0,34527,1,2,0:0:0:0:
330,60,34689,2,0,L|228:44,1,71.9999978027344,2|2,3:2|0:0,0:0:0:0:
229,138,35014,2,0,L|145:120,1,71.9999978027344,10|2,0:0|0:0,0:0:0:0:
37,96,35338,6,0,P|51:133|62:191,1,71.9999978027344,2|2,3:2|0:0,0:0:0:0:
132,221,35662,2,0,P|119:254|110:289,1,71.9999978027344,10|0,0:0|0:0,0:0:0:0:
36,354,35987,5,0,3:2:0:0:
124,383,36149,1,8,0:0:0:0:
196,324,36311,1,10,3:2:0:0:
282,358,36473,1,10,0:2:0:0:
343,291,36635,5,10,3:2:0:0:
343,291,36798,2,0,L|328:177,1,95.9999970703126,2|0,3:2|3:0,0:0:0:0:
442,295,37284,1,10,0:0:0:0:
442,295,37446,2,0,L|427:181,1,95.9999970703126,2|8,3:2|3:2,0:0:0:0:
390,118,37933,6,0,L|391:49,1,47.9999985351563,2|2,3:2|3:2,0:0:0:0:
301,96,38262,2,0,L|302:27,1,47.9999985351563,2|2,3:2|3:2,0:0:0:0:
212,74,38592,2,0,L|213:5,2,47.9999985351563,8|0|8,0:0|0:0|3:0,0:0:0:0:
33,182,39251,6,0,L|59:315,1,120,6|0,3:2|0:0,0:0:0:0:
46,337,39573,1,10,0:0:0:0:
138,151,39896,6,0,L|164:284,1,120,2|0,3:0|0:0,0:0:0:0:
151,306,40218,1,10,0:0:0:0:
243,120,40541,6,0,L|269:253,1,120,2|0,3:0|0:0,0:0:0:0:
256,275,40863,1,10,0:0:0:0:
359,69,41186,6,0,L|389:230,1,160,2|8,3:0|0:0,0:0:0:0:
472,287,41672,1,10,0:0:0:0:
472,287,41754,1,8,0:0:0:0:
472,287,41836,6,0,P|420:326|324:307,1,143.999995605469,2|10,3:2|0:0,0:0:0:0:
271,261,42322,1,2,0:0:0:0:
220,339,42485,2,0,P|184:329|141:323,1,71.9999978027344,2|0,3:2|0:0,0:0:0:0:
77,264,42809,2,0,P|63:223|69:173,1,71.9999978027344,10|2,0:0|0:0,0:0:0:0:
147,124,43133,6,0,P|212:113|299:97,2,143.999995605469,2|8|0,3:2|0:0|3:0,0:0:0:0:
77,187,43944,1,0,0:0:0:0:
159,231,44106,2,0,P|214:237|239:242,1,71.9999978027344,8|8,0:0|0:0,0:0:0:0:
273,223,44350,1,8,0:0:0:0:
273,223,44431,6,0,P|252:266|276:366,1,143.999995605469,2|10,3:2|0:0,0:0:0:0:
360,379,44917,1,2,0:0:0:0:
426,312,45079,2,0,L|517:317,1,71.9999978027344,0|2,3:2|0:0,0:0:0:0:
500,222,45404,2,0,L|428:218,1,71.9999978027344,10|2,0:0|0:0,0:0:0:0:
331,141,45728,6,0,B|280:146|280:146|251:171|251:171|167:176,1,143.999995605469,2|8,3:2|0:0,0:0:0:0:
124,234,46214,1,2,0:0:0:0:
43,187,46376,2,0,P|15:129|50:33,1,143.999995605469,2|10,3:2|0:0,0:0:0:0:
117,15,46862,1,10,0:0:0:0:
117,15,46944,1,8,0:0:0:0:
117,15,47025,6,0,P|152:21|195:28,1,71.9999978027344,2|2,3:2|0:0,0:0:0:0:
254,93,47349,2,0,P|324:80|422:66,2,143.999995605469,10|0|8,0:0|3:0|0:0,0:0:0:0:
177,148,48160,2,0,L|96:135,2,71.9999978027344,2|0|2,0:0|3:0|0:0,0:0:0:0:
227,226,48646,5,4,0:0:0:0:
227,226,48971,2,0,L|222:310,1,71.9999978027344,0|10,3:0|0:0,0:0:0:0:
318,209,49295,2,0,L|313:293,1,71.9999978027344,0|8,3:0|0:0,0:0:0:0:
271,361,49620,6,0,P|213:334|123:344,1,120,6|0,3:2|0:0,0:0:0:0:
122,350,49944,1,10,0:0:0:0:
304,250,50269,6,0,P|246:223|156:233,1,120,2|0,3:0|0:0,0:0:0:0:
155,239,50593,1,10,0:0:0:0:
337,139,50917,6,0,P|279:112|189:122,1,120,2|0,3:0|0:0,0:0:0:0:
188,128,51241,1,10,0:0:0:0:
17,9,51566,6,0,P|50:77|59:181,1,160,2|10,3:0|0:0,0:0:0:0:
11,248,52052,1,10,0:0:0:0:
11,248,52133,1,8,0:0:0:0:
11,248,52214,6,0,L|174:237,1,143.999995605469,2|10,3:2|0:0,0:0:0:0:
229,294,52697,2,0,L|392:283,1,143.999995605469,2|2,0:0|0:0,0:0:0:0:
456,241,53181,2,0,P|473:200|470:152,1,71.9999978027344,10|2,0:0|0:0,0:0:0:0:
389,98,53504,6,0,B|344:93|344:93|307:121|307:121|245:113,1,143.999995605469,2|8,3:2|0:0,0:0:0:0:
181,55,53988,1,0,0:0:0:0:
101,104,54149,2,0,P|110:165|126:270,1,143.999995605469,0|10,3:0|0:0,0:0:0:0:
62,317,54643,1,8,0:0:0:0:
62,317,54725,1,8,0:0:0:0:
62,317,54808,6,0,P|124:288|215:292,1,143.999995605469,2|10,3:2|0:0,0:0:0:0:
282,329,55294,2,0,P|294:245|307:165,1,143.999995605469,2|2,0:0|0:0,0:0:0:0:
240,117,55780,1,10,0:0:0:0:
398,16,56105,6,0,P|403:54|411:99,1,71.9999978027344,2|8,3:2|0:0,0:0:0:0:
435,125,56348,1,8,0:0:0:0:
435,125,56429,1,8,0:0:0:0:
507,183,56591,1,8,0:0:0:0:
438,247,56753,2,0,L|394:234,3,35.9999989013672,8|0|0|0,3:0|3:0|3:0|3:0,0:0:0:0:
400,284,57078,2,0,L|356:271,3,35.9999989013672,8|0|0|0,3:0|3:0|3:0|3:0,0:0:0:0:
335,309,57402,5,10,3:2:0:0:
68,187,58705,5,10,0:0:0:0:
104,272,58865,1,8,0:0:0:0:
255,83,59346,6,0,L|275:138,4,35.9999989013672,8|8|8|8|10,0:0|0:0|0:0|0:0|0:0,0:0:0:0:
453,0,59994,6,0,P|442:78|429:188,1,167.999994873047,6|0,3:2|0:0,0:0:0:0:
485,251,60480,1,0,3:0:0:0:
407,314,60642,1,10,0:0:0:0:
342,236,60804,2,0,B|288:224|288:224|243:244|243:244|161:223,1,167.999994873047,0|2,3:0|0:0,0:0:0:0:
0,282,61291,6,0,P|12:322|20:364,1,83.9999974365235,0|2,3:0|0:0,0:0:0:0:
92,244,61615,2,0,P|100:199|121:146,1,83.9999974365235,0|2,3:0|0:0,0:0:0:0:
25,110,61939,1,8,0:0:0:0:
111,57,62102,2,0,P|196:47|290:33,1,167.999994873047,2|2,3:2|0:0,0:0:0:0:
425,51,62588,5,2,3:2:0:0:
346,113,62750,2,0,P|326:169|346:287,1,167.999994873047,0|0,3:2|3:2,0:0:0:0:
412,345,63237,2,0,L|506:322,1,83.9999974365235,10|0,0:0|3:0,0:0:0:0:
511,225,63561,2,0,L|429:244,1,83.9999974365235,2|2,0:0|0:0,0:0:0:0:
313,363,63885,6,0,L|140:339,1,167.999994873047,2|2,3:2|3:2,0:0:0:0:
54,381,64372,1,2,0:0:0:0:
6,292,64534,2,0,P|-4:234|8:182,1,83.9999974365235,8|2,0:0|3:2,0:0:0:0:
83,154,64858,2,0,P|124:150|185:143,1,83.9999974365235,2|0,0:0|0:0,0:0:0:0:
295,115,65183,5,0,3:0:0:0:
214,54,65345,2,0,P|208:117|200:231,1,167.999994873047,0|0,3:2|3:2,0:0:0:0:
271,293,65831,1,10,0:0:0:0:
345,224,65994,2,0,P|442:224|501:278,1,167.999994873047,0|2,3:0|0:0,0:0:0:0:
472,365,66480,6,0,L|376:364,1,83.9999974365235,0|2,3:0|3:2,0:0:0:0:
303,309,66804,2,0,L|201:306,1,83.9999974365235,2|0,3:2|0:0,0:0:0:0:
139,369,67129,1,10,0:0:0:0:
58,308,67291,2,0,P|38:229|47:135,1,167.999994873047,2|2,3:2|0:0,0:0:0:0:
25,17,67777,5,2,3:2:0:0:
108,74,67940,2,0,B|156:64|156:64|211:86|211:86|302:65,1,167.999994873047,2|0,3:2|3:2,0:0:0:0:
358,25,68426,2,0,P|409:44|440:78,1,83.9999974365235,8|2,0:0|3:2,0:0:0:0:
435,164,68750,2,0,P|393:198|348:208,1,83.9999974365235,2|2,0:0|0:0,0:0:0:0:
268,177,69075,6,0,P|265:262|265:368,2,167.999994873047,2|0|0,3:2|3:0|3:0,0:0:0:0:
346,115,69885,1,8,0:0:0:0:
8,268,70372,5,6,3:2:0:0:
77,195,70534,2,0,P|154:205|221:277,1,167.999994873047,0|0,3:2|3:2,0:0:0:0:
269,352,71021,2,0,L|366:332,1,83.9999974365235,10|0,0:0|3:0,0:0:0:0:
308,243,71345,2,0,L|405:223,1,83.9999974365235,2|0,0:0|3:0,0:0:0:0:
461,297,71669,6,0,P|433:229|455:107,1,167.999994873047,2|0,3:2|3:0,0:0:0:0:
501,55,72156,1,2,0:0:0:0:
411,9,72318,2,0,P|363:19|298:57,1,83.9999974365235,8|0,0:0|3:0,0:0:0:0:
266,110,72642,2,0,P|218:100|153:62,1,83.9999974365235,2|2,0:0|3:2,0:0:0:0:
88,18,72967,5,2,3:2:0:0:
24,96,73129,2,0,L|47:283,1,167.999994873047,0|2,3:0|3:2,0:0:0:0:
138,300,73615,2,0,B|181:287|181:287|252:309|252:309|330:289,1,167.999994873047,8|2,0:0|0:0,0:0:0:0:
373,227,74102,1,2,0:0:0:0:
426,312,74264,6,0,P|469:253|430:149,1,167.999994873047,2|2,3:2|3:2,0:0:0:0:
384,88,74750,1,2,0:0:0:0:
305,151,74912,2,0,P|254:137|209:124,1,83.9999974365235,8|2,0:0|3:2,0:0:0:0:
151,198,75237,2,0,P|100:212|55:225,1,83.9999974365235,2|0,0:0|0:0,0:0:0:0:
0,140,75561,5,4,3:2:0:0:
40,232,75723,2,0,P|138:235|232:241,1,167.999994873047,0|2,3:2|3:2,0:0:0:0:
280,310,76210,1,10,0:0:0:0:
360,250,76372,2,0,P|391:191|363:81,1,167.999994873047,0|2,3:2|0:0,0:0:0:0:
309,17,76858,6,0,L|224:31,1,83.9999974365235,2|2,3:2|0:0,0:0:0:0:
191,126,77183,2,0,L|273:112,1,83.9999974365235,0|2,3:0|0:0,0:0:0:0:
373,95,77507,1,8,0:0:0:0:
444,165,77669,2,0,P|437:236|429:343,1,167.999994873047,2|0,3:2|0:0,0:0:0:0:
321,384,78156,5,0,3:2:0:0:
275,294,78318,2,0,P|225:263|108:294,1,167.999994873047,0|2,3:2|3:2,0:0:0:0:
85,375,78804,2,0,P|76:293|64:187,1,167.999994873047,10|10,0:0|0:0,0:0:0:0:
143,113,79291,6,0,B|194:103|194:103|238:132|238:132|311:115,1,167.999994873047,10|8,0:0|0:0,0:0:0:0:
359,36,79777,2,0,L|329:239,1,167.999994873047,6|8,0:0|3:0,0:0:0:0:
280,287,80264,2,0,L|293:383,2,83.9999974365235,0|0|10,3:0|3:0|3:0,0:0:0:0:
207,217,80750,5,6,3:2:0:0:
256,192,80831,12,10,83994,0:0:0:0:
337,245,85129,6,0,L|341:190,2,35.9999989013672,8|0|0,3:0|3:0|3:0,0:0:0:0:
391,312,85453,2,0,P|445:299|496:294,1,71.9999978027344,0|8,3:0|3:0,0:0:0:0:
488,214,85777,1,8,3:0:0:0:
419,160,85940,6,0,L|422:116,4,35.9999989013672,12|8|8|8|8,0:2|0:2|0:2|0:2|0:0,0:0:0:0:
335,201,86426,1,2,0:2:0:0:
283,122,86588,2,0,P|243:118|207:113,1,71.9999978027344,2|0,0:0|0:0,0:0:0:0:
145,180,86912,2,0,P|105:183|69:189,1,71.9999978027344,8|2,0:0|0:2,0:0:0:0:
0,127,87237,6,0,P|31:170|47:282,1,143.999995605469,0|10,0:0|0:0,0:0:0:0:
111,328,87723,2,0,L|260:311,1,143.999995605469,2|2,3:2|3:2,0:0:0:0:
329,368,88210,1,10,0:0:0:0:
452,227,88534,6,0,L|501:237,4,35.9999989013672,10|8|8|8|10,0:0|0:0|0:0|0:0|0:0,0:0:0:0:
377,169,89021,2,0,P|375:123|394:84,1,71.9999978027344,2|0,0:2|0:0,0:0:0:0:
326,25,89345,2,0,L|245:14,1,71.9999978027344,2|8,0:2|0:0,0:0:0:0:
178,69,89669,1,2,0:2:0:0:
112,1,89831,6,0,P|125:68|141:157,1,143.999995605469,2|10,0:0|0:0,0:0:0:0:
225,178,90318,2,0,P|211:245|196:334,1,143.999995605469,0|0,3:0|3:0,0:0:0:0:
115,362,90804,1,8,0:0:0:0:
102,163,91129,6,8,L|145:159,3,35.9999989013672,8|8|10|8,0:0|0:0|0:0|0:0,0:0:0:0:
169,177,91453,2,0,L|344:158,1,143.999995605469,10|2,0:0|0:0,0:0:0:0:
354,77,91940,2,0,P|390:83|440:90,1,71.9999978027344,0|10,0:0|0:0,0:0:0:0:
509,48,92264,6,0,P|501:109|492:208,1,143.999995605469,2|2,0:2|0:2,0:0:0:0:
413,238,92750,1,8,0:0:0:0:
460,318,92912,2,0,P|411:340|308:315,1,143.999995605469,2|2,3:2|3:2,0:0:0:0:
253,263,93399,2,0,P|193:269|155:290,1,71.9999978027344,10|0,0:0|3:0,0:0:0:0:
101,353,93723,5,10,3:2:0:0:
29,292,93885,1,8,3:2:0:0:
93,223,94048,2,0,P|116:123|118:66,1,143.999995605469,8|0,0:0|0:0,0:0:0:0:
193,26,94534,1,2,0:0:0:0:
262,88,94696,2,0,L|354:100,1,71.9999978027344,8|0,0:0|0:2,0:0:0:0:
458,56,95021,6,0,P|472:94|478:151,1,71.9999978027344,0|0,3:2|3:2,0:0:0:0:
429,205,95345,2,0,B|387:195|387:195|342:212|342:212|275:191,1,143.999995605469,8|8,0:0|0:0,0:0:0:0:
202,169,95831,1,8,0:0:0:0:
202,169,95912,1,8,0:0:0:0:
202,169,95994,2,0,L|147:177,3,35.9999989013672,0|0|0|0,3:0|3:0|3:0|3:0,0:0:0:0:
120,180,96318,6,0,P|128:212|141:276,1,71.9999978027344,4|0,3:2|3:2,0:0:0:0:
212,303,96642,2,0,L|299:291,1,71.9999978027344,10|2,0:0|3:2,0:0:0:0:
356,352,96967,1,2,0:0:0:0:
430,295,97129,2,0,P|452:232|455:202,1,71.9999978027344,2|8,3:2|0:0,0:0:0:0:
384,163,97453,1,2,0:0:0:0:
440,88,97615,6,0,L|525:92,2,71.9999978027344,0|2|10,3:2|3:2|0:0,0:0:0:0:
364,31,98102,2,0,L|210:43,1,143.999995605469,2|2,3:2|3:2,0:0:0:0:
139,89,98588,1,10,0:0:0:0:
74,21,98750,1,2,3:2:0:0:
10,94,98912,6,0,P|24:141|33:184,1,71.9999978027344,2|0,3:2|3:2,0:0:0:0:
3,254,99237,1,8,0:0:0:0:
91,224,99399,2,0,L|251:209,1,143.999995605469,2|0,3:2|3:2,0:0:0:0:
302,146,99885,2,0,P|328:198|332:224,1,71.9999978027344,10|2,0:0|0:0,0:0:0:0:
418,243,100210,6,0,P|392:295|388:321,1,71.9999978027344,2|0,3:2|3:2,0:0:0:0:
317,367,100534,2,0,B|270:357|270:357|225:373|225:373|163:358,1,143.999995605469,8|0,0:0|0:0,0:0:0:0:
85,380,101021,1,2,3:2:0:0:
23,309,101183,2,0,P|17:272|9:222,1,71.9999978027344,8|2,0:0|0:0,0:0:0:0:
87,167,101507,6,0,L|175:178,2,71.9999978027344,2|2|8,3:2|3:2|0:0,0:0:0:0:
35,88,101994,2,0,P|71:35|148:27,1,143.999995605469,2|2,3:2|3:2,0:0:0:0:
206,97,102480,1,10,0:0:0:0:
280,40,102642,6,0,P|316:35|356:28,1,71.9999978027344,2|0,0:0|3:0,0:0:0:0:
416,96,102967,2,0,P|407:127|398:172,1,71.9999978027344,2|8,3:2|0:0,0:0:0:0:
324,221,103291,2,0,P|332:253|342:297,1,71.9999978027344,2|0,3:2|0:0,0:0:0:0:
408,355,103615,1,2,3:2:0:0:
317,379,103777,2,0,P|280:368|229:355,1,71.9999978027344,8|2,0:0|0:0,0:0:0:0:
169,306,104102,6,0,L|91:319,1,71.9999978027344,2|0,3:2|3:2,0:0:0:0:
40,243,104426,2,0,L|212:219,1,143.999995605469,8|0,0:0|0:0,0:0:0:0:
240,149,104912,1,0,3:0:0:0:
154,109,105075,2,0,P|138:65|140:21,1,71.9999978027344,8|0,0:0|0:0,0:0:0:0:
234,3,105399,6,0,L|318:9,1,71.9999978027344,0|0,3:0|3:0,0:0:0:0:
398,23,105723,2,0,P|389:81|374:170,1,143.999995605469,8|2,0:0|3:2,0:0:0:0:
323,243,106210,1,8,0:0:0:0:
323,243,106291,1,8,0:0:0:0:
323,243,106372,2,0,L|333:293,3,35.9999989013672,8|8|8|8,0:0|0:0|0:0|0:0,0:0:0:0:
349,326,106696,6,0,L|472:338,1,120,6|0,3:2|0:0,0:0:0:0:
499,362,107021,1,10,0:0:0:0:
347,220,107345,6,0,L|470:232,1,120,2|0,3:0|0:0,0:0:0:0:
497,256,107670,1,10,0:0:0:0:
345,114,107994,6,0,L|468:126,1,120,2|0,3:0|0:0,0:0:0:0:
495,150,108319,1,10,0:0:0:0:
339,13,108642,6,0,P|276:27|229:133,1,160,2|10,3:0|0:0,0:0:0:0:
184,199,109129,1,10,0:0:0:0:
184,199,109210,1,8,0:0:0:0:
184,199,109291,6,0,L|33:175,1,143.999995605469,2|10,3:2|0:0,0:0:0:0:
58,84,109777,2,0,L|200:106,1,143.999995605469,2|2,0:0|0:0,0:0:0:0:
283,63,110264,2,0,P|288:95|287:149,1,71.9999978027344,10|0,0:0|0:0,0:0:0:0:
355,216,110588,6,0,L|431:204,1,71.9999978027344,2|0,3:2|0:0,0:0:0:0:
483,130,110912,2,0,P|476:174|464:289,1,143.999995605469,8|0,0:0|3:0,0:0:0:0:
409,348,111399,1,2,0:0:0:0:
328,299,111561,2,0,P|285:301|234:325,1,71.9999978027344,10|8,0:0|0:0,0:0:0:0:
226,345,111804,1,8,0:0:0:0:
226,345,111885,6,0,B|176:338|176:338|140:353|140:353|54:338,1,143.999995605469,2|8,3:2|0:0,0:0:0:0:
22,274,112372,2,0,P|18:228|6:183,1,71.9999978027344,2|0,0:0|3:0,0:0:0:0:
58,121,112696,1,2,0:0:0:0:
128,182,112858,2,0,L|216:192,1,71.9999978027344,10|2,0:0|0:0,0:0:0:0:
276,118,113183,6,0,B|349:98|345:155|425:129,1,143.999995605469,2|8,3:2|0:0,0:0:0:0:
489,75,113669,1,2,0:0:0:0:
420,10,113831,2,0,P|380:18|323:26,1,71.9999978027344,2|0,3:2|0:0,0:0:0:0:
289,95,114156,2,0,P|249:87|192:79,1,71.9999978027344,10|8,0:0|0:0,0:0:0:0:
171,80,114399,1,8,0:0:0:0:
171,80,114480,6,0,L|183:173,1,71.9999978027344,2|2,3:2|0:0,0:0:0:0:
130,230,114804,2,0,P|78:196|-18:211,2,143.999995605469,10|0|8,0:0|3:2|0:0,0:0:0:0:
291,326,115777,6,0,L|377:307,1,71.9999978027344,0|0,3:2|3:0,0:0:0:0:
453,289,116102,2,0,B|443:250|443:250|458:201|458:201|437:131,1,143.999995605469,8|0,0:0|3:0,0:0:0:0:
378,82,116588,2,0,L|388:-3,2,71.9999978027344,14|2|10,0:0|3:2|0:0,0:0:0:0:
307,158,117075,6,0,P|256:154|195:111,1,120,6|0,3:2|0:0,0:0:0:0:
192,78,117399,1,10,0:0:0:0:
259,258,117723,6,0,P|208:254|147:211,1,120,2|0,3:0|0:0,0:0:0:0:
144,178,118047,1,10,0:0:0:0:
211,358,118372,6,0,P|160:354|99:311,1,120,2|0,3:0|0:0,0:0:0:0:
96,278,118696,1,10,0:0:0:0:
243,130,119021,6,0,L|224:15,1,80,2|8,3:2|0:0,0:0:0:0:
323,6,119345,2,0,L|336:84,1,80,2|8,3:2|0:0,0:0:0:0:
363,109,119588,1,0,3:0:0:0:
363,109,119669,6,0,L|344:263,1,143.999995605469,2|10,3:2|0:0,0:0:0:0:
397,330,120156,2,0,P|354:302|252:296,1,143.999995605469,2|0,0:0|0:0,0:0:0:0:
197,359,120642,2,0,L|116:370,1,71.9999978027344,10|0,0:0|0:0,0:0:0:0:
21,355,120967,6,0,P|16:300|-5:255,1,71.9999978027344,2|0,3:2|3:0,0:0:0:0:
82,225,121291,2,0,P|80:168|113:87,1,143.999995605469,8|0,0:0|0:0,0:0:0:0:
202,64,121777,1,2,0:0:0:0:
130,3,121940,1,10,0:0:0:0:
221,189,122264,6,0,B|314:229|302:166|403:206,1,160,4|0,3:2|3:0,0:0:0:0:
456,143,122750,1,0,3:0:0:0:
456,47,122912,2,0,P|421:16|377:11,1,80,8|8,0:0|0:0,0:0:0:0:
314,70,123237,2,0,L|260:80,3,40,10|0|10|0,3:0|3:0|3:0|3:0,0:0:0:0:
236,48,123561,5,10,3:2:0:0:
49,1,123878,1,10,0:0:0:0:
89,88,124037,1,10,3:2:0:0:
25,160,124195,2,0,P|19:210|44:261,1,80,8|10,0:0|3:2,0:0:0:0:
168,229,124513,2,0,P|174:179|149:128,1,80,10|8,0:0|3:2,0:0:0:0:
105,315,124830,6,0,P|187:332|301:359,1,167.999994873047,6|0,3:2|0:0,0:0:0:0:
366,323,125324,1,0,3:2:0:0:
324,231,125489,1,10,0:0:0:0:
419,198,125654,2,0,P|455:144|423:23,1,167.999994873047,0|2,3:2|0:0,0:0:0:0:
342,13,126148,6,0,P|294:19|232:25,1,83.9999974365235,0|2,3:0|0:0,0:0:0:0:
209,110,126478,2,0,P|161:103|99:98,1,83.9999974365235,0|2,3:0|0:0,0:0:0:0:
53,29,126808,1,8,0:0:0:0:
14,122,126972,2,0,P|24:197|34:293,1,167.999994873047,2|0,3:2|0:0,0:0:0:0:
147,359,127467,5,2,3:2:0:0:
201,274,127629,2,0,P|259:239|376:265,1,167.999994873047,0|2,3:2|3:2,0:0:0:0:
426,322,128115,1,8,0:0:0:0:
493,247,128277,2,0,P|498:157|505:70,1,167.999994873047,2|2,3:2|0:0,0:0:0:0:
401,22,128764,6,0,P|343:57|226:31,1,167.999994873047,2|2,3:2|3:2,0:0:0:0:
151,11,129250,1,2,3:2:0:0:
67,66,129412,2,0,P|62:113|82:171,1,83.9999974365235,8|2,0:0|3:2,0:0:0:0:
143,217,129737,2,0,L|253:199,1,83.9999974365235,2|0,0:0|0:0,0:0:0:0:
344,272,130061,5,4,3:2:0:0:
281,351,130223,2,0,P|196:342|88:333,1,167.999994873047,0|0,3:2|3:2,0:0:0:0:
50,256,130709,1,10,0:0:0:0:
143,217,130872,2,0,P|184:172|184:53,1,167.999994873047,2|2,3:2|0:0,0:0:0:0:
106,13,131358,6,0,L|-6:31,1,83.9999974365235,2|2,3:2|0:0,0:0:0:0:
0,126,131682,2,0,L|110:110,1,83.9999974365235,2|2,3:2|0:0,0:0:0:0:
174,69,132007,1,10,0:0:0:0:
256,127,132169,2,0,P|246:208|234:318,1,167.999994873047,0|2,3:2|0:0,0:0:0:0:
345,376,132655,5,2,3:2:0:0:
439,341,132817,2,0,P|485:284|478:182,1,167.999994873047,0|0,3:2|3:2,0:0:0:0:
400,133,133304,2,0,P|355:145|306:190,1,83.9999974365235,8|2,0:0|3:2,0:0:0:0:
244,226,133628,2,0,P|199:214|150:169,1,83.9999974365235,2|2,0:0|0:0,0:0:0:0:
113,107,133953,6,0,P|118:172|126:274,2,167.999994873047,2|0|0,3:2|3:2|3:2,0:0:0:0:
186,36,134763,1,10,0:0:0:0:
23,293,135250,5,6,3:2:0:0:
88,369,135412,2,0,B|158:361|158:361|180:338|180:338|272:327,1,167.999994873047,0|0,3:2|3:2,0:0:0:0:
314,256,135898,1,10,0:0:0:0:
225,206,136061,2,0,P|190:149|246:35,1,167.999994873047,2|2,3:2|0:0,0:0:0:0:
331,16,136547,6,0,L|520:40,1,167.999994873047,2|0,3:2|3:2,0:0:0:0:
506,142,137034,1,2,0:0:0:0:
506,142,137196,2,0,L|398:129,1,83.9999974365235,10|0,0:0|3:2,0:0:0:0:
339,173,137520,2,0,P|322:243|338:285,1,83.9999974365235,2|0,0:0|0:0,0:0:0:0:
464,234,137844,5,2,3:2:0:0:
397,299,138007,2,0,L|230:277,1,167.999994873047,0|2,3:2|3:2,0:0:0:0:
147,335,138493,1,8,0:0:0:0:
75,263,138655,2,0,P|55:197|68:95,1,167.999994873047,0|2,3:0|0:0,0:0:0:0:
170,17,139142,6,0,P|213:23|279:30,1,83.9999974365235,2|0,3:2|0:0,0:0:0:0:
307,113,139466,2,0,P|350:106|416:100,1,83.9999974365235,2|2,3:2|0:0,0:0:0:0:
489,87,139790,1,8,0:0:0:0:
415,17,139953,2,0,L|397:211,1,167.999994873047,2|0,3:2|0:0,0:0:0:0:
458,303,140439,5,4,3:2:0:0:
359,282,140601,2,0,B|306:268|306:268|249:294|249:294|173:273,1,167.999994873047,0|2,3:2|3:2,0:0:0:0:
120,342,141088,1,10,0:0:0:0:
49,269,141250,2,0,L|36:89,1,167.999994873047,2|2,3:2|0:0,0:0:0:0:
123,14,141736,6,0,L|222:27,1,83.9999974365235,0|2,3:2|0:0,0:0:0:0:
273,100,142061,2,0,P|270:158|243:203,1,83.9999974365235,0|2,3:2|0:0,0:0:0:0:
190,254,142385,1,8,0:0:0:0:
257,329,142547,2,0,P|339:311|439:293,1,167.999994873047,2|2,3:2|0:0,0:0:0:0:
512,193,143034,5,0,3:2:0:0:
412,178,143196,2,0,P|370:109|403:15,1,167.999994873047,0|2,3:2|3:2,0:0:0:0:
489,12,143682,2,0,P|490:58|449:114,2,83.9999974365235,10|2|0,0:0|3:2|0:0,0:0:0:0:
390,28,144169,1,10,0:0:0:0:
299,157,144331,6,0,L|109:131,1,167.999994873047,6|0,3:2|0:0,0:0:0:0:
47,80,144817,2,0,P|30:118|31:159,1,83.9999974365235,2|8,3:2|0:0,0:0:0:0:
17,259,145142,2,0,B|84:250|84:250|108:225|108:225|197:215,1,167.999994873047,0|0,3:0|0:0,0:0:0:0:
238,318,145629,5,6,3:2:0:0:
238,318,145791,2,0,L|405:341,1,160,0|0,3:2|3:2,0:0:0:0:
473,277,146277,1,10,0:0:0:0:
413,201,146439,2,0,P|406:153|416:111,1,80,2|0,3:2|0:0,0:0:0:0:
450,39,146764,1,10,0:0:0:0:
450,39,146845,1,0,3:0:0:0:
450,39,146926,6,0,P|380:92|291:65,1,160,2|2,3:2|0:0,0:0:0:0:
237,21,147412,1,2,3:2:0:0:
160,78,147575,2,0,L|154:170,1,80,10|2,0:0|3:2,0:0:0:0:
17,292,148061,1,10,0:0:0:0:
70,211,148223,6,0,P|134:198|218:253,1,160,2|0,3:2|0:0,0:0:0:0:
256,329,148709,2,0,L|361:306,1,80,0|10,3:2|0:0,0:0:0:0:
424,279,149034,2,0,P|434:229|427:179,1,80,2|0,3:2|0:0,0:0:0:0:
416,84,149358,5,10,0:0:0:0:
348,152,149521,2,0,L|331:337,1,160,2|2,3:2|0:0,0:0:0:0:
257,370,150007,1,2,3:2:0:0:
223,280,150169,2,0,L|238:239,3,40,8|8|8|8,0:0|0:0|0:0|0:0,0:0:0:0:
188,258,150493,2,0,L|203:217,3,40,0|0|0|0,3:0|3:0|3:0|3:0,0:0:0:0:
155,240,150818,5,6,3:2:0:0:
60,222,150980,2,0,P|38:170|65:50,1,160,0|0,3:2|3:2,0:0:0:0:
134,19,151466,1,10,0:0:0:0:
180,104,151628,2,0,L|358:132,1,160,2|10,3:2|0:0,0:0:0:0:
433,110,152115,6,0,P|450:65|446:20,1,80,2|2,3:2|3:2,0:0:0:0:
354,52,152439,2,0,P|337:97|341:142,1,80,0|2,0:0|3:2,0:0:0:0:
404,197,152763,1,8,0:0:0:0:
335,263,152926,2,0,P|252:248|167:234,1,160,0|10,3:2|0:0,0:0:0:0:
6,198,153412,6,0,P|57:190|99:183,1,80,2|2,3:2|3:2,0:0:0:0:
172,145,153736,2,0,P|189:90|185:43,1,80,0|0,0:0|3:2,0:0:0:0:
95,89,154061,1,10,0:0:0:0:
84,185,154223,2,0,P|90:248|99:351,1,160,2|10,3:2|0:0,0:0:0:0:
200,384,154709,5,2,3:2:0:0:
254,305,154872,2,0,P|332:280|423:325,1,160,2|2,3:2|3:2,0:0:0:0:
474,240,155358,2,0,L|480:194,3,40,8|8|8|8,0:0|0:0|0:0|0:0,0:0:0:0:
460,179,155683,2,0,L|466:133,3,40,0|0|0|0,3:0|3:0|3:0|3:0,0:0:0:0:
491,114,156007,5,0,3:2:0:0:
431,63,156165,2,0,L|301:77,1,120.000004577637,0|0,3:2|3:2,0:0:0:0:
264,137,156641,2,0,P|238:101|232:77,1,60.0000022888184,8|0,0:0|3:0,0:0:0:0:
96,12,157118,6,0,P|89:46|82:87,1,60.0000022888184,8|0,0:0|3:0,0:0:0:0:
27,124,157438,2,0,P|33:189|39:257,1,120.000004577637,0|0,3:0|3:0,0:0:0:0:
70,320,157924,1,8,0:0:0:0:
70,320,158086,1,0,3:0:0:0:
220,358,158411,6,0,L|305:348,1,60.0000022888184,8|0,0:0|3:0,0:0:0:0:
345,310,158735,2,0,P|364:261|342:182,1,120.000004577637,0|0,3:0|3:0,0:0:0:0:
282,158,159221,1,8,0:0:0:0:
223,209,159384,2,0,L|89:192,1,120.000004577637,0|0,3:0|3:0,0:0:0:0:
66,125,159870,5,8,0:0:0:0:
121,69,160036,1,8,0:0:0:0:
121,69,160120,1,8,0:0:0:0:
121,69,160203,2,0,L|126:23,3,30.0000011444092,8|8|8|8,0:0|0:0|0:0|0:0,0:0:0:0:
157,59,160536,2,0,L|162:13,3,30.0000011444092,8|8|8|8,0:0|0:0|3:0|3:0,0:0:0:0:
192,50,160870,2,0,L|197:4,3,30.0000011444092,8|8|0|0,3:0|3:0|3:0|3:0,0:0:0:0:
233,42,161175,6,0,L|396:64,1,143.999995605469,6|8,3:2|0:0,0:0:0:0:
460,30,161680,1,2,0:0:0:0:
460,30,161764,1,2,0:0:0:0:
460,30,161849,2,0,P|465:78|450:119,1,71.9999978027344,2|0,3:2|3:2,0:0:0:0:
386,148,162168,2,0,L|292:162,1,71.9999978027344,8|2,0:0|0:0,0:0:0:0:
214,145,162487,6,0,P|223:179|233:239,1,71.9999978027344,2|2,3:2|3:2,0:0:0:0:
305,257,162811,2,0,P|295:291|286:351,1,71.9999978027344,8|2,0:0|0:0,0:0:0:0:
211,367,163135,1,2,3:2:0:0:
211,367,163297,1,2,3:2:0:0:
165,293,163459,2,0,P|128:279|78:275,1,71.9999978027344,10|2,0:0|3:2,0:0:0:0:
58,296,163702,1,0,3:2:0:0:
58,296,163783,6,0,L|41:139,1,143.999995605469,2|10,3:2|0:0,0:0:0:0:
104,91,164270,2,0,L|120:2,1,71.9999978027344,2|2,0:0|3:2,0:0:0:0:
201,34,164594,2,0,L|185:123,1,71.9999978027344,2|8,3:2|0:0,0:0:0:0:
255,159,164918,1,2,3:2:0:0:
313,94,165081,6,0,P|357:78|407:83,1,71.9999978027344,0|2,3:0|3:2,0:0:0:0:
432,8,165405,2,0,B|465:32|465:32|487:77|449:165,1,143.999995605469,10|2,0:0|3:2,0:0:0:0:
396,189,165891,1,2,3:2:0:0:
460,247,166054,2,0,L|446:326,1,71.9999978027344,10|8,0:0|3:0,0:0:0:0:
418,349,166297,1,0,3:0:0:0:
418,349,166378,6,0,P|376:330|319:330,1,71.9999978027344,2|0,3:2|3:0,0:0:0:0:
281,275,166702,1,8,0:0:0:0:
230,345,166865,2,0,L|129:349,1,71.9999978027344,2|0,0:0|3:0,0:0:0:0:
85,299,167189,1,2,3:2:0:0:
85,299,167351,2,0,P|69:253|75:207,1,71.9999978027344,10|2,0:0|0:0,0:0:0:0:
126,124,167675,6,0,P|124:88|110:55,2,71.9999978027344,2|0|8,3:2|3:2|0:0,0:0:0:0:
184,188,168162,1,2,0:0:0:0:
250,132,168324,2,0,P|287:125|329:118,1,71.9999978027344,0|2,3:0|3:2,0:0:0:0:
371,189,168648,2,0,P|408:195|450:203,1,71.9999978027344,10|10,0:0|3:2,0:0:0:0:
476,175,168891,1,0,3:2:0:0:
476,175,168973,6,0,B|488:118|488:118|476:76|476:76|491:24,1,143.999995605469,2|8,3:2|0:0,0:0:0:0:
408,1,169459,2,0,L|240:20,1,143.999995605469,2|0,0:0|3:2,0:0:0:0:
194,68,169946,2,0,L|67:52,1,107.999996704102,8|0,0:0|0:0,0:0:0:0:
43,49,170270,6,0,P|62:90|67:128,1,71.9999978027344,0|2,3:2|3:2,0:0:0:0:
35,196,170594,1,14,0:0:0:0:
102,249,170756,1,2,0:0:0:0:
171,197,170918,2,0,P|214:185|252:187,1,71.9999978027344,2|8,3:2|0:0,0:0:0:0:
283,209,171162,1,8,0:0:0:0:
283,209,171243,2,0,L|278:265,3,35.9999989013672,0|0|0|0,3:0|3:0|3:0|3:0,0:0:0:0:
294,285,171567,6,0,B|346:302|346:302|384:289|384:289|460:312,1,143.999995605469,6|2,3:2|0:0,0:0:0:0:
491,241,172054,2,0,P|497:200|504:163,1,71.9999978027344,2|8,3:2|0:0,0:0:0:0:
409,184,172378,2,0,P|403:148|397:112,1,71.9999978027344,2|0,0:0|3:2,0:0:0:0:
464,58,172702,1,2,3:2:0:0:
464,58,172864,5,2,0:0:0:0:
386,19,173027,2,0,P|326:21|270:87,1,143.999995605469,10|2,0:0|3:2,0:0:0:0:
204,133,173513,2,0,P|140:130|95:80,1,107.999996704102,8|0,0:0|0:0,0:0:0:0:
105,64,173837,1,8,0:0:0:0:
18,85,174000,1,10,0:0:0:0:
36,183,174162,6,0,L|45:261,1,71.9999978027344,2|2,3:0|3:0,0:0:0:0:
120,158,174486,2,0,L|129:236,1,71.9999978027344,2|2,3:0|3:0,0:0:0:0:
204,133,174811,2,0,L|213:211,1,71.9999978027344,2|2,3:0|3:0,0:0:0:0:
288,108,175135,2,0,L|297:186,1,71.9999978027344,10|10,3:0|3:0,0:0:0:0:
355,242,175459,6,0,P|429:240|467:263,1,107.999996704102,6|0,3:2|0:0,0:0:0:0:
477,293,175783,2,0,L|463:331,3,35.9999989013672,2|0|0|0,0:0|0:0|0:0|0:0,0:0:0:0:
436,360,176108,2,0,B|380:384|325:353|350:340|290:303|213:352,1,215.999993408203,2|0,0:0|0:0,0:0:0:0:
151,384,176757,5,2,3:3:0:0:
439,100,183730,6,0,P|449:68|447:38,2,60.0000022888184,2|8|8,0:3|0:0|0:0,0:0:0:0:
364,151,184216,5,8,3:0:0:0:
364,151,184378,1,8,3:0:0:0:
287,67,184541,6,0,L|154:51,1,120.000004577637,4|8,3:2|3:0,0:0:0:0:
79,43,185027,1,8,3:0:0:0:
157,136,185189,6,0,L|277:151,1,120.000004577637,4|8,3:2|3:0,0:0:0:0:
370,162,185676,1,8,3:0:0:0:
267,235,185837,6,0,L|134:219,1,120.000004577637,4|8,3:2|3:0,0:0:0:0:
66,211,186324,1,0,3:0:0:0:
66,211,186486,1,8,3:0:0:0:
19,310,186648,6,0,B|77:327|77:327|146:299,1,120.000004577637,6|0,0:0|0:0,0:0:0:0:
267,235,187135,6,0,B|345:212|345:212|438:249,1,167.999994873047,6|0,3:2|0:0,0:0:0:0:
474,332,187621,1,0,3:2:0:0:
383,376,187783,2,0,L|276:366,1,83.9999974365235,10|0,0:0|3:0,0:0:0:0:
215,310,188108,2,0,L|108:320,1,83.9999974365235,2|2,0:0|3:2,0:0:0:0:
28,374,188432,6,0,B|18:313|18:313|33:256|33:256|11:175,1,167.999994873047,2|2,3:2|3:2,0:0:0:0:
1,111,188918,1,2,0:0:0:0:
93,152,189081,1,10,0:0:0:0:
133,59,189243,2,0,P|212:40|297:102,1,167.999994873047,2|2,3:2|0:0,0:0:0:0:
436,126,189729,5,2,3:2:0:0:
360,192,189892,2,0,L|188:170,1,167.999994873047,2|2,3:2|3:2,0:0:0:0:
93,152,190378,1,8,0:0:0:0:
22,224,190540,2,0,P|15:276|41:331,1,83.9999974365235,0|0,3:0|0:0,0:0:0:0:
102,368,190864,1,2,0:0:0:0:
199,297,191027,6,0,B|258:289|258:289|309:314|309:314|394:304,1,167.999994873047,2|2,3:2|3:2,0:0:0:0:
447,357,191513,1,2,0:0:0:0:
510,278,191675,2,0,P|516:224|493:174,1,83.9999974365235,8|2,0:0|3:2,0:0:0:0:
436,126,192000,2,0,L|348:140,1,83.9999974365235,2|0,0:0|0:0,0:0:0:0:
244,191,192324,5,4,3:2:0:0:
213,95,192486,2,0,P|158:53|48:72,1,167.999994873047,0|0,3:2|3:2,0:0:0:0:
10,147,192973,2,0,L|24:237,1,83.9999974365235,10|2,0:0|3:2,0:0:0:0:
9,329,193297,1,2,0:0:0:0:
109,296,193459,1,2,3:2:0:0:
109,296,193540,1,0,3:2:0:0:
109,296,193621,2,0,L|257:310,1,125.999996154785,0|0,3:0|0:0,0:0:0:0:
271,310,193946,5,8,3:2:0:0:
348,246,194108,1,2,3:2:0:0:
251,218,194270,2,0,P|235:153|251:113,1,83.9999974365235,8|2,3:0|3:2,0:0:0:0:
308,65,194594,2,0,L|405:53,1,83.9999974365235,8|2,3:0|3:2,0:0:0:0:
504,2,194918,5,6,3:2:0:0:
494,102,195081,2,0,L|478:283,1,167.999994873047,0|0,3:2|3:2,0:0:0:0:
409,341,195567,1,10,0:0:0:0:
350,258,195729,2,0,P|284:224|182:264,1,167.999994873047,2|2,3:2|0:0,0:0:0:0:
140,382,196216,6,0,L|30:373,1,83.9999974365235,2|2,3:2|0:0,0:0:0:0:
22,279,196540,2,0,L|105:287,1,83.9999974365235,0|2,3:0|0:0,0:0:0:0:
198,248,196864,1,8,0:0:0:0:
111,195,197027,2,0,P|77:136|128:38,1,167.999994873047,2|0,3:2|0:0,0:0:0:0:
216,0,197513,5,2,3:2:0:0:
276,80,197675,2,0,B|329:70|329:70|385:88|385:88|446:73,1,167.999994873047,0|2,3:2|3:2,0:0:0:0:
496,157,198162,1,10,0:0:0:0:
409,208,198324,2,0,P|367:273|420:367,1,167.999994873047,2|2,3:2|0:0,0:0:0:0:
497,357,198810,6,0,P|490:306|445:265,1,83.9999974365235,2|2,3:2|0:0,0:0:0:0:
366,275,199135,2,0,L|264:285,1,83.9999974365235,0|2,3:0|0:0,0:0:0:0:
210,354,199459,1,8,0:0:0:0:
121,305,199621,2,0,P|90:216|137:153,1,167.999994873047,2|0,3:2|3:2,0:0:0:0:
242,113,200108,5,0,3:2:0:0:
311,185,200270,2,0,L|497:200,1,167.999994873047,0|0,3:2|3:2,0:0:0:0:
490,102,200756,2,0,L|372:92,1,83.9999974365235,10|0,0:0|3:2,0:0:0:0:
317,46,201081,1,2,0:0:0:0:
242,113,201243,2,0,P|215:158|212:203,1,83.9999974365235,2|0,0:0|3:2,0:0:0:0:
273,267,201567,6,0,P|215:224|107:242,1,167.999994873047,2|2,0:0|0:0,0:0:0:0:
41,291,202054,2,0,L|50:389,1,83.9999974365235,10|2,0:0|3:2,0:0:0:0:
139,330,202378,1,2,0:0:0:0:
123,231,202540,1,2,0:0:0:0:
29,193,202702,5,6,3:2:0:0:
108,130,202865,2,0,B|161:125|161:125|211:151|211:151|292:143,1,167.999994873047,0|0,3:2|3:2,0:0:0:0:
340,216,203351,2,0,L|445:237,1,83.9999974365235,8|2,0:0|3:2,0:0:0:0:
450,135,203675,2,0,L|367:118,1,83.9999974365235,2|2,0:0|0:0,0:0:0:0:
269,145,204000,6,0,B|238:201|238:201|261:315,2,167.999994873047,8|8|8,0:0|3:2|3:0,0:0:0:0:
294,51,204810,1,10,0:0:0:0:
475,376,205297,5,6,3:2:0:0:
408,300,205459,2,0,P|343:269|246:319,1,167.999994873047,0|0,3:2|3:2,0:0:0:0:
195,381,205946,1,10,0:0:0:0:
122,310,206108,2,0,L|101:131,1,167.999994873047,0|2,3:2|0:0,0:0:0:0:
43,61,206594,6,0,P|95:42|146:51,1,83.9999974365235,2|2,3:2|0:0,0:0:0:0:
199,108,206918,2,0,P|240:107|278:90,1,83.9999974365235,0|2,3:2|0:0,0:0:0:0:
360,31,207243,1,8,0:0:0:0:
436,97,207405,2,0,L|406:276,1,167.999994873047,2|2,3:2|0:0,0:0:0:0:
313,297,207891,5,2,3:2:0:0:
246,220,208054,2,0,B|182:209|182:209|143:230|143:230|53:218,1,167.999994873047,0|2,3:2|3:2,0:0:0:0:
12,292,208540,1,8,0:0:0:0:
57,381,208702,2,0,P|100:377|154:348,1,83.9999974365235,2|0,3:2|0:0,0:0:0:0:
219,302,209027,1,2,0:0:0:0:
317,370,209189,6,0,L|504:349,1,167.999994873047,2|2,3:2|3:2,0:0:0:0:
510,254,209675,1,2,0:0:0:0:
436,184,209837,2,0,L|352:193,1,83.9999974365235,8|2,0:0|3:2,0:0:0:0:
261,148,210162,2,0,P|244:84|255:41,1,83.9999974365235,2|0,0:0|0:0,0:0:0:0:
395,14,210486,5,0,3:2:0:0:
330,91,210648,2,0,L|163:109,1,167.999994873047,0|2,3:2|3:2,0:0:0:0:
82,48,211135,1,10,0:0:0:0:
21,128,211297,2,0,B|36:178|36:178|22:240|22:240|41:324,1,167.999994873047,2|2,3:2|0:0,0:0:0:0:
201,269,211783,6,0,P|142:249|94:272,1,83.9999974365235,0|2,3:2|0:0,0:0:0:0:
106,353,212108,2,0,P|164:372|212:349,1,83.9999974365235,0|2,3:2|0:0,0:0:0:0:
279,332,212432,1,8,0:0:0:0:
201,269,212594,2,0,L|186:80,1,167.999994873047,2|0,3:2|0:0,0:0:0:0:
276,14,213081,5,4,3:2:0:0:
320,104,213243,2,0,P|406:140|487:99,1,167.999994873047,0|2,3:2|3:2,0:0:0:0:
505,209,213729,2,0,L|488:303,1,83.9999974365235,10|0,0:0|0:0,0:0:0:0:
416,361,214054,1,2,3:2:0:0:
363,275,214216,6,0,P|321:258|256:272,1,83.9999974365235,2|0,3:2|0:0,0:0:0:0:
220,339,214540,2,0,P|178:356|113:342,1,83.9999974365235,10|0,0:0|3:2,0:0:0:0:
74,277,214864,1,2,0:0:0:0:
172,253,215027,2,0,L|186:170,1,83.9999974365235,8|10,3:2|3:2,0:0:0:0:
97,123,215351,1,0,3:2:0:0:
24,192,215513,1,0,3:2:0:0:
74,277,215675,5,12,3:2:0:0:
172,253,215837,2,0,L|359:214,1,167.999994873047,0|2,3:2|3:2,0:0:0:0:
369,314,216324,1,10,3:2:0:0:
447,250,216486,2,0,B|458:191|458:191|437:146|437:146|450:76,1,167.999994873047,2|2,3:2|3:2,0:0:0:0:
370,22,216973,5,8,3:2:0:0:
316,107,217135,2,0,L|151:141,1,167.999994873047,0|2,3:2|3:2,0:0:0:0:
59,182,217621,2,0,P|51:130|66:85,1,83.9999974365235,10|0,0:0|3:0,0:0:0:0:
151,141,217946,2,0,P|159:193|144:238,1,83.9999974365235,2|0,0:0|3:0,0:0:0:0:
0,309,218270,6,0,B|29:276|75:270|75:270|108:313|182:308,1,167.999994873047,8|8,0:0|3:0,0:0:0:0:
233,258,218756,1,0,3:0:0:0:
287,342,218918,2,0,L|397:353,1,83.9999974365235,10|10,0:0|3:2,0:0:0:0:
420,262,219243,2,0,L|336:253,1,83.9999974365235,8|10,0:0|3:2,0:0:0:0:
270,177,219567,6,0,P|259:121|278:72,1,83.9999974365235,8|8,0:0|3:2,0:0:0:0:
352,45,219891,2,0,P|363:101|344:150,1,83.9999974365235,10|10,0:0|3:0,0:0:0:0:
270,177,220216,5,0,3:0:0:0:
193,148,220378,1,0,3:0:0:0:
129,201,220540,1,10,3:0:0:0:
143,282,220702,1,10,3:0:0:0:
220,310,220864,5,6,3:2:0:0:
284,258,221027,2,0,L|445:242,1,143.999995605469,0|2,3:2|3:2,0:0:0:0:
484,179,221513,1,10,0:0:0:0:
422,117,221675,2,0,L|278:131,1,143.999995605469,0|10,3:2|0:0,0:0:0:0:
180,32,222162,5,2,3:2:0:0:
107,79,222324,2,0,P|81:140|110:220,1,143.999995605469,0|2,3:2|3:2,0:0:0:0:
178,252,222810,2,0,P|190:296|173:347,1,71.9999978027344,10|0,0:0|3:2,0:0:0:0:
120,378,223135,1,0,0:0:0:0:
98,304,223297,1,10,0:0:0:0:
98,304,223378,1,0,3:0:0:0:
98,304,223459,5,2,3:2:0:0:
247,373,223621,2,0,L|403:353,1,143.999995605469,0|2,3:2|3:2,0:0:0:0:
446,288,224108,1,10,0:0:0:0:
366,253,224270,2,0,P|337:176|382:104,1,143.999995605469,0|10,3:2|0:0,0:0:0:0:
462,45,224757,6,0,L|432:191,2,143.999995605469,2|0|8,3:2|0:0|0:0,0:0:0:0:
374,0,225567,1,0,3:2:0:0:
322,69,225729,1,0,0:0:0:0:
258,27,225891,1,10,0:0:0:0:
258,27,225973,1,0,3:0:0:0:
258,27,226054,5,2,3:2:0:0:
201,92,226216,2,0,L|229:233,1,143.999995605469,0|2,3:2|3:2,0:0:0:0:
294,289,226702,1,10,0:0:0:0:
222,336,226865,2,0,B|180:328|180:328|131:347|131:347|65:333,1,143.999995605469,0|10,3:0|0:0,0:0:0:0:
18,271,227351,6,0,P|9:231|19:181,1,71.9999978027344,2|2,3:2|3:2,0:0:0:0:
80,147,227675,2,0,L|168:157,1,71.9999978027344,0|2,0:0|3:2,0:0:0:0:
218,210,228000,1,10,0:0:0:0:
299,181,228162,2,0,P|333:112|286:42,1,143.999995605469,0|10,3:2|0:0,0:0:0:0:
203,51,228648,5,2,3:2:0:0:
258,117,228810,2,0,L|419:106,1,143.999995605469,0|2,3:2|3:2,0:0:0:0:
462,45,229297,1,10,0:0:0:0:
504,120,229459,2,0,P|491:182|479:272,1,143.999995605469,0|2,3:2|0:0,0:0:0:0:
392,363,229946,6,0,P|386:327|379:292,1,71.9999978027344,10|0,0:0|3:0,0:0:0:0:
347,262,230189,1,8,0:0:0:0:
347,262,230270,1,8,3:2:0:0:
268,297,230432,1,8,3:2:0:0:
196,248,230594,2,0,P|222:224|275:214,1,71.9999978027344,8|8,3:0|3:0,0:0:0:0:
268,297,230918,2,0,P|242:321|189:331,1,71.9999978027344,0|2,3:0|3:2,0:0:0:0:
41,353,231243,5,14,0:0:0:0:
113,306,231405,2,0,L|119:135,1,143.999995605469,0|2,3:2|3:2,0:0:0:0:
57,101,231891,2,0,L|60:5,1,71.9999978027344,10|0,0:0|3:2,0:0:0:0:
143,5,232216,2,0,L|140:76,1,71.9999978027344,0|2,0:0|3:2,0:0:0:0:
225,152,232540,5,10,0:0:0:0:
276,83,232702,2,0,P|329:46|423:63,1,143.999995605469,0|2,3:2|3:2,0:0:0:0:
456,122,233189,2,0,L|442:210,1,71.9999978027344,10|0,0:0|3:2,0:0:0:0:
376,246,233514,2,0,L|390:334,1,71.9999978027344,0|2,0:0|3:2,0:0:0:0:
414,350,233757,1,0,3:0:0:0:
414,350,233838,5,10,0:0:0:0:
330,373,234000,2,0,L|172:353,1,143.999995605469,0|2,3:2|3:2,0:0:0:0:
134,286,234486,1,10,0:0:0:0:
209,244,234648,2,0,P|247:174|209:101,1,143.999995605469,0|2,3:2|3:2,0:0:0:0:
142,55,235135,6,0,L|-16:75,2,143.999995605469,10|0|8,0:0|0:0|0:0,0:0:0:0:
214,103,235946,2,0,L|285:112,2,71.9999978027344,0|0|0,3:0|3:0|3:0,0:0:0:0:
154,177,236432,5,10,0:0:0:0:
209,244,236594,2,0,B|265:236|265:236|295:254|295:254|378:243,1,143.999995605469,0|2,3:2|3:2,0:0:0:0:
423,288,237081,2,0,P|437:237|426:197,1,71.9999978027344,10|0,0:0|3:2,0:0:0:0:
365,166,237405,2,0,P|363:130|376:96,1,71.9999978027344,0|2,0:0|3:2,0:0:0:0:
399,21,237729,5,10,0:0:0:0:
454,77,237892,2,0,L|304:61,1,143.999995605469,0|2,3:2|3:2,0:0:0:0:
247,2,238378,2,0,P|228:51|234:98,1,71.9999978027344,10|0,0:0|3:2,0:0:0:0:
166,130,238702,2,0,L|83:115,1,71.9999978027344,0|2,0:0|3:2,0:0:0:0:
32,57,239027,5,10,0:0:0:0:
10,140,239189,2,0,P|19:204|30:290,1,143.999995605469,0|2,3:2|3:2,0:0:0:0:
98,334,239675,2,0,P|143:330|185:305,1,71.9999978027344,10|0,0:0|3:2,0:0:0:0:
218,249,240000,2,0,P|263:253|305:278,1,71.9999978027344,2|0,0:0|3:0,0:0:0:0:
348,362,240324,5,10,0:0:0:0:
419,336,240486,1,8,0:0:0:0:
393,265,240648,1,8,3:0:0:0:
322,291,240810,1,2,3:2:0:0:
472,275,240973,6,0,B|479:240|479:240|473:218|473:218|498:162|486:110,1,143.999995605469,14|0,0:0|0:0,0:0:0:0:
425,63,241459,1,2,0:0:0:0:
425,63,241541,1,2,0:0:0:0:
425,63,241622,5,6,3:2:0:0:
356,117,241783,2,0,B|317:106|317:106|246:129|246:129|179:111,1,160,0|2,3:2|3:2,0:0:0:0:
140,54,242270,1,10,0:0:0:0:
58,87,242432,2,0,P|35:141|46:183,1,80,2|0,3:2|0:0,0:0:0:0:
88,244,242756,1,10,0:0:0:0:
88,244,242838,1,0,3:0:0:0:
88,244,242919,6,0,L|259:220,1,160,2|2,3:2|0:0,0:0:0:0:
334,212,243405,1,2,3:2:0:0:
402,266,243567,2,0,P|412:316|402:357,1,80,10|2,0:0|3:2,0:0:0:0:
184,368,244054,1,10,0:0:0:0:
176,280,244216,6,0,L|161:86,1,160,2|0,3:2|0:0,0:0:0:0:
117,45,244702,2,0,P|169:32|205:39,1,80,2|10,3:2|0:0,0:0:0:0:
258,96,245027,2,0,P|297:98|335:86,1,80,2|0,3:2|0:0,0:0:0:0:
390,20,245351,1,10,0:0:0:0:
390,20,245432,1,0,3:2:0:0:
390,20,245513,6,0,L|366:204,1,160,2|2,3:2|0:0,0:0:0:0:
429,243,246000,1,2,3:2:0:0:
345,269,246162,2,0,L|297:252,3,40,8|8|8|8,0:0|0:0|0:0|0:0,0:0:0:0:
321,297,246486,2,0,L|273:280,3,40,0|0|0|0,3:2|3:2|3:2|3:2,0:0:0:0:
294,326,246810,5,6,3:2:0:0:
209,352,246973,2,0,B|177:344|177:344|146:361|146:361|81:364|43:325,1,160,0|0,3:2|3:2,0:0:0:0:
22,258,247459,1,10,0:0:0:0:
88,200,247621,2,0,P|106:156|94:99,1,80,2|0,3:2|0:0,0:0:0:0:
33,71,247946,1,10,0:0:0:0:
33,71,248027,1,0,3:0:0:0:
33,71,248108,6,0,B|105:100|105:100|201:53,1,160,2|2,3:2|0:0,0:0:0:0:
253,17,248594,1,2,3:2:0:0:
323,69,248756,2,0,P|333:106|310:163,1,80,10|6,0:0|3:2,0:0:0:0:
255,202,249081,2,0,P|245:240|255:278,1,80,0|8,0:0|0:0,0:0:0:0:
287,308,249324,1,0,3:2:0:0:
287,308,249405,5,0,3:2:0:0:
365,346,249567,1,2,3:2:0:0:
439,298,249729,2,0,B|454:238|454:238|439:203|439:203|455:131,1,160,2|8,0:0|0:0,0:0:0:0:
473,58,250216,2,0,P|430:58|379:83,1,80,2|0,3:2|0:0,0:0:0:0:
348,147,250540,1,10,0:0:0:0:
348,147,250622,1,0,3:2:0:0:
348,147,250702,6,0,B|313:141|313:141|287:154|287:154|234:155|182:115,1,160,2|2,3:2|0:0,0:0:0:0:
135,63,251189,1,10,0:0:0:0:
67,119,251351,2,0,L|81:214,1,80,2|10,3:2|3:0,0:0:0:0:
157,236,251675,2,0,L|145:315,1,80,10|2,3:0|3:2,0:0:0:0:
89,383,252000,5,6,3:2:0:0:
256,192,252081,12,0,253216,3:0:0:0:
