osu file format v14

[General]
AudioFilename: audio.mp3
AudioLeadIn: 0
PreviewTime: 41917
Countdown: 0
SampleSet: Normal
StackLeniency: 0.3
Mode: 0
LetterboxInBreaks: 0
WidescreenStoryboard: 0

[Editor]
Bookmarks: 19597,27277,33037
DistanceSpacing: 0.4
BeatDivisor: 4
GridSize: 8
TimelineZoom: 1.6

[Metadata]
Title:CHANCE! (GAME SIZE)
TitleUnicode:CHANCE! (GAME SIZE)
Artist:UVERworld
ArtistUnicode:UVERworld
Creator:TastyApple
Version:Insane
Source:BLEACH: ヒート・ザ・ソウル2
Tags:Bleach: Heat the Soul 2
BeatmapID:1960392
BeatmapSetID:938488

[Difficulty]
HPDrainRate:6
CircleSize:4
OverallDifficulty:8
ApproachRate:9
SliderMultiplier:1.4
SliderTickRate:1

[Events]
//Background and Video events
0,0,"bleach collage.jpg",0,0
//Break Periods
//Storyboard Layer 0 (Background)
//Storyboard Layer 1 (Fail)
//Storyboard Layer 2 (Pass)
//Storyboard Layer 3 (Foreground)
//Storyboard Sound Samples

[TimingPoints]
4237,240,4,1,0,60,1,0
19357,-133.333333333333,4,1,0,60,0,0
35917,-400,4,1,0,60,0,0
36397,-100,4,1,0,60,0,0
37837,-400,4,1,0,60,0,0
38317,-100,4,1,0,60,0,0
42637,-100,4,1,0,60,0,1
56077,-100,4,1,0,60,0,0
57997,-100,4,1,0,60,0,1
71437,-100,4,1,0,60,0,0
73357,-100,4,1,0,60,0,1
88717,-100,4,1,0,60,0,0

[Colours]
Combo1 : 244,244,244
Combo2 : 219,111,2
Combo3 : 252,248,97
Combo4 : 27,31,188
Combo5 : 74,255,74
Combo6 : 255,0,0

[HitObjects]
256,192,4237,5,0,0:0:0:0:
176,279,6157,5,0,0:0:0:0:
336,279,8077,5,0,0:0:0:0:
256,96,9997,5,0,0:0:0:0:
332,143,10237,1,0,0:0:0:0:
357,229,10477,1,0,0:0:0:0:
307,304,10717,1,0,0:0:0:0:
218,324,10957,1,0,0:0:0:0:
132,274,11197,2,0,P|186:228|278:236,2,140
332,143,11917,6,0,B|252:151|220:111|204:39|188:111|156:151|76:143,1,280
12,261,12697,1,0,0:0:0:0:
48,309,12877,6,0,B|148:347|246:315|246:315|161:288,1,280
256,201,13837,2,0,L|230:120,1,70
314,146,14077,1,0,0:0:0:0:
346,214,14197,1,0,0:0:0:0:
390,151,14317,2,0,L|416:70,1,70
448,200,14557,2,0,L|474:277,1,70
506,359,14797,2,0,B|432:287|355:326|355:326|345:209,1,280
372,108,15757,2,0,B|303:50|303:50|216:131|134:46,1,280
257,206,16477,5,0,0:0:0:0:
169,240,16717,1,0,0:0:0:0:
72,219,16957,1,0,0:0:0:0:
16,143,17197,1,0,0:0:0:0:
14,49,17437,1,0,0:0:0:0:
72,219,17677,6,0,P|18:250|12:339,2,140
83,300,18397,2,0,P|114:354|203:360,2,140
76,254,18937,1,0,0:0:0:0:
107,227,18997,1,0,0:0:0:0:
187,140,19117,2,0,P|228:122|271:132,1,70
404,175,19357,5,0,0:0:0:0:
404,175,19477,1,0,0:0:0:0:
404,175,19597,2,0,L|466:270,1,105.000004005432
322,169,19957,1,0,0:0:0:0:
381,311,20077,2,0,L|416:361,1,52.5000020027161
248,242,20317,1,0,0:0:0:0:
248,242,20557,2,0,L|212:191,1,52.5000020027161
168,328,20797,1,0,0:0:0:0:
168,328,21037,2,0,L|203:378,1,52.5000020027161
70,144,21277,1,0,0:0:0:0:
70,144,21517,6,0,L|-3:228,1,105
89,66,21877,1,0,0:0:0:0:
122,204,21997,2,0,L|167:154,1,52.5000020027161
54,315,22237,1,0,0:0:0:0:
54,315,22477,2,0,L|9:365,1,52.5000020027161
204,261,22717,1,0,0:0:0:0:
204,261,22957,2,0,L|249:211,1,52.5000020027161
376,79,23197,1,0,0:0:0:0:
376,79,23437,6,0,L|292:6,1,105.000004005432
458,84,23797,1,0,0:0:0:0:
270,97,23917,2,0,L|218:45,1,52.5000020027161
377,178,24157,1,0,0:0:0:0:
377,178,24397,2,0,L|426:232,1,52.5000020027161
235,197,24637,1,0,0:0:0:0:
235,197,24877,2,0,L|183:143,1,52.5000020027161
26,69,25117,1,0,0:0:0:0:
26,69,25357,6,0,L|110:-4,1,105.000004005432
85,118,25717,2,0,L|41:158,2,52.5000020027161
159,63,26077,2,0,L|220:10,1,78.7500030040742
260,17,26317,2,0,L|325:17,2,52.5000020027161
218,111,26797,2,0,L|330:111,1,105.000004005432
368,315,27277,6,0,B|325:352|225:309|281:212|281:212|206:275|139:253|104:201,1,385
194,158,28717,1,0,0:0:0:0:
128,95,28957,1,0,0:0:0:0:
363,292,29197,2,0,L|390:177,1,105
383,204,29557,1,0,0:0:0:0:
283,262,29677,2,0,L|266:150,1,105
193,314,30157,5,0,0:0:0:0:
119,234,30397,1,0,0:0:0:0:
213,100,30877,1,0,0:0:0:0:
222,95,31117,2,0,L|315:80,1,70
310,80,31477,1,0,0:0:0:0:
263,166,31837,1,0,0:0:0:0:
351,184,32077,2,0,P|406:150|392:99,1,105
86,140,32797,1,0,0:0:0:0:
145,208,33037,5,0,0:0:0:0:
171,240,33277,1,0,0:0:0:0:
201,274,33517,1,0,0:0:0:0:
230,311,33757,1,0,0:0:0:0:
277,351,33997,1,0,0:0:0:0:
291,275,34477,2,0,L|381:217,1,105
75,197,34957,6,0,L|170:246,1,105
114,116,35437,1,0,0:0:0:0:
170,142,35677,1,0,0:0:0:0:
231,88,35917,2,0,L|258:75,1,22.5
85,218,36397,1,0,0:0:0:0:
205,233,36637,1,0,0:0:0:0:
172,72,36877,6,0,L|277:79,1,90
262,148,37357,1,0,0:0:0:0:
230,258,37597,1,0,0:0:0:0:
263,199,37837,2,0,L|292:188,1,22.5
