osu file format v14

[General]
AudioFilename: audio.mp3
AudioLeadIn: 0
PreviewTime: 34784
Countdown: 0
SampleSet: Soft
StackLeniency: 0.4
Mode: 0
LetterboxInBreaks: 0
WidescreenStoryboard: 1

[Editor]
Bookmarks: 678,10784,20889,25942,32257,34784,36047,43626,46152,53731,56257,63836,66363,76468,90363,91626,101731,111836,116889,119415,120678,121863
DistanceSpacing: 0.6
BeatDivisor: 4
GridSize: 8
TimelineZoom: 2.699999

[Metadata]
Title:ZED
TitleUnicode:ZED
Artist:USAO
ArtistUnicode:USAO
Creator:Zetera
Version:Skid's ZHD
Source:beatmania IIDX 20 tricoro
Tags:Mir Skidooskei Dubstep beatmania iidx20 tricoro jubeat saucer Electronic Instrumental video game
BeatmapID:2508547
BeatmapSetID:932235

[Difficulty]
HPDrainRate:6
CircleSize:4
OverallDifficulty:9
ApproachRate:9.5
SliderMultiplier:2.2
SliderTickRate:1

[Events]
//Background and Video events
0,0,"BG_GEFIXED.jpg",0,0
//Break Periods
//Storyboard Layer 0 (Background)
//Storyboard Layer 1 (Fail)
//Storyboard Layer 2 (Pass)
//Storyboard Layer 3 (Foreground)
//Storyboard Layer 4 (Overlay)
//Storyboard Sound Samples

[TimingPoints]
679,315.789473684211,4,2,1,40,1,0
679,-250,4,2,1,40,0,0
1152,-250,4,2,1,5,0,0
1626,-1000,4,2,1,40,0,0
2889,-1000,4,2,1,5,0,0
3205,-333.333333333333,4,2,1,40,0,0
3678,-333.333333333333,4,2,1,5,0,0
4152,-1000,4,2,1,40,0,0
5415,-1000,4,2,1,5,0,0
5731,-333.333333333333,4,2,1,40,0,0
6204,-333.333333333333,4,2,1,5,0,0
6679,-1000,4,2,1,40,0,0
8100,-1000,4,2,1,5,0,0
8257,-333.333333333333,4,2,1,40,0,0
8573,-333.333333333333,4,2,1,5,0,0
8731,-333.333333333333,4,2,1,40,0,0
9047,-333.333333333333,4,2,1,5,0,0
9205,-200,4,2,1,40,0,0
10626,-200,4,2,1,5,0,0
10784,-133.333333333333,4,2,1,80,0,0
14257,-200,4,2,1,80,0,0
14573,-133.333333333333,4,2,1,80,0,0
17888,-133.333333333333,4,2,1,5,0,0
17968,-133.333333333333,4,2,1,80,0,0
19230,-133.333333333333,4,2,1,5,0,0
19310,-133.333333333333,4,2,1,80,0,0
20257,-200,4,2,1,80,0,0
20730,-200,4,2,1,5,0,0
20810,-200,4,2,1,5,0,0
20889,-333.333333333333,4,2,1,80,0,0
20890,-333.333333333333,4,2,1,80,0,0
23100,-333.333333333333,4,2,1,80,0,0
25942,-133.333333333333,4,2,1,40,0,0
25943,-133.333333333333,4,2,1,40,0,0
26178,-133.333333333333,4,2,1,5,0,0
26257,-133.333333333333,4,2,1,40,0,0
26730,-133.333333333333,4,2,1,5,0,0
26889,-133.333333333333,4,2,1,40,0,0
27206,-133.333333333333,4,2,1,50,0,0
28468,-111.111111111111,4,2,1,60,0,0
28469,-111.111111111111,4,2,1,60,0,0
29336,-111.111111111111,4,2,1,5,0,0
29415,-111.111111111111,4,2,1,60,0,0
29732,-111.111111111111,4,2,1,70,0,0
31310,-200,4,2,1,80,0,0
31311,-200,4,2,1,80,0,0
31467,-200,4,2,1,5,0,0
31626,-83.3333333333333,4,2,1,80,0,0
31942,-200,4,2,1,80,0,0
32099,-200,4,2,1,5,0,0
32257,-200,4,2,1,80,0,0
33836,-66.6666666666667,4,2,1,80,0,0
34152,-83.3333333333334,4,2,1,80,0,0
34468,-111.111111111111,4,2,1,80,0,0
34784,-200,4,2,1,80,0,0
35888,-200,4,2,1,5,0,0
36047,-333.333333333334,4,2,1,80,0,0
36283,-333.333333333334,4,2,1,5,0,0
36363,-50,4,2,1,80,0,0
36599,-50,4,2,1,5,0,0
36679,-76.9230769230769,4,2,1,80,0,0
37310,-100,4,2,1,80,0,0
37415,-100,4,2,1,5,0,0
37467,-100,4,2,1,5,0,0
37547,-100,4,2,1,80,0,0
38099,-100,4,2,1,5,0,0
38257,-333.333333333333,4,2,1,80,0,0
38573,-66.6666666666667,4,2,1,80,0,0
39205,-333.333333333333,4,2,1,80,0,0
39441,-333.333333333333,4,2,1,5,0,0
39521,-333.333333333333,4,2,1,80,0,0
40152,-100,4,2,1,80,0,0
40784,-133.333333333333,4,2,1,80,0,0
40941,-133.333333333333,4,2,1,5,0,0
41021,-133.333333333333,4,2,1,5,0,0
41100,-333.333333333333,4,2,1,80,0,0
41336,-333.333333333333,4,2,1,5,0,0
41415,-50,4,2,1,80,0,0
41651,-50,4,2,1,5,0,0
41731,-76.9230769230769,4,2,1,80,0,0
42363,-100,4,2,1,80,0,0
43073,-100,4,2,1,5,0,0
43153,-100,4,2,1,80,0,0
43231,-100,4,2,1,5,0,0
43310,-333.333333333333,4,2,1,80,0,0
43626,-100,4,2,1,80,0,0
43862,-100,4,2,1,5,0,0
43942,-100,4,2,1,80,0,0
45521,-133.333333333333,4,2,1,80,0,0
46152,-333.333333333333,4,2,1,80,0,0
46388,-333.333333333333,4,2,1,5,0,0
46468,-50,4,2,1,80,0,0
46704,-50,4,2,1,5,0,0
46784,-133.333333333333,4,2,1,80,0,0
47020,-133.333333333333,4,2,1,5,0,0
47100,-133.333333333333,4,2,1,80,0,0
47415,-100,4,2,1,80,0,0
48047,-166.666666666667,4,2,1,80,0,0
48363,-500,4,2,1,80,0,0
48679,-66.6666666666667,4,2,1,80,0,0
49310,-333.333333333333,4,2,1,80,0,0
49546,-333.333333333333,4,2,1,5,0,0
49626,-333.333333333333,4,2,1,80,0,0
50257,-66.6666666666667,4,2,1,80,0,0
50889,-133.333333333333,4,2,1,80,0,0
51046,-133.333333333333,4,2,1,5,0,0
51126,-133.333333333333,4,2,1,5,0,0
51205,-100,4,2,1,80,0,0
51757,-100,4,2,1,5,0,0
51836,-100,4,2,1,80,0,0
52152,-66.6666666666667,4,2,1,80,0,0
53415,-1000,4,2,1,80,0,0
53572,-1000,4,2,1,5,0,0
53652,-1000,4,2,1,5,0,0
53731,-100,4,2,1,80,0,0
53732,-100,4,2,1,80,0,0
53967,-100,4,2,1,5,0,0
54047,-100,4,2,1,80,0,0
56257,-133.333333333333,4,2,1,80,0,0
56889,-76.9230769230769,4,2,1,80,0,0
57521,-100,4,2,1,80,0,0
58309,-100,4,2,1,5,0,0
58468,-100,4,2,1,80,0,0
58784,-50,4,2,1,80,0,0
59415,-333.333333333333,4,2,1,80,0,0
59651,-333.333333333333,4,2,1,5,0,0
59731,-333.333333333333,4,2,1,80,0,0
60363,-100,4,2,1,80,0,0
60573,-100,4,2,1,5,0,0
60599,-100,4,2,1,5,0,0
60679,-100,4,2,1,80,0,0
60994,-333.333333333333,4,2,1,80,0,0
61230,-333.333333333333,4,2,1,5,0,0
61257,-333.333333333333,4,2,1,5,0,0
61310,-66.6666666666667,4,2,1,80,0,1
61311,-66.6666666666667,4,2,1,80,0,1
61389,-100,4,2,1,80,0,0
61942,-76.9230769230769,4,2,1,80,0,0
62573,-100,4,2,1,80,0,0
62994,-100,4,2,1,5,0,0
63048,-100,4,2,1,80,0,0
63521,-250,4,2,1,80,0,0
63836,-100,4,2,1,80,0,0
64072,-100,4,2,1,5,0,0
64152,-100,4,2,1,80,0,0
65021,-100,4,2,1,5,0,0
65100,-100,4,2,1,80,0,0
65257,-100,4,2,1,5,0,0
65336,-100,4,2,1,80,0,0
65494,-100,4,2,1,5,0,0
65573,-100,4,2,1,80,0,0
66363,-333.333333333333,4,2,1,80,0,0
66442,-333.333333333333,4,2,1,50,0,0
71336,-333.333333333333,4,2,1,5,0,0
71415,-200,4,2,1,60,0,0
71416,-200,4,2,1,60,0,0
73942,-133.333333333333,4,2,1,60,0,0
74178,-133.333333333333,4,2,1,5,0,0
74257,-133.333333333333,4,2,1,60,0,0
74889,-100,4,2,1,60,0,0
75125,-100,4,2,1,5,0,0
75205,-100,4,2,1,60,0,0
75362,-100,4,2,1,5,0,0
75521,-100,4,2,1,60,0,0
76469,-90.9090909090909,4,2,1,70,0,0
77047,-90.9090909090909,4,2,1,5,0,0
77100,-90.9090909090909,4,2,1,70,0,0
78310,-90.9090909090909,4,2,1,5,0,0
78363,-90.9090909090909,4,2,1,70,0,0
79230,-90.9090909090909,4,2,1,5,0,0
79310,-90.9090909090909,4,2,1,70,0,0
79467,-90.9090909090909,4,2,1,5,0,0
79573,-90.9090909090909,4,2,1,5,0,0
79626,-90.9090909090909,4,2,1,70,0,0
80836,-90.9090909090909,4,2,1,5,0,0
80889,-90.9090909090909,4,2,1,70,0,0
81521,-125,4,2,1,70,0,0
81678,-125,4,2,1,5,0,0
81784,-125,4,2,1,5,0,0
81836,-125,4,2,1,70,0,0
81993,-125,4,2,1,5,0,0
82073,-125,4,2,1,5,0,0
82152,-125,4,2,1,70,0,0
82784,-166.666666666667,4,2,1,70,0,0
83047,-166.666666666667,4,2,1,5,0,0
83100,-166.666666666667,4,2,1,70,0,0
83336,-166.666666666667,4,2,1,5,0,0
83415,-166.666666666667,4,2,1,70,0,0
84047,-125,4,2,1,70,0,0
84283,-125,4,2,1,5,0,0
84310,-125,4,2,1,5,0,0
84363,-125,4,2,1,70,0,0
84520,-125,4,2,1,5,0,0
84600,-125,4,2,1,5,0,0
84679,-125,4,2,1,70,0,0
85310,-90.9090909090909,4,2,1,70,0,0
85467,-90.9090909090909,4,2,1,5,0,0
85573,-90.9090909090909,4,2,1,5,0,0
85626,-90.9090909090909,4,2,1,70,0,0
85783,-90.9090909090909,4,2,1,5,0,0
85863,-90.9090909090909,4,2,1,5,0,0
85942,-90.9090909090909,4,2,1,70,0,0
86178,-90.9090909090909,4,2,1,5,0,0
86257,-90.9090909090909,4,2,1,70,0,0
86809,-90.9090909090909,4,2,1,5,0,0
86889,-90.9090909090909,4,2,1,70,0,0
87678,-90.9090909090909,4,2,1,5,0,0
87836,-90.9090909090909,4,2,1,70,0,0
88625,-90.9090909090909,4,2,1,5,0,0
88784,-90.9090909090909,4,2,1,70,0,0
89179,-90.9090909090909,4,2,1,5,0,0
89257,-83.3333333333333,4,2,1,70,0,0
89652,-83.3333333333333,4,2,1,5,0,0
89731,-76.9230769230769,4,2,1,70,0,0
89889,-76.9230769230769,4,2,1,5,0,0
89968,-71.4285714285714,4,2,1,70,0,0
90205,-66.6666666666667,4,2,1,70,0,0
90284,-66.6666666666667,4,2,1,5,0,0
90363,-66.6666666666667,4,2,1,70,0,0
90521,-250,4,2,1,70,0,0
91626,-58.8235294117647,4,2,1,85,0,1
91627,-58.8235294117647,4,2,1,85,0,1
92257,-66.6666666666667,4,2,1,85,0,1
92889,-83.3333333333334,4,2,1,85,0,1
93836,-111.111111111111,4,2,1,85,0,1
94152,-50,4,2,1,85,0,1
94784,-133.333333333333,4,2,1,85,0,1
96363,-100,4,2,1,85,0,1
96679,-58.8235294117647,4,2,1,85,0,1
97310,-66.6666666666667,4,2,1,85,0,1
97942,-83.3333333333334,4,2,1,85,0,1
98889,-111.111111111111,4,2,1,85,0,1
99205,-76.923076923077,4,2,1,85,0,1
99441,-76.923076923077,4,2,1,85,0,1
99521,-76.923076923077,4,2,1,85,0,1
99915,-76.923076923077,4,2,1,5,0,1
99994,-76.923076923077,4,2,1,85,0,1
101968,-76.923076923077,4,2,1,5,0,1
102047,-76.923076923077,4,2,1,85,0,1
103231,-76.923076923077,4,2,1,5,0,1
103310,-76.923076923077,4,2,1,85,0,1
104494,-76.923076923077,4,2,1,5,0,1
104573,-76.923076923077,4,2,1,85,0,1
105757,-76.923076923077,4,2,1,5,0,1
105836,-76.923076923077,4,2,1,85,0,1
107021,-76.923076923077,4,2,1,5,0,1
107100,-76.923076923077,4,2,1,85,0,1
108284,-76.923076923077,4,2,1,5,0,1
108363,-76.923076923077,4,2,1,85,0,1
109547,-76.923076923077,4,2,1,5,0,1
109626,-76.923076923077,4,2,1,85,0,1
110810,-76.923076923077,4,2,1,5,0,1
110889,-76.923076923077,4,2,1,85,0,1
111836,-71.4285714285714,4,2,1,85,0,1
112073,-71.4285714285714,4,2,1,5,0,1
112152,-71.4285714285714,4,2,1,85,0,1
112704,-71.4285714285714,4,2,1,5,0,1
112784,-71.4285714285714,4,2,1,85,0,1
113336,-71.4285714285714,4,2,1,5,0,1
113415,-71.4285714285714,4,2,1,85,0,1
114600,-71.4285714285714,4,2,1,5,0,1
114679,-71.4285714285714,4,2,1,85,0,1
115230,-71.4285714285714,4,2,1,5,0,1
115310,-71.4285714285714,4,2,1,85,0,1
115863,-71.4285714285714,4,2,1,5,0,1
115942,-71.4285714285714,4,2,1,85,0,1
119415,-100,4,2,1,85,0,1
120679,-58.8235294117647,4,2,1,85,0,1
121310,-50,4,2,1,85,0,1
121626,-66.6666666666667,4,2,1,85,0,1
121863,-100,4,2,1,85,0,0

[Colours]
Combo1 : 128,128,128
Combo2 : 0,128,192
Combo3 : 192,192,192
Combo4 : 226,182,29

[HitObjects]
85,322,679,6,0,L|221:298,1,132
227,306,1626,6,0,L|139:321,1,88
299,221,3205,6,0,P|331:258|341:316,1,98.9999969787599
337,319,4152,6,0,P|334:297|354:235,1,88
511,149,5731,6,0,L|408:136,1,98.9999969787599
401,147,6679,6,0,B|445:152|445:152|452:156|452:156|461:154|461:154|470:159|470:159|479:157|479:157|486:161|486:161|495:160,1,99
298,68,8257,6,0,B|309:99|309:99|304:137,1,65.9999979858399
235,170,8731,2,0,B|224:139|224:139|229:101,1,65.9999979858399
390,146,9205,6,0,B|343:207|264:186|264:186|150:156|108:312|206:354|260:342|260:342|298:333|333:345,1,495
199,83,10784,6,0,B|116:82|148:135|44:135,1,165.000006294251,12|0,1:0|0:0,0:0:0:0:
68,56,11257,1,0,1:0:0:0:
195,158,11415,2,0,P|231:157|276:132,1,82.5000031471254,8|0,1:2|0:0,0:0:0:0:
355,25,11731,2,0,P|347:41|343:63,1,41.2500015735627,0|0,1:0|0:0,0:0:0:0:
422,64,11889,2,0,P|429:80|433:102,1,41.2500015735627
340,217,12047,5,8,1:0:0:0:
340,217,12126,2,0,P|367:185|416:185,1,82.5000031471254,0|8,0:0|1:0,0:0:0:0:
417,187,12363,1,0,0:0:0:0:
320,333,12521,2,0,L|315:285,1,41.2500015735627,8|0,1:0|0:0,0:0:0:0:
167,237,12679,2,0,P|215:236|197:325,1,165.000006294251,8|0,1:2|0:0,0:0:0:0:
159,225,13152,2,0,P|183:216|209:216,1,41.2500015735627
57,356,13310,6,0,L|80:190,1,165.000006294251,8|0,1:0|0:0,0:0:0:0:
18,125,13784,1,0,1:0:0:0:
175,50,13942,2,0,L|163:133,1,82.5000031471254,8|0,1:2|0:0,0:0:0:0:
282,212,14257,6,0,L|270:130,1,82.5000031471254,0|0,1:0|0:0,0:0:0:0:
362,64,14573,5,10,1:0:0:0:
362,64,14652,2,0,L|355:115,1,41.2500015735627
440,78,14810,1,0,1:0:0:0:
440,78,14889,2,0,L|433:129,1,41.2500015735627
392,220,15047,1,10,1:0:0:0:
388,200,15125,1,0,1:0:0:0:
385,180,15205,2,0,P|430:170|432:273,1,165.000006294251,8|0,1:2|0:0,0:0:0:0:
208,284,15836,6,2,B|184:239|184:239|302:257,1,165.000006294251,12|0,1:0|0:0,0:1:0:0:
240,354,16310,1,2,1:0:0:0:
107,265,16468,2,0,P|106:217|123:181,1,82.5000031471254,8|0,1:2|0:0,0:0:0:0:
57,67,16784,2,0,L|64:112,1,41.2500015735627,0|0,1:0|0:0,0:0:0:0:
141,91,16942,2,0,L|134:46,1,41.2500015735627
274,63,17100,5,10,1:0:0:0:
274,63,17179,2,0,P|237:77|220:117,1,82.5000031471254,0|0,0:0|1:0,0:0:0:0:
227,129,17415,1,0,0:0:0:0:
316,189,17573,2,0,L|358:182,1,41.2500015735627,2|0,1:0|0:0,0:0:0:0:
408,41,17731,2,0,L|422:125,1,82.5000031471254,8|0,1:2|0:0,0:0:0:0:
475,178,17968,1,0,0:0:0:0:
456,190,18046,1,0,0:0:0:0:
441,207,18125,1,0,0:0:0:0:
430,227,18204,1,0,0:0:0:0:
425,249,18283,1,0,0:0:0:0:
426,272,18363,6,2,P|437:295|336:288,1,206.250007867813,8|0,1:0|0:0,0:1:0:0:
340,288,18836,2,0,P|346:265|345:242,1,41.2500015735627,2|0,1:0|0:0,0:0:0:0:
246,138,18994,2,0,P|271:175|215:217,1,123.750004720688,8|0,1:2|0:0,0:0:0:0:
209,211,19310,2,0,P|191:204|167:203,1,41.2500015735627,0|0,1:0|0:0,0:0:0:0:
101,169,19468,2,0,P|94:187|93:211,1,41.2500015735627
47,271,19626,5,10,1:0:0:0:
47,271,19705,2,0,L|53:317,1,41.2500015735627
114,360,19863,2,0,L|200:348,1,82.5000031471254,0|0,1:0|0:0,0:0:0:0:
269,291,20100,2,2,L|315:297,1,41.2500015735627,10|0,1:0|1:0,0:1:0:0:
429,329,20257,6,0,P|425:336|419:356,1,27.5,8|0,1:2|0:0,0:0:0:0:
435,334,20415,2,0,P|431:341|425:361,1,27.5
507,342,20573,2,0,P|504:308|493:285,1,55
284,124,20889,6,0,L|355:116,1,65.9999979858399,4|0,0:1|0:0,0:0:0:0:
218,78,21363,1,0,0:0:0:0:
218,78,21521,2,0,P|205:116|203:142,1,65.9999979858399
150,200,21994,1,0,0:0:0:0:
150,200,22152,6,0,L|76:185,1,65.9999979858399
20,277,22626,1,0,0:0:0:0:
20,277,22784,2,0,P|35:271|59:268,1,32.99999899292
107,320,23021,1,0,0:0:0:0:
107,320,23100,2,0,L|104:346,3,16.49999949646
184,349,23415,6,0,L|178:283,1,65.9999979858399
253,215,23889,1,0,0:0:0:0:
253,215,24047,2,0,P|268:236|273:277,1,65.9999979858399
331,332,24521,1,0,0:0:0:0:
331,332,24679,6,0,L|404:324,1,65.9999979858399
472,258,25152,1,0,0:0:0:0:
472,258,25310,2,0,P|452:252|429:249,1,32.99999899292
387,187,25626,2,0,P|403:183|418:178,1,32.99999899292
501,58,25942,6,0,B|436:48|457:88|376:72,1,123.750004720688,0|0,1:0|0:0,0:0:0:0:
322,29,26257,1,0,1:0:0:0:
322,29,26415,1,0,0:0:0:0:
225,148,26573,2,0,P|239:186|264:219,1,82.5000031471254,0|0,1:0|0:0,0:0:0:0:
111,33,26889,2,0,P|100:46|87:67,1,41.2500015735627,0|0,1:0|0:0,0:0:0:0:
30,121,27047,2,0,P|29:138|33:162,1,41.2500015735627
79,225,27205,6,0,L|161:211,1,82.5000031471254,0|0,1:0|0:0,0:0:0:0:
261,347,27521,2,0,L|179:333,1,82.5000031471254,0|0,1:0|0:0,0:0:0:0:
326,183,27836,2,0,P|357:224|359:305,1,123.750004720688,0|0,1:0|0:0,0:0:0:0:
457,352,28152,1,0,1:0:0:0:
455,342,28230,1,0,0:0:0:0:
454,333,28309,1,0,0:0:0:0:
453,323,28388,1,0,0:0:0:0:
451,314,28468,6,0,L|469:208,1,98.9999969787599,0|0,1:0|0:0,0:0:0:0:
362,66,28784,2,0,L|371:118,1,49.4999984893799,0|0,1:0|0:0,0:0:0:0:
375,55,28942,2,0,L|383:103,1,49.4999984893799
250,312,29100,2,0,L|275:160,1,148.49999546814,0|0,1:0|0:0,0:0:0:0:
169,112,29415,2,0,L|187:218,1,98.9999969787599,0|0,1:0|0:0,0:0:0:0:
36,330,29731,5,0,1:0:0:0:
166,295,29889,1,0,0:0:0:0:
31,63,30047,5,0,1:0:0:0:
16,161,30205,1,0,0:0:0:0:
1,259,30363,2,0,P|28:257|51:252,1,49.4999984893799,0|0,1:0|0:0,0:0:0:0:
106,176,30521,2,0,P|133:178|156:183,1,49.4999984893799
292,90,30679,1,0,1:0:0:0:
259,83,30757,1,0,0:0:0:0:
227,89,30836,1,0,0:0:0:0:
199,106,30915,1,0,0:0:0:0:
180,133,30994,6,2,L|195:287,1,148.49999546814,0|0,1:0|0:0,0:1:0:0:
205,290,31310,6,0,L|199:355,1,55,0|0,1:0|0:0,0:0:0:0:
412,157,31626,6,2,P|346:165|322:280,1,197.99999395752,2|0,1:0|0:0,0:1:0:0:
322,296,31942,6,0,P|341:318|365:330,1,55,0|0,1:0|0:0,0:0:0:0:
498,184,32257,5,0,1:0:0:0:
226,39,32415,1,0,1:0:0:0:
485,90,32573,1,0,1:0:0:0:
225,176,32731,1,0,1:0:0:0:
368,55,32889,1,2,1:0:0:0:
323,309,33047,1,0,1:0:0:0:
134,76,33205,1,0,1:0:0:0:
175,266,33363,1,0,1:0:0:0:
50,381,33521,5,0,1:0:0:0:
76,341,33599,1,0,1:0:0:0:
91,293,33678,1,0,1:0:0:0:
87,246,33757,1,0,1:0:0:0:
70,200,33836,6,0,B|53:204|53:204|49:208|49:208|26:212,6,41.2500015735627,0|0|0|0|0|0|0,1:0|0:0|1:0|0:0|1:0|0:0|1:0,1:1:0:0:
152,106,34152,6,2,B|152:90|152:90|143:75,6,32.99999899292,2|0|0|0|0|0|0,1:0|0:0|1:0|0:0|1:0|0:0|1:0,1:0:0:0:
221,169,34468,6,0,L|249:172,6,24.74999924469
327,104,34784,6,0,L|329:121,7,13.75
403,125,35100,2,0,L|401:142,6,13.75
349,194,35415,5,0,1:0:0:0:
349,194,35573,2,0,B|339:222|339:222|342:227|342:227|345:254|345:254|348:259|348:259|353:301,1,110
47,352,36047,6,0,P|63:343|102:334,1,49.4999984893799,14|0,1:0|0:0,0:0:0:0:
217,307,36363,6,0,P|138:337|174:185,1,330
339,346,36679,6,0,B|327:311|327:311|333:274,1,71.4999967269899,8|0,1:2|0:0,0:0:0:0:
411,269,36836,2,0,B|422:303|422:303|416:340,1,71.4999967269899
222,130,36994,5,0,0:0:0:0:
269,202,37100,1,0,0:0:0:0:
344,163,37205,1,0,0:0:0:0:
174,201,37310,6,0,B|115:194|130:233|63:227,1,110,8|0,1:0|0:0,0:0:0:0:
57,220,37547,1,8,1:0:0:0:
46,211,37626,2,0,B|39:183|39:183|42:157,1,55
142,57,37784,2,0,B|145:83|145:83|138:111,1,55,8|0,1:0|1:0,1:0:0:0:
29,32,37942,6,0,L|147:48,1,110,8|0,1:2|0:0,0:0:0:0:
221,89,38257,6,0,L|277:85,1,49.4999984893799,0|0,3:0|0:0,0:0:0:0:
475,12,38573,6,0,P|436:59|417:163,1,165.000006294251,14|0,1:0|0:0,0:0:0:0:
468,345,38810,2,0,P|446:287|366:219,1,165.000006294251,2|0,1:0|1:0,0:0:0:0:
230,295,39047,2,0,P|273:286|313:262,1,82.5000031471254,2|0,1:0|0:0,0:0:0:0:
167,138,39205,6,0,B|192:133|192:133|218:141,1,49.4999984893799,8|0,1:2|0:0,0:0:0:0:
232,146,39521,5,0,3:0:0:0:
249,59,39626,1,0,3:0:0:0:
319,117,39732,1,0,3:0:0:0:
180,91,39837,5,8,1:0:0:0:
322,41,39942,1,0,3:0:0:0:
295,190,40047,1,0,3:0:0:0:
76,141,40152,6,0,B|83:222|83:222|87:227|87:227|93:307,1,165,0|0,1:0|0:0,0:0:0:0:
172,328,40468,5,8,1:2:0:0:
219,259,40573,1,0,3:0:0:0:
166,196,40678,1,0,3:0:0:0:
164,344,40784,6,0,L|257:333,1,82.5000031471254,8|0,1:0|0:0,0:0:0:0:
407,185,41100,6,0,L|400:238,1,49.4999984893799,14|0,1:0|0:0,0:0:0:0:
442,354,41415,6,0,B|418:217|418:217|428:195|428:195|402:31,1,330
239,202,41731,6,0,B|204:207|204:207|172:189,1,71.4999967269899,8|0,1:2|0:0,0:0:0:0:
319,84,41889,2,0,B|324:119|324:119|306:151,1,71.4999967269899
52,65,42047,5,0,0:0:0:0:
136,33,42152,1,0,0:0:0:0:
197,98,42257,1,0,0:0:0:0:
63,142,42363,5,8,1:0:0:0:
63,142,42442,2,0,L|77:260,1,110,0|8,0:0|1:0,0:0:0:0:
134,352,42679,2,0,B|145:323|145:323|141:293,1,55,2|0,0:0|0:0,0:0:0:0:
218,309,42836,2,0,B|221:332|221:332|210:361,1,55,0|0,1:0|1:0,0:0:0:0:
283,174,42994,6,0,L|303:288,1,110,10|8,1:2|0:1,0:0:0:0:
379,101,43310,6,0,L|369:158,1,49.4999984893799,2|0,0:0|0:0,0:0:0:0:
191,81,43626,6,2,P|226:25|315:58,1,165,12|0,1:0|0:0,0:1:0:0:
307,66,43942,1,2,0:1:0:0:
412,12,44100,1,10,0:1:0:0:
271,193,44257,2,2,L|156:176,1,110,8|2,0:0|0:1,0:1:0:0:
43,55,44573,2,2,P|72:120|79:215,1,165,8|0,0:1|0:0,0:1:0:0:
0,292,44889,5,8,1:0:0:0:
0,292,44968,2,0,L|55:286,1,55,0|2,0:0|0:0,0:0:0:0:
158,356,45126,2,0,L|103:350,2,55,0|0|0,1:0|0:0|0:0,0:0:0:0:
289,247,45363,1,8,1:0:0:0:
256,204,45441,1,0,1:0:0:0:
203,198,45521,6,0,P|196:217|192:246,1,41.2500015735627,10|0,1:2|0:0,0:1:0:0:
175,211,45679,2,0,P|178:230|189:258,1,41.2500015735627,0|0,0:1|0:0,0:0:0:0:
74,83,45836,1,0,0:1:0:0:
102,71,45914,1,0,0:0:0:0:
132,72,45993,1,0,0:0:0:0:
160,84,46072,1,0,0:0:0:0:
181,106,46152,6,0,P|199:115|236:119,1,49.4999984893799,14|0,1:0|0:0,0:0:0:0:
318,23,46468,6,0,B|272:32|253:68|253:68|257:111|257:111|248:139|248:139|278:203|278:203|270:240|270:240|279:327,1,330
234,379,46784,6,0,L|246:252,1,123.750004720688,8|0,1:2|0:0,0:0:0:0:
59,144,47100,5,0,0:0:0:0:
68,226,47205,1,0,0:0:0:0:
78,309,47310,1,0,0:0:0:0:
153,74,47415,6,0,P|157:141|234:117,1,165,8|8,1:0|0:1,0:0:0:0:
224,46,47731,2,0,L|282:40,1,55
368,151,47889,2,0,L|310:157,1,55,8|0,1:0|1:0,0:0:0:0:
419,44,48047,6,0,P|433:59|444:75,1,32.99999899292,8|0,1:2|0:0,0:0:0:0:
509,119,48205,2,0,P|503:138|494:156,1,32.99999899292
454,245,48363,6,0,L|419:240,1,33,8|0,0:1|0:0,0:0:0:0:
239,301,48679,6,0,P|257:258|260:217,1,82.5000031471254,14|0,1:0|0:0,0:0:0:0:
154,98,48836,1,0,0:0:0:0:
154,98,48915,2,2,P|172:141|175:182,1,82.5000031471254,8|0,1:0|0:0,0:1:0:0:
64,339,49073,1,0,0:0:0:0:
64,339,49152,2,0,P|82:296|85:255,1,82.5000031471254,2|0,1:0|0:0,0:0:0:0:
23,47,49310,6,0,B|15:69|15:69|16:98,1,49.4999984893799,8|0,1:2|0:0,0:0:0:0:
33,114,49626,5,0,3:0:0:0:
112,103,49731,1,0,3:0:0:0:
192,92,49836,1,0,3:0:0:0:
269,200,49942,5,8,1:0:0:0:
177,186,50047,1,0,0:0:0:0:
86,174,50152,1,0,0:0:0:0:
53,333,50257,6,0,B|37:295|37:295|42:254,1,82.5000031471254,8|0,0:1|0:0,0:0:0:0:
123,243,50415,2,0,B|138:280|138:280|133:321,1,82.5000031471254
347,347,50573,5,8,1:2:0:0:
293,282,50679,1,0,0:0:0:0:
215,321,50784,1,0,0:0:0:0:
364,344,50889,6,0,L|451:331,1,82.5000031471254
419,52,51205,6,0,B|338:104|316:233|376:312|510:279|481:186|460:150,1,385,12|0,1:0|0:0,0:0:0:0:
470,138,51836,2,0,L|505:146,6,27.5
357,81,52152,6,0,B|321:85|321:85|316:89|316:89|277:94,1,82.5000031471254,8|0,0:1|0:0,0:0:0:0:
219,152,52310,2,0,B|183:148|183:148|178:144|178:144|139:139,1,82.5000031471254
98,58,52468,6,0,L|118:225,1,165.000006294251,12|0,1:0|0:0,0:0:0:0:
94,328,52705,2,0,L|74:164,1,165.000006294251,8|0,1:0|0:0,0:0:0:0:
276,231,52942,1,8,0:1:0:0:
263,302,53020,1,0,0:0:0:0:
250,373,53099,1,8,1:2:0:0:
250,373,53415,6,0,L|264:372,1,11,2|0,0:0|0:0,0:0:0:0:
510,278,53731,6,2,B|417:263|452:330|348:309,1,165,4|0,1:0|0:0,0:1:0:0:
341,298,54047,1,2,0:1:0:0:
368,175,54205,1,10,0:1:0:0:
224,237,54363,2,2,L|240:359,1,110,8|2,1:2|0:1,0:1:0:0:
81,106,54679,2,2,P|110:150|121:266,1,165,8|0,1:0|0:0,0:1:0:0:
28,299,54994,5,8,1:0:0:0:
28,299,55073,2,0,L|39:364,1,55,0|2,0:0|0:0,0:0:0:0:
168,330,55231,2,0,L|103:341,2,55,8|0|0,0:1|0:0|0:0,0:0:0:0:
255,320,55468,1,8,1:0:0:0:
255,320,55547,1,0,1:0:0:0:
255,320,55626,6,0,P|245:342|238:371,1,55,8|0,1:2|0:0,0:1:0:0:
343,206,55784,2,0,P|353:228|360:257,1,55,2|0,0:0|0:0,0:0:0:0:
111,171,55942,6,0,P|133:181|162:188,1,55,2|0,0:0|0:0,0:0:0:0:
341,58,56100,2,0,P|314:64|289:75,1,55
478,226,56257,6,2,B|420:215|420:215|378:262|378:262|401:324|401:324|468:336,1,247.500009441376,14|0,1:0|0:0,0:1:0:0:
292,142,56889,6,0,B|304:176|304:176|295:212,1,71.4999967269899,8|0,1:2|0:0,0:0:0:0:
234,260,57047,2,0,B|222:294|222:294|231:330,1,71.4999967269899
112,137,57205,5,0,0:0:0:0:
220,184,57310,1,0,0:0:0:0:
131,261,57415,1,0,0:0:0:0:
28,218,57521,5,10,1:0:0:0:
28,218,57600,2,0,P|42:245|42:327,1,110,0|8,0:0|1:0,0:0:0:0:
37,339,57836,2,0,L|92:328,1,55
159,324,57994,2,8,L|104:313,1,55,8|8,0:1|0:1,0:1:0:0:
230,344,58152,2,0,L|345:326,1,110,8|0,1:2|0:0,0:0:0:0:
338,326,58468,6,0,P|338:296|386:346,1,165
389,153,58784,6,0,B|354:184|354:184|301:179|301:179|275:184|275:184|251:173|251:173|181:166,1,220,6|0,1:0|0:0,0:0:0:0:
95,39,59021,2,2,B|133:71|133:71|122:121|122:121|116:126|116:126|104:180|104:180|107:187|107:187|96:240,1,220,8|0,1:0|0:0,0:1:0:0:
191,335,59257,2,0,B|198:280|198:280|253:286,1,110,10|0,0:1|0:0,0:0:0:0:
508,247,59415,6,0,L|456:255,1,49.4999984893799,8|0,1:2|0:0,0:0:0:0:
443,257,59731,5,0,3:0:0:0:
381,196,59836,1,0,3:0:0:0:
354,348,59942,1,0,3:0:0:0:
305,185,60047,5,8,1:0:0:0:
367,271,60152,1,0,0:0:0:0:
395,106,60257,1,0,0:0:0:0:
126,278,60363,6,0,B|199:268|199:268|218:272|218:272|297:260,1,165,8|0,0:1|0:0,0:0:0:0:
301,273,60679,5,8,1:2:0:0:
180,194,60784,1,0,0:0:0:0:
176,346,60889,1,0,0:0:0:0:
35,189,60994,6,0,P|53:219|60:243,1,49.4999984893799,2|0,0:0|0:0,0:0:0:0:
158,42,61310,6,2,B|154:82|114:113|114:113|219:66|278:105|278:105|329:142|437:145|416:17|319:37,1,495.000018882752,12|0,1:0|0:0,0:1:0:0:
246,306,61942,6,0,B|256:272|256:272|247:235,1,71.4999967269899,8|0,1:2|0:0,0:0:0:0:
172,236,62100,2,0,B|162:270|162:270|171:307,1,71.4999967269899
416,204,62257,5,0,0:0:0:0:
332,277,62363,1,0,0:0:0:0:
406,360,62468,1,0,0:0:0:0:
211,372,62573,5,8,1:0:0:0:
211,372,62652,2,0,P|256:357|329:365,1,110,0|8,0:0|0:1,0:0:0:0:
335,367,62889,2,0,L|326:306,1,55
340,241,63047,2,0,L|331:302,1,55,0|0,1:0|1:0,0:0:0:0:
230,131,63205,6,0,L|247:250,1,110,8|0,1:2|0:0,1:0:0:0:
407,40,63521,6,0,L|396:108,1,66,2|0,0:0|0:0,0:0:0:0:
409,122,63836,6,2,P|343:91|319:161,1,165,12|0,1:0|0:0,0:1:0:0:
333,168,64152,2,0,P|352:200|370:274,1,110,2|10,0:1|0:1,0:0:0:0:
249,343,64468,1,8,1:2:0:0:
268,239,64626,1,2,0:1:0:0:
56,300,64784,2,2,B|99:283|109:241|109:241|132:278|178:284,1,165,8|0,0:1|0:0,0:1:0:0:
183,204,65100,5,8,1:0:0:0:
183,204,65179,2,0,L|175:144,1,55
256,59,65336,2,0,L|248:119,2,55,8|0|0,0:1|0:0|0:0,0:0:0:0:
309,178,65573,1,8,0:1:0:0:
309,178,65652,1,8,0:1:0:0:
309,178,65731,5,8,1:2:0:0:
327,159,65809,1,0,0:0:0:0:
351,148,65888,1,0,0:0:0:0:
377,147,65967,1,0,0:0:0:0:
402,154,66047,1,0,0:0:0:0:
387,185,66125,1,0,0:0:0:0:
327,216,66204,1,0,0:0:0:0:
256,205,66283,1,0,0:0:0:0:
208,148,66363,6,0,P|215:178|217:215,1,65.9999979858399,6|0,0:0|0:0,0:0:0:0:
161,266,66836,1,2,0:0:0:0:
161,266,66994,2,0,P|142:263|116:261,1,32.99999899292
78,204,67310,2,0,P|61:205|45:208,1,32.99999899292
71,345,67626,6,0,L|138:338,1,65.9999979858399,2|0,0:0|0:0,0:0:0:0:
146,331,68100,2,0,L|211:337,1,65.9999979858399,2|0,0:0|0:0,0:0:0:0:
282,312,68494,1,0,0:0:0:0:
282,312,68573,2,0,L|286:335,3,16.49999949646,2|2|0|0,0:0|0:0|0:0|0:0,0:0:0:0:
329,255,68889,6,0,P|361:259|392:272,1,65.9999979858399,2|0,0:0|0:0,0:0:0:0:
467,292,69363,1,2,0:0:0:0:
467,292,69521,2,0,L|462:254,1,32.99999899292
415,203,69836,2,0,L|420:165,1,32.99999899292
491,138,70152,6,0,L|422:145,1,65.9999979858399,2|0,0:0|0:0,0:0:0:0:
344,73,70626,2,0,P|363:74|385:80,2,32.99999899292,2|0|0,0:0|0:0|0:0,0:0:0:0:
280,121,71100,2,0,P|261:120|239:114,1,32.99999899292,2|0,0:0|0:0,0:0:0:0:
188,46,71415,6,0,P|217:90|224:156,1,110,2|0,0:0|0:0,0:0:0:0:
112,198,71889,1,2,0:0:0:0:
77,136,72047,2,0,P|82:117|101:84,1,55
182,215,72363,2,0,L|110:208,1,55,2|0,0:0|0:0,0:0:0:0:
17,329,72679,6,0,L|139:311,1,110,2|0,0:0|0:0,0:0:0:0:
264,357,73152,1,2,0:0:0:0:
188,346,73310,1,0,0:0:0:0:
298,229,73468,1,0,0:0:0:0:
343,324,73626,1,2,0:0:0:0:
203,248,73784,1,0,0:0:0:0:
500,236,73942,6,0,B|442:227|461:276|371:260,1,123.750004720688,2|0,0:0|0:0,0:0:0:0:
370,249,74257,1,0,0:0:0:0:
387,97,74415,2,0,P|409:143|415:182,1,82.5000031471254,2|0,0:0|0:0,0:0:0:0:
209,253,74731,1,0,0:0:0:0:
318,29,74889,2,0,B|307:109|307:109|301:113|301:113|291:198,1,165,2|0,0:0|0:0,0:0:0:0:
292,190,75205,6,0,P|251:173|186:169,1,110,2|0,1:2|0:0,0:0:0:0:
287,328,75521,2,0,P|283:265|371:139,1,220,8|0,0:0|1:0,0:0:0:0:
365,322,75994,1,0,0:0:0:0:
195,271,76152,1,10,0:0:0:0:
218,375,76310,1,0,0:0:0:0:
75,145,76468,5,12,1:0:0:0:
75,145,76626,2,0,B|83:206|83:206|86:208|86:208|94:275,2,121.000003692627,0|8|0,0:0|0:0|0:0,0:0:0:0:
256,19,77100,2,0,P|223:54|227:124,1,121.000003692627,0|8,0:0|1:0,0:0:0:0:
504,132,77415,2,0,P|479:124|443:121,1,60.5000018463135,8|0,0:0|0:0,0:0:0:0:
349,293,77573,1,0,0:0:0:0:
344,282,77652,1,0,0:0:0:0:
339,271,77731,6,0,B|492:242|492:242|527:278|507:327,1,242.000007385254,8|8,1:0|0:0,0:0:0:0:
328,373,78205,1,0,0:0:0:0:
217,193,78363,2,0,P|240:251|237:322,1,121.000003692627,0|8,0:0|1:0,0:0:0:0:
26,227,78679,1,10,0:0:0:0:
49,199,78757,1,0,0:0:0:0:
83,188,78836,1,0,0:0:0:0:
119,195,78915,1,2,0:0:0:0:
147,218,78994,6,0,P|193:177|111:120,1,181.500005538941,8|0,1:0|0:0,0:0:0:0:
108,106,79310,2,0,P|151:96|213:158,1,121.000003692627,8|0,0:0|0:0,0:0:0:0:
296,28,79626,1,0,0:0:0:0:
273,184,79784,1,8,1:0:0:0:
439,125,79942,2,0,P|414:115|370:113,1,60.5000018463135,8|0,0:0|0:0,0:0:0:0:
493,281,80100,1,0,0:0:0:0:
496,268,80179,1,0,0:0:0:0:
499,255,80257,6,0,B|490:216|460:198|460:198|371:227|398:350,1,242.000007385254,8|8,1:0|0:0,0:0:0:0:
267,179,80731,2,0,P|282:203|292:240,1,60.5000018463135
153,348,80889,2,0,P|195:351|262:307,1,121.000003692627,0|8,0:0|1:0,0:0:0:0:
213,76,81205,1,8,0:0:0:0:
236,108,81283,1,0,0:0:0:0:
241,148,81362,1,8,0:1:0:0:
227,184,81441,1,0,0:0:0:0:
198,209,81521,6,0,L|108:192,1,88,8|0,1:0|0:0,0:0:0:0:
365,32,81836,2,0,L|275:49,1,88,8|0,1:2|0:0,0:0:0:0:
468,238,82152,2,0,P|482:196|474:147,1,88,8|8,1:0|0:1,0:0:0:0:
309,353,82468,2,0,P|306:328|301:307,1,44,8|0,1:2|0:0,0:0:0:0:
160,185,82626,1,8,0:1:0:0:
157,203,82705,1,0,0:0:0:0:
154,220,82784,6,0,P|187:206|224:201,1,65.9999979858399,8|0,1:0|0:0,0:0:0:0:
374,135,83100,2,0,P|328:146|271:125,1,98.9999969787599,8|0,1:2|0:0,0:0:0:0:
112,63,83415,2,0,L|152:70,1,32.99999899292,8|0,1:0|0:0,0:0:0:0:
247,50,83573,2,0,L|214:44,1,32.99999899292,8|0,0:1|0:0,0:0:0:0:
90,178,83731,2,0,L|97:138,1,32.99999899292,10|2,0:0|0:0,0:0:0:0:
228,274,83889,1,8,0:1:0:0:
223,259,83968,1,0,0:0:0:0:
219,245,84047,6,0,B|160:251|160:251|155:258|155:258|83:266,1,132,8|0,1:0|0:0,0:0:0:0:
77,268,84363,2,0,P|56:308|56:352,1,88,8|0,1:2|0:0,0:0:0:0:
289,289,84679,1,8,1:0:0:0:
170,158,84836,1,8,0:1:0:0:
170,337,84994,1,8,1:2:0:0:
302,183,85152,1,8,0:1:0:0:
227,13,85310,6,0,L|242:133,1,121.000003692627,8|0,1:0|0:0,0:0:0:0:
470,96,85626,2,0,L|455:216,1,121.000003692627,8|0,1:2|0:0,0:0:0:0:
162,275,85942,2,0,P|222:247|323:303,1,181.500005538941,8|0,1:0|0:0,0:0:0:0:
414,272,86257,1,10,1:2:0:0:
394,292,86335,1,0,0:0:0:0:
387,320,86414,1,8,0:1:0:0:
397,347,86493,1,2,0:0:0:0:
419,366,86573,6,2,B|329:342|336:387|228:361,1,181.500005538941,12|0,1:0|0:0,0:1:0:0:
256,150,86889,2,0,P|287:150|313:164,1,60.5000018463135,8|0,1:2|0:0,0:0:0:0:
258,144,87047,2,0,P|342:205|253:279,1,242.000007385254,2|0,1:0|0:0,0:0:0:0:
65,336,87521,2,2,P|57:272|91:216,1,121.000003692627,8|0,1:2|0:0,0:1:0:0:
226,66,87836,2,0,P|200:49|171:40,1,60.5000018463135,8|0,1:0|0:0,0:0:0:0:
228,60,87994,6,0,B|196:34|160:33|160:33|189:219,1,242.000007385254,2|0,0:1|0:0,0:0:0:0:
439,141,88468,2,2,L|421:274,1,121.000003692627,8|0,1:0|0:0,0:1:0:0:
163,333,88784,2,0,P|162:291|150:267,1,60.5000018463135,8|0,0:0|0:0,0:0:0:0:
156,334,88942,6,0,P|147:275|35:274,1,181.500005538941,2|0,0:1|0:0,0:0:0:0:
40,280,89257,6,2,B|101:272|101:272|110:277|110:277|182:266,1,131.99999597168,0|8,0:1|1:2,0:1:0:0:
181,253,89494,6,2,B|242:261|242:261|251:256|251:256|323:267,1,131.99999597168,2|0,0:1|0:0,0:1:0:0:
367,214,89731,6,2,P|323:259|331:342,1,142.99999345398,8|0,1:0|0:0,0:1:0:0:
447,229,89968,6,2,P|446:178|431:149,2,76.9999976501466,2|8|0,0:1|1:2|0:0,0:1:0:0:
479,379,90205,6,2,B|477:337|477:337|493:299,1,82.5000031471254,0|0,0:1|0:1,0:1:0:0:
361,114,90363,5,12,1:0:0:0:
361,114,90521,2,0,L|326:119,1,22,0|0,0:1|0:1,0:1:0:0:
282,169,90679,2,0,L|247:164,1,22,0|0,0:1|0:1,0:0:0:0:
206,113,90836,2,0,L|171:118,1,22,0|0,0:1|0:1,0:0:0:0:
63,90,90994,6,0,B|91:86|91:86|125:127|101:191,1,132,4|2,0:0|0:3,0:0:0:0:
40,361,91626,6,0,P|62:291|227:338,1,280.500005350113,12|0,1:0|0:0,0:0:0:0:
132,344,91942,2,0,P|239:275|316:377,1,280.500005350113,8|0,0:0|0:0,0:0:0:0:
287,126,92257,6,0,B|278:168|278:168|292:207,1,82.5000031471254,8|0,1:0|0:0,0:0:0:0:
422,202,92415,2,0,B|431:160|431:160|417:121,1,82.5000031471254,2|0,0:3|0:0,0:0:0:0:
346,27,92573,5,8,0:0:0:0:
353,164,92679,1,2,0:3:0:0:
209,122,92784,1,2,0:3:0:0:
258,269,92889,6,0,B|256:240|271:217|271:217|204:177|136:227,1,197.99999395752,8|0,1:0|0:0,0:0:0:0:
114,296,93205,2,0,L|119:339,2,32.99999899292,8|0|0,0:0|0:0|0:0,0:0:0:0:
44,128,93363,2,0,L|49:85,2,32.99999899292
15,336,93521,6,0,B|33:304|33:304|1:198,1,131.99999597168,8|8,1:0|0:1,0:0:0:0:
193,58,93757,1,8,0:1:0:0:
129,100,93836,6,0,B|118:124|118:124|119:158,1,49.4999984893799,8|0,0:0|0:0,0:0:0:0:
268,65,93994,2,0,B|268:41|268:41|257:17,1,49.4999984893799,8|8,0:1|0:1,0:0:0:0:
290,186,94152,6,8,B|416:162|360:254|518:217,1,220,4|2,1:0|0:3,0:0:0:0:
452,144,94389,1,0,0:0:0:0:
499,235,94468,6,0,P|446:240|382:220,1,110,8|0,0:0|0:3,0:0:0:0:
216,296,94626,2,0,P|268:281|323:286,1,110,2|0,0:3|0:0,0:0:0:0:
478,354,94784,6,0,P|445:319|417:378,1,123.750004720688,8|0,1:0|0:0,0:0:0:0:
209,315,95100,5,8,0:0:0:0:
237,244,95205,1,2,0:3:0:0:
294,294,95310,1,2,0:3:0:0:
111,128,95415,5,8,1:0:0:0:
154,238,95520,1,2,0:3:0:0:
243,160,95625,1,0,0:0:0:0:
76,313,95731,6,0,B|77:277|56:253|56:253|29:265|7:295,1,123.750004720688,8|0,0:0|0:0,0:0:0:0:
116,113,96047,5,8,1:0:0:0:
194,101,96152,1,2,0:3:0:0:
272,90,96257,1,2,0:3:0:0:
380,210,96363,6,0,L|319:195,1,55,8|0,0:0|0:0,0:0:0:0:
199,260,96521,2,0,L|260:245,1,55,8|8,0:1|0:1,0:0:0:0:
441,300,96679,6,0,B|407:329|359:309|359:309|356:216|454:193|500:244,1,280.500005350113,12|2,1:0|0:3,0:0:0:0:
345,79,96994,2,0,B|353:115|386:134|386:134|309:127|309:127|302:130|302:130|172:118,1,280.500005350113,8|0,0:0|0:0,0:0:0:0:
65,298,97310,6,0,B|48:260|48:260|58:217,1,82.5000031471254,8|0,1:0|0:0,0:0:0:0:
178,277,97468,2,0,B|187:316|187:316|170:354,1,82.5000031471254,2|0,0:3|0:0,0:0:0:0:
33,124,97626,5,8,0:0:0:0:
154,199,97731,1,2,0:3:0:0:
240,87,97836,1,2,0:3:0:0:
345,233,97942,6,0,B|381:246|432:217|349:113|280:169|267:224,1,197.99999395752,8|0,1:0|0:0,0:0:0:0:
257,279,98257,2,0,L|262:313,2,32.99999899292,8|0|0,0:0|0:0|0:0,0:0:0:0:
106,147,98415,2,0,L|111:113,2,32.99999899292
2,248,98573,6,0,B|39:225|39:225|132:239,1,131.99999597168,8|8,1:0|0:1,0:0:0:0:
261,114,98810,1,8,0:1:0:0:
197,81,98889,6,0,B|188:105|188:105|190:135,1,49.4999984893799,8|0,0:0|0:0,0:0:0:0:
336,58,99047,2,0,B|337:34|337:34|328:10,1,49.4999984893799,8|8,0:1|0:1,0:0:0:0:
328,188,99205,6,0,P|356:136|483:173,1,214.49999018097,12|2,1:0|0:3,0:0:0:0:
432,264,99521,2,0,P|415:238|411:189,1,71.4999967269899,2|0,1:2|0:0,0:0:0:0:
189,345,99679,2,0,B|209:317|248:306|248:306|392:325,1,214.49999018097,2|0,0:3|0:0,0:0:0:0:
395,342,99994,2,0,L|324:332,1,71.4999967269899,2|0,0:3|0:0,0:0:0:0:
160,59,100152,5,2,1:2:0:0:
217,181,100310,2,0,P|225:138|216:104,1,71.4999967269899,2|0,0:3|0:0,0:0:0:0:
11,233,100468,2,0,P|21:170|163:155,1,214.49999018097,8|0,1:0|0:0,0:0:0:0:
106,270,100784,2,0,P|92:228|99:192,1,71.4999967269899,8|0,1:2|0:0,0:0:0:0:
241,307,100942,2,0,P|199:321|163:314,1,71.4999967269899,2|0,0:0|0:0,0:0:0:0:
283,206,101100,5,0,1:0:0:0:
299,194,101178,1,0,0:0:0:0:
322,191,101257,1,2,0:0:0:0:
355,199,101336,1,0,1:0:0:0:
383,218,101415,1,8,1:2:0:0:
421,228,101494,1,0,0:0:0:0:
478,203,101573,1,2,0:0:0:0:
503,138,101652,1,2,0:0:0:0:
467,73,101731,6,2,B|414:51|370:83|370:83|365:80|365:80|316:118|264:96,1,214.49999018097,12|0,1:1|0:1,0:1:0:0:
96,33,102047,2,0,P|116:59|130:97,1,71.4999967269899,8|0,1:2|0:0,0:0:0:0:
30,330,102205,1,2,0:1:0:0:
14,277,102284,1,0,0:1:0:0:
34,224,102363,2,0,L|181:247,1,142.99999345398,8|0,1:0|0:0,0:0:0:0:
469,107,102679,2,0,L|395:116,1,71.4999967269899,8|0,1:2|0:0,0:0:0:0:
418,265,102836,2,0,L|492:256,1,71.4999967269899
249,340,102994,6,2,B|270:360|296:359|296:359|315:270|247:210,1,214.49999018097,8|0,1:0|0:0,0:1:0:0:
324,86,103310,2,0,P|305:118|299:158,1,71.4999967269899,8|0,1:2|0:0,0:0:0:0:
159,283,103468,1,2,0:1:0:0:
182,231,103547,1,0,0:0:0:0:
171,175,103626,2,0,L|96:189,1,71.4999967269899,8|0,1:0|0:0,0:0:0:0:
252,46,103784,1,0,0:0:0:0:
227,41,103862,1,8,0:1:0:0:
202,36,103942,1,8,1:2:0:0:
247,89,104020,1,0,0:0:0:0:
315,109,104099,1,8,0:1:0:0:
382,87,104178,1,0,0:0:0:0:
426,32,104257,6,2,B|401:148|475:112|455:239,1,214.49999018097,8|0,1:0|0:0,0:1:0:0:
346,294,104573,2,0,P|336:256|342:218,1,71.4999967269899,8|0,1:2|0:0,0:0:0:0:
512,374,104731,1,2,0:1:0:0:
475,331,104810,1,0,0:0:0:0:
417,330,104889,2,0,L|262:347,1,142.99999345398,8|8,1:0|0:1,0:0:0:0:
127,215,105126,1,8,0:1:0:0:
180,160,105205,2,0,P|198:192|203:230,1,71.4999967269899,8|0,1:2|0:0,0:0:0:0:
426,130,105363,1,0,0:0:0:0:
367,83,105442,1,0,0:0:0:0:
302,122,105521,6,2,B|276:144|236:141|236:141|88:119,1,214.49999018097,8|0,1:0|0:0,0:1:0:0:
256,0,105836,2,0,P|260:38|247:67,1,71.4999967269899,8|0,1:2|0:0,0:0:0:0:
370,211,105994,2,0,P|366:173|379:144,1,71.4999967269899,2|0,0:1|0:0,0:0:0:0:
500,262,106152,1,8,1:0:0:0:
441,308,106231,2,0,L|367:289,1,71.4999967269899,8|0,0:1|0:0,0:0:0:0:
224,252,106389,1,8,1:0:0:0:
270,311,106468,2,2,L|251:385,1,71.4999967269899,8|0,1:2|0:1,0:1:0:0:
141,145,106626,2,0,L|160:219,1,71.4999967269899,8|0,0:1|0:0,0:0:0:0:
9,313,106784,6,2,B|23:351|61:362|61:362|82:213,1,214.49999018097,8|0,1:0|0:0,0:1:0:0:
25,86,107100,2,0,P|7:115|1:155,1,71.4999967269899,8|0,1:2|0:0,0:0:0:0:
245,182,107257,1,2,0:1:0:0:
266,126,107336,1,0,0:0:0:0:
246,70,107415,2,0,P|186:38|106:43,1,142.99999345398,8|0,1:0|0:0,0:0:0:0:
175,298,107731,2,0,L|158:228,1,71.4999967269899,8|0,1:2|0:0,0:0:0:0:
321,184,107889,2,0,L|304:254,1,71.4999967269899
425,368,108047,6,2,B|396:249|497:303|466:157,1,214.49999018097,8|0,1:0|0:0,0:1:0:0:
391,51,108363,2,0,P|375:80|372:126,1,71.4999967269899,8|0,1:2|0:0,0:0:0:0:
152,317,108521,1,2,0:1:0:0:
195,363,108600,1,0,0:0:0:0:
256,367,108679,2,0,L|247:295,1,71.4999967269899,8|0,1:0|0:0,0:0:0:0:
65,186,108836,1,0,0:0:0:0:
89,191,108914,1,8,0:1:0:0:
113,195,108994,1,8,1:2:0:0:
150,136,109072,1,0,0:0:0:0:
131,70,109151,1,8,0:1:0:0:
67,41,109230,1,0,0:0:0:0:
5,71,109310,6,2,B|117:61|117:61|145:78|145:78|216:70,1,214.49999018097,8|0,1:0|0:0,0:1:0:0:
380,31,109626,2,0,P|351:18|310:14,1,71.4999967269899,8|0,1:2|0:0,0:0:0:0:
367,183,109784,1,2,0:1:0:0:
423,150,109863,1,0,0:0:0:0:
486,168,109942,2,0,P|506:206|499:309,1,142.99999345398,8|8,1:0|0:1,0:0:0:0:
311,332,110179,1,8,0:1:0:0:
361,270,110257,2,0,P|382:297|394:335,1,71.4999967269899,8|0,1:2|0:0,0:0:0:0:
179,200,110415,1,8,0:1:0:0:
249,236,110494,1,8,0:1:0:0:
314,187,110573,6,2,B|296:42|296:42|267:105,1,214.49999018097,8|0,1:0|0:0,0:1:0:0:
141,21,110889,2,0,L|214:43,1,71.4999967269899,8|0,1:2|0:0,0:0:0:0:
47,137,111047,2,0,L|69:64,1,71.4999967269899,2|0,0:1|0:0,0:0:0:0:
163,231,111205,5,8,1:0:0:0:
146,226,111284,1,8,0:1:0:0:
130,221,111363,1,0,0:0:0:0:
113,216,111442,1,8,0:1:0:0:
97,211,111521,1,8,1:2:0:0:
64,260,111600,1,0,0:0:0:0:
99,327,111679,1,8,0:1:0:0:
179,332,111757,1,0,0:0:0:0:
234,256,111836,6,2,P|274:228|324:352,1,230.99999295044,12|0,1:0|0:0,0:1:0:0:
161,264,112152,2,0,P|167:223|193:189,1,76.9999976501466,8|0,1:2|0:0,0:0:0:0:
444,26,112310,1,2,0:1:0:0:
460,80,112388,1,0,0:0:0:0:
477,135,112468,2,0,B|367:106|384:182|238:141,1,230.99999295044,8|0,1:0|0:0,0:0:0:0:
296,1,112784,2,0,L|315:87,1,76.9999976501466,8|0,1:2|0:0,0:0:0:0:
95,149,112942,2,0,L|114:63,1,76.9999976501466
211,344,113100,6,2,B|246:312|246:312|202:260|119:269|87:322,1,230.99999295044,8|0,1:0|0:0,0:1:0:0:
188,207,113415,2,0,P|228:214|262:230,1,76.9999976501466,8|0,1:2|0:0,0:0:0:0:
483,339,113573,1,2,0:1:0:0:
429,355,113651,1,0,0:0:0:0:
374,372,113731,2,0,L|359:289,1,76.9999976501466,8|0,1:0|0:0,0:0:0:0:
438,178,113889,1,0,0:0:0:0:
436,200,113968,1,8,0:1:0:0:
434,222,114047,1,8,1:2:0:0:
390,163,114125,1,0,0:0:0:0:
328,129,114204,1,8,0:1:0:0:
256,125,114283,1,0,0:0:0:0:
190,152,114363,6,2,B|162:193|162:193|184:376,1,230.99999295044,8|0,1:0|0:0,0:1:0:0:
17,278,114679,2,0,P|55:267|93:270,1,76.9999976501466,8|0,1:2|0:0,0:0:0:0:
368,335,114836,1,2,0:1:0:0:
306,353,114915,1,0,0:0:0:0:
253,319,114994,2,0,L|287:81,1,230.99999295044,8|0,1:0|0:0,0:0:0:0:
144,12,115310,2,0,L|158:99,1,76.9999976501466,8|0,1:2|0:0,0:0:0:0:
294,168,115468,2,0,L|308:81,1,76.9999976501466
46,265,115626,6,2,B|51:223|31:190|31:190|189:223,1,230.99999295044,8|0,1:0|0:0,0:1:0:0:
102,364,115942,2,0,P|118:333|121:288,1,76.9999976501466,8|0,1:2|0:0,0:0:0:0:
299,298,116100,2,0,P|285:265|252:234,1,76.9999976501466,2|0,0:1|0:0,0:0:0:0:
98,97,116257,1,8,1:0:0:0:
162,140,116336,2,0,L|250:124,1,76.9999976501466,8|0,0:1|0:0,0:0:0:0:
421,29,116494,1,8,0:1:0:0:
357,72,116573,2,2,L|269:56,1,76.9999976501466,8|0,1:2|0:0,0:1:0:0:
432,184,116731,2,0,L|520:168,1,76.9999976501466,8|0,0:1|0:0,0:0:0:0:
311,367,116889,6,2,P|323:304|271:228,1,153.999995300293,12|8,1:0|0:1,0:1:0:0:
48,322,117205,2,0,P|86:329|130:317,1,76.9999976501466,8|0,1:1|0:0,0:0:0:0:
90,70,117363,2,2,P|83:108|95:152,1,76.9999976501466,10|0,0:1|0:0,0:1:0:0:
319,51,117521,2,0,L|164:30,1,153.999995300293,8|8,1:0|0:1,0:0:0:0:
311,366,117836,2,0,L|466:345,1,153.999995300293,8|8,1:0|0:1,0:0:0:0:
402,63,118073,1,0,0:0:0:0:
412,139,118152,6,2,L|424:215,1,76.9999976501466,12|0,1:0|0:0,0:1:0:0:
166,318,118310,2,0,L|178:242,1,76.9999976501466,8|0,0:1|0:0,0:0:0:0:
424,149,118468,6,0,L|436:225,1,76.9999976501466,0|0,1:0|0:0,0:0:0:0:
178,328,118626,2,0,L|190:252,1,76.9999976501466,10|0,0:1|0:0,0:0:0:0:
302,57,118784,2,0,L|314:133,1,76.9999976501466,8|0,1:0|0:0,0:0:0:0:
35,56,118942,5,8,0:1:0:0:
72,51,119020,1,0,0:0:0:0:
110,48,119100,1,10,1:1:0:0:
162,96,119178,1,0,0:0:0:0:
161,168,119257,1,8,0:1:0:0:
108,216,119336,1,0,0:0:0:0:
36,208,119415,6,8,L|27:154,3,55,12|8|8|8,1:1|0:1|0:1|0:1,0:1:0:0:
357,291,119731,1,8,1:1:0:0:
328,230,119809,1,8,0:1:0:0:
263,215,119888,1,8,0:1:0:0:
211,256,119967,1,8,0:1:0:0:
210,322,120047,6,8,L|221:380,3,55,12|8|8|8,1:1|0:1|0:1|0:1,0:1:0:0:
137,251,120363,1,8,1:1:0:0:
177,188,120441,1,8,0:1:0:0:
171,114,120520,1,8,0:1:0:0:
119,60,120599,1,8,0:1:0:0:
45,50,120679,6,8,L|55:108,7,46.7500008916855,12|8|8|8|8|8|8|8,1:1|0:1|0:1|0:1|0:1|0:1|0:1|0:1,0:1:0:0:
18,161,120994,2,8,L|28:219,7,46.7500008916855,8|8|8|8|8|8|8|8,0:1|0:1|0:1|0:1|0:1|0:1|0:1|0:1,0:1:0:0:
81,265,121310,6,8,P|79:294|69:335,2,55,8|8|8,0:1|0:1|0:1,0:1:0:0:
183,122,121468,2,8,P|185:93|195:52,2,55,8|8|8,0:1|0:1|0:1,0:1:0:0:
244,283,121626,6,2,P|242:300|236:325,2,41.2500015735627,2|2|2,0:2|0:2|0:2,0:2:0:0:
305,196,121784,2,2,P|306:178|312:153,2,41.2500015735627
