osu file format v14

[General]
AudioFilename: audio.mp3
AudioLeadIn: 0
PreviewTime: 34784
Countdown: 1
SampleSet: Soft
StackLeniency: 0.4
Mode: 0
LetterboxInBreaks: 0
WidescreenStoryboard: 1

[Editor]
Bookmarks: 10784
DistanceSpacing: 0.6
BeatDivisor: 4
GridSize: 8
TimelineZoom: 2.699999

[Metadata]
Title:ZED
TitleUnicode:ZED
Artist:USAO
ArtistUnicode:USAO
Creator:Zetera
Version:Normal
Source:beatmania IIDX 20 tricoro
Tags:Mir Skidooskei Dubstep beatmania iidx20 tricoro jubeat saucer Electronic Instrumental video game
BeatmapID:2960343
BeatmapSetID:932235

[Difficulty]
HPDrainRate:4
CircleSize:3.6
OverallDifficulty:4
ApproachRate:6
SliderMultiplier:0.899999999999999
SliderTickRate:1

[Events]
//Background and Video events
0,0,"BG_GEFIXED.jpg",0,0
//Break Periods
2,21088,24892
2,66563,70365
//Storyboard Layer 0 (Background)
//Storyboard Layer 1 (Fail)
//Storyboard Layer 2 (Pass)
//Storyboard Layer 3 (Foreground)
//Storyboard Layer 4 (Overlay)
//Storyboard Sound Samples

[TimingPoints]
679,315.789473684211,4,2,1,80,1,0
15520,-100,4,2,1,80,0,0
15836,-100,4,2,1,80,0,0
20810,-100,4,2,1,5,0,0
20889,-100,4,2,1,80,0,0
25942,-100,4,2,1,40,0,0
27205,-100,4,2,1,50,0,0
28468,-100,4,2,1,60,0,0
29731,-100,4,2,1,70,0,0
31310,-100,4,2,1,80,0,0
31626,-100,4,2,1,80,0,0
31942,-100,4,2,1,80,0,0
32257,-100,4,2,1,80,0,0
32573,-100,4,2,1,80,0,0
32889,-100,4,2,1,80,0,0
33205,-100,4,2,1,80,0,0
33520,-100,4,2,1,80,0,0
33836,-100,4,2,1,80,0,0
34152,-100,4,2,1,80,0,0
34468,-100,4,2,1,80,0,0
34784,-133.333333333333,4,2,1,80,0,0
36047,-100,4,2,1,80,0,0
36205,-100,4,2,1,80,0,0
36678,-100,4,2,1,80,0,0
37310,-100,4,2,1,80,0,0
38257,-100,4,2,1,80,0,0
38573,-100,4,2,1,80,0,0
39205,-100,4,2,1,80,0,0
39520,-100,4,2,1,80,0,0
41099,-100,4,2,1,80,0,0
41731,-100,4,2,1,80,0,0
42363,-100,4,2,1,80,0,0
43073,-100,4,2,1,5,0,0
43152,-100,4,2,1,80,0,0
43231,-100,4,2,1,5,0,0
43310,-100,4,2,1,80,0,0
43626,-100,4,2,1,80,0,0
44889,-100,4,2,1,80,0,0
46310,-100,4,2,1,80,0,0
46784,-100,4,2,1,80,0,0
47415,-100,4,2,1,80,0,0
48678,-100,4,2,1,80,0,0
49310,-100,4,2,1,80,0,0
49942,-100,4,2,1,80,0,0
51205,-100,4,2,1,80,0,0
53415,-100,4,2,1,80,0,0
53652,-100,4,2,1,5,0,0
53731,-100,4,2,1,80,0,0
54994,-100,4,2,1,80,0,0
55942,-100,4,2,1,80,0,0
56257,-100,4,2,1,80,0,1
56889,-100,4,2,1,80,0,0
57521,-100,4,2,1,80,0,0
58468,-100,4,2,1,80,0,0
58784,-100,4,2,1,80,0,0
59836,-100,4,2,1,80,0,0
60047,-100,4,2,1,80,0,0
60573,-100,4,2,1,5,0,0
60678,-100,4,2,1,80,0,0
61257,-100,4,2,1,5,0,0
61310,-100,4,2,1,80,0,1
61942,-100,4,2,1,80,0,0
62573,-100,4,2,1,80,0,0
62994,-100,4,2,1,5,0,0
63047,-100,4,2,1,80,0,0
63836,-100,4,2,1,80,0,0
66363,-100,4,2,1,80,0,0
66442,-100,4,2,1,50,0,0
71336,-100,4,2,1,5,0,0
71415,-100,4,2,1,60,0,0
72047,-100,4,2,1,60,0,0
76468,-100,4,2,1,70,0,0
80257,-100,4,2,1,70,0,0
86573,-100,4,2,1,70,0,0
87047,-100,4,2,1,70,0,0
87520,-100,4,2,1,70,0,0
87994,-100,4,2,1,70,0,0
88468,-100,4,2,1,70,0,0
89494,-100,4,2,1,70,0,0
89731,-100,4,2,1,70,0,0
89968,-100,4,2,1,70,0,0
90126,-100,4,2,1,70,0,0
90363,-100,4,2,1,70,0,0
90994,-100,4,2,1,70,0,0
91626,-100,4,2,1,85,0,1
96678,-100,4,2,1,85,0,1
97310,-100,4,2,1,85,0,1
99205,-100,4,2,1,85,0,1
121863,-100,4,2,1,85,0,0

[Colours]
Combo1 : 128,128,128
Combo2 : 0,128,192
Combo3 : 192,192,192
Combo4 : 226,182,29

[HitObjects]
29,270,10784,6,0,B|-4:210|-4:210|28:144,1,135,12|0,1:0|1:0,0:0:0:0:
39,139,11415,2,0,L|135:146,1,89.9999999999999,8|0,1:2|1:0,0:0:0:0:
232,72,12047,6,0,L|244:-3,2,67.4999999999999,8|8|8,1:0|1:0|1:0,0:0:0:0:
229,90,12679,1,8,1:2:0:0:
394,161,13310,6,0,L|374:20,1,135,8|0,1:0|1:0,0:0:0:0:
361,13,13942,2,0,B|318:1|318:1|276:28,1,89.9999999999999,8|0,1:2|1:0,0:0:0:0:
232,136,14573,6,0,B|265:147|265:147|298:133,2,67.4999999999999,10|0|10,1:0|1:0|1:0,0:0:0:0:
217,126,15205,1,8,1:2:0:0:
142,70,15521,1,0,0:0:0:0:
45,88,15836,6,2,L|68:241,1,135,12|2,1:0|1:0,0:1:0:0:
84,234,16468,2,0,L|67:329,1,89.9999999999999,8|0,1:2|1:0,0:0:0:0:
181,355,17100,6,0,B|217:358|217:358|245:335,2,67.4999999999999,10|0|2,1:0|1:0|1:0,0:0:0:0:
162,342,17731,1,8,1:2:0:0:
276,228,18363,6,2,B|313:209|313:209|420:230,1,135,8|2,1:0|1:0,0:1:0:0:
425,213,18994,2,0,P|431:169|414:128,1,89.9999999999999,8|0,1:2|1:0,0:0:0:0:
313,94,19626,6,0,P|319:50|347:17,2,67.4999999999999,10|0|10,1:0|1:0|1:0,0:0:0:0:
323,116,20257,2,0,B|257:104|257:104|212:119|212:119|136:107,1,180,8|4,1:2|0:1,0:0:0:0:
140,209,25942,6,0,L|76:79,2,135,0|0|0,1:0|0:0|1:0,0:0:0:0:
221,140,27205,2,0,L|198:41,1,89.9999999999999,0|0,1:0|1:0,0:0:0:0:
211,34,27679,1,0,0:0:0:0:
320,106,28152,5,0,1:0:0:0:
346,32,28468,2,0,L|496:11,2,135,0|0|0,1:0|0:0|1:0,0:0:0:0:
279,110,29731,2,0,L|374:133,1,89.9999999999999,0|0,1:0|1:0,0:0:0:0:
380,122,30205,1,0,0:0:0:0:
507,167,30679,5,0,1:0:0:0:
474,241,30994,2,2,B|440:245|440:245|435:261|435:261|395:268,1,89.9999999999999,0|0,1:0|1:0,0:1:0:0:
317,274,31626,2,2,B|312:240|312:240|296:235|296:235|289:195,1,89.9999999999999,2|0,1:0|1:0,0:1:0:0:
270,113,32257,2,2,B|303:108|303:108|308:92|308:92|348:85,1,89.9999999999999,0|0,1:0|1:0,0:1:0:0:
427,80,32889,2,2,B|431:113|431:113|447:118|447:118|454:158,1,89.9999999999999,2|0,1:0|1:0,0:1:0:0:
338,259,33521,6,2,B|342:225|342:225|358:220|358:220|365:180,1,89.9999999999999,0|0,1:0|1:0,1:1:0:0:
259,79,34152,2,2,B|265:117|265:117|282:122|282:122|286:155,1,89.9999999999999,2|0,1:0|0:0,1:0:0:0:
240,238,34784,6,0,L|231:306,2,67.5000025749207
18,137,36047,6,0,B|75:144|75:144|104:205|104:205|159:212,1,180,14|8,1:0|1:2,0:0:0:0:
223,153,36994,2,0,L|214:113,3,30,0|0|0|8,0:0|0:0|0:0|1:0,0:0:0:0:
153,66,37626,2,0,L|144:25,3,30,0|0|0|8,0:0|0:0|0:0|1:2,0:0:0:0:
216,0,38257,5,0,3:0:0:0:
289,30,38573,2,0,B|298:96|298:96|265:128|265:128|279:201,1,180,14|8,1:0|1:2,0:0:0:0:
338,251,39521,2,0,L|374:242,3,30,0|0|0|8,3:0|3:0|3:0|1:0,0:0:0:0:
414,167,40152,1,0,1:0:0:0:
483,220,40468,2,0,L|519:211,3,30,8|0|0|8,1:2|3:0|3:0|1:0,0:0:0:0:
438,301,41100,6,0,B|367:322|367:322|352:346|352:346|270:370,1,180,14|8,1:0|1:2,0:0:0:0:
226,300,42047,2,0,L|217:269,3,30,0|0|0|8,0:0|0:0|0:0|1:0,0:0:0:0:
177,376,42679,1,2,0:0:0:0:
133,305,42994,2,0,L|108:218,1,89.9999999999999,10|2,1:2|0:0,0:0:0:0:
116,118,43626,6,2,P|74:65|-5:64,2,135,12|10|8,1:0|0:1|0:1,0:1:0:0:
210,64,44889,2,0,P|210:16|191:-15,2,67.4999999999999,8|0|8,1:0|1:0|1:0,0:0:0:0:
206,80,45521,1,10,1:2:0:0:
260,157,45836,1,0,0:1:0:0:
174,172,46152,6,0,B|161:237|161:237|178:285|178:285|167:351,1,180,14|8,1:0|1:2,0:0:0:0:
248,363,47100,2,0,L|254:321,3,30,0|0|0|8,0:0|0:0|0:0|1:0,0:0:0:0:
332,342,47731,2,0,L|336:385,3,30,0|0|0|8,0:0|0:0|0:0|1:2,0:0:0:0:
412,312,48363,1,8,0:1:0:0:
494,348,48679,6,0,B|512:285|512:285|478:243|478:243|493:162,1,180,14|8,1:0|1:2,0:0:0:0:
465,100,49626,2,0,L|476:58,3,30,0|0|0|8,3:0|3:0|3:0|1:0,0:0:0:0:
383,121,50257,1,8,0:1:0:0:
374,39,50573,2,0,L|371:0,3,30,8|0|0|0,1:2|0:0|0:0|0:0,0:0:0:0:
299,86,51205,6,0,B|296:135|296:135|283:174|283:174|337:245|337:245|320:289|320:289|314:346,1,270,12|8,1:0|0:1,0:0:0:0:
224,358,52468,2,0,L|139:371,2,67.4999999999999,12|8|8,1:0|1:0|0:1,0:0:0:0:
241,363,53100,1,8,1:2:0:0:
325,341,53415,1,2,0:0:0:0:
417,366,53731,6,2,P|445:314|428:230,2,135,4|10|8,1:0|0:1|1:0,0:1:0:0:
343,293,54994,2,0,P|330:261|307:237,2,67.4999999999999,8|8|8,1:0|0:1|1:0,0:0:0:0:
338,308,55626,1,8,1:2:0:0:
248,361,55942,1,2,0:0:0:0:
178,288,56257,6,2,B|121:302|121:302|99:352|99:352|34:366,1,180,14|8,1:0|1:2,0:1:0:0:
28,282,57205,2,0,L|43:232,3,30,0|0|0|10,0:0|0:0|0:0|1:0,0:0:0:0:
95,189,57836,2,0,L|104:143,3,30,0|0|0|8,0:0|0:0|0:0|1:2,0:0:0:0:
40,97,58468,1,0,0:0:0:0:
91,24,58784,6,0,B|149:10|149:10|206:42|206:42|271:22,1,180,6|8,1:0|1:2,0:0:0:0:
297,102,59731,2,0,L|311:138,3,30,0|0|0|8,3:0|3:0|3:0|1:0,0:0:0:0:
380,66,60363,1,8,0:1:0:0:
457,29,60679,2,0,L|465:-9,3,30,8|0|0|2,1:2|0:0|0:0|0:0,0:0:0:0:
450,115,61310,6,2,B|457:174|457:174|503:216|503:216|512:284,1,180,12|8,1:0|1:2,0:1:0:0:
455,338,62257,2,0,L|420:333,3,30,0|0|0|8,0:0|0:0|0:0|1:0,0:0:0:0:
370,272,62889,1,0,0:0:0:0:
348,357,63205,2,0,L|245:334,1,89.9999999999999,8|2,1:2|0:0,1:0:0:0:
142,344,63836,6,2,P|107:295|30:264,2,135,12|10|8,1:0|0:1|0:1,0:1:0:0:
189,226,65100,2,0,P|211:200|249:185,2,67.4999999999999,8|8|8,1:0|0:1|0:1,0:0:0:0:
182,244,65731,1,8,1:2:0:0:
52,77,66363,5,6,0:0:0:0:
338,47,71415,6,0,P|385:46|445:108,2,135,2|2|2,0:0|0:0|0:0,0:0:0:0:
360,134,72679,2,0,L|393:280,1,135,2|2,0:0|0:0,0:0:0:0:
291,354,73626,5,2,0:0:0:0:
204,319,73942,2,0,L|66:340,2,135,2|2|2,0:0|0:0|0:0,0:0:0:0:
291,354,75205,2,0,P|297:302|281:268,1,89.9999999999999,2|8,1:2|0:0,0:0:0:0:
238,204,75836,2,0,L|245:139,2,45,0|0|10,1:0|0:0|0:0,0:0:0:0:
204,319,76468,6,0,B|164:334|164:334|103:317,1,89.9999999999999,12|8,1:0|0:0,0:0:0:0:
108,301,76942,2,0,L|7:278,1,89.9999999999999,0|8,0:0|1:0,0:0:0:0:
7,261,77415,1,8,0:0:0:0:
46,125,77731,2,0,P|43:59|-10:6,2,135,8|0|10,1:0|0:0|0:0,0:0:0:0:
132,100,78994,6,0,L|225:81,1,89.9999999999999,8|8,1:0|0:0,0:0:0:0:
260,103,79468,2,0,B|283:138|283:138|278:185,1,89.9999999999999,0|8,0:0|1:0,0:0:0:0:
271,230,79942,1,8,0:0:0:0:
356,299,80257,2,0,P|437:318|475:366,2,135,8|0|8,1:0|0:0|0:0,0:0:0:0:
286,356,81521,5,8,1:0:0:0:
279,264,81836,2,0,L|259:117,1,135,8|8,1:2|0:1,0:0:0:0:
266,113,82468,2,0,L|257:52,1,45,8|8,1:2|0:1,0:0:0:0:
264,53,82784,5,8,1:0:0:0:
160,31,83100,2,0,L|27:8,1,135,8|8,1:2|0:1,0:0:0:0:
11,24,83731,2,0,L|-3:76,1,45,10|8,1:2|0:1,0:0:0:0:
9,85,84047,5,8,1:0:0:0:
60,158,84363,2,0,L|44:308,1,135,8|8,1:2|1:0,0:0:0:0:
26,311,84994,2,0,L|35:363,1,45,8|0,1:2|1:2,0:0:0:0:
50,376,85310,5,8,1:0:0:0:
132,329,85626,2,0,L|271:353,1,135,8|8,1:2|1:0,0:0:0:0:
291,357,86257,1,8,1:2:0:0:
314,261,86573,6,2,B|350:254|350:254|365:261|365:261|405:252,1,89.9999999999999,12|8,1:0|1:2,0:1:0:0:
425,233,87047,1,2,1:0:0:0:
460,93,87521,2,2,B|435:65|435:65|434:48|434:48|406:18,1,89.9999999999999,8|8,1:2|1:0,0:1:0:0:
382,24,87994,1,2,1:0:0:0:
245,58,88468,2,2,B|233:92|233:92|219:102|219:102|207:141,1,89.9999999999999,8|8,1:0|0:0,0:1:0:0:
217,162,88942,1,2,1:0:0:0:
143,235,89257,2,2,B|150:263|150:263|145:275|145:275|151:300,2,67.4999999999999,2|2|2,0:1|0:1|0:1,0:1:0:0:
252,272,89968,2,2,B|246:297|246:297|251:309|251:309|244:337,1,67.4999999999999,2|2,0:1|0:1,0:1:0:0:
224,346,90363,6,0,B|152:359|152:359|107:341|107:341|39:355,1,180,2|4,1:3|0:0,0:0:0:0:
28,117,91626,6,0,B|18:80|18:80|24:61|24:61|14:21,2,89.9999999999999,12|8|8,1:0|1:2|1:0,0:0:0:0:
113,155,92573,2,0,L|118:118,3,30,8|0|0|8,1:2|0:0|0:0|1:0,0:0:0:0:
42,208,93205,2,0,L|49:255,3,30,8|0|0|8,1:2|0:0|0:0|1:0,0:0:0:0:
28,117,93836,1,8,1:2:0:0:
17,30,94152,6,0,B|84:41|84:41|123:25|123:25|203:38,1,180,12|0,1:0|1:0,0:0:0:0:
269,0,95100,2,0,L|285:41,3,30,8|0|0|8,1:2|0:0|0:0|1:0,0:0:0:0:
356,67,95731,1,8,1:2:0:0:
431,34,96047,2,0,L|440:1,3,30,8|0|0|8,1:0|0:0|0:0|1:2,0:0:0:0:
460,173,96679,6,0,B|465:210|465:210|478:219|478:219|485:255,2,89.9999999999999,12|8|8,1:0|1:2|1:0,0:0:0:0:
386,114,97626,2,0,L|354:120,3,30,8|0|0|8,1:2|0:0|0:0|1:0,0:0:0:0:
468,86,98257,1,8,1:2:0:0:
403,25,98573,2,0,L|307:41,1,89.9999999999999,8|8,1:0|1:2,0:0:0:0:
214,16,99205,6,0,P|210:60|230:101,1,89.9999999999999,12|8,1:0|1:0,0:0:0:0:
303,161,99836,2,0,P|323:206|310:262,1,89.9999999999999,8|8,1:0|1:0,0:0:0:0:
303,262,100310,1,0,0:0:0:0:
287,277,100468,2,0,L|193:271,1,89.9999999999999,8|8,1:0|1:0,0:0:0:0:
131,337,101100,2,0,L|29:329,1,89.9999999999999,8|8,1:0|0:2,0:0:0:0:
84,232,101731,6,2,P|65:191|22:160,1,89.9999999999999,12|8,1:1|1:2,0:1:0:0:
5,125,102205,2,0,L|17:20,1,89.9999999999999,2|0,0:1|0:0,0:1:0:0:
43,0,102679,1,8,1:2:0:0:
140,6,102994,6,2,L|161:103,1,89.9999999999999,8|8,1:0|1:2,0:1:0:0:
173,136,103468,2,0,P|212:122|272:136,1,89.9999999999999,2|0,0:1|0:0,0:0:0:0:
283,167,103942,1,8,1:2:0:0:
349,87,104257,6,2,L|328:-4,1,89.9999999999999,8|8,1:0|1:2,0:1:0:0:
368,20,104731,2,0,P|413:38|469:47,1,89.9999999999999,2|8,0:1|0:1,0:0:0:0:
496,30,105205,1,8,1:2:0:0:
512,153,105521,6,2,P|452:170|424:187,1,89.9999999999999,8|8,1:0|1:2,0:1:0:0:
399,217,105994,2,0,L|301:202,1,89.9999999999999,2|0,0:1|0:0,0:0:0:0:
297,159,106468,6,2,B|293:126|293:126|316:59,2,89.9999999999999,8|8|8,1:2|1:0|1:2,0:1:0:0:
310,203,107257,2,0,B|320:246|320:246|307:304,1,89.9999999999999,2|0,0:1|0:0,0:0:0:0:
298,334,107731,1,8,1:2:0:0:
186,328,108047,6,2,L|91:314,1,89.9999999999999,8|8,1:0|1:2,0:1:0:0:
56,335,108521,2,0,P|41:289|55:243,1,89.9999999999999,2|0,0:1|0:0,0:0:0:0:
87,224,108994,1,8,1:2:0:0:
32,131,109310,6,2,L|10:31,1,89.9999999999999,8|8,1:0|1:2,0:1:0:0:
41,8,109784,2,0,B|87:-3|87:-3|137:15,1,89.9999999999999,2|8,0:1|0:1,0:0:0:0:
151,49,110257,1,8,1:2:0:0:
244,114,110573,6,2,L|345:98,1,89.9999999999999,8|8,1:0|1:2,0:1:0:0:
374,118,111047,1,2,0:1:0:0:
412,140,111205,2,0,L|398:238,1,89.9999999999999,8|8,1:1|0:0,0:0:0:0:
304,320,111836,6,2,B|318:293|318:293|291:216,1,89.9999999999999,12|8,1:0|1:2,0:1:0:0:
276,221,112310,2,0,P|232:214|191:233,1,89.9999999999999,2|0,0:1|0:0,0:0:0:0:
177,256,112784,1,8,1:2:0:0:
140,357,113100,6,2,L|42:374,1,89.9999999999999,8|8,1:0|1:2,0:1:0:0:
42,346,113573,2,0,P|15:293|-8:257,1,89.9999999999999,2|0,0:1|0:0,0:0:0:0:
21,251,114047,1,8,1:2:0:0:
0,171,114363,6,2,P|62:157|96:134,1,89.9999999999999,8|8,1:0|1:2,0:1:0:0:
98,120,114836,2,0,L|76:28,1,89.9999999999999,2|0,0:1|0:0,0:0:0:0:
93,10,115310,1,8,1:2:0:0:
195,81,115626,6,2,L|184:179,1,89.9999999999999,8|8,1:0|1:2,0:1:0:0:
203,190,116100,2,0,P|264:212|299:206,1,89.9999999999999,2|0,0:1|0:0,0:0:0:0:
312,198,116573,1,8,1:2:0:0:
404,253,116889,6,2,P|412:198|427:159,1,89.9999999999999,12|8,1:0|1:1,0:1:0:0:
441,145,117363,2,2,L|351:125,1,89.9999999999999,10|8,0:1|0:1,0:1:0:0:
342,100,117836,1,8,1:0:0:0:
222,122,118152,6,2,L|201:32,1,89.9999999999999,12|0,1:0|1:0,0:1:0:0:
179,18,118626,2,0,P|140:36|87:38,1,89.9999999999999,10|8,1:0|0:1,0:0:0:0:
73,21,119100,1,10,0:2:0:0:
18,125,119415,6,2,L|44:232,1,89.9999999999999,12|2,1:0|0:0,0:1:0:0:
62,226,119889,2,0,L|52:319,1,89.9999999999999,10|0,1:0|0:0,0:0:0:0:
32,334,120363,1,10,0:0:0:0:
256,192,120679,12,0,121863,0:0:0:0:
