osu file format v14

[General]
AudioFilename: audio.mp3
AudioLeadIn: 0
PreviewTime: 34784
Countdown: 1
SampleSet: Soft
StackLeniency: 0.4
Mode: 0
LetterboxInBreaks: 0
WidescreenStoryboard: 1

[Editor]
Bookmarks: 10784
DistanceSpacing: 0.6
BeatDivisor: 4
GridSize: 4
TimelineZoom: 2.699999

[Metadata]
Title:ZED
TitleUnicode:ZED
Artist:USAO
ArtistUnicode:USAO
Creator:Zetera
Version:Hyper
Source:beatmania IIDX 20 tricoro
Tags:Mir Skidooskei Dubstep beatmania iidx20 tricoro jubeat saucer Electronic Instrumental video game
BeatmapID:2033764
BeatmapSetID:932235

[Difficulty]
HPDrainRate:4.5
CircleSize:3.5
OverallDifficulty:6.5
ApproachRate:8
SliderMultiplier:1.4
SliderTickRate:1

[Events]
//Background and Video events
0,0,"BG_GEFIXED.jpg",0,0
//Break Periods
2,21088,25192
2,66563,70665
//Storyboard Layer 0 (Background)
//Storyboard Layer 1 (Fail)
//Storyboard Layer 2 (Pass)
//Storyboard Layer 3 (Foreground)
//Storyboard Layer 4 (Overlay)
//Storyboard Sound Samples

[TimingPoints]
679,315.789473684211,4,2,1,80,1,0
25942,-100,4,2,1,40,0,0
27205,-100,4,2,1,50,0,0
28468,-100,4,2,1,60,0,0
29731,-100,4,2,1,70,0,0
31310,-100,4,2,1,80,0,0
43073,-100,4,2,1,5,0,0
43152,-100,4,2,1,80,0,0
43231,-100,4,2,1,5,0,0
43310,-100,4,2,1,80,0,0
53652,-100,4,2,1,5,0,0
53731,-100,4,2,1,80,0,0
60573,-100,4,2,1,5,0,0
60678,-100,4,2,1,80,0,0
61257,-100,4,2,1,5,0,0
61310,-100,4,2,1,80,0,0
66442,-100,4,2,1,50,0,0
71336,-100,4,2,1,5,0,0
71415,-111.111111111111,4,2,1,60,0,0
76468,-100,4,2,1,70,0,0
91626,-100,4,2,1,85,0,1
121863,-100,4,2,1,85,0,0

[Colours]
Combo1 : 128,128,128
Combo2 : 0,128,192
Combo3 : 192,192,192
Combo4 : 226,182,29

[HitObjects]
34,257,10784,6,0,P|82:339|181:298,1,210,12|0,1:0|1:0,0:0:0:0:
175,307,11415,2,0,B|208:214|139:244|170:142,1,140,8|0,1:2|1:0,0:0:0:0:
88,85,12047,6,0,P|37:59|-7:5,2,105,8|8|8,1:0|1:0|1:0,0:0:0:0:
163,38,12678,2,0,L|322:20,1,140,8|0,1:2|0:0,0:0:0:0:
490,158,13310,6,0,P|412:195|330:96,1,210,8|0,1:0|1:0,0:0:0:0:
330,119,13942,2,0,L|349:268,1,140,8|0,1:2|1:0,0:0:0:0:
472,323,14573,2,0,L|454:198,2,105,10|0|10,1:0|1:0|1:0,0:0:0:0:
472,323,15126,1,0,1:0:0:0:
472,323,15205,1,8,1:2:0:0:
365,367,15520,1,0,0:0:0:0:
217,169,15836,6,0,P|176:227|230:357,1,210,12|2,1:0|1:0,0:0:0:0:
217,349,16468,2,0,L|61:327,1,140,8|0,1:2|1:0,0:0:0:0:
79,130,17099,6,0,P|71:66|28:20,2,105,10|0|2,1:0|1:0|1:0,0:0:0:0:
17,190,17731,2,0,L|169:169,1,140,8|0,1:2|0:0,0:0:0:0:
275,26,18363,6,0,B|315:-6|315:-6|290:177,1,210,8|2,1:0|1:0,0:0:0:0:
238,213,18994,2,0,L|266:354,1,140,8|0,1:2|1:0,0:0:0:0:
389,266,19626,2,0,P|447:270|493:307,2,105,10|0|10,1:0|1:0|1:0,0:0:0:0:
379,276,20178,1,0,1:0:0:0:
371,287,20257,2,0,L|351:374,1,70,8|0,1:2|0:0,0:0:0:0:
265,350,20573,2,0,P|202:376|138:352,1,140,0|4,0:0|0:1,0:0:0:0:
14,211,25942,6,0,L|159:179,1,140,0|0,1:0|1:0,0:0:0:0:
219,246,26415,2,0,B|240:176|240:176|205:94,1,140,0|0,0:0|0:0,0:0:0:0:
131,95,26889,1,0,1:0:0:0:
131,95,27205,6,0,L|288:110,1,140,0|0,1:0|1:0,0:0:0:0:
342,46,27678,2,0,B|366:75|366:75|339:202,1,140,0|0,0:0|0:0,0:0:0:0:
343,184,28073,1,0,0:0:0:0:
341,193,28152,2,0,L|331:239,2,35,0|0|0,1:0|0:0|0:0,0:0:0:0:
433,184,28468,6,0,L|407:324,1,140,0|0,1:0|1:0,0:0:0:0:
332,361,28942,2,0,B|282:371|282:371|200:337,1,140,0|0,0:0|0:0,0:0:0:0:
247,263,29415,1,0,1:0:0:0:
247,263,29731,6,0,B|222:102,1,140,0|0,1:0|1:0,0:0:0:0:
279,63,30205,2,0,B|242:35|242:35|140:49,1,140,0|0,0:0|0:0,0:0:0:0:
136,51,30599,1,0,0:0:0:0:
122,53,30678,2,0,L|72:62,2,35,0|0|0,1:0|0:0|0:0,0:0:0:0:
163,142,30994,6,2,L|49:166,1,105,0|0,1:0|0:0,0:1:0:0:
46,182,31310,2,0,P|36:237|64:299,1,105,0|0,1:0|0:0,0:0:0:0:
75,267,31626,6,0,L|188:278,1,105,2|0,1:0|0:0,0:0:0:0:
203,258,31942,2,0,P|221:310|211:362,1,105,0|0,1:0|0:0,0:0:0:0:
235,366,32257,6,2,L|310:355,1,70,0|0,1:0|1:0,0:1:0:0:
370,299,32573,2,0,L|439:288,1,70,0|0,1:0|1:0,0:0:0:0:
474,200,32889,6,0,P|487:162|481:130,1,70,2|0,1:0|1:0,0:0:0:0:
403,83,33205,2,0,P|390:121|396:153,1,70,0|0,1:0|1:0,0:0:0:0:
312,205,33521,6,0,L|273:198,3,35,2|0|0|0,1:0|1:0|1:0|1:0,0:0:0:0:
243,169,33836,2,0,L|204:176,3,35,0|0|0|0,1:0|1:0|1:0|1:0,0:0:0:0:
177,209,34152,2,0,L|138:202,3,35,2|0|0|0,1:0|1:0|1:0|1:0,0:0:0:0:
107,180,34468,2,0,L|68:187,3,35,0|0|0|0,0:0|0:0|0:0|0:0,0:0:0:0:
49,206,34784,6,0,L|23:201,16,17.5,0|0|0|0|0|0|0|0|0|0|0|0|0|0|0|0|0,0:0|0:0|0:0|0:0|0:0|0:0|0:0|0:0|0:0|0:0|0:0|0:0|0:0|0:0|0:0|0:0|1:0,0:0:0:0:
265,21,36047,6,2,B|257:105|257:105|286:141|286:141|276:232,1,210,14|8,1:0|0:1,0:1:0:0:
216,275,36678,2,0,L|224:369,1,70,8|0,1:2|0:0,0:0:0:0:
301,337,36994,2,0,L|362:348,2,46.6666666666667,0|0|0,0:0|0:0|0:0,0:0:0:0:
225,370,37310,5,8,1:0:0:0:
122,255,37547,1,8,0:1:0:0:
276,220,37784,1,8,0:1:0:0:
276,220,37863,1,8,0:1:0:0:
276,220,37942,2,0,L|360:192,1,70,8|0,1:2|0:3,0:0:0:0:
385,268,38257,2,0,L|495:233,1,93.3333333333333,0|0,3:0|0:0,0:0:0:0:
497,204,38573,6,0,B|491:153|491:153|485:141|485:141|481:92,2,105,14|2|2,1:0|1:0|1:0,0:0:0:0:
374,129,39205,2,0,B|357:85|357:85|373:10,1,93.3333333333333,8|0,1:2|0:0,0:0:0:0:
384,12,39520,2,0,L|446:-4,2,46.6666666666667,0|0|0,3:0|3:0|3:0,0:0:0:0:
309,70,39836,6,0,L|256:82,2,46.6666666666667,8|0|0,1:0|3:0|3:0,0:0:0:0:
399,111,40152,2,0,L|479:94,1,70,0|0,1:0|0:0,0:0:0:0:
331,188,40468,6,0,L|281:202,2,46.6666666666667,8|0|0,1:2|3:0|3:0,0:0:0:0:
424,212,40784,2,0,L|414:317,1,93.3333333333333,8|0,1:0|0:0,0:0:0:0:
411,339,41099,6,2,B|337:328|337:328|310:339|310:339|289:319|289:319|192:298,1,210,14|0,1:0|1:0,0:1:0:0:
75,349,41731,2,0,L|166:362,1,70,8|0,1:2|0:0,0:0:0:0:
87,260,42047,2,0,L|161:240,2,46.6666666666667,0|0|0,0:0|0:0|0:0,0:0:0:0:
46,174,42363,5,8,1:0:0:0:
183,174,42600,1,8,0:1:0:0:
150,42,42836,1,8,0:1:0:0:
150,42,42915,1,8,0:1:0:0:
150,42,42994,2,0,L|116:121,1,70,10|8,1:2|0:1,0:0:0:0:
269,153,43310,2,0,L|238:53,1,105,2|0,0:0|0:0,0:0:0:0:
265,30,43626,6,2,B|332:38|332:38|337:44|337:44|412:56,1,140,12|2,1:0|0:1,0:1:0:0:
501,138,44099,2,2,B|434:146|434:146|429:152|429:152|354:164,1,140,10|2,0:1|0:1,0:1:0:0:
278,173,44573,1,8,0:1:0:0:
347,276,44889,6,0,L|370:381,2,105,8|0|8,1:0|1:0|1:0,0:0:0:0:
352,261,45442,1,0,1:0:0:0:
358,247,45521,2,0,L|430:230,1,70,10|0,1:2|0:1,0:0:0:0:
512,297,45836,2,0,L|440:317,1,70,0|0,0:1|0:0,0:0:0:0:
229,334,46152,6,2,B|234:250|234:250|269:233|269:233|277:121,1,210,14|8,1:0|0:1,0:1:0:0:
209,87,46784,2,0,L|214:7,1,70,8|0,1:2|0:0,0:0:0:0:
300,5,47099,2,0,L|349:-1,2,46.6666666666667,0|0|0,0:0|0:0|0:0,0:0:0:0:
220,24,47415,5,8,1:0:0:0:
357,106,47652,1,8,0:1:0:0:
215,180,47889,1,8,0:1:0:0:
215,180,47968,1,8,0:1:0:0:
215,180,48047,2,0,L|224:275,1,70,8|0,1:2|0:0,0:0:0:0:
321,338,48363,2,0,L|310:215,1,105
330,216,48678,6,0,B|380:198|380:198|393:209|393:209|459:217,2,105,14|10|2,1:0|1:0|1:0,0:0:0:0:
267,141,49310,2,0,B|281:89|281:89|251:32,1,105,8|0,1:2|0:0,0:0:0:0:
236,28,49626,6,0,L|165:43,2,46.6666666666667,0|0|0,3:0|3:0|3:0,0:0:0:0:
333,87,49942,2,0,L|382:92,2,46.6666666666667,8|0|0,1:0|0:0|0:0,0:0:0:0:
259,148,50257,2,0,L|170:133,1,70,8|0,0:1|0:0,0:0:0:0:
316,226,50573,6,0,L|385:239,2,46.6666666666667,8|0|0,1:2|0:0|0:0,0:0:0:0:
239,278,50889,2,0,B|183:262|183:262|161:270|161:270|87:253,1,140,0|12,0:0|1:0,0:0:0:0:
256,192,51363,12,8,52152,0:1:0:0:
329,215,52468,6,0,L|305:87,2,105,12|4|0,1:0|0:1|0:0,0:0:0:0:
323,222,53021,1,0,0:0:0:0:
318,230,53099,2,0,P|254:236|236:256,1,70,8|0,1:2|0:0,0:0:0:0:
204,323,53415,2,0,P|206:342|191:315,1,105,2|0,0:0|0:0,0:0:0:0:
169,229,53731,6,2,B|113:231|113:231|102:242|102:242|31:246,1,140,4|2,1:0|0:1,0:1:0:0:
1,127,54205,2,2,B|70:131|70:131|81:142|81:142|137:144,1,140,10|2,0:1|0:1,0:1:0:0:
201,84,54678,1,8,1:0:0:0:
292,211,54994,6,0,B|302:159|302:159|279:98,2,105,8|8|8,1:0|0:1|1:0,0:0:0:0:
298,223,55547,1,0,1:0:0:0:
305,232,55626,2,0,L|390:217,1,70,8|2,1:2|0:0,0:0:0:0:
209,174,55942,2,0,L|193:248,1,70,2|0,0:0|0:0,0:0:0:0:
257,340,56257,6,2,B|317:344|317:344|325:354|325:354|333:345|333:345|393:348|393:348|401:342|401:342|407:348|407:348|471:353,1,210,14|0,1:0|0:0,0:1:0:0:
508,278,56889,2,0,L|491:193,1,70,8|0,1:2|0:0,0:0:0:0:
445,133,57205,2,0,L|457:60,2,46.6666666666667,0|0|0,0:0|0:0|0:0,0:0:0:0:
366,181,57520,5,10,1:0:0:0:
491,115,57757,1,8,1:0:0:0:
377,37,57994,1,8,0:1:0:0:
377,37,58073,1,8,0:1:0:0:
377,37,58152,2,0,L|297:25,1,70,8|0,1:2|0:0,0:0:0:0:
254,158,58468,2,0,L|219:46,1,105
186,51,58784,6,0,B|162:48|162:48|133:55|133:55|119:25|119:25|89:4,2,105,6|8|10,1:0|1:0|0:1,0:0:0:0:
168,151,59415,2,0,B|143:143|143:143|86:162|86:162|52:144,1,105,8|0,1:2|0:0,0:0:0:0:
37,129,59731,2,0,L|31:82,2,46.6666666666667,0|0|0,3:0|3:0|3:0,0:0:0:0:
8,213,60047,6,0,L|13:275,2,46.6666666666667,10|0|0,1:0|0:0|0:0,0:0:0:0:
69,153,60363,2,0,L|58:61,1,70,8|0,0:1|0:0,0:0:0:0:
95,241,60678,6,0,L|100:303,2,46.6666666666667,8|0|0,1:2|0:0|0:0,0:0:0:0:
156,176,60994,2,0,B|210:172|210:172|216:164|216:164|267:163,1,105,2|0,0:0|0:0,0:0:0:0:
295,186,61310,6,2,B|292:169|292:169|300:164|300:164|292:163|292:163|277:54|277:54|269:51|269:51|276:46|276:46|269:-15,1,210,12|0,1:0|0:0,0:1:0:0:
369,35,61942,2,0,L|440:20,1,70,8|0,1:2|0:0,0:0:0:0:
434,115,62257,2,0,L|490:119,2,46.6666666666667,0|0|0,0:0|0:0|0:0,0:0:0:0:
414,130,62573,5,8,1:0:0:0:
342,232,62810,1,8,0:1:0:0:
470,248,63047,1,8,0:1:0:0:
470,248,63126,1,8,0:1:0:0:
470,248,63205,2,0,L|481:322,1,70,8|0,1:2|0:0,0:0:0:0:
388,352,63520,2,0,B|341:349|341:349|333:352|333:352|283:347,1,105,2|0,0:0|0:0,0:0:0:0:
258,347,63836,6,2,B|246:291|246:291|256:268|256:268|241:191,1,140,12|2,1:0|0:1,0:1:0:0:
167,134,64310,2,2,B|155:190|155:190|165:213|165:213|150:290,1,140,10|2,0:1|0:1,0:1:0:0:
133,355,64784,1,8,0:1:0:0:
39,213,65099,6,0,L|21:98,2,105,8|8|8,1:0|0:1|0:1,0:0:0:0:
46,224,65652,1,8,0:1:0:0:
53,233,65731,2,0,P|101:243|125:235,1,70,8|0,1:2|0:0,0:0:0:0:
166,157,66047,2,0,P|150:110|131:93,1,70,0|0,0:0|0:0,0:0:0:0:
26,83,66363,5,6,0:0:0:0:
467,334,71415,6,0,L|338:314,1,125.999996154785,2|0,0:0|0:0,0:0:0:0:
291,377,71889,2,0,L|324:175,1,188.999994232178,2|2,0:0|0:0,0:0:0:0:
412,17,72678,6,0,L|391:149,1,125.999996154785,2|0,0:0|0:0,0:0:0:0:
454,196,73152,2,0,L|265:156,1,188.999994232178,2|2,0:0|0:0,0:0:0:0:
215,97,73784,1,0,0:0:0:0:
215,97,73942,6,0,L|229:240,1,125.999996154785,2|0,0:0|0:0,0:0:0:0:
321,268,74415,2,0,L|307:128,1,125.999996154785,2|0,0:0|0:0,0:0:0:0:
201,83,74889,2,0,L|207:145,1,62.9999980773926,2|0,0:0|0:0,0:0:0:0:
126,190,75205,6,0,P|182:235|246:222,1,125.999996154785,2|8,1:2|0:0,0:0:0:0:
410,77,75836,2,0,L|403:2,1,62.9999980773926,0|0,1:0|0:0,0:0:0:0:
388,0,76152,2,0,L|395:83,1,62.9999980773926,10|0,0:0|0:0,0:0:0:0:
329,118,76468,5,12,1:0:0:0:
512,152,76784,2,0,B|452:152|452:152|400:210|400:210|313:204,1,210,8|8,0:0|1:0,0:0:0:0:
217,274,77415,2,0,L|308:281,1,70,8|0,0:0|0:0,0:0:0:0:
328,205,77731,6,0,L|344:361,2,140,8|8|0,1:0|0:0|0:0,0:0:0:0:
254,139,78521,1,8,0:1:0:0:
266,59,78679,2,0,L|271:18,3,35,8|0|0|0,0:0|0:0|0:0|0:0,0:0:0:0:
251,157,78994,6,0,P|199:185|130:146,1,140,8|8,1:0|0:0,0:0:0:0:
106,66,79468,2,0,P|117:17|97:-17,2,70,0|0|8,0:0|0:0|1:0,0:0:0:0:
51,141,79942,1,8,0:0:0:0:
20,285,80257,6,0,P|71:303|138:235,1,140,8|8,1:0|0:0,0:0:0:0:
206,306,80731,2,0,P|208:344|196:378,2,70,0|0|8,0:0|0:0|1:0,0:0:0:0:
213,219,81205,2,0,P|209:182|219:136,1,70,8|8,0:0|0:1,0:0:0:0:
274,84,81520,5,8,1:0:0:0:
410,40,81836,1,8,1:2:0:0:
386,184,82152,2,0,L|310:169,1,70,8|8,1:0|0:1,0:0:0:0:
459,215,82468,2,0,L|374:199,1,70,8|8,1:2|0:1,0:0:0:0:
482,138,82784,5,8,1:0:0:0:
497,289,83099,1,8,1:2:0:0:
317,323,83415,2,0,L|396:315,1,70,8|8,1:0|0:1,0:0:0:0:
234,356,83731,2,0,L|321:347,1,70,10|8,1:2|0:1,0:0:0:0:
244,246,84047,5,8,1:0:0:0:
120,284,84363,1,8,1:2:0:0:
68,113,84678,2,0,L|-3:95,1,70,8|8,1:0|0:1,0:0:0:0:
152,108,84994,2,0,L|60:86,1,70,8|8,1:2|0:1,0:0:0:0:
202,191,85310,5,8,1:0:0:0:
248,65,85626,1,8,1:2:0:0:
248,65,85784,2,0,B|256:55|256:55|237:-26,1,70,8|8,0:1|1:1,0:0:0:0:
319,114,86100,2,0,B|311:124|311:124|330:205,1,70,8|8,0:1|0:0,0:0:0:0:
407,40,86573,6,2,L|449:182,1,140,12|8,1:0|1:2,0:1:0:0:
512,217,87047,2,0,L|370:259,1,140,10|0,1:0|0:0,0:0:0:0:
308,351,87520,2,2,L|266:209,1,140,8|8,1:2|1:0,0:1:0:0:
305,144,87994,2,0,L|170:183,1,140,2|0,0:1|0:0,0:0:0:0:
141,257,88468,2,2,L|83:39,1,210,8|2,1:0|0:1,0:1:0:0:
155,0,89099,5,8,1:0:0:0:
243,15,89257,2,2,B|236:58|236:58|215:81|215:81|201:131,4,105,0|2|8|2|0,0:1|0:1|1:0|0:1|0:1,0:1:0:0:
323,23,90363,6,0,L|344:18,16,17.5,12|0|0|0|0|0|0|0|0|0|0|0|0|0|0|0|4,1:0|0:0|0:0|0:0|0:1|0:1|0:1|0:1|0:1|0:1|0:1|0:1|0:1|0:1|0:1|0:1|0:0,0:0:0:0:
456,220,91468,1,2,0:3:0:0:
474,259,91626,6,0,P|463:301|461:329,1,70,12|2,1:0|0:3,0:0:0:0:
372,367,91942,2,0,P|370:341|358:284,1,70,8|2,1:2|0:3,0:0:0:0:
286,236,92257,2,0,L|181:250,1,105,8|0,1:0|0:0,0:0:0:0:
166,269,92573,2,0,P|164:308|155:330,2,46.6666666666667,8|2|2,1:2|0:3|0:3,0:3:0:0:
111,207,92889,6,0,L|36:221,1,70,8|2,1:0|0:3,0:0:0:0:
2,101,93205,2,0,L|78:86,1,70,8|2,1:2|0:3,0:0:0:0:
81,90,93442,1,0,0:0:0:0:
92,93,93520,1,8,1:0:0:0:
169,34,93678,2,0,L|175:-10,2,35,2|0|8,0:3|0:0|1:2,0:0:0:0:
186,133,93994,5,0,0:1:0:0:
186,133,94073,1,0,0:0:0:0:
186,133,94152,2,0,L|293:118,1,105,12|0,1:0|0:0,0:0:0:0:
305,101,94468,2,0,L|286:27,1,70,8|2,1:2|0:3,0:0:0:0:
406,173,94784,6,0,B|389:222|389:222|405:285,1,105,0|2,1:0|0:3,0:0:0:0:
431,285,95099,2,0,L|483:275,2,46.6666666666667,8|0|0,1:2|0:0|0:0,0:0:0:0:
348,352,95415,6,0,L|282:337,2,46.6666666666667,8|0|0,1:0|0:0|0:0,0:0:0:0:
432,366,95731,2,0,L|420:269,1,70,8|2,1:2|0:3,0:0:0:0:
395,210,96047,6,0,L|334:194,2,46.6666666666667,8|0|2,1:1|0:0|0:3,0:0:0:0:
483,231,96363,2,0,L|469:146,1,70,8|2,1:2|0:3,0:0:0:0:
461,153,96599,1,0,0:0:0:0:
451,144,96678,6,0,L|468:-3,2,140,12|8|8,1:0|1:2|1:0,0:0:0:0:
323,48,97626,2,0,L|332:112,2,46.6666666666667,8|0|0,1:2|0:0|0:0,0:0:0:0:
306,27,97942,6,0,L|216:12,1,70,8|2,1:0|0:3,0:0:0:0:
180,81,98257,2,0,L|160:166,1,70,8|2,1:2|0:3,0:0:0:0:
161,163,98494,1,0,0:0:0:0:
157,176,98573,1,8,1:0:0:0:
34,172,98731,2,2,L|-19:182,2,35,0|0|8,0:0|0:0|1:2,0:0:0:0:
62,95,99047,5,0,0:0:0:0:
62,95,99126,1,0,0:0:0:0:
62,95,99205,2,0,L|87:262,1,140,12|8,1:0|1:0,0:0:0:0:
41,310,99678,2,0,B|10:289|10:289|-3:249,1,70,0|8,0:0|1:0,0:0:0:0:
166,239,99994,2,0,B|163:276|163:276|135:307,1,70,2|8,0:3|1:0,0:0:0:0:
82,233,100310,1,0,0:0:0:0:
19,169,100468,6,0,L|6:88,1,70,8|0,1:0|0:0,0:0:0:0:
82,18,100784,2,0,L|93:87,1,70,8|0,1:0|0:0,0:0:0:0:
158,223,101099,6,0,L|145:142,1,70,8|0,1:0|0:0,0:0:0:0:
221,72,101415,2,0,L|232:141,1,70,8|8,1:2|0:1,0:0:0:0:
234,152,101652,1,0,0:0:0:0:
237,163,101731,2,2,P|307:153|374:216,1,140,12|8,1:1|1:2,0:1:0:0:
425,258,102205,1,2,0:1:0:0:
446,169,102363,2,0,L|462:90,1,70,8|0,1:0|0:0,0:0:0:0:
366,11,102678,2,2,L|374:99,1,70,8|0,1:2|0:0,0:0:0:0:
288,119,102994,6,2,P|213:121|160:62,1,140,8|8,1:0|1:2,0:1:0:0:
144,0,103468,1,2,0:1:0:0:
60,30,103626,2,0,P|27:64|18:100,1,70,8|0,1:0|0:0,0:0:0:0:
121,199,103942,2,0,P|107:153|81:127,1,70,8|8,1:2|0:1,0:0:0:0:
0,202,104257,6,2,L|146:223,1,140,8|8,1:0|1:2,0:1:0:0:
215,278,104731,1,2,0:1:0:0:
218,187,104889,2,0,P|211:141|187:104,1,70,8|8,1:0|0:1,0:0:0:0:
138,221,105205,2,0,P|117:265|117:298,1,70,8|0,1:2|0:0,0:0:0:0:
117,301,105442,1,0,0:0:0:0:
122,316,105520,6,2,L|266:299,1,140,8|8,1:0|1:2,0:1:0:0:
316,232,105994,1,2,0:1:0:0:
347,321,106152,1,8,1:0:0:0:
347,321,106231,2,0,L|336:381,1,35,8|0,0:1|0:0,0:0:0:0:
230,214,106468,2,8,L|218:127,1,70,10|8,1:2|0:1,0:0:0:0:
266,48,106784,6,2,P|333:43|379:92,1,140,8|8,1:0|1:2,0:1:0:0:
438,156,107257,1,2,0:1:0:0:
379,92,107415,2,0,P|422:70|458:74,1,70,8|0,1:0|0:0,0:0:0:0:
351,176,107731,2,0,P|316:172|287:154,1,70,8|0,1:2|0:0,0:0:0:0:
438,156,108047,6,2,P|474:209|455:304,1,140,8|8,1:0|1:2,0:1:0:0:
412,343,108520,1,2,0:1:0:0:
405,258,108678,2,0,P|445:265|475:289,1,70,8|0,1:0|0:0,0:0:0:0:
327,370,108994,2,0,P|324:329|340:294,1,70,8|8,1:2|0:1,0:0:0:0:
328,292,109231,1,0,0:0:0:0:
320,283,109310,6,2,L|160:303,1,140,8|8,1:0|1:2,0:1:0:0:
103,357,109784,1,2,0:1:0:0:
34,300,109942,2,0,L|19:217,1,70,8|8,1:0|0:1,0:0:0:0:
77,153,110257,2,0,L|62:70,1,70,8|8,1:2|0:1,0:0:0:0:
70,72,110494,1,8,0:1:0:0:
76,61,110573,6,2,P|134:50|195:101,1,140,8|8,1:0|1:2,0:1:0:0:
301,16,111205,1,8,1:0:0:0:
293,30,111284,2,0,P|280:79|278:129,1,70,8|8,0:1|0:1,0:0:0:0:
286,114,111521,2,0,P|296:157|291:198,1,70,8|8,1:2|0:1,0:0:0:0:
321,275,111836,6,2,L|477:258,1,140,12|8,1:0|1:2,0:1:0:0:
509,193,112310,1,2,0:1:0:0:
509,193,112389,1,0,0:0:0:0:
509,193,112468,2,0,P|514:128|500:98,1,70,8|0,1:0|0:0,0:0:0:0:
447,2,112784,2,0,P|442:36|451:70,1,70,8|0,1:2|0:0,0:0:0:0:
399,164,113100,6,2,P|340:164|286:78,1,140,8|8,1:0|1:2,0:1:0:0:
318,28,113573,1,2,0:1:0:0:
179,16,113731,2,0,L|190:96,1,70,8|0,1:0|0:0,0:0:0:0:
266,194,114047,2,0,L|282:99,1,70,8|8,1:2|0:1,0:0:0:0:
282,116,114284,1,0,0:0:0:0:
288,107,114363,6,2,L|135:85,1,140,8|8,1:0|1:2,0:1:0:0:
76,36,114836,1,2,0:1:0:0:
76,36,114915,1,0,0:0:0:0:
76,36,114994,2,0,P|52:93|45:126,1,70,8|0,1:0|0:0,0:0:0:0:
163,178,115310,2,0,P|152:127|135:91,1,70,8|0,1:2|0:0,0:0:0:0:
23,181,115626,6,2,L|43:339,1,140,8|8,1:0|1:2,0:1:0:0:
146,304,116100,1,2,0:1:0:0:
161,224,116257,1,8,1:0:0:0:
161,224,116336,2,0,L|170:176,1,35,8|0,0:1|0:0,0:0:0:0:
125,310,116573,2,2,L|137:407,1,70,8|8,1:2|0:1,0:1:0:0:
243,331,116889,6,2,L|407:358,1,140,12|8,1:0|1:1,0:1:0:0:
360,270,117363,1,10,0:1:0:0:
443,279,117521,1,8,1:0:0:0:
469,365,117679,1,8,0:1:0:0:
381,353,117836,2,0,L|292:366,1,70,8|8,1:0|0:1,0:0:0:0:
275,260,118152,6,2,P|270:190|283:90,1,140,12|0,1:0|1:0,0:1:0:0:
307,33,118626,1,10,0:1:0:0:
398,29,118784,1,8,1:0:0:0:
367,115,118942,1,8,0:1:0:0:
276,120,119100,2,0,P|221:106|191:104,1,70,10|8,1:1|0:1,0:0:0:0:
92,54,119415,6,0,L|85:12,3,35,12|8|8|8,1:1|0:1|0:1|0:1,0:0:0:0:
111,126,119731,2,0,L|118:84,3,35,8|8|8|8,1:1|0:1|0:1|0:1,0:0:0:0:
94,201,120047,2,0,L|87:159,3,35,12|8|8|8,1:1|0:1|0:1|0:1,0:0:0:0:
113,273,120363,2,0,L|120:231,3,35,8|8|8|8,1:1|0:1|0:1|0:1,0:0:0:0:
24,300,120679,5,12,1:1:0:0:
256,192,120757,12,2,121863,0:0:0:0:
