osu file format v14

[General]
AudioFilename: audio.mp3
AudioLeadIn: 0
PreviewTime: 93435
Countdown: 0
SampleSet: Soft
StackLeniency: 0.7
Mode: 3
LetterboxInBreaks: 0
SpecialStyle: 0
WidescreenStoryboard: 1

[Editor]
DistanceSpacing: 1.8
BeatDivisor: 4
GridSize: 32
TimelineZoom: 2.4

[Metadata]
Title:Wildfire
TitleUnicode:Wildfire
Artist:USAO
ArtistUnicode:USAO
Creator:_Hikari
Version:Hard
Source:
Tags:featured artist fa HARDCORE TANO*C New Krew Massive Circlez 9 XTREME Frenchcore UOM Records mappers' guild mg Electronic English Instrumental
BeatmapID:3948288
BeatmapSetID:1913597

[Difficulty]
HPDrainRate:7.5
CircleSize:4
OverallDifficulty:7.5
ApproachRate:5
SliderMultiplier:1.4
SliderTickRate:1

[Events]
//Background and Video events
0,0,"BG.jpg",0,0
//Break Periods
//Storyboard Layer 0 (Background)
//Storyboard Layer 1 (Fail)
//Storyboard Layer 2 (Pass)
//Storyboard Layer 3 (Foreground)
//Storyboard Layer 4 (Overlay)
//Storyboard Sound Samples

[TimingPoints]
36,295.566502463054,4,2,1,30,1,0
94617,-100,4,2,1,30,0,1
98755,-100,4,2,1,30,0,0
99346,-100,4,2,1,30,0,1
107622,-100,4,2,1,30,0,0
108804,-100,4,2,1,30,0,1
112351,-100,4,2,1,30,0,0
113533,-100,4,2,1,30,0,1
121809,-100,4,2,1,30,0,0
122991,-100,4,2,1,30,0,1
127129,-100,4,2,1,30,0,0
127720,-100,4,2,1,30,0,1
132449,-100,4,2,1,30,0,0
160824,-100,4,2,1,30,0,1
178558,-100,4,2,1,30,0,0
179740,-100,4,2,1,30,0,1
189198,-100,4,2,1,30,0,0
189494,-100,4,2,1,30,0,1
193927,-100,4,2,1,30,0,0
194223,-100,4,2,1,30,0,1
203385,-100,4,2,1,30,0,0
203681,-100,4,2,1,30,0,1
208114,-100,4,2,1,30,0,0

[HitObjects]
64,192,36,5,0,0:0:0:60:kick.wav
448,192,36,1,0,0:0:0:60:LR_Drum Soft.wav
320,192,183,128,0,331:0:0:0:0:
64,192,331,1,0,0:0:0:60:kick.wav
64,192,627,1,0,0:0:0:60:kick.wav
64,192,922,1,0,0:0:0:60:kick.wav
64,192,1218,1,0,0:0:0:60:kick.wav
64,192,1513,1,0,0:0:0:60:kick.wav
64,192,1809,1,0,0:0:0:60:kick.wav
64,192,2104,1,0,0:0:0:60:kick.wav
64,192,2252,1,0,0:0:0:60:kick.wav
320,192,2400,1,0,0:0:0:60:kick.wav
320,192,2696,1,0,0:0:0:60:kick.wav
320,192,2991,1,0,0:0:0:60:kick.wav
320,192,3287,1,0,0:0:0:60:kick.wav
320,192,3582,1,0,0:0:0:60:kick.wav
320,192,3878,1,0,0:0:0:60:kick.wav
320,192,4173,1,0,0:0:0:60:kick.wav
320,192,4469,1,0,0:0:0:60:kick.wav
192,192,4765,1,0,0:0:0:60:kick.wav
192,192,5060,1,0,0:0:0:60:kick.wav
192,192,5356,1,0,0:0:0:60:kick.wav
192,192,5651,1,0,0:0:0:60:kick.wav
192,192,5947,1,0,0:0:0:60:kick.wav
192,192,6242,1,0,0:0:0:60:kick.wav
192,192,6538,1,0,0:0:0:60:kick.wav
192,192,6834,1,0,0:0:0:60:kick.wav
192,192,6981,1,0,0:0:0:60:kick.wav
448,192,7129,1,0,0:0:0:60:kick.wav
448,192,7425,1,0,0:0:0:60:kick.wav
448,192,7720,1,0,0:0:0:60:kick.wav
448,192,8016,1,0,0:0:0:60:kick.wav
448,192,8311,1,0,0:0:0:60:kick.wav
448,192,8607,1,0,0:0:0:60:kick.wav
448,192,8902,1,0,0:0:0:60:kick.wav
448,192,9198,1,0,0:0:0:60:kick.wav
64,192,9494,1,0,0:0:0:60:kick.wav
320,192,9494,1,0,0:0:0:60:LR_Drum Soft.wav
448,192,9641,128,0,9789:0:0:0:0:
64,192,9789,1,0,0:0:0:60:kick.wav
192,192,9789,1,0,0:0:0:60:LR_Drum Soft.wav
64,192,10085,1,0,0:0:0:60:kick.wav
192,192,10085,1,0,0:0:0:60:LR_Drum Soft.wav
64,192,10380,1,0,0:0:0:60:kick.wav
192,192,10380,1,0,0:0:0:60:LR_Drum Soft.wav
64,192,10676,1,0,0:0:0:60:kick.wav
192,192,10676,1,0,0:0:0:60:LR_Drum Soft.wav
64,192,10971,1,0,0:0:0:60:kick.wav
192,192,10971,1,0,0:0:0:60:LR_Drum Soft.wav
64,192,11267,1,0,0:0:0:60:kick.wav
192,192,11267,1,0,0:0:0:60:LR_Drum Soft.wav
64,192,11563,1,0,0:0:0:60:kick.wav
192,192,11563,1,0,0:0:0:60:LR_Drum Soft.wav
448,192,11710,1,0,0:0:0:60:kick.wav
64,192,11858,1,0,0:0:0:60:kick.wav
320,192,11858,1,0,0:0:0:60:LR_Drum Soft.wav
64,192,12154,1,0,0:0:0:60:kick.wav
320,192,12154,1,0,0:0:0:60:LR_Drum Soft.wav
64,192,12449,1,0,0:0:0:60:kick.wav
320,192,12449,1,0,0:0:0:60:LR_Drum Soft.wav
64,192,12745,1,0,0:0:0:60:kick.wav
320,192,12745,1,0,0:0:0:60:LR_Drum Soft.wav
64,192,13040,1,0,0:0:0:60:kick.wav
320,192,13040,1,0,0:0:0:60:LR_Drum Soft.wav
64,192,13336,1,0,0:0:0:60:kick.wav
320,192,13336,1,0,0:0:0:60:LR_Drum Soft.wav
64,192,13632,1,0,0:0:0:60:kick.wav
320,192,13632,1,0,0:0:0:60:LR_Drum Soft.wav
64,192,13927,1,0,0:0:0:60:kick.wav
320,192,13927,1,0,0:0:0:60:LR_Drum Soft.wav
64,192,14223,1,0,0:0:0:60:kick.wav
320,192,14223,1,0,0:0:0:60:LR_Drum Soft.wav
192,192,14370,128,0,14518:0:0:0:0:
320,192,14518,1,0,0:0:0:60:kick.wav
448,192,14518,1,0,0:0:0:60:LR_Drum Soft.wav
320,192,14814,1,0,0:0:0:60:kick.wav
448,192,14814,1,0,0:0:0:60:LR_Drum Soft.wav
320,192,15109,1,0,0:0:0:60:kick.wav
448,192,15109,1,0,0:0:0:60:LR_Drum Soft.wav
320,192,15405,1,0,0:0:0:60:kick.wav
448,192,15405,1,0,0:0:0:60:LR_Drum Soft.wav
320,192,15701,1,0,0:0:0:60:kick.wav
448,192,15701,1,0,0:0:0:60:LR_Drum Soft.wav
320,192,15996,1,0,0:0:0:60:kick.wav
448,192,15996,1,0,0:0:0:60:LR_Drum Soft.wav
320,192,16292,1,0,0:0:0:60:kick.wav
448,192,16292,1,0,0:0:0:60:LR_Drum Soft.wav
64,192,16439,1,0,0:0:0:60:kick.wav
192,192,16587,1,0,0:0:0:60:kick.wav
448,192,16587,1,0,0:0:0:60:LR_Drum Soft.wav
192,192,16883,1,0,0:0:0:60:kick.wav
448,192,16883,1,0,0:0:0:60:LR_Drum Soft.wav
192,192,17178,1,0,0:0:0:60:kick.wav
448,192,17178,1,0,0:0:0:60:LR_Drum Soft.wav
192,192,17474,1,0,0:0:0:60:kick.wav
448,192,17474,1,0,0:0:0:60:LR_Drum Soft.wav
192,192,17769,1,0,0:0:0:60:kick.wav
448,192,17769,1,0,0:0:0:60:LR_Drum Soft.wav
192,192,18065,1,0,0:0:0:60:kick.wav
448,192,18065,1,0,0:0:0:60:LR_Drum Soft.wav
192,192,18361,1,0,0:0:0:60:kick.wav
448,192,18361,1,0,0:0:0:60:LR_Drum Soft.wav
192,192,18656,1,0,0:0:0:60:kick.wav
448,192,18656,128,0,18952:0:0:0:60:LR_Drum Soft.wav
64,192,18952,128,0,19100:0:0:0:60:kick.wav
320,192,18952,1,0,0:0:0:0:
192,192,19100,1,0,0:0:0:0:
64,192,19247,128,0,19395:0:0:0:60:snare.wav
448,192,19247,1,0,0:0:0:0:
320,192,19395,1,0,0:0:0:0:
64,192,19691,128,0,19838:0:0:0:0:
192,192,19838,1,0,0:0:0:60:snare.wav
448,192,19838,1,0,0:0:0:0:
64,192,19986,128,0,20134:0:0:0:0:
320,192,20282,1,0,0:0:0:0:
64,192,20430,1,0,0:0:0:60:snare.wav
320,192,20430,1,0,0:0:0:0:
448,192,20577,1,0,0:0:0:0:
448,192,20725,128,0,21316:0:0:0:0:
64,192,21021,1,0,0:0:0:60:snare.wav
320,192,21021,1,0,0:0:0:0:
192,192,21316,128,0,21464:0:0:0:0:
448,192,21464,1,0,0:0:0:0:
192,192,21612,128,0,21760:0:0:0:60:snare.wav
320,192,21612,1,0,0:0:0:0:
448,192,21760,1,0,0:0:0:0:
192,192,22055,128,0,22203:0:0:0:0:
64,192,22203,1,0,0:0:0:60:snare.wav
448,192,22203,1,0,0:0:0:0:
192,192,22351,128,0,22499:0:0:0:0:
64,192,22646,1,0,0:0:0:0:
64,192,22794,1,0,0:0:0:60:snare.wav
448,192,22794,1,0,0:0:0:0:
320,192,22942,1,0,0:0:0:0:
320,192,23090,128,0,23681:0:0:0:0:
64,192,23385,1,0,0:0:0:60:kick.wav
192,192,23385,1,0,0:0:0:60:snare.wav
64,192,23681,1,0,0:0:0:45:snare.wav
448,192,23681,1,0,0:0:0:60:kick.wav
320,192,23829,1,0,0:0:0:45:snare.wav
64,192,23976,1,0,0:0:0:45:snare.wav
448,192,23976,1,0,0:0:0:0:
192,192,24124,1,0,0:0:0:45:snare.wav
64,192,24272,1,0,0:0:0:50:snare.wav
320,192,24420,1,0,0:0:0:50:snare.wav
448,192,24420,1,0,0:0:0:0:
192,192,24568,1,0,0:0:0:50:snare.wav
64,192,24715,1,0,0:0:0:50:snare.wav
448,192,24715,1,0,0:0:0:0:
320,192,24863,1,0,0:0:0:55:snare.wav
64,192,25011,1,0,0:0:0:55:snare.wav
192,192,25011,1,0,0:0:0:0:
320,192,25159,1,0,0:0:0:55:snare.wav
448,192,25159,1,0,0:0:0:0:
64,192,25306,1,0,0:0:0:55:snare.wav
192,192,25306,1,0,0:0:0:0:
320,192,25454,1,0,0:0:0:60:snare.wav
448,192,25454,1,0,0:0:0:0:
64,192,25602,1,0,0:0:0:60:snare.wav
448,192,25750,1,0,0:0:0:60:snare.wav
192,192,25898,1,0,0:0:0:60:snare.wav
320,192,26045,1,0,0:0:0:60:snare.wav
448,192,26045,1,0,0:0:0:60:kick.wav
64,192,26119,1,0,0:0:0:60:snare.wav
192,192,26193,1,0,0:0:0:60:snare.wav
320,192,26267,1,0,0:0:0:60:snare.wav
448,192,26341,1,0,0:0:0:60:snare.wav
192,192,26415,1,0,0:0:0:60:snare.wav
320,192,26489,1,0,0:0:0:60:snare.wav
192,192,26563,1,0,0:0:0:60:snare.wav
64,192,26636,1,0,0:0:0:60:snare.wav
320,192,26710,1,0,0:0:0:60:snare.wav
192,192,26784,1,0,0:0:0:60:snare.wav
320,192,26858,1,0,0:0:0:60:snare.wav
448,192,26932,1,0,0:0:0:60:snare.wav
64,192,27006,1,0,0:0:0:60:snare.wav
192,192,27080,1,0,0:0:0:60:snare.wav
320,192,27154,1,0,0:0:0:60:snare.wav
448,192,27228,1,0,0:0:0:0:
64,192,27449,1,0,0:0:0:0:
320,192,27671,1,0,0:0:0:0:
192,192,27893,128,0,28114:0:0:0:0:
64,192,28410,1,0,0:0:0:60:kick.wav
320,192,28410,1,0,0:0:0:60:LR_Drum Low Finish Long Echo.wav
320,192,28558,1,0,0:0:0:60:kick.wav
64,192,28705,1,0,0:0:0:60:LR4_SnareKKF.wav
448,192,28705,1,0,0:0:0:0:
320,192,28853,1,0,0:0:0:0:
192,192,29001,1,0,0:0:0:60:kick.wav
320,192,29149,1,0,0:0:0:0:
64,192,29297,1,0,0:0:0:60:LR4_SnareKKF.wav
448,192,29297,1,0,0:0:0:0:
320,192,29444,1,0,0:0:0:0:
64,192,29592,1,0,0:0:0:60:kick.wav
192,192,29740,1,0,0:0:0:0:
320,192,29888,1,0,0:0:0:60:LR4_SnareKKF.wav
448,192,29888,1,0,0:0:0:0:
192,192,30035,1,0,0:0:0:0:
64,192,30183,1,0,0:0:0:60:kick.wav
192,192,30331,1,0,0:0:0:0:
320,192,30479,1,0,0:0:0:60:LR4_SnareKKF.wav
448,192,30479,1,0,0:0:0:0:
192,192,30627,1,0,0:0:0:0:
64,192,30774,1,0,0:0:0:60:kick.wav
320,192,30922,1,0,0:0:0:0:
192,192,31070,1,0,0:0:0:60:LR4_SnareKKF.wav
448,192,31070,1,0,0:0:0:0:
320,192,31218,1,0,0:0:0:0:
64,192,31366,1,0,0:0:0:60:kick.wav
320,192,31513,1,0,0:0:0:0:
192,192,31661,1,0,0:0:0:60:LR4_SnareKKF.wav
448,192,31661,1,0,0:0:0:0:
320,192,31809,1,0,0:0:0:0:
448,192,31957,1,0,0:0:0:60:kick.wav
192,192,32104,1,0,0:0:0:0:
64,192,32252,1,0,0:0:0:60:LR4_SnareKKF.wav
320,192,32252,1,0,0:0:0:0:
192,192,32400,1,0,0:0:0:0:
448,192,32548,1,0,0:0:0:60:kick.wav
192,192,32696,1,0,0:0:0:0:
448,192,32769,1,0,0:0:0:60:kick.wav
64,192,32843,1,0,0:0:0:60:LR4_SnareKKF.wav
320,192,32843,1,0,0:0:0:0:
320,192,32991,1,0,0:0:0:60:kick.wav
192,192,33139,1,0,0:0:0:60:kick.wav
448,192,33139,1,0,0:0:0:60:LR_Drum Low Finish Long Echo.wav
320,192,33287,1,0,0:0:0:0:
64,192,33435,1,0,0:0:0:60:LR4_SnareKKF.wav
192,192,33435,1,0,0:0:0:0:
448,192,33582,1,0,0:0:0:0:
192,192,33730,1,0,0:0:0:60:kick.wav
320,192,33878,1,0,0:0:0:0:
64,192,34026,1,0,0:0:0:60:LR4_SnareKKF.wav
192,192,34026,1,0,0:0:0:0:
448,192,34173,1,0,0:0:0:0:
64,192,34321,1,0,0:0:0:60:kick.wav
320,192,34469,1,0,0:0:0:60:kick.wav
64,192,34543,1,0,0:0:0:60:kick.wav
192,192,34617,1,0,0:0:0:60:LR4_SnareKKF.wav
448,192,34617,1,0,0:0:0:0:
192,192,34765,1,0,0:0:0:60:kick.wav
320,192,34912,1,0,0:0:0:60:kick.wav
64,192,35060,1,0,0:0:0:0:
192,192,35208,1,0,0:0:0:60:LR4_SnareKKF.wav
448,192,35208,1,0,0:0:0:0:
64,192,35356,1,0,0:0:0:0:
320,192,35503,1,0,0:0:0:60:kick.wav
192,192,35651,1,0,0:0:0:0:
320,192,35799,1,0,0:0:0:60:LR4_SnareKKF.wav
448,192,35799,1,0,0:0:0:0:
64,192,35947,1,0,0:0:0:60:kick.wav
320,192,36095,1,0,0:0:0:60:kick.wav
192,192,36242,1,0,0:0:0:0:
320,192,36390,1,0,0:0:0:60:LR4_SnareKKF.wav
448,192,36390,1,0,0:0:0:0:
64,192,36538,1,0,0:0:0:0:
192,192,36686,1,0,0:0:0:60:kick.wav
192,192,36834,1,0,0:0:0:60:kick.wav
64,192,36981,1,0,0:0:0:60:LR4_SnareKKF.wav
320,192,36981,1,0,0:0:0:0:
192,192,37129,1,0,0:0:0:60:kick.wav
320,192,37203,1,0,0:0:0:60:kick.wav
64,192,37277,1,0,0:0:0:60:kick.wav
448,192,37277,128,0,37572:0:0:0:0:
64,192,37572,128,0,37868:0:0:0:60:kick.wav
192,192,37572,1,0,0:0:0:0:
320,192,37868,1,0,0:0:0:60:kick.wav
448,192,37868,1,0,0:0:0:60:LR_Drum Low Finish Long Echo.wav
320,192,38016,1,0,0:0:0:60:kick.wav
64,192,38164,1,0,0:0:0:60:LR4_SnareKKF.wav
192,192,38164,1,0,0:0:0:0:
448,192,38311,1,0,0:0:0:0:
320,192,38459,1,0,0:0:0:60:kick.wav
448,192,38607,1,0,0:0:0:0:
64,192,38755,1,0,0:0:0:60:LR4_SnareKKF.wav
192,192,38755,1,0,0:0:0:0:
320,192,38902,1,0,0:0:0:0:
64,192,39050,1,0,0:0:0:60:kick.wav
320,192,39198,1,0,0:0:0:0:
192,192,39346,1,0,0:0:0:60:LR4_SnareKKF.wav
448,192,39346,128,0,39641:0:0:0:0:
320,192,39494,1,0,0:0:0:0:
64,192,39641,1,0,0:0:0:60:kick.wav
448,192,39789,1,0,0:0:0:0:
64,192,39937,128,0,40233:0:0:0:60:LR4_SnareKKF.wav
320,192,39937,1,0,0:0:0:0:
192,192,40085,1,0,0:0:0:0:
448,192,40233,1,0,0:0:0:60:kick.wav
320,192,40380,1,0,0:0:0:0:
64,192,40528,1,0,0:0:0:60:LR4_SnareKKF.wav
192,192,40528,1,0,0:0:0:0:
320,192,40676,1,0,0:0:0:0:
448,192,40824,1,0,0:0:0:60:kick.wav
320,192,40971,1,0,0:0:0:0:
64,192,41119,1,0,0:0:0:60:LR4_SnareKKF.wav
192,192,41119,1,0,0:0:0:0:
320,192,41267,1,0,0:0:0:0:
448,192,41415,1,0,0:0:0:60:kick.wav
64,192,41563,1,0,0:0:0:0:
192,192,41710,1,0,0:0:0:60:LR4_SnareKKF.wav
448,192,41710,128,0,42006:0:0:0:0:
320,192,42006,1,0,0:0:0:60:kick.wav
192,192,42228,1,0,0:0:0:60:kick.wav
64,192,42302,128,0,42597:0:0:0:60:LR4_SnareKKF.wav
320,192,42302,1,0,0:0:0:0:
192,192,42449,1,0,0:0:0:60:kick.wav
320,192,42597,1,0,0:0:0:60:kick.wav
448,192,42597,1,0,0:0:0:60:LR_Drum Low Finish Long Echo.wav
192,192,42745,1,0,0:0:0:0:
320,192,42893,1,0,0:0:0:60:LR4_SnareKKF.wav
448,192,42893,1,0,0:0:0:0:
64,192,43040,1,0,0:0:0:0:
320,192,43188,1,0,0:0:0:60:kick.wav
192,192,43336,1,0,0:0:0:0:
320,192,43484,1,0,0:0:0:60:LR4_SnareKKF.wav
448,192,43484,1,0,0:0:0:0:
64,192,43632,1,0,0:0:0:0:
448,192,43705,1,0,0:0:0:60:kick.wav
320,192,43779,1,0,0:0:0:60:kick.wav
448,192,43853,1,0,0:0:0:60:kick.wav
64,192,43927,1,0,0:0:0:0:
192,192,44075,1,0,0:0:0:60:LR4_SnareKKF.wav
448,192,44075,128,0,44370:0:0:0:0:
64,192,44223,1,0,0:0:0:0:
320,192,44370,1,0,0:0:0:60:kick.wav
192,192,44518,1,0,0:0:0:0:
64,192,44666,128,0,44962:0:0:0:60:LR4_SnareKKF.wav
320,192,44666,1,0,0:0:0:0:
448,192,44814,1,0,0:0:0:0:
192,192,44962,1,0,0:0:0:60:kick.wav
448,192,45109,1,0,0:0:0:0:
64,192,45257,1,0,0:0:0:60:LR4_SnareKKF.wav
320,192,45257,1,0,0:0:0:0:
448,192,45405,1,0,0:0:0:60:kick.wav
192,192,45553,1,0,0:0:0:60:kick.wav
64,192,45701,1,0,0:0:0:0:
320,192,45848,1,0,0:0:0:60:LR4_SnareKKF.wav
448,192,45848,1,0,0:0:0:0:
64,192,45996,1,0,0:0:0:0:
192,192,46144,1,0,0:0:0:60:kick.wav
448,192,46144,1,0,0:0:0:0:
64,192,46292,1,0,0:0:0:60:kick.wav
320,192,46292,1,0,0:0:0:0:
192,192,46439,1,0,0:0:0:60:LR4_SnareKKF.wav
448,192,46439,1,0,0:0:0:0:
320,192,46587,1,0,0:0:0:60:kick.wav
448,192,46661,1,0,0:0:0:60:kick.wav
64,192,46735,128,0,47326:0:0:0:60:kick.wav
192,192,46735,1,0,0:0:0:0:
320,192,47031,1,0,0:0:0:60:kick.wav
448,192,47031,128,0,47326:0:0:0:0:
192,192,47326,1,0,0:0:0:60:kick.wav
320,192,47326,1,0,0:0:0:60:LR_Drum Low Finish Long Echo.wav
320,192,47917,1,0,0:0:0:60:LR_Snare Drum.wav
448,192,47917,1,0,0:0:0:0:
192,192,48361,1,0,0:0:0:60:drum-hitnormal.wav
64,192,48804,1,0,0:0:0:60:drum-hitnormal.wav
192,192,49100,1,0,0:0:0:60:LR_Snare Drum.wav
448,192,49100,1,0,0:0:0:0:
448,192,49395,1,0,0:0:0:0:
64,192,49543,1,0,0:0:0:0:
320,192,49691,1,0,0:0:0:60:drum-hitnormal.wav
320,192,49986,1,0,0:0:0:60:drum-hitnormal.wav
64,192,50282,1,0,0:0:0:60:LR_Snare Drum.wav
448,192,50282,1,0,0:0:0:0:
192,192,50577,1,0,0:0:0:0:
320,192,50725,1,0,0:0:0:60:drum-hitnormal.wav
64,192,50873,1,0,0:0:0:0:
448,192,51021,1,0,0:0:0:0:
192,192,51169,1,0,0:0:0:60:drum-hitnormal.wav
320,192,51464,1,0,0:0:0:60:drum-hitnormal.wav
64,192,51612,1,0,0:0:0:60:drum-hitnormal.wav
448,192,51760,1,0,0:0:0:0:
448,192,51907,1,0,0:0:0:0:
192,192,52055,1,0,0:0:0:60:drum-hitnormal.wav
320,192,52055,1,0,0:0:0:60:LR_Drum Low Finish Long Echo.wav
448,192,52351,1,0,0:0:0:0:
192,192,52499,1,0,0:0:0:0:
64,192,52646,1,0,0:0:0:60:LR_Snare Drum.wav
320,192,52646,1,0,0:0:0:0:
448,192,52942,1,0,0:0:0:0:
64,192,53090,1,0,0:0:0:60:drum-hitnormal.wav
320,192,53385,1,0,0:0:0:0:
192,192,53533,1,0,0:0:0:60:drum-hitnormal.wav
448,192,53681,1,0,0:0:0:0:
64,192,53829,1,0,0:0:0:60:LR_Snare Drum.wav
320,192,53829,1,0,0:0:0:0:
192,192,54124,1,0,0:0:0:0:
64,192,54272,1,0,0:0:0:0:
448,192,54420,1,0,0:0:0:60:drum-hitnormal.wav
320,192,54568,1,0,0:0:0:0:
192,192,54715,1,0,0:0:0:60:drum-hitnormal.wav
448,192,54863,1,0,0:0:0:0:
64,192,55011,1,0,0:0:0:60:LR_Snare Drum.wav
320,192,55011,1,0,0:0:0:0:
192,192,55159,1,0,0:0:0:0:
448,192,55306,1,0,0:0:0:0:
192,192,55454,1,0,0:0:0:60:drum-hitnormal.wav
448,192,55602,1,0,0:0:0:0:
320,192,55750,1,0,0:0:0:0:
64,192,55824,1,0,0:0:0:0:
192,192,55898,1,0,0:0:0:60:drum-hitnormal.wav
320,192,56045,1,0,0:0:0:0:
448,192,56193,1,0,0:0:0:60:drum-hitnormal.wav
192,192,56267,128,0,56489:0:0:0:0:
320,192,56341,1,0,0:0:0:60:drum-hitnormal.wav
64,192,56489,1,0,0:0:0:0:
192,192,56636,1,0,0:0:0:0:
64,192,56784,1,0,0:0:0:60:drum-hitnormal.wav
448,192,56784,1,0,0:0:0:60:LR_Drum Low Finish Long Echo.wav
320,192,56932,1,0,0:0:0:0:
192,192,57080,1,0,0:0:0:0:
448,192,57228,1,0,0:0:0:0:
64,192,57375,1,0,0:0:0:60:LR_Snare Drum.wav
320,192,57375,1,0,0:0:0:0:
448,192,57671,1,0,0:0:0:0:
192,192,57819,1,0,0:0:0:60:drum-hitnormal.wav
64,192,58262,1,0,0:0:0:60:drum-hitnormal.wav
320,192,58410,1,0,0:0:0:0:
192,192,58558,1,0,0:0:0:60:LR_Snare Drum.wav
448,192,58558,1,0,0:0:0:0:
64,192,58705,1,0,0:0:0:0:
320,192,58853,1,0,0:0:0:0:
192,192,59001,1,0,0:0:0:0:
448,192,59149,1,0,0:0:0:60:drum-hitnormal.wav
320,192,59297,1,0,0:0:0:0:
64,192,59444,1,0,0:0:0:60:drum-hitnormal.wav
448,192,59592,1,0,0:0:0:0:
192,192,59740,1,0,0:0:0:60:LR_Snare Drum.wav
320,192,59740,1,0,0:0:0:0:
64,192,59888,1,0,0:0:0:0:
320,192,60035,1,0,0:0:0:0:
192,192,60183,1,0,0:0:0:60:drum-hitnormal.wav
448,192,60331,1,0,0:0:0:0:
320,192,60627,1,0,0:0:0:60:drum-hitnormal.wav
64,192,60774,1,0,0:0:0:0:
448,192,60922,1,0,0:0:0:60:drum-hitnormal.wav
192,192,61070,1,0,0:0:0:60:drum-hitnormal.wav
320,192,61218,1,0,0:0:0:0:
64,192,61366,1,0,0:0:0:0:
448,192,61513,1,0,0:0:0:60:drum-hitnormal.wav
320,192,61661,1,0,0:0:0:0:
64,192,61809,1,0,0:0:0:0:
192,192,61957,1,0,0:0:0:0:
320,192,62104,1,0,0:0:0:60:LR_Snare Drum.wav
448,192,62104,1,0,0:0:0:0:
448,192,62400,1,0,0:0:0:0:
192,192,62548,1,0,0:0:0:60:drum-hitnormal.wav
320,192,62696,1,0,0:0:0:0:
64,192,62991,1,0,0:0:0:60:drum-hitnormal.wav
320,192,63139,1,0,0:0:0:0:
64,192,63287,1,0,0:0:0:60:LR_Snare Drum.wav
192,192,63287,1,0,0:0:0:0:
320,192,63435,1,0,0:0:0:0:
448,192,63582,1,0,0:0:0:0:
192,192,63730,1,0,0:0:0:0:
64,192,63878,1,0,0:0:0:60:drum-hitnormal.wav
320,192,64026,1,0,0:0:0:0:
192,192,64173,1,0,0:0:0:60:drum-hitnormal.wav
448,192,64321,1,0,0:0:0:0:
192,192,64469,1,0,0:0:0:60:LR_Snare Drum.wav
320,192,64469,1,0,0:0:0:0:
64,192,64617,1,0,0:0:0:0:
448,192,64765,1,0,0:0:0:0:
192,192,64912,1,0,0:0:0:60:drum-hitnormal.wav
64,192,66242,1,0,0:0:0:60:LR_Clap kick.wav
448,192,66242,1,0,0:0:0:60:LR_Drum Low Finish Long Echo.wav
320,192,66464,1,0,0:0:0:0:
192,192,66538,1,0,0:0:0:60:LR_Clap kick.wav
448,192,66686,1,0,0:0:0:0:
64,192,66834,1,0,0:0:0:60:LR_Clap kick.wav
192,192,67129,1,0,0:0:0:60:LR_Clap kick.wav
448,192,67425,1,0,0:0:0:60:LR_Clap kick.wav
64,192,67572,1,0,0:0:0:0:
320,192,67720,128,0,68016:0:0:0:60:LR_Clap kick.wav
192,192,68016,1,0,0:0:0:60:LR_Clap kick.wav
448,192,68164,1,0,0:0:0:0:
64,192,68311,128,0,68607:0:0:0:60:LR_Clap kick.wav
320,192,68459,1,0,0:0:0:60:LR_Clap kick.wav
192,192,68607,1,0,0:0:0:60:LR_Clap kick.wav
64,192,68829,1,0,0:0:0:0:
320,192,68902,1,0,0:0:0:60:LR_Clap kick.wav
192,192,69050,1,0,0:0:0:0:
64,192,69198,1,0,0:0:0:60:LR_Clap kick.wav
448,192,69420,1,0,0:0:0:0:
192,192,69494,1,0,0:0:0:60:LR_Clap kick.wav
320,192,69641,1,0,0:0:0:0:
64,192,69789,1,0,0:0:0:60:LR_Clap kick.wav
320,192,69937,1,0,0:0:0:0:
448,192,70085,128,0,70380:0:0:0:60:LR_Clap kick.wav
64,192,70380,1,0,0:0:0:60:LR_Clap kick.wav
192,192,70528,1,0,0:0:0:60:LR_Clap kick.wav
448,192,70602,1,0,0:0:0:60:LR_Clap kick.wav
64,192,70676,128,0,70971:0:0:0:60:LR_Clap kick.wav
320,192,70824,1,0,0:0:0:60:LR_Clap kick.wav
192,192,70971,1,0,0:0:0:60:LR_Clap kick.wav
448,192,70971,1,0,0:0:0:60:LR_Drum Low Finish Long Echo.wav
320,192,71193,1,0,0:0:0:0:
64,192,71267,1,0,0:0:0:60:LR_Clap kick.wav
448,192,71415,1,0,0:0:0:0:
192,192,71563,1,0,0:0:0:60:LR_Clap kick.wav
320,192,71858,1,0,0:0:0:60:LR_Clap kick.wav
448,192,72154,1,0,0:0:0:60:LR_Clap kick.wav
64,192,72302,1,0,0:0:0:0:
320,192,72449,128,0,72745:0:0:0:60:LR_Clap kick.wav
64,192,72745,1,0,0:0:0:60:LR_Clap kick.wav
448,192,72893,1,0,0:0:0:0:
192,192,73040,128,0,73336:0:0:0:60:LR_Clap kick.wav
320,192,73188,1,0,0:0:0:60:LR_Clap kick.wav
64,192,73336,1,0,0:0:0:60:LR_Clap kick.wav
192,192,73558,1,0,0:0:0:0:
448,192,73632,1,0,0:0:0:60:LR_Clap kick.wav
320,192,73779,1,0,0:0:0:0:
64,192,73927,1,0,0:0:0:60:LR_Clap kick.wav
448,192,74149,1,0,0:0:0:0:
192,192,74223,1,0,0:0:0:60:LR_Clap kick.wav
64,192,74370,1,0,0:0:0:0:
448,192,74518,128,0,74814:0:0:0:60:LR_Clap kick.wav
64,192,74814,128,0,75109:0:0:0:60:LR_Clap kick.wav
448,192,75109,1,0,0:0:0:60:LR_Clap kick.wav
192,192,75257,1,0,0:0:0:60:LR_Clap kick.wav
320,192,75331,1,0,0:0:0:60:LR_Clap kick.wav
64,192,75405,128,0,75701:0:0:0:60:LR_Clap kick.wav
448,192,75553,1,0,0:0:0:60:LR_Clap kick.wav
192,192,75701,1,0,0:0:0:60:LR4_SnareKKF.wav
320,192,75701,1,0,0:0:0:60:LR_Drum Low Finish Long Echo.wav
192,192,75996,1,0,0:0:0:60:LR4_SnareKKF.wav
320,192,75996,1,0,0:0:0:0:
64,192,76292,1,0,0:0:0:60:LR4_SnareKKF.wav
448,192,76292,1,0,0:0:0:0:
64,192,76587,1,0,0:0:0:60:LR4_SnareKKF.wav
448,192,76587,1,0,0:0:0:0:
192,192,76735,1,0,0:0:0:60:LR4_SnareKKF.wav
320,192,76809,1,0,0:0:0:60:LR4_SnareKKF.wav
64,192,76883,1,0,0:0:0:60:LR4_SnareKKF.wav
192,192,76883,1,0,0:0:0:0:
64,192,77178,1,0,0:0:0:60:LR4_SnareKKF.wav
192,192,77178,1,0,0:0:0:0:
320,192,77474,1,0,0:0:0:60:LR4_SnareKKF.wav
448,192,77474,1,0,0:0:0:0:
320,192,77769,1,0,0:0:0:60:LR4_SnareKKF.wav
448,192,77769,1,0,0:0:0:0:
64,192,77917,1,0,0:0:0:60:LR4_SnareKKF.wav
192,192,77917,1,0,0:0:0:0:
320,192,78065,1,0,0:0:0:60:LR4_SnareKKF.wav
448,192,78065,1,0,0:0:0:0:
320,192,78361,1,0,0:0:0:60:LR4_SnareKKF.wav
448,192,78361,1,0,0:0:0:0:
192,192,78656,1,0,0:0:0:60:LR4_SnareKKF.wav
448,192,78656,1,0,0:0:0:0:
192,192,78952,1,0,0:0:0:60:LR4_SnareKKF.wav
448,192,78952,1,0,0:0:0:0:
320,192,79100,1,0,0:0:0:60:LR4_SnareKKF.wav
192,192,79173,1,0,0:0:0:60:LR4_SnareKKF.wav
64,192,79247,1,0,0:0:0:60:LR4_SnareKKF.wav
320,192,79247,1,0,0:0:0:0:
64,192,79543,1,0,0:0:0:60:LR4_SnareKKF.wav
320,192,79543,1,0,0:0:0:0:
64,192,79838,1,0,0:0:0:60:LR4_SnareKKF.wav
192,192,79838,1,0,0:0:0:0:
320,192,79986,1,0,0:0:0:60:LR4_SnareKKF.wav
192,192,80060,1,0,0:0:0:60:LR4_SnareKKF.wav
320,192,80134,1,0,0:0:0:60:LR4_SnareKKF.wav
448,192,80134,1,0,0:0:0:0:
192,192,80282,1,0,0:0:0:0:
64,192,80430,1,0,0:0:0:60:LR4_SnareKKF.wav
448,192,80430,1,0,0:0:0:60:LR_Drum Low Finish Long Echo.wav
64,192,80725,1,0,0:0:0:60:LR4_SnareKKF.wav
448,192,80725,1,0,0:0:0:0:
64,192,81021,1,0,0:0:0:60:LR4_SnareKKF.wav
320,192,81021,1,0,0:0:0:0:
64,192,81316,1,0,0:0:0:60:LR4_SnareKKF.wav
320,192,81316,1,0,0:0:0:0:
192,192,81464,1,0,0:0:0:60:LR4_SnareKKF.wav
320,192,81538,1,0,0:0:0:60:LR4_SnareKKF.wav
192,192,81612,1,0,0:0:0:60:LR4_SnareKKF.wav
448,192,81612,1,0,0:0:0:0:
192,192,81907,1,0,0:0:0:60:LR4_SnareKKF.wav
448,192,81907,1,0,0:0:0:0:
320,192,82203,1,0,0:0:0:60:LR4_SnareKKF.wav
448,192,82203,1,0,0:0:0:0:
320,192,82499,1,0,0:0:0:60:LR4_SnareKKF.wav
448,192,82499,1,0,0:0:0:0:
320,192,82646,1,0,0:0:0:60:LR4_SnareKKF.wav
448,192,82646,1,0,0:0:0:0:
64,192,82794,1,0,0:0:0:60:LR4_SnareKKF.wav
192,192,82794,1,0,0:0:0:0:
64,192,83090,1,0,0:0:0:60:LR4_SnareKKF.wav
192,192,83090,1,0,0:0:0:0:
192,192,83385,1,0,0:0:0:60:LR4_SnareKKF.wav
320,192,83385,1,0,0:0:0:0:
192,192,83681,1,0,0:0:0:60:LR4_SnareKKF.wav
320,192,83681,1,0,0:0:0:0:
448,192,83829,1,0,0:0:0:60:LR4_SnareKKF.wav
192,192,83902,1,0,0:0:0:60:LR4_SnareKKF.wav
64,192,83976,1,0,0:0:0:60:LR4_SnareKKF.wav
320,192,83976,1,0,0:0:0:0:
64,192,84272,1,0,0:0:0:60:LR4_SnareKKF.wav
320,192,84272,1,0,0:0:0:0:
192,192,84568,1,0,0:0:0:60:LR4_SnareKKF.wav
448,192,84568,1,0,0:0:0:0:
64,192,84715,1,0,0:0:0:60:LR4_SnareKKF.wav
320,192,84789,1,0,0:0:0:60:LR4_SnareKKF.wav
192,192,84863,1,0,0:0:0:60:LR4_SnareKKF.wav
448,192,84863,1,0,0:0:0:0:
320,192,85011,1,0,0:0:0:0:
64,192,85159,1,0,0:0:0:60:kick.wav
192,192,85159,1,0,0:0:0:60:LR_Drum Low Finish Long Echo.wav
448,192,85306,1,0,0:0:0:0:
192,192,85454,1,0,0:0:0:60:snare.wav
320,192,85454,1,0,0:0:0:0:
448,192,85602,1,0,0:0:0:0:
192,192,85898,1,0,0:0:0:0:
320,192,86045,1,0,0:0:0:60:snare.wav
448,192,86045,1,0,0:0:0:0:
64,192,86193,1,0,0:0:0:0:
192,192,86341,1,0,0:0:0:60:kick.wav
320,192,86341,1,0,0:0:0:0:
448,192,86489,1,0,0:0:0:0:
64,192,86636,1,0,0:0:0:60:snare.wav
192,192,86636,1,0,0:0:0:0:
320,192,86784,1,0,0:0:0:0:
448,192,87080,1,0,0:0:0:0:
64,192,87228,1,0,0:0:0:60:snare.wav
192,192,87228,1,0,0:0:0:0:
448,192,87375,1,0,0:0:0:0:
64,192,87523,1,0,0:0:0:60:kick.wav
320,192,87523,1,0,0:0:0:0:
192,192,87671,1,0,0:0:0:0:
64,192,87819,1,0,0:0:0:60:snare.wav
448,192,87819,1,0,0:0:0:0:
320,192,87967,1,0,0:0:0:0:
64,192,88262,1,0,0:0:0:0:
320,192,88410,1,0,0:0:0:60:snare.wav
448,192,88410,1,0,0:0:0:0:
64,192,88558,1,0,0:0:0:0:
192,192,88705,1,0,0:0:0:60:kick.wav
448,192,88705,1,0,0:0:0:0:
320,192,88853,1,0,0:0:0:0:
64,192,89001,1,0,0:0:0:60:snare.wav
192,192,89001,1,0,0:0:0:0:
320,192,89149,1,0,0:0:0:0:
64,192,89444,1,0,0:0:0:0:
192,192,89592,1,0,0:0:0:60:snare.wav
448,192,89592,1,0,0:0:0:0:
320,192,89740,1,0,0:0:0:0:
64,192,89888,1,0,0:0:0:60:snare.wav
192,192,89888,1,0,0:0:0:60:kick.wav
320,192,90035,1,0,0:0:0:60:snare.wav
448,192,90035,1,0,0:0:0:0:
64,192,90183,1,0,0:0:0:60:snare.wav
192,192,90183,1,0,0:0:0:0:
320,192,90331,1,0,0:0:0:60:snare.wav
64,192,90479,1,0,0:0:0:60:snare.wav
448,192,90479,1,0,0:0:0:60:kick.wav
192,192,90627,1,0,0:0:0:60:snare.wav
320,192,90627,1,0,0:0:0:0:
64,192,90774,1,0,0:0:0:60:snare.wav
448,192,90774,1,0,0:0:0:0:
320,192,90922,1,0,0:0:0:60:snare.wav
192,192,91070,1,0,0:0:0:60:snare.wav
448,192,91070,1,0,0:0:0:60:kick.wav
64,192,91218,1,0,0:0:0:60:snare.wav
320,192,91218,1,0,0:0:0:0:
192,192,91366,1,0,0:0:0:60:snare.wav
448,192,91366,1,0,0:0:0:0:
320,192,91513,1,0,0:0:0:60:snare.wav
64,192,91661,1,0,0:0:0:60:snare.wav
192,192,91661,1,0,0:0:0:60:kick.wav
320,192,91809,1,0,0:0:0:60:snare.wav
448,192,91809,1,0,0:0:0:0:
64,192,91957,1,0,0:0:0:60:snare.wav
192,192,91957,1,0,0:0:0:0:
320,192,92104,1,0,0:0:0:60:snare.wav
64,192,92252,1,0,0:0:0:60:snare.wav
448,192,92252,1,0,0:0:0:60:kick.wav
192,192,92326,1,0,0:0:0:60:snare.wav
320,192,92400,1,0,0:0:0:60:snare.wav
64,192,92474,1,0,0:0:0:60:snare.wav
192,192,92548,1,0,0:0:0:60:snare.wav
448,192,92622,1,0,0:0:0:60:snare.wav
320,192,92696,1,0,0:0:0:60:snare.wav
192,192,92769,1,0,0:0:0:60:snare.wav
448,192,92843,1,0,0:0:0:60:snare.wav
320,192,92917,1,0,0:0:0:60:snare.wav
64,192,92991,1,0,0:0:0:60:snare.wav
192,192,93065,1,0,0:0:0:60:snare.wav
320,192,93139,1,0,0:0:0:60:snare.wav
64,192,93213,1,0,0:0:0:60:snare.wav
448,192,93287,1,0,0:0:0:60:snare.wav
320,192,93361,1,0,0:0:0:60:snare.wav
192,192,93435,1,0,0:0:0:30:snare.wav
448,192,93435,1,0,0:0:0:60:kick.wav
192,192,93730,1,0,0:0:0:40:snare.wav
192,192,94026,1,0,0:0:0:50:snare.wav
320,192,94321,1,0,0:0:0:60:LR4_SnareKKF.wav
448,192,94321,1,0,0:0:0:0:
64,192,94617,1,0,0:0:0:60:kick.wav
448,192,94617,128,0,94765:0:0:0:60:LR_Drum Low Finish Long Echo.wav
320,192,94765,128,0,94912:0:0:0:0:
64,192,94912,1,0,0:0:0:60:kick.wav
448,192,94912,128,0,95208:0:0:0:0:
64,192,95208,1,0,0:0:0:60:kick.wav
192,192,95208,1,0,0:0:0:0:
320,192,95356,1,0,0:0:0:0:
64,192,95503,1,0,0:0:0:60:kick.wav
448,192,95503,1,0,0:0:0:0:
320,192,95651,1,0,0:0:0:0:
64,192,95799,1,0,0:0:0:60:kick.wav
192,192,95799,1,0,0:0:0:0:
320,192,95947,1,0,0:0:0:0:
64,192,96095,1,0,0:0:0:60:kick.wav
320,192,96095,1,0,0:0:0:0:
320,192,96242,1,0,0:0:0:0:
192,192,96390,128,0,96538:0:0:0:60:kick.wav
448,192,96390,1,0,0:0:0:0:
64,192,96538,128,0,96686:0:0:0:0:
448,192,96686,1,0,0:0:0:60:kick.wav
320,192,96834,1,0,0:0:0:0:
64,192,96981,128,0,97129:0:0:0:60:kick.wav
448,192,96981,1,0,0:0:0:0:
192,192,97129,128,0,97277:0:0:0:0:
64,192,97277,128,0,97572:0:0:0:60:kick.wav
448,192,97277,1,0,0:0:0:0:
320,192,97572,1,0,0:0:0:60:kick.wav
448,192,97572,1,0,0:0:0:0:
192,192,97720,1,0,0:0:0:0:
64,192,97868,1,0,0:0:0:60:kick.wav
448,192,97868,1,0,0:0:0:0:
192,192,98016,1,0,0:0:0:0:
320,192,98164,1,0,0:0:0:60:kick.wav
448,192,98164,1,0,0:0:0:0:
192,192,98311,1,0,0:0:0:0:
192,192,98459,1,0,0:0:0:60:kick.wav
448,192,98459,1,0,0:0:0:0:
192,192,98607,1,0,0:0:0:0:
64,192,98755,128,0,99050:0:0:0:60:drum-hitnormal.wav
448,192,98755,128,0,99050:0:0:0:0:
192,192,99050,1,0,0:0:0:60:LR4_SnareKKF.wav
320,192,99050,1,0,0:0:0:0:
192,192,99198,1,0,0:0:0:0:
64,192,99346,1,0,0:0:0:60:kick.wav
320,192,99346,128,0,99494:0:0:0:60:LR_Drum Low Finish Long Echo.wav
448,192,99494,128,0,99641:0:0:0:0:
64,192,99641,1,0,0:0:0:60:kick.wav
320,192,99641,128,0,99937:0:0:0:0:
192,192,99937,1,0,0:0:0:60:kick.wav
448,192,99937,1,0,0:0:0:0:
64,192,100085,1,0,0:0:0:0:
320,192,100233,1,0,0:0:0:60:kick.wav
448,192,100233,1,0,0:0:0:0:
64,192,100380,1,0,0:0:0:0:
192,192,100528,1,0,0:0:0:60:kick.wav
320,192,100528,1,0,0:0:0:0:
64,192,100676,1,0,0:0:0:0:
64,192,100824,1,0,0:0:0:60:kick.wav
448,192,100824,1,0,0:0:0:0:
64,192,100971,1,0,0:0:0:0:
192,192,101119,1,0,0:0:0:60:kick.wav
320,192,101119,128,0,101267:0:0:0:0:
64,192,101267,128,0,101415:0:0:0:0:
320,192,101415,1,0,0:0:0:60:kick.wav
448,192,101415,1,0,0:0:0:0:
64,192,101563,1,0,0:0:0:0:
192,192,101710,128,0,101858:0:0:0:60:kick.wav
448,192,101710,1,0,0:0:0:0:
64,192,101858,128,0,102006:0:0:0:0:
192,192,102006,128,0,102302:0:0:0:60:kick.wav
448,192,102006,1,0,0:0:0:0:
64,192,102302,1,0,0:0:0:60:kick.wav
320,192,102302,1,0,0:0:0:0:
448,192,102449,1,0,0:0:0:0:
64,192,102597,1,0,0:0:0:60:kick.wav
192,192,102597,1,0,0:0:0:0:
448,192,102745,1,0,0:0:0:0:
192,192,102893,1,0,0:0:0:60:kick.wav
320,192,102893,1,0,0:0:0:0:
64,192,103188,1,0,0:0:0:60:kick.wav
448,192,103188,1,0,0:0:0:0:
192,192,103336,1,0,0:0:0:0:
320,192,103336,1,0,0:0:0:0:
64,192,103410,1,0,0:0:0:0:
320,192,103484,1,0,0:0:0:60:LR4_SnareKKF.wav
448,192,103484,1,0,0:0:0:0:
192,192,103632,1,0,0:0:0:60:kick.wav
448,192,103632,1,0,0:0:0:0:
64,192,103779,1,0,0:0:0:60:LR4_SnareKKF.wav
320,192,103779,1,0,0:0:0:0:
64,192,103927,1,0,0:0:0:60:kick.wav
192,192,103927,1,0,0:0:0:0:
320,192,104075,128,0,104223:0:0:0:60:kick.wav
448,192,104075,1,0,0:0:0:60:LR_Drum Low Finish Long Echo.wav
64,192,104223,128,0,104370:0:0:0:0:
192,192,104370,1,0,0:0:0:60:LR4_SnareKKF.wav
320,192,104370,128,0,104666:0:0:0:0:
192,192,104666,1,0,0:0:0:60:kick.wav
448,192,104666,1,0,0:0:0:0:
320,192,104814,1,0,0:0:0:0:
64,192,104962,1,0,0:0:0:60:LR4_SnareKKF.wav
448,192,104962,1,0,0:0:0:0:
320,192,105109,1,0,0:0:0:0:
192,192,105257,1,0,0:0:0:60:kick.wav
448,192,105257,1,0,0:0:0:0:
320,192,105405,1,0,0:0:0:0:
64,192,105553,1,0,0:0:0:60:LR4_SnareKKF.wav
320,192,105553,1,0,0:0:0:0:
320,192,105701,1,0,0:0:0:0:
192,192,105848,128,0,105996:0:0:0:60:kick.wav
448,192,105848,1,0,0:0:0:0:
320,192,105996,128,0,106144:0:0:0:0:
64,192,106144,1,0,0:0:0:60:LR4_SnareKKF.wav
448,192,106144,1,0,0:0:0:0:
320,192,106292,1,0,0:0:0:0:
64,192,106439,1,0,0:0:0:60:kick.wav
192,192,106439,128,0,106587:0:0:0:0:
448,192,106587,128,0,106735:0:0:0:0:
192,192,106735,128,0,107031:0:0:0:60:LR4_SnareKKF.wav
320,192,106735,1,0,0:0:0:0:
64,192,107031,1,0,0:0:0:60:kick.wav
448,192,107031,1,0,0:0:0:0:
192,192,107178,1,0,0:0:0:0:
320,192,107326,1,0,0:0:0:60:LR4_SnareKKF.wav
448,192,107326,1,0,0:0:0:0:
192,192,107474,1,0,0:0:0:0:
64,192,107622,1,0,0:0:0:60:snare.wav
448,192,107622,1,0,0:0:0:0:
64,192,107917,1,0,0:0:0:60:snare.wav
448,192,107917,1,0,0:0:0:0:
64,192,108213,128,0,108508:0:0:0:60:kick.wav
448,192,108213,128,0,108508:0:0:0:0:
192,192,108508,1,0,0:0:0:60:drum-hitnormal.wav
320,192,108508,1,0,0:0:0:0:
192,192,108656,1,0,0:0:0:0:
320,192,108804,1,0,0:0:0:60:kick.wav
448,192,108804,128,0,108952:0:0:0:60:LR_Drum Low Finish Long Echo.wav
64,192,108952,128,0,109100:0:0:0:0:
192,192,109100,1,0,0:0:0:60:LR4_SnareKKF.wav
448,192,109100,128,0,109395:0:0:0:0:
64,192,109395,1,0,0:0:0:60:kick.wav
320,192,109395,1,0,0:0:0:0:
448,192,109543,1,0,0:0:0:0:
64,192,109691,1,0,0:0:0:60:LR4_SnareKKF.wav
192,192,109691,1,0,0:0:0:0:
448,192,109838,1,0,0:0:0:0:
192,192,109986,1,0,0:0:0:60:kick.wav
320,192,109986,1,0,0:0:0:0:
448,192,110134,1,0,0:0:0:0:
64,192,110282,1,0,0:0:0:60:LR4_SnareKKF.wav
448,192,110282,1,0,0:0:0:0:
448,192,110430,1,0,0:0:0:0:
192,192,110577,128,0,110725:0:0:0:60:kick.wav
320,192,110577,1,0,0:0:0:0:
64,192,110725,128,0,110873:0:0:0:0:
320,192,110873,1,0,0:0:0:60:LR4_SnareKKF.wav
448,192,110873,1,0,0:0:0:0:
448,192,111021,1,0,0:0:0:0:
64,192,111169,128,0,111316:0:0:0:60:kick.wav
192,192,111169,1,0,0:0:0:0:
448,192,111316,128,0,111464:0:0:0:0:
64,192,111464,128,0,111760:0:0:0:60:LR4_SnareKKF.wav
320,192,111464,1,0,0:0:0:0:
320,192,111760,1,0,0:0:0:60:kick.wav
448,192,111760,1,0,0:0:0:0:
64,192,111907,1,0,0:0:0:0:
192,192,112055,1,0,0:0:0:60:LR4_SnareKKF.wav
320,192,112055,1,0,0:0:0:0:
64,192,112203,1,0,0:0:0:0:
448,192,112351,128,0,113533:0:0:0:0:
64,192,112499,1,0,0:0:0:0:
64,192,112646,1,0,0:0:0:0:
64,192,112794,1,0,0:0:0:0:
320,192,112942,128,0,113090:0:0:0:0:
192,192,113090,128,0,113237:0:0:0:0:
320,192,113237,128,0,113533:0:0:0:0:
64,192,113533,1,0,0:0:0:60:kick.wav
192,192,113533,1,0,0:0:0:60:LR_Drum Low Finish Long Echo.wav
320,192,113681,1,0,0:0:0:0:
64,192,113829,1,0,0:0:0:60:LR4_SnareKKF.wav
448,192,113829,1,0,0:0:0:0:
192,192,113976,1,0,0:0:0:0:
64,192,114124,1,0,0:0:0:60:kick.wav
320,192,114124,1,0,0:0:0:0:
448,192,114272,1,0,0:0:0:0:
64,192,114420,1,0,0:0:0:60:LR4_SnareKKF.wav
192,192,114420,1,0,0:0:0:0:
448,192,114568,1,0,0:0:0:0:
192,192,114715,1,0,0:0:0:60:kick.wav
320,192,114715,1,0,0:0:0:0:
448,192,114863,1,0,0:0:0:0:
64,192,115011,1,0,0:0:0:60:LR4_SnareKKF.wav
448,192,115011,1,0,0:0:0:0:
448,192,115159,1,0,0:0:0:0:
192,192,115306,1,0,0:0:0:60:kick.wav
448,192,115306,128,0,115602:0:0:0:0:
320,192,115454,1,0,0:0:0:0:
64,192,115602,1,0,0:0:0:60:LR4_SnareKKF.wav
192,192,115602,1,0,0:0:0:0:
320,192,115750,1,0,0:0:0:60:kick.wav
448,192,115750,1,0,0:0:0:0:
64,192,115898,1,0,0:0:0:60:kick.wav
192,192,115898,1,0,0:0:0:0:
448,192,116045,1,0,0:0:0:0:
64,192,116193,1,0,0:0:0:60:LR4_SnareKKF.wav
320,192,116193,1,0,0:0:0:0:
448,192,116341,1,0,0:0:0:0:
192,192,116489,1,0,0:0:0:60:kick.wav
320,192,116489,1,0,0:0:0:0:
64,192,116636,1,0,0:0:0:0:
320,192,116784,1,0,0:0:0:60:LR4_SnareKKF.wav
448,192,116784,1,0,0:0:0:0:
64,192,116932,1,0,0:0:0:0:
192,192,117080,1,0,0:0:0:60:kick.wav
448,192,117080,1,0,0:0:0:0:
64,192,117228,1,0,0:0:0:0:
64,192,117375,1,0,0:0:0:60:LR4_SnareKKF.wav
320,192,117375,1,0,0:0:0:0:
64,192,117523,1,0,0:0:0:60:kick.wav
448,192,117523,1,0,0:0:0:0:
192,192,117597,1,0,0:0:0:60:kick.wav
64,192,117671,128,0,117967:0:0:0:60:kick.wav
320,192,117671,1,0,0:0:0:0:
320,192,117819,1,0,0:0:0:60:kick.wav
192,192,117967,1,0,0:0:0:60:LR4_SnareKKF.wav
448,192,117967,1,0,0:0:0:0:
64,192,118262,1,0,0:0:0:60:kick.wav
320,192,118262,1,0,0:0:0:0:
192,192,118410,1,0,0:0:0:0:
320,192,118558,1,0,0:0:0:60:LR4_SnareKKF.wav
448,192,118558,1,0,0:0:0:0:
192,192,118705,1,0,0:0:0:0:
64,192,118853,1,0,0:0:0:60:kick.wav
448,192,118853,1,0,0:0:0:0:
320,192,119001,1,0,0:0:0:0:
64,192,119149,1,0,0:0:0:60:LR4_SnareKKF.wav
192,192,119149,1,0,0:0:0:0:
320,192,119297,1,0,0:0:0:0:
64,192,119444,1,0,0:0:0:60:kick.wav
448,192,119444,1,0,0:0:0:0:
320,192,119592,1,0,0:0:0:0:
192,192,119740,1,0,0:0:0:60:LR4_SnareKKF.wav
320,192,119740,1,0,0:0:0:0:
320,192,119888,1,0,0:0:0:0:
64,192,120035,1,0,0:0:0:60:kick.wav
320,192,120035,128,0,120331:0:0:0:0:
192,192,120331,1,0,0:0:0:60:LR4_SnareKKF.wav
448,192,120331,1,0,0:0:0:0:
64,192,120479,1,0,0:0:0:60:kick.wav
320,192,120479,1,0,0:0:0:0:
192,192,120627,1,0,0:0:0:60:kick.wav
448,192,120627,1,0,0:0:0:0:
320,192,120774,1,0,0:0:0:0:
64,192,120922,1,0,0:0:0:60:LR4_SnareKKF.wav
192,192,120922,1,0,0:0:0:0:
448,192,121070,1,0,0:0:0:0:
64,192,121218,1,0,0:0:0:60:kick.wav
320,192,121218,1,0,0:0:0:0:
192,192,121366,1,0,0:0:0:0:
64,192,121513,1,0,0:0:0:60:LR4_SnareKKF.wav
448,192,121513,1,0,0:0:0:0:
192,192,121661,1,0,0:0:0:0:
320,192,121809,1,0,0:0:0:60:snare.wav
448,192,121809,1,0,0:0:0:0:
320,192,122104,1,0,0:0:0:60:snare.wav
448,192,122104,1,0,0:0:0:0:
64,192,122400,128,0,122696:0:0:0:60:LR4_SnareKKF.wav
192,192,122400,128,0,122696:0:0:0:0:
320,192,122696,1,0,0:0:0:60:drum-hitnormal.wav
448,192,122696,1,0,0:0:0:0:
64,192,122991,1,0,0:0:0:60:kick.wav
448,192,122991,1,0,0:0:0:60:LR_Drum Low Finish Long Echo.wav
192,192,123139,1,0,0:0:0:0:
320,192,123287,1,0,0:0:0:60:LR4_SnareKKF.wav
448,192,123287,1,0,0:0:0:0:
192,192,123435,1,0,0:0:0:0:
64,192,123582,1,0,0:0:0:60:kick.wav
320,192,123582,1,0,0:0:0:0:
448,192,123730,1,0,0:0:0:0:
64,192,123878,1,0,0:0:0:60:LR4_SnareKKF.wav
192,192,123878,1,0,0:0:0:0:
448,192,124026,1,0,0:0:0:0:
64,192,124173,1,0,0:0:0:60:kick.wav
320,192,124173,1,0,0:0:0:0:
448,192,124321,1,0,0:0:0:0:
192,192,124469,1,0,0:0:0:60:LR4_SnareKKF.wav
448,192,124469,1,0,0:0:0:0:
448,192,124617,1,0,0:0:0:0:
64,192,124765,1,0,0:0:0:60:kick.wav
448,192,124765,128,0,125356:0:0:0:0:
192,192,125060,1,0,0:0:0:60:LR4_SnareKKF.wav
320,192,125060,1,0,0:0:0:0:
64,192,125356,1,0,0:0:0:60:kick.wav
320,192,125356,1,0,0:0:0:0:
448,192,125503,1,0,0:0:0:0:
64,192,125651,1,0,0:0:0:60:LR4_SnareKKF.wav
320,192,125651,1,0,0:0:0:0:
192,192,125799,1,0,0:0:0:0:
320,192,125947,1,0,0:0:0:60:kick.wav
448,192,125947,1,0,0:0:0:0:
64,192,126095,1,0,0:0:0:0:
192,192,126242,1,0,0:0:0:60:LR4_SnareKKF.wav
448,192,126242,1,0,0:0:0:0:
64,192,126390,1,0,0:0:0:0:
320,192,126538,1,0,0:0:0:60:kick.wav
448,192,126538,1,0,0:0:0:0:
64,192,126686,1,0,0:0:0:0:
64,192,126834,1,0,0:0:0:60:LR4_SnareKKF.wav
320,192,126834,1,0,0:0:0:0:
64,192,126981,1,0,0:0:0:0:
192,192,127129,128,0,127425:0:0:0:60:drum-hitnormal.wav
320,192,127129,128,0,127425:0:0:0:0:
64,192,127425,1,0,0:0:0:60:LR4_SnareKKF.wav
448,192,127425,1,0,0:0:0:0:
192,192,127720,1,0,0:0:0:60:kick.wav
448,192,127720,1,0,0:0:0:60:LR_Drum Low Finish Long Echo.wav
320,192,127868,1,0,0:0:0:0:
192,192,128016,1,0,0:0:0:60:LR4_SnareKKF.wav
448,192,128016,1,0,0:0:0:0:
64,192,128164,1,0,0:0:0:0:
320,192,128311,1,0,0:0:0:60:kick.wav
448,192,128311,1,0,0:0:0:0:
192,192,128459,1,0,0:0:0:0:
64,192,128607,1,0,0:0:0:60:LR4_SnareKKF.wav
448,192,128607,1,0,0:0:0:0:
192,192,128755,1,0,0:0:0:0:
320,192,128902,1,0,0:0:0:60:kick.wav
448,192,128902,1,0,0:0:0:0:
192,192,129050,1,0,0:0:0:0:
192,192,129198,1,0,0:0:0:60:LR4_SnareKKF.wav
448,192,129198,1,0,0:0:0:0:
192,192,129346,1,0,0:0:0:0:
192,192,129494,128,0,130085:0:0:0:60:kick.wav
448,192,129494,1,0,0:0:0:0:
64,192,129789,1,0,0:0:0:60:LR4_SnareKKF.wav
320,192,129789,1,0,0:0:0:0:
64,192,130085,1,0,0:0:0:60:kick.wav
320,192,130085,1,0,0:0:0:0:
192,192,130233,1,0,0:0:0:0:
64,192,130380,1,0,0:0:0:60:LR4_SnareKKF.wav
320,192,130380,1,0,0:0:0:0:
448,192,130528,1,0,0:0:0:0:
64,192,130676,1,0,0:0:0:60:kick.wav
192,192,130676,1,0,0:0:0:0:
320,192,130824,1,0,0:0:0:0:
64,192,130971,1,0,0:0:0:60:LR4_SnareKKF.wav
448,192,130971,1,0,0:0:0:0:
320,192,131119,1,0,0:0:0:0:
192,192,131267,1,0,0:0:0:60:snare.wav
448,192,131267,1,0,0:0:0:0:
64,192,131489,1,0,0:0:0:0:
320,192,131563,1,0,0:0:0:60:snare.wav
448,192,131563,1,0,0:0:0:0:
192,192,131710,1,0,0:0:0:0:
64,192,131858,1,0,0:0:0:60:snare.wav
448,192,131858,1,0,0:0:0:0:
320,192,131932,1,0,0:0:0:0:
64,192,132154,128,0,132449:0:0:0:60:LR4_SnareKKF.wav
192,192,132154,128,0,132449:0:0:0:0:
320,192,132449,1,0,0:0:0:60:kick.wav
448,192,132449,1,0,0:0:0:60:LR_Drum Low Finish Long Echo.wav
192,192,132597,1,0,0:0:0:0:
448,192,132745,1,0,0:0:0:0:
64,192,132893,1,0,0:0:0:0:
320,192,133040,1,0,0:0:0:0:
192,192,133188,1,0,0:0:0:0:
448,192,133336,1,0,0:0:0:0:
192,192,133632,1,0,0:0:0:0:
320,192,133927,1,0,0:0:0:0:
192,192,134223,1,0,0:0:0:0:
64,192,134370,128,0,134666:0:0:0:0:
448,192,134814,1,0,0:0:0:0:
192,192,134962,1,0,0:0:0:0:
320,192,135109,1,0,0:0:0:0:
64,192,135257,1,0,0:0:0:0:
448,192,135405,1,0,0:0:0:0:
192,192,135701,1,0,0:0:0:0:
320,192,135996,1,0,0:0:0:0:
448,192,136144,1,0,0:0:0:0:
64,192,136292,1,0,0:0:0:0:
192,192,136439,1,0,0:0:0:0:
320,192,136587,1,0,0:0:0:0:
64,192,136735,128,0,137031:0:0:0:0:
192,192,137178,1,0,0:0:0:0:
448,192,137326,1,0,0:0:0:0:
64,192,137474,1,0,0:0:0:0:
320,192,137622,1,0,0:0:0:0:
64,192,137769,1,0,0:0:0:0:
320,192,137917,1,0,0:0:0:0:
192,192,138065,128,0,138287:0:0:0:0:
448,192,138361,1,0,0:0:0:0:
192,192,138508,1,0,0:0:0:0:
448,192,138656,1,0,0:0:0:0:
192,192,138804,1,0,0:0:0:0:
64,192,138952,1,0,0:0:0:0:
320,192,139100,128,0,139321:0:0:0:0:
64,192,139395,1,0,0:0:0:0:
448,192,139543,1,0,0:0:0:0:
192,192,139691,1,0,0:0:0:0:
320,192,139838,1,0,0:0:0:0:
448,192,139986,1,0,0:0:0:0:
192,192,140134,1,0,0:0:0:0:
64,192,140282,1,0,0:0:0:0:
448,192,140577,1,0,0:0:0:0:
320,192,140725,1,0,0:0:0:0:
64,192,140873,1,0,0:0:0:0:
448,192,141021,1,0,0:0:0:0:
192,192,141169,1,0,0:0:0:0:
64,192,141316,1,0,0:0:0:0:
320,192,141464,1,0,0:0:0:0:
192,192,141612,1,0,0:0:0:0:
448,192,141760,1,0,0:0:0:0:
64,192,141907,1,0,0:0:0:60:LR_Drum Low Finish Long Echo.wav
192,192,141907,1,0,0:0:0:60:LR_Clap kick.wav
320,192,142055,1,0,0:0:0:0:
64,192,142203,1,0,0:0:0:60:LR_Clap kick.wav
448,192,142351,1,0,0:0:0:0:
192,192,142499,1,0,0:0:0:60:LR_Clap kick.wav
448,192,142794,1,0,0:0:0:60:LR_Clap kick.wav
320,192,143090,1,0,0:0:0:60:LR_Clap kick.wav
192,192,143237,1,0,0:0:0:0:
448,192,143385,128,0,143681:0:0:0:60:LR_Clap kick.wav
192,192,143681,1,0,0:0:0:60:LR_Clap kick.wav
320,192,143829,1,0,0:0:0:0:
64,192,143976,128,0,144272:0:0:0:60:LR_Clap kick.wav
448,192,144124,1,0,0:0:0:60:LR_Clap kick.wav
192,192,144272,1,0,0:0:0:60:LR_Clap kick.wav
320,192,144494,1,0,0:0:0:0:
192,192,144568,1,0,0:0:0:60:LR_Clap kick.wav
448,192,144715,1,0,0:0:0:0:
64,192,144863,1,0,0:0:0:60:LR_Clap kick.wav
192,192,145085,1,0,0:0:0:0:
320,192,145159,1,0,0:0:0:60:LR_Clap kick.wav
64,192,145306,1,0,0:0:0:0:
448,192,145454,1,0,0:0:0:60:LR_Clap kick.wav
192,192,145602,1,0,0:0:0:0:
320,192,145750,128,0,146045:0:0:0:60:LR_Clap kick.wav
64,192,146045,1,0,0:0:0:60:LR_Clap kick.wav
320,192,146193,1,0,0:0:0:60:LR_Clap kick.wav
448,192,146267,1,0,0:0:0:60:LR_Clap kick.wav
192,192,146341,128,0,146636:0:0:0:60:LR_Clap kick.wav
64,192,146489,1,0,0:0:0:60:LR_Clap kick.wav
320,192,146636,1,0,0:0:0:60:LR_Drum Low Finish Long Echo.wav
448,192,146636,1,0,0:0:0:60:LR_Clap kick.wav
64,192,146932,1,0,0:0:0:60:LR_Clap kick.wav
320,192,147080,1,0,0:0:0:0:
192,192,147228,1,0,0:0:0:60:LR_Clap kick.wav
448,192,147523,1,0,0:0:0:60:LR_Clap kick.wav
192,192,147819,1,0,0:0:0:60:LR_Clap kick.wav
448,192,147967,1,0,0:0:0:0:
64,192,148114,128,0,148410:0:0:0:60:LR_Clap kick.wav
320,192,148410,1,0,0:0:0:60:LR_Clap kick.wav
64,192,148558,1,0,0:0:0:0:
448,192,148705,128,0,149001:0:0:0:60:LR_Clap kick.wav
192,192,148853,1,0,0:0:0:60:LR_Clap kick.wav
64,192,149001,1,0,0:0:0:60:LR_Clap kick.wav
320,192,149223,1,0,0:0:0:0:
64,192,149297,1,0,0:0:0:60:LR_Clap kick.wav
448,192,149444,1,0,0:0:0:0:
192,192,149592,1,0,0:0:0:60:LR_Clap kick.wav
320,192,149592,1,0,0:0:0:0:
192,192,149814,1,0,0:0:0:0:
448,192,149888,1,0,0:0:0:60:LR_Clap kick.wav
320,192,150035,1,0,0:0:0:0:
448,192,150183,128,0,150405:0:0:0:60:LR_Clap kick.wav
64,192,150479,128,0,150774:0:0:0:60:LR_Clap kick.wav
448,192,150774,1,0,0:0:0:60:LR_Clap kick.wav
320,192,150922,1,0,0:0:0:60:LR_Clap kick.wav
192,192,150996,1,0,0:0:0:60:LR_Clap kick.wav
64,192,151070,128,0,151366:0:0:0:60:LR_Clap kick.wav
320,192,151218,1,0,0:0:0:60:LR_Clap kick.wav
192,192,151366,1,0,0:0:0:60:kick.wav
448,192,151366,1,0,0:0:0:60:LR_Drum Low Finish Long Echo.wav
320,192,151513,1,0,0:0:0:0:
64,192,151661,1,0,0:0:0:60:snare.wav
192,192,151661,1,0,0:0:0:0:
448,192,151809,1,0,0:0:0:0:
320,192,152104,1,0,0:0:0:0:
64,192,152252,1,0,0:0:0:60:snare.wav
192,192,152252,1,0,0:0:0:0:
448,192,152400,1,0,0:0:0:0:
64,192,152548,1,0,0:0:0:60:kick.wav
320,192,152548,1,0,0:0:0:0:
192,192,152696,1,0,0:0:0:0:
320,192,152843,1,0,0:0:0:60:snare.wav
448,192,152843,1,0,0:0:0:0:
64,192,152991,1,0,0:0:0:0:
192,192,153287,1,0,0:0:0:0:
320,192,153435,1,0,0:0:0:60:snare.wav
448,192,153435,1,0,0:0:0:0:
64,192,153582,1,0,0:0:0:0:
192,192,153730,1,0,0:0:0:60:kick.wav
320,192,153730,1,0,0:0:0:0:
448,192,153878,1,0,0:0:0:0:
64,192,154026,1,0,0:0:0:60:snare.wav
320,192,154026,1,0,0:0:0:0:
448,192,154173,1,0,0:0:0:0:
64,192,154469,1,0,0:0:0:0:
192,192,154617,1,0,0:0:0:60:snare.wav
448,192,154617,1,0,0:0:0:0:
64,192,154765,1,0,0:0:0:0:
320,192,154912,1,0,0:0:0:60:kick.wav
448,192,154912,1,0,0:0:0:0:
192,192,155060,1,0,0:0:0:0:
64,192,155208,1,0,0:0:0:60:snare.wav
448,192,155208,1,0,0:0:0:0:
320,192,155356,1,0,0:0:0:0:
192,192,155651,1,0,0:0:0:0:
64,192,155799,1,0,0:0:0:60:snare.wav
448,192,155799,1,0,0:0:0:0:
320,192,155947,1,0,0:0:0:0:
64,192,156095,1,0,0:0:0:60:kick.wav
192,192,156095,1,0,0:0:0:0:
448,192,156242,1,0,0:0:0:0:
64,192,156390,1,0,0:0:0:60:snare.wav
320,192,156390,1,0,0:0:0:0:
192,192,156686,1,0,0:0:0:60:kick.wav
448,192,156686,1,0,0:0:0:0:
64,192,156834,1,0,0:0:0:0:
320,192,156981,1,0,0:0:0:60:snare.wav
448,192,156981,1,0,0:0:0:0:
64,192,157277,1,0,0:0:0:60:kick.wav
320,192,157277,1,0,0:0:0:0:
448,192,157425,1,0,0:0:0:0:
64,192,157572,1,0,0:0:0:60:snare.wav
192,192,157572,1,0,0:0:0:0:
192,192,157868,1,0,0:0:0:60:kick.wav
448,192,157868,1,0,0:0:0:0:
64,192,158016,1,0,0:0:0:0:
320,192,158164,1,0,0:0:0:60:snare.wav
448,192,158164,1,0,0:0:0:0:
192,192,158459,1,0,0:0:0:60:kick.wav
448,192,158459,128,0,158755:0:0:0:0:
64,192,158755,1,0,0:0:0:60:snare.wav
320,192,158755,128,0,159050:0:0:0:0:
192,192,159050,128,0,159346:0:0:0:60:kick.wav
448,192,159050,1,0,0:0:0:0:
64,192,159346,128,0,159641:0:0:0:60:snare.wav
320,192,159346,1,0,0:0:0:0:
448,192,159494,1,0,0:0:0:60:snare.wav
320,192,159568,1,0,0:0:0:60:snare.wav
192,192,159641,1,0,0:0:0:60:kick.wav
448,192,159641,1,0,0:0:0:0:
192,192,159937,1,0,0:0:0:60:LR4_SnareKKF.wav
320,192,159937,1,0,0:0:0:0:
64,192,160085,1,0,0:0:0:60:LR4_SnareKKF.wav
448,192,160085,1,0,0:0:0:0:
192,192,160159,1,0,0:0:0:60:LR4_SnareKKF.wav
320,192,160233,1,0,0:0:0:60:snare.wav
448,192,160233,1,0,0:0:0:0:
64,192,160528,128,0,160824:0:0:0:60:drum-hitnormal.wav
192,192,160528,1,0,0:0:0:0:
320,192,160824,1,0,0:0:0:60:kick.wav
448,192,160824,1,0,0:0:0:60:LR_Drum Low Finish Long Echo.wav
320,192,160971,1,0,0:0:0:60:kick.wav
448,192,160971,1,0,0:0:0:0:
64,192,161119,1,0,0:0:0:60:kick.wav
192,192,161119,1,0,0:0:0:0:
448,192,161267,1,0,0:0:0:0:
64,192,161415,1,0,0:0:0:60:kick.wav
320,192,161415,1,0,0:0:0:0:
192,192,161563,1,0,0:0:0:0:
320,192,161710,1,0,0:0:0:60:kick.wav
448,192,161710,1,0,0:0:0:0:
192,192,161858,1,0,0:0:0:0:
448,192,161932,1,0,0:0:0:60:kick.wav
64,192,162006,1,0,0:0:0:60:kick.wav
320,192,162006,1,0,0:0:0:0:
192,192,162154,1,0,0:0:0:0:
64,192,162302,1,0,0:0:0:60:kick.wav
448,192,162302,1,0,0:0:0:0:
320,192,162449,1,0,0:0:0:0:
64,192,162597,1,0,0:0:0:60:kick.wav
192,192,162597,1,0,0:0:0:0:
448,192,162745,1,0,0:0:0:0:
192,192,162893,1,0,0:0:0:60:kick.wav
320,192,162893,1,0,0:0:0:0:
64,192,163040,1,0,0:0:0:60:kick.wav
192,192,163040,1,0,0:0:0:0:
320,192,163188,1,0,0:0:0:60:kick.wav
448,192,163188,1,0,0:0:0:0:
192,192,163336,1,0,0:0:0:0:
64,192,163484,1,0,0:0:0:60:kick.wav
320,192,163484,1,0,0:0:0:0:
448,192,163632,1,0,0:0:0:0:
64,192,163779,1,0,0:0:0:60:kick.wav
320,192,163779,1,0,0:0:0:0:
192,192,163927,1,0,0:0:0:0:
320,192,164075,1,0,0:0:0:60:kick.wav
448,192,164075,1,0,0:0:0:0:
320,192,164223,1,0,0:0:0:60:kick.wav
64,192,164297,1,0,0:0:0:60:kick.wav
192,192,164370,1,0,0:0:0:60:kick.wav
448,192,164370,1,0,0:0:0:0:
320,192,164518,1,0,0:0:0:0:
64,192,164666,1,0,0:0:0:60:kick.wav
448,192,164666,1,0,0:0:0:0:
192,192,164814,1,0,0:0:0:0:
320,192,164962,1,0,0:0:0:60:kick.wav
448,192,164962,1,0,0:0:0:0:
64,192,165109,1,0,0:0:0:60:kick.wav
192,192,165109,1,0,0:0:0:0:
320,192,165257,1,0,0:0:0:60:kick.wav
448,192,165257,1,0,0:0:0:0:
192,192,165405,1,0,0:0:0:60:kick.wav
320,192,165405,1,0,0:0:0:0:
64,192,165553,1,0,0:0:0:60:kick.wav
448,192,165553,1,0,0:0:0:60:LR_Drum Low Finish Long Echo.wav
192,192,165701,1,0,0:0:0:60:kick.wav
320,192,165701,1,0,0:0:0:0:
64,192,165848,1,0,0:0:0:60:kick.wav
448,192,165848,1,0,0:0:0:0:
320,192,165996,1,0,0:0:0:0:
64,192,166144,1,0,0:0:0:60:kick.wav
192,192,166144,1,0,0:0:0:0:
320,192,166292,1,0,0:0:0:0:
64,192,166439,1,0,0:0:0:60:kick.wav
448,192,166439,1,0,0:0:0:0:
192,192,166587,1,0,0:0:0:0:
64,192,166735,1,0,0:0:0:60:kick.wav
320,192,166735,1,0,0:0:0:0:
192,192,166883,1,0,0:0:0:0:
320,192,167031,1,0,0:0:0:60:kick.wav
448,192,167031,1,0,0:0:0:0:
64,192,167178,1,0,0:0:0:0:
192,192,167326,1,0,0:0:0:60:kick.wav
320,192,167326,1,0,0:0:0:0:
64,192,167474,1,0,0:0:0:60:kick.wav
448,192,167548,1,0,0:0:0:60:kick.wav
192,192,167622,1,0,0:0:0:60:kick.wav
320,192,167622,1,0,0:0:0:0:
64,192,167769,1,0,0:0:0:60:kick.wav
192,192,167769,1,0,0:0:0:0:
320,192,167917,1,0,0:0:0:60:kick.wav
448,192,167917,1,0,0:0:0:0:
192,192,168065,1,0,0:0:0:0:
64,192,168213,1,0,0:0:0:60:kick.wav
448,192,168213,1,0,0:0:0:0:
320,192,168361,1,0,0:0:0:0:
192,192,168435,1,0,0:0:0:60:kick.wav
320,192,168508,1,0,0:0:0:60:kick.wav
448,192,168508,1,0,0:0:0:0:
64,192,168656,1,0,0:0:0:0:
192,192,168804,1,0,0:0:0:60:kick.wav
448,192,168804,1,0,0:0:0:0:
320,192,168952,1,0,0:0:0:0:
64,192,169100,1,0,0:0:0:60:kick.wav
448,192,169100,1,0,0:0:0:0:
192,192,169247,1,0,0:0:0:0:
320,192,169321,1,0,0:0:0:60:kick.wav
64,192,169395,1,0,0:0:0:60:kick.wav
192,192,169395,1,0,0:0:0:0:
320,192,169543,1,0,0:0:0:60:kick.wav
448,192,169543,1,0,0:0:0:0:
192,192,169691,1,0,0:0:0:60:kick.wav
320,192,169691,1,0,0:0:0:0:
64,192,169838,1,0,0:0:0:60:kick.wav
448,192,169838,1,0,0:0:0:0:
192,192,169986,1,0,0:0:0:60:kick.wav
320,192,170060,1,0,0:0:0:60:kick.wav
192,192,170134,1,0,0:0:0:60:kick.wav
320,192,170208,1,0,0:0:0:60:kick.wav
64,192,170282,1,0,0:0:0:60:kick.wav
448,192,170282,1,0,0:0:0:60:LR_Drum Low Finish Long Echo.wav
192,192,170430,1,0,0:0:0:60:kick.wav
320,192,170430,1,0,0:0:0:0:
64,192,170577,1,0,0:0:0:60:LR4_SnareKKF.wav
448,192,170577,1,0,0:0:0:0:
192,192,170725,1,0,0:0:0:0:
320,192,170873,1,0,0:0:0:60:kick.wav
448,192,170873,1,0,0:0:0:0:
64,192,171021,1,0,0:0:0:0:
192,192,171169,1,0,0:0:0:60:LR4_SnareKKF.wav
448,192,171169,1,0,0:0:0:0:
64,192,171316,1,0,0:0:0:0:
320,192,171390,1,0,0:0:0:60:kick.wav
64,192,171464,1,0,0:0:0:60:kick.wav
192,192,171464,1,0,0:0:0:0:
448,192,171612,1,0,0:0:0:0:
64,192,171760,1,0,0:0:0:60:LR4_SnareKKF.wav
320,192,171760,1,0,0:0:0:0:
448,192,171907,1,0,0:0:0:0:
64,192,172055,1,0,0:0:0:60:kick.wav
192,192,172055,1,0,0:0:0:0:
320,192,172203,1,0,0:0:0:0:
192,192,172351,1,0,0:0:0:60:LR4_SnareKKF.wav
448,192,172351,1,0,0:0:0:0:
64,192,172499,1,0,0:0:0:60:kick.wav
320,192,172499,1,0,0:0:0:0:
320,192,172646,1,0,0:0:0:60:kick.wav
448,192,172646,1,0,0:0:0:0:
192,192,172794,1,0,0:0:0:0:
64,192,172942,1,0,0:0:0:60:LR4_SnareKKF.wav
320,192,172942,1,0,0:0:0:0:
448,192,173090,1,0,0:0:0:0:
64,192,173237,1,0,0:0:0:60:kick.wav
320,192,173237,1,0,0:0:0:0:
192,192,173385,1,0,0:0:0:0:
64,192,173533,1,0,0:0:0:60:LR4_SnareKKF.wav
320,192,173533,1,0,0:0:0:0:
448,192,173681,1,0,0:0:0:60:kick.wav
192,192,173755,1,0,0:0:0:60:kick.wav
320,192,173829,1,0,0:0:0:60:kick.wav
448,192,173829,1,0,0:0:0:0:
64,192,173976,1,0,0:0:0:0:
192,192,174124,1,0,0:0:0:60:LR4_SnareKKF.wav
320,192,174124,1,0,0:0:0:0:
64,192,174272,1,0,0:0:0:0:
320,192,174420,1,0,0:0:0:60:kick.wav
448,192,174420,1,0,0:0:0:0:
64,192,174568,1,0,0:0:0:60:kick.wav
192,192,174568,1,0,0:0:0:0:
320,192,174715,1,0,0:0:0:60:LR4_SnareKKF.wav
448,192,174715,1,0,0:0:0:0:
192,192,174863,1,0,0:0:0:60:kick.wav
320,192,174863,1,0,0:0:0:0:
64,192,175011,1,0,0:0:0:60:kick.wav
448,192,175011,1,0,0:0:0:60:LR_Drum Low Finish Long Echo.wav
192,192,175159,1,0,0:0:0:60:kick.wav
320,192,175159,1,0,0:0:0:0:
64,192,175306,1,0,0:0:0:60:LR4_SnareKKF.wav
448,192,175306,1,0,0:0:0:0:
192,192,175454,1,0,0:0:0:0:
320,192,175602,1,0,0:0:0:60:kick.wav
448,192,175602,1,0,0:0:0:0:
64,192,175750,1,0,0:0:0:0:
192,192,175898,1,0,0:0:0:60:LR4_SnareKKF.wav
448,192,175898,1,0,0:0:0:0:
320,192,176045,1,0,0:0:0:0:
64,192,176193,1,0,0:0:0:60:kick.wav
192,192,176193,1,0,0:0:0:0:
448,192,176341,1,0,0:0:0:0:
64,192,176489,1,0,0:0:0:60:LR4_SnareKKF.wav
320,192,176489,1,0,0:0:0:0:
448,192,176636,1,0,0:0:0:0:
64,192,176784,1,0,0:0:0:60:kick.wav
192,192,176784,1,0,0:0:0:0:
320,192,176932,1,0,0:0:0:60:kick.wav
192,192,177006,1,0,0:0:0:60:kick.wav
64,192,177080,1,0,0:0:0:60:LR4_SnareKKF.wav
448,192,177080,1,0,0:0:0:0:
192,192,177228,1,0,0:0:0:60:kick.wav
320,192,177228,1,0,0:0:0:0:
320,192,177375,1,0,0:0:0:60:kick.wav
448,192,177375,1,0,0:0:0:0:
64,192,177523,1,0,0:0:0:0:
192,192,177671,1,0,0:0:0:60:LR4_SnareKKF.wav
448,192,177671,1,0,0:0:0:0:
192,192,177819,1,0,0:0:0:0:
320,192,177893,1,0,0:0:0:60:kick.wav
64,192,177967,1,0,0:0:0:60:kick.wav
448,192,177967,1,0,0:0:0:0:
192,192,178114,1,0,0:0:0:0:
320,192,178262,1,0,0:0:0:60:LR4_SnareKKF.wav
448,192,178262,1,0,0:0:0:0:
64,192,178410,1,0,0:0:0:0:
192,192,178558,1,0,0:0:0:60:snare.wav
320,192,178558,1,0,0:0:0:0:
64,192,178779,1,0,0:0:0:0:
192,192,178853,1,0,0:0:0:60:snare.wav
448,192,178853,1,0,0:0:0:0:
320,192,179001,1,0,0:0:0:0:
64,192,179149,1,0,0:0:0:60:snare.wav
192,192,179149,1,0,0:0:0:0:
448,192,179223,1,0,0:0:0:0:
64,192,179444,1,0,0:0:0:60:LR4_SnareKKF.wav
320,192,179444,1,0,0:0:0:0:
192,192,179740,1,0,0:0:0:60:kick.wav
448,192,179740,1,0,0:0:0:60:LR_Drum Low Finish Long Echo.wav
192,192,179888,1,0,0:0:0:60:kick.wav
448,192,179888,1,0,0:0:0:0:
64,192,180035,1,0,0:0:0:60:LR4_SnareKKF.wav
320,192,180035,1,0,0:0:0:0:
448,192,180183,1,0,0:0:0:0:
64,192,180331,1,0,0:0:0:60:kick.wav
192,192,180331,1,0,0:0:0:0:
320,192,180479,1,0,0:0:0:0:
64,192,180627,1,0,0:0:0:60:LR4_SnareKKF.wav
448,192,180627,1,0,0:0:0:0:
192,192,180774,1,0,0:0:0:0:
448,192,180848,1,0,0:0:0:60:kick.wav
64,192,180922,1,0,0:0:0:60:kick.wav
320,192,180922,1,0,0:0:0:0:
192,192,181070,1,0,0:0:0:0:
320,192,181218,1,0,0:0:0:60:LR4_SnareKKF.wav
448,192,181218,1,0,0:0:0:0:
64,192,181366,1,0,0:0:0:0:
192,192,181513,1,0,0:0:0:60:kick.wav
448,192,181513,1,0,0:0:0:0:
320,192,181661,1,0,0:0:0:0:
64,192,181809,1,0,0:0:0:60:LR4_SnareKKF.wav
448,192,181809,1,0,0:0:0:0:
192,192,181957,1,0,0:0:0:60:kick.wav
320,192,181957,1,0,0:0:0:0:
320,192,182104,1,0,0:0:0:60:kick.wav
448,192,182104,1,0,0:0:0:0:
64,192,182252,1,0,0:0:0:0:
192,192,182400,1,0,0:0:0:60:LR4_SnareKKF.wav
448,192,182400,1,0,0:0:0:0:
64,192,182548,1,0,0:0:0:0:
320,192,182696,1,0,0:0:0:60:kick.wav
448,192,182696,1,0,0:0:0:0:
192,192,182843,1,0,0:0:0:0:
64,192,182991,1,0,0:0:0:60:LR4_SnareKKF.wav
448,192,182991,1,0,0:0:0:0:
192,192,183139,1,0,0:0:0:60:kick.wav
320,192,183213,1,0,0:0:0:60:kick.wav
64,192,183287,1,0,0:0:0:60:kick.wav
448,192,183287,1,0,0:0:0:0:
192,192,183435,1,0,0:0:0:0:
320,192,183582,1,0,0:0:0:60:LR4_SnareKKF.wav
448,192,183582,1,0,0:0:0:0:
192,192,183730,1,0,0:0:0:0:
64,192,183878,1,0,0:0:0:60:kick.wav
448,192,183878,1,0,0:0:0:0:
192,192,184026,1,0,0:0:0:60:kick.wav
320,192,184026,1,0,0:0:0:0:
320,192,184173,1,0,0:0:0:60:LR4_SnareKKF.wav
448,192,184173,1,0,0:0:0:0:
64,192,184321,1,0,0:0:0:60:kick.wav
192,192,184321,1,0,0:0:0:0:
320,192,184469,1,0,0:0:0:60:kick.wav
448,192,184469,1,0,0:0:0:60:LR_Drum Low Finish Long Echo.wav
192,192,184617,1,0,0:0:0:60:kick.wav
320,192,184617,1,0,0:0:0:0:
64,192,184765,1,0,0:0:0:60:LR4_SnareKKF.wav
448,192,184765,1,0,0:0:0:0:
192,192,184912,1,0,0:0:0:0:
64,192,185060,1,0,0:0:0:60:kick.wav
448,192,185060,1,0,0:0:0:0:
320,192,185208,1,0,0:0:0:0:
64,192,185356,1,0,0:0:0:60:LR4_SnareKKF.wav
192,192,185356,1,0,0:0:0:0:
448,192,185503,1,0,0:0:0:0:
64,192,185651,1,0,0:0:0:60:kick.wav
320,192,185651,1,0,0:0:0:0:
192,192,185799,1,0,0:0:0:0:
64,192,185947,1,0,0:0:0:60:LR4_SnareKKF.wav
448,192,185947,1,0,0:0:0:0:
320,192,186095,1,0,0:0:0:0:
64,192,186242,1,0,0:0:0:60:kick.wav
192,192,186242,1,0,0:0:0:0:
448,192,186390,1,0,0:0:0:60:kick.wav
192,192,186464,1,0,0:0:0:60:kick.wav
320,192,186538,1,0,0:0:0:60:LR4_SnareKKF.wav
448,192,186538,1,0,0:0:0:0:
64,192,186686,1,0,0:0:0:60:kick.wav
192,192,186686,1,0,0:0:0:0:
320,192,186834,1,0,0:0:0:60:kick.wav
448,192,186834,1,0,0:0:0:0:
64,192,186981,1,0,0:0:0:0:
192,192,187129,1,0,0:0:0:60:LR4_SnareKKF.wav
448,192,187129,1,0,0:0:0:0:
64,192,187277,1,0,0:0:0:0:
320,192,187351,1,0,0:0:0:60:kick.wav
64,192,187425,1,0,0:0:0:60:kick.wav
192,192,187425,1,0,0:0:0:0:
448,192,187572,1,0,0:0:0:0:
192,192,187720,1,0,0:0:0:60:LR4_SnareKKF.wav
320,192,187720,1,0,0:0:0:0:
64,192,187868,1,0,0:0:0:0:
192,192,188016,1,0,0:0:0:60:drum-hitnormal.wav
448,192,188016,128,0,188311:0:0:0:0:
64,192,188311,1,0,0:0:0:60:drum-hitnormal.wav
320,192,188311,128,0,188607:0:0:0:0:
192,192,188607,128,0,188902:0:0:0:60:drum-hitnormal.wav
448,192,188607,1,0,0:0:0:0:
64,192,188902,1,0,0:0:0:60:LR4_SnareKKF.wav
448,192,188902,1,0,0:0:0:0:
320,192,189050,1,0,0:0:0:0:
64,192,189198,1,0,0:0:0:60:kick.wav
192,192,189198,1,0,0:0:0:0:
320,192,189494,1,0,0:0:0:60:LR4_SnareKKF.wav
448,192,189494,1,0,0:0:0:60:LR_Drum Low Finish Long Echo.wav
64,192,189641,1,0,0:0:0:0:
192,192,189789,1,0,0:0:0:60:kick.wav
320,192,189789,1,0,0:0:0:0:
448,192,189937,1,0,0:0:0:0:
64,192,190085,1,0,0:0:0:60:LR4_SnareKKF.wav
192,192,190085,1,0,0:0:0:0:
448,192,190233,1,0,0:0:0:0:
192,192,190306,1,0,0:0:0:60:kick.wav
64,192,190380,1,0,0:0:0:60:kick.wav
320,192,190380,1,0,0:0:0:0:
448,192,190528,1,0,0:0:0:0:
192,192,190676,1,0,0:0:0:60:LR4_SnareKKF.wav
448,192,190676,1,0,0:0:0:0:
448,192,190824,1,0,0:0:0:0:
64,192,190971,1,0,0:0:0:60:kick.wav
448,192,190971,1,0,0:0:0:0:
192,192,191119,1,0,0:0:0:0:
320,192,191267,1,0,0:0:0:60:LR4_SnareKKF.wav
448,192,191267,1,0,0:0:0:0:
192,192,191415,1,0,0:0:0:60:kick.wav
320,192,191415,1,0,0:0:0:0:
64,192,191563,1,0,0:0:0:60:kick.wav
192,192,191563,1,0,0:0:0:0:
448,192,191710,1,0,0:0:0:0:
64,192,191858,1,0,0:0:0:60:LR4_SnareKKF.wav
320,192,191858,1,0,0:0:0:0:
192,192,192006,1,0,0:0:0:0:
320,192,192154,1,0,0:0:0:60:kick.wav
448,192,192154,1,0,0:0:0:0:
64,192,192302,1,0,0:0:0:0:
192,192,192449,1,0,0:0:0:60:LR4_SnareKKF.wav
448,192,192449,1,0,0:0:0:0:
320,192,192597,1,0,0:0:0:60:kick.wav
64,192,192671,1,0,0:0:0:60:kick.wav
192,192,192745,1,0,0:0:0:60:kick.wav
448,192,192745,1,0,0:0:0:0:
64,192,192893,1,0,0:0:0:0:
64,192,193040,1,0,0:0:0:60:LR4_SnareKKF.wav
320,192,193040,1,0,0:0:0:0:
64,192,193188,1,0,0:0:0:0:
64,192,193336,1,0,0:0:0:60:kick.wav
448,192,193336,1,0,0:0:0:0:
192,192,193484,1,0,0:0:0:60:kick.wav
320,192,193484,1,0,0:0:0:0:
64,192,193632,1,0,0:0:0:60:LR4_SnareKKF.wav
448,192,193632,1,0,0:0:0:0:
192,192,193779,1,0,0:0:0:60:kick.wav
320,192,193779,1,0,0:0:0:0:
64,192,193927,1,0,0:0:0:60:kick.wav
192,192,193927,1,0,0:0:0:0:
320,192,194223,1,0,0:0:0:60:LR4_SnareKKF.wav
448,192,194223,1,0,0:0:0:60:LR_Drum Low Finish Long Echo.wav
192,192,194370,1,0,0:0:0:0:
64,192,194518,1,0,0:0:0:60:kick.wav
448,192,194518,1,0,0:0:0:0:
320,192,194666,1,0,0:0:0:0:
192,192,194814,1,0,0:0:0:60:LR4_SnareKKF.wav
448,192,194814,1,0,0:0:0:0:
320,192,194962,1,0,0:0:0:0:
64,192,195109,1,0,0:0:0:60:kick.wav
192,192,195109,1,0,0:0:0:0:
320,192,195257,1,0,0:0:0:0:
192,192,195405,1,0,0:0:0:60:LR4_SnareKKF.wav
320,192,195405,1,0,0:0:0:0:
320,192,195553,1,0,0:0:0:0:
320,192,195701,1,0,0:0:0:60:kick.wav
448,192,195701,1,0,0:0:0:0:
192,192,195848,1,0,0:0:0:60:kick.wav
448,192,195922,1,0,0:0:0:60:kick.wav
64,192,195996,1,0,0:0:0:60:LR4_SnareKKF.wav
320,192,195996,1,0,0:0:0:0:
192,192,196144,1,0,0:0:0:60:kick.wav
448,192,196144,1,0,0:0:0:0:
192,192,196292,1,0,0:0:0:60:kick.wav
320,192,196292,1,0,0:0:0:0:
448,192,196439,1,0,0:0:0:0:
64,192,196587,1,0,0:0:0:60:LR4_SnareKKF.wav
192,192,196587,1,0,0:0:0:0:
320,192,196735,1,0,0:0:0:0:
64,192,196809,1,0,0:0:0:60:kick.wav
192,192,196883,1,0,0:0:0:60:kick.wav
448,192,196883,1,0,0:0:0:0:
320,192,197031,1,0,0:0:0:0:
64,192,197178,1,0,0:0:0:60:LR4_SnareKKF.wav
448,192,197178,1,0,0:0:0:0:
192,192,197326,1,0,0:0:0:0:
320,192,197474,1,0,0:0:0:60:kick.wav
448,192,197474,1,0,0:0:0:0:
64,192,197622,1,0,0:0:0:60:kick.wav
192,192,197622,1,0,0:0:0:0:
320,192,197769,1,0,0:0:0:60:LR4_SnareKKF.wav
448,192,197769,1,0,0:0:0:0:
192,192,197917,1,0,0:0:0:60:kick.wav
320,192,197917,1,0,0:0:0:0:
448,192,197991,1,0,0:0:0:60:kick.wav
64,192,198065,1,0,0:0:0:60:kick.wav
192,192,198065,1,0,0:0:0:0:
320,192,198213,1,0,0:0:0:0:
64,192,198361,128,0,198656:0:0:0:60:LR4_SnareKKF.wav
448,192,198361,1,0,0:0:0:0:
192,192,198656,1,0,0:0:0:60:kick.wav
320,192,198656,1,0,0:0:0:60:LR_Drum Low Finish Long Echo.wav
192,192,198804,1,0,0:0:0:60:kick.wav
320,192,198804,1,0,0:0:0:0:
64,192,198952,1,0,0:0:0:60:LR4_SnareKKF.wav
448,192,198952,1,0,0:0:0:0:
192,192,199100,1,0,0:0:0:0:
320,192,199247,1,0,0:0:0:60:kick.wav
448,192,199247,1,0,0:0:0:0:
64,192,199395,1,0,0:0:0:0:
192,192,199543,1,0,0:0:0:60:LR4_SnareKKF.wav
448,192,199543,1,0,0:0:0:0:
64,192,199691,1,0,0:0:0:0:
320,192,199765,1,0,0:0:0:60:kick.wav
64,192,199838,1,0,0:0:0:60:kick.wav
192,192,199838,1,0,0:0:0:0:
448,192,199986,1,0,0:0:0:0:
64,192,200134,1,0,0:0:0:60:LR4_SnareKKF.wav
320,192,200134,1,0,0:0:0:0:
448,192,200282,1,0,0:0:0:0:
192,192,200430,1,0,0:0:0:60:kick.wav
320,192,200430,1,0,0:0:0:0:
64,192,200577,1,0,0:0:0:0:
320,192,200725,1,0,0:0:0:60:LR4_SnareKKF.wav
448,192,200725,1,0,0:0:0:0:
64,192,200873,1,0,0:0:0:60:kick.wav
192,192,200873,1,0,0:0:0:0:
320,192,201021,1,0,0:0:0:60:kick.wav
448,192,201021,1,0,0:0:0:0:
192,192,201169,1,0,0:0:0:0:
64,192,201316,1,0,0:0:0:60:LR4_SnareKKF.wav
448,192,201316,1,0,0:0:0:0:
320,192,201464,1,0,0:0:0:0:
192,192,201612,1,0,0:0:0:60:kick.wav
448,192,201612,1,0,0:0:0:0:
320,192,201760,1,0,0:0:0:0:
64,192,201907,1,0,0:0:0:60:LR4_SnareKKF.wav
192,192,201907,1,0,0:0:0:0:
448,192,202055,1,0,0:0:0:60:kick.wav
192,192,202129,1,0,0:0:0:60:kick.wav
320,192,202203,1,0,0:0:0:60:kick.wav
448,192,202203,1,0,0:0:0:0:
64,192,202351,1,0,0:0:0:0:
192,192,202499,1,0,0:0:0:60:LR4_SnareKKF.wav
448,192,202499,1,0,0:0:0:0:
320,192,202646,1,0,0:0:0:0:
64,192,202794,1,0,0:0:0:60:kick.wav
192,192,202794,1,0,0:0:0:0:
320,192,202942,1,0,0:0:0:60:kick.wav
448,192,202942,1,0,0:0:0:0:
64,192,203090,1,0,0:0:0:60:LR4_SnareKKF.wav
192,192,203090,1,0,0:0:0:0:
192,192,203237,1,0,0:0:0:60:kick.wav
320,192,203237,1,0,0:0:0:0:
64,192,203385,1,0,0:0:0:60:kick.wav
448,192,203385,1,0,0:0:0:0:
64,192,203681,1,0,0:0:0:60:LR4_SnareKKF.wav
448,192,203681,1,0,0:0:0:0:
320,192,203829,1,0,0:0:0:0:
192,192,203976,1,0,0:0:0:60:kick.wav
448,192,203976,1,0,0:0:0:0:
64,192,204124,1,0,0:0:0:0:
192,192,204272,1,0,0:0:0:60:LR4_SnareKKF.wav
448,192,204272,1,0,0:0:0:0:
320,192,204420,1,0,0:0:0:0:
64,192,204568,1,0,0:0:0:60:kick.wav
192,192,204568,1,0,0:0:0:0:
448,192,204715,1,0,0:0:0:0:
64,192,204863,1,0,0:0:0:60:LR4_SnareKKF.wav
320,192,204863,1,0,0:0:0:0:
192,192,205011,1,0,0:0:0:0:
64,192,205159,1,0,0:0:0:60:kick.wav
448,192,205159,1,0,0:0:0:0:
192,192,205306,1,0,0:0:0:60:kick.wav
320,192,205380,1,0,0:0:0:60:kick.wav
64,192,205454,1,0,0:0:0:60:LR4_SnareKKF.wav
448,192,205454,1,0,0:0:0:0:
192,192,205602,1,0,0:0:0:60:kick.wav
320,192,205602,1,0,0:0:0:0:
320,192,205750,1,0,0:0:0:60:kick.wav
448,192,205750,1,0,0:0:0:0:
192,192,205898,1,0,0:0:0:0:
64,192,206045,1,0,0:0:0:60:LR4_SnareKKF.wav
320,192,206045,1,0,0:0:0:0:
448,192,206193,1,0,0:0:0:0:
192,192,206267,1,0,0:0:0:60:kick.wav
64,192,206341,1,0,0:0:0:60:kick.wav
320,192,206341,1,0,0:0:0:0:
192,192,206489,1,0,0:0:0:0:
64,192,206636,1,0,0:0:0:60:LR4_SnareKKF.wav
448,192,206636,1,0,0:0:0:0:
320,192,206784,1,0,0:0:0:0:
64,192,206932,1,0,0:0:0:60:kick.wav
192,192,206932,1,0,0:0:0:0:
320,192,207080,1,0,0:0:0:60:kick.wav
448,192,207080,1,0,0:0:0:0:
64,192,207228,1,0,0:0:0:60:LR4_SnareKKF.wav
192,192,207228,1,0,0:0:0:0:
320,192,207375,1,0,0:0:0:60:kick.wav
64,192,207449,1,0,0:0:0:60:kick.wav
192,192,207523,1,0,0:0:0:60:kick.wav
448,192,207523,1,0,0:0:0:0:
320,192,207671,1,0,0:0:0:0:
64,192,207819,1,0,0:0:0:60:snare.wav
448,192,207819,1,0,0:0:0:0:
192,192,207967,1,0,0:0:0:0:
320,192,208114,1,0,0:0:0:60:kick.wav
448,192,208114,1,0,0:0:0:0:
64,192,208410,1,0,0:0:0:60:LR4_SnareKKF.wav
448,192,208410,1,0,0:0:0:60:LR_Drum Low Finish Long Echo.wav
192,192,208558,1,0,0:0:0:0:
320,192,208705,1,0,0:0:0:60:kick.wav
192,192,208853,1,0,0:0:0:0:
64,192,209001,1,0,0:0:0:60:LR4_SnareKKF.wav
448,192,209001,1,0,0:0:0:0:
192,192,209149,1,0,0:0:0:0:
320,192,209297,1,0,0:0:0:60:kick.wav
192,192,209444,1,0,0:0:0:0:
192,192,209592,1,0,0:0:0:60:LR4_SnareKKF.wav
448,192,209592,1,0,0:0:0:0:
192,192,209740,1,0,0:0:0:0:
320,192,209888,128,0,210035:0:0:0:60:kick.wav
192,192,210035,128,0,210183:0:0:0:0:
64,192,210183,1,0,0:0:0:60:LR4_SnareKKF.wav
448,192,210183,1,0,0:0:0:0:
320,192,210331,1,0,0:0:0:0:
448,192,210479,128,0,210627:0:0:0:60:kick.wav
192,192,210627,128,0,210774:0:0:0:0:
320,192,210774,1,0,0:0:0:60:LR4_SnareKKF.wav
448,192,210774,128,0,211070:0:0:0:0:
64,192,211070,1,0,0:0:0:60:kick.wav
320,192,211218,1,0,0:0:0:0:
192,192,211366,1,0,0:0:0:60:LR4_SnareKKF.wav
448,192,211366,1,0,0:0:0:0:
320,192,211513,1,0,0:0:0:0:
64,192,211661,1,0,0:0:0:60:kick.wav
320,192,211809,1,0,0:0:0:0:
192,192,211957,1,0,0:0:0:60:LR4_SnareKKF.wav
320,192,211957,1,0,0:0:0:0:
320,192,212104,1,0,0:0:0:0:
192,192,212252,128,0,212400:0:0:0:60:kick.wav
320,192,212474,1,0,0:0:0:60:kick.wav
64,192,212548,1,0,0:0:0:60:LR4_SnareKKF.wav
448,192,212548,1,0,0:0:0:0:
320,192,212696,1,0,0:0:0:60:kick.wav
64,192,212843,128,0,212991:0:0:0:60:kick.wav
448,192,212843,1,0,0:0:0:60:LR_Drum Low Finish Long Echo.wav
320,192,212991,128,0,213139:0:0:0:0:
64,192,213139,128,0,213435:0:0:0:60:LR4_SnareKKF.wav
192,192,213139,1,0,0:0:0:0:
448,192,213435,1,0,0:0:0:60:kick.wav
320,192,213582,1,0,0:0:0:0:
64,192,213730,1,0,0:0:0:60:LR4_SnareKKF.wav
192,192,213730,1,0,0:0:0:0:
320,192,213878,1,0,0:0:0:0:
448,192,214026,1,0,0:0:0:60:kick.wav
320,192,214173,1,0,0:0:0:60:kick.wav
64,192,214247,1,0,0:0:0:60:kick.wav
192,192,214321,1,0,0:0:0:60:LR4_SnareKKF.wav
320,192,214321,1,0,0:0:0:0:
320,192,214469,1,0,0:0:0:60:kick.wav
192,192,214617,128,0,214765:0:0:0:60:kick.wav
320,192,214765,128,0,214912:0:0:0:0:
64,192,214912,1,0,0:0:0:60:LR4_SnareKKF.wav
448,192,214912,1,0,0:0:0:0:
192,192,215060,1,0,0:0:0:0:
448,192,215208,128,0,215356:0:0:0:60:kick.wav
320,192,215356,128,0,215503:0:0:0:0:
64,192,215503,1,0,0:0:0:60:LR4_SnareKKF.wav
448,192,215503,128,0,215799:0:0:0:0:
192,192,215651,1,0,0:0:0:60:kick.wav
320,192,215799,1,0,0:0:0:60:kick.wav
64,192,215947,1,0,0:0:0:0:
192,192,216095,1,0,0:0:0:60:LR4_SnareKKF.wav
448,192,216095,1,0,0:0:0:0:
64,192,216242,1,0,0:0:0:0:
320,192,216390,1,0,0:0:0:60:kick.wav
64,192,216538,1,0,0:0:0:60:kick.wav
64,192,216686,1,0,0:0:0:60:LR4_SnareKKF.wav
448,192,216686,1,0,0:0:0:0:
64,192,216834,1,0,0:0:0:60:kick.wav
320,192,216907,1,0,0:0:0:60:kick.wav
192,192,216981,128,0,217277:0:0:0:60:kick.wav
448,192,217277,1,0,0:0:0:0:
448,192,217425,1,0,0:0:0:0:
64,192,217572,1,0,0:0:0:60:kick.wav
320,192,217572,1,0,0:0:0:0:
192,192,217868,1,0,0:0:0:60:LR4_SnareKKF.wav
448,192,217868,1,0,0:0:0:60:LR_Drum Low Finish Long Echo.wav
320,192,218016,1,0,0:0:0:0:
192,192,218164,1,0,0:0:0:60:kick.wav
64,192,218311,1,0,0:0:0:0:
320,192,218459,1,0,0:0:0:60:LR4_SnareKKF.wav
448,192,218459,1,0,0:0:0:0:
64,192,218607,1,0,0:0:0:0:
192,192,218755,1,0,0:0:0:60:kick.wav
64,192,218902,1,0,0:0:0:0:
64,192,219050,1,0,0:0:0:60:LR4_SnareKKF.wav
320,192,219050,1,0,0:0:0:0:
64,192,219198,1,0,0:0:0:0:
192,192,219346,128,0,219494:0:0:0:60:kick.wav
448,192,219494,128,0,219641:0:0:0:0:
64,192,219641,1,0,0:0:0:60:LR4_SnareKKF.wav
320,192,219641,1,0,0:0:0:0:
192,192,219789,1,0,0:0:0:0:
320,192,219937,128,0,220085:0:0:0:60:kick.wav
64,192,220085,128,0,220233:0:0:0:0:
192,192,220233,1,0,0:0:0:60:LR4_SnareKKF.wav
448,192,220233,128,0,220528:0:0:0:0:
192,192,220528,1,0,0:0:0:60:kick.wav
448,192,220676,1,0,0:0:0:0:
64,192,220824,1,0,0:0:0:60:LR4_SnareKKF.wav
192,192,220824,1,0,0:0:0:0:
448,192,220971,1,0,0:0:0:0:
320,192,221119,1,0,0:0:0:60:kick.wav
448,192,221267,1,0,0:0:0:0:
192,192,221415,1,0,0:0:0:60:LR4_SnareKKF.wav
448,192,221415,1,0,0:0:0:0:
448,192,221563,1,0,0:0:0:0:
320,192,221710,128,0,221858:0:0:0:60:kick.wav
192,192,221932,1,0,0:0:0:60:kick.wav
64,192,222006,1,0,0:0:0:60:LR4_SnareKKF.wav
448,192,222006,1,0,0:0:0:0:
192,192,222154,1,0,0:0:0:60:kick.wav
64,192,222302,128,0,222449:0:0:0:60:kick.wav
320,192,222302,1,0,0:0:0:60:LR_Drum Low Finish Long Echo.wav
448,192,222449,128,0,222597:0:0:0:0:
64,192,222597,128,0,222893:0:0:0:60:LR4_SnareKKF.wav
192,192,222597,1,0,0:0:0:0:
448,192,222893,1,0,0:0:0:60:kick.wav
320,192,223040,1,0,0:0:0:0:
64,192,223188,1,0,0:0:0:60:LR4_SnareKKF.wav
192,192,223188,1,0,0:0:0:0:
320,192,223336,1,0,0:0:0:0:
192,192,223410,1,0,0:0:0:60:kick.wav
448,192,223484,1,0,0:0:0:60:kick.wav
192,192,223558,1,0,0:0:0:60:kick.wav
320,192,223632,1,0,0:0:0:0:
64,192,223779,1,0,0:0:0:60:LR4_SnareKKF.wav
320,192,223779,1,0,0:0:0:0:
320,192,223927,1,0,0:0:0:0:
192,192,224075,128,0,224223:0:0:0:60:kick.wav
64,192,224223,128,0,224370:0:0:0:0:
320,192,224370,1,0,0:0:0:60:LR4_SnareKKF.wav
448,192,224370,1,0,0:0:0:0:
192,192,224518,1,0,0:0:0:0:
448,192,224666,128,0,224814:0:0:0:60:kick.wav
64,192,224814,128,0,224962:0:0:0:0:
192,192,224962,1,0,0:0:0:60:LR4_SnareKKF.wav
448,192,224962,128,0,225257:0:0:0:0:
64,192,225109,1,0,0:0:0:60:kick.wav
320,192,225257,1,0,0:0:0:60:kick.wav
448,192,225405,1,0,0:0:0:0:
64,192,225553,1,0,0:0:0:60:LR4_SnareKKF.wav
192,192,225553,1,0,0:0:0:0:
320,192,225701,1,0,0:0:0:0:
64,192,225848,1,0,0:0:0:60:kick.wav
448,192,225848,1,0,0:0:0:0:
192,192,225996,1,0,0:0:0:60:kick.wav
320,192,225996,1,0,0:0:0:0:
64,192,226144,1,0,0:0:0:60:LR4_SnareKKF.wav
448,192,226144,1,0,0:0:0:0:
320,192,226292,1,0,0:0:0:60:kick.wav
192,192,226366,1,0,0:0:0:60:kick.wav
64,192,226439,1,0,0:0:0:60:kick.wav
448,192,226439,128,0,227031:0:0:0:0:
192,192,226735,128,0,227031:0:0:0:0:
64,192,227031,128,0,227178:0:0:0:60:kick.wav
320,192,227031,1,0,0:0:0:60:LR_Drum Low Finish Long Echo.wav
448,192,227178,1,0,0:0:0:60:kick.wav
64,192,227326,128,0,227474:0:0:0:60:kick.wav
192,192,227326,1,0,0:0:0:0:
448,192,227474,1,0,0:0:0:0:
320,192,227622,1,0,0:0:0:60:kick.wav
64,192,227769,128,0,227917:0:0:0:0:
192,192,227917,1,0,0:0:0:60:kick.wav
64,192,228065,128,0,228213:0:0:0:0:
448,192,228213,1,0,0:0:0:60:kick.wav
192,192,228361,1,0,0:0:0:0:
64,192,228508,1,0,0:0:0:60:kick.wav
320,192,228508,1,0,0:0:0:0:
320,192,228656,1,0,0:0:0:0:
192,192,228804,1,0,0:0:0:60:kick.wav
320,192,228804,128,0,229395:0:0:0:0:
448,192,228952,1,0,0:0:0:0:
64,192,229100,1,0,0:0:0:60:kick.wav
192,192,229247,1,0,0:0:0:0:
64,192,229395,1,0,0:0:0:60:kick.wav
448,192,229395,128,0,229543:0:0:0:0:
320,192,229543,1,0,0:0:0:0:
64,192,229691,1,0,0:0:0:60:kick.wav
448,192,229691,128,0,229838:0:0:0:0:
192,192,229838,1,0,0:0:0:0:
320,192,229986,1,0,0:0:0:60:kick.wav
448,192,230134,128,0,230282:0:0:0:0:
320,192,230282,1,0,0:0:0:60:kick.wav
448,192,230430,128,0,230577:0:0:0:0:
64,192,230577,1,0,0:0:0:60:kick.wav
448,192,230725,1,0,0:0:0:0:
192,192,230873,1,0,0:0:0:60:kick.wav
320,192,230873,1,0,0:0:0:0:
192,192,231021,1,0,0:0:0:0:
192,192,231169,128,0,231760:0:0:0:60:kick.wav
448,192,231169,1,0,0:0:0:0:
320,192,231390,1,0,0:0:0:60:kick.wav
448,192,231612,1,0,0:0:0:60:kick.wav
64,192,231760,128,0,231907:0:0:0:60:kick.wav
320,192,231760,1,0,0:0:0:0:
448,192,231907,1,0,0:0:0:0:
64,192,232055,128,0,232203:0:0:0:60:kick.wav
192,192,232055,1,0,0:0:0:0:
320,192,232203,1,0,0:0:0:0:
448,192,232351,1,0,0:0:0:60:kick.wav
192,192,232499,128,0,232646:0:0:0:0:
320,192,232646,1,0,0:0:0:60:kick.wav
192,192,232794,128,0,232942:0:0:0:0:
448,192,232942,1,0,0:0:0:60:kick.wav
192,192,233090,1,0,0:0:0:60:kick.wav
448,192,233164,1,0,0:0:0:60:kick.wav
64,192,233237,1,0,0:0:0:60:kick.wav
192,192,233237,1,0,0:0:0:0:
320,192,233385,1,0,0:0:0:60:kick.wav
64,192,233533,128,0,234124:0:0:0:60:kick.wav
448,192,233533,1,0,0:0:0:0:
320,192,233681,1,0,0:0:0:0:
192,192,233829,1,0,0:0:0:60:kick.wav
448,192,233976,1,0,0:0:0:0:
192,192,234124,1,0,0:0:0:60:kick.wav
320,192,234124,128,0,234272:0:0:0:0:
64,192,234272,1,0,0:0:0:0:
320,192,234420,128,0,234568:0:0:0:60:kick.wav
448,192,234420,1,0,0:0:0:0:
64,192,234568,1,0,0:0:0:60:kick.wav
192,192,234715,1,0,0:0:0:60:kick.wav
320,192,234863,128,0,235011:0:0:0:0:
64,192,235011,1,0,0:0:0:60:kick.wav
320,192,235159,128,0,235306:0:0:0:0:
192,192,235306,1,0,0:0:0:60:kick.wav
320,192,235454,1,0,0:0:0:60:kick.wav
448,192,235454,1,0,0:0:0:0:
64,192,235602,1,0,0:0:0:60:kick.wav
192,192,235602,1,0,0:0:0:0:
320,192,235750,1,0,0:0:0:60:kick.wav
192,192,235824,1,0,0:0:0:60:kick.wav
64,192,235898,1,0,0:0:0:60:kick.wav
448,192,235898,128,0,236193:0:0:0:0:
64,192,236193,128,0,236489:0:0:0:60:kick.wav
192,192,236193,1,0,0:0:0:0:
320,192,236489,1,0,0:0:0:60:kick.wav
448,192,236489,128,0,236636:0:0:0:60:LR_Drum Low Finish Long Echo.wav
192,192,236636,1,0,0:0:0:60:kick.wav
320,192,236784,1,0,0:0:0:60:kick.wav
448,192,236784,128,0,236932:0:0:0:0:
64,192,237080,1,0,0:0:0:60:kick.wav
448,192,237228,128,0,237375:0:0:0:0:
192,192,237375,1,0,0:0:0:60:kick.wav
448,192,237523,128,0,237671:0:0:0:0:
64,192,237671,1,0,0:0:0:60:kick.wav
448,192,237819,1,0,0:0:0:0:
192,192,237967,1,0,0:0:0:60:kick.wav
448,192,237967,1,0,0:0:0:0:
448,192,238114,1,0,0:0:0:0:
64,192,238262,1,0,0:0:0:60:kick.wav
320,192,238262,128,0,238853:0:0:0:0:
448,192,238558,1,0,0:0:0:60:kick.wav
64,192,238853,1,0,0:0:0:60:kick.wav
192,192,238853,128,0,239001:0:0:0:0:
64,192,239149,1,0,0:0:0:60:kick.wav
192,192,239149,128,0,239297:0:0:0:0:
320,192,239444,1,0,0:0:0:60:kick.wav
192,192,239592,128,0,239740:0:0:0:0:
64,192,239740,1,0,0:0:0:60:kick.wav
192,192,239888,128,0,240035:0:0:0:0:
448,192,240035,1,0,0:0:0:60:kick.wav
192,192,240183,1,0,0:0:0:0:
192,192,240331,1,0,0:0:0:60:kick.wav
320,192,240331,1,0,0:0:0:0:
192,192,240479,1,0,0:0:0:0:
64,192,240627,128,0,241218:0:0:0:60:kick.wav
448,192,240627,1,0,0:0:0:0:
192,192,240848,1,0,0:0:0:60:kick.wav
448,192,241070,1,0,0:0:0:60:kick.wav
192,192,241218,1,0,0:0:0:60:kick.wav
320,192,241218,128,0,241366:0:0:0:0:
448,192,241366,1,0,0:0:0:60:kick.wav
192,192,241513,1,0,0:0:0:60:kick.wav
320,192,241513,128,0,241661:0:0:0:0:
64,192,241809,1,0,0:0:0:60:kick.wav
320,192,241957,128,0,242104:0:0:0:0:
448,192,242104,1,0,0:0:0:60:kick.wav
320,192,242252,128,0,242400:0:0:0:0:
192,192,242400,1,0,0:0:0:60:kick.wav
320,192,242548,1,0,0:0:0:0:
64,192,242696,1,0,0:0:0:60:kick.wav
320,192,242696,1,0,0:0:0:0:
448,192,242843,1,0,0:0:0:0:
64,192,242991,1,0,0:0:0:60:kick.wav
448,192,242991,128,0,243582:0:0:0:0:
192,192,243287,1,0,0:0:0:60:kick.wav
64,192,243582,128,0,243730:0:0:0:60:kick.wav
320,192,243582,1,0,0:0:0:0:
64,192,243878,128,0,244026:0:0:0:60:kick.wav
320,192,243878,1,0,0:0:0:0:
192,192,244173,1,0,0:0:0:60:kick.wav
64,192,244321,128,0,244469:0:0:0:0:
448,192,244469,1,0,0:0:0:60:kick.wav
64,192,244617,128,0,244765:0:0:0:0:
320,192,244765,1,0,0:0:0:0:
64,192,244912,1,0,0:0:0:0:
192,192,244986,1,0,0:0:0:0:
64,192,245060,1,0,0:0:0:0:
64,192,245208,1,0,0:0:0:0:
448,192,245208,1,0,0:0:0:0:
64,192,245356,128,0,245947:0:0:0:0:
320,192,245430,128,0,245651:0:0:0:0:
