osu file format v14

[General]
AudioFilename: Undulation fixed.mp3
AudioLeadIn: 0
PreviewTime: 57065
Countdown: 0
SampleSet: Soft
StackLeniency: 0.6
Mode: 0
LetterboxInBreaks: 1
WidescreenStoryboard: 1

[Editor]
Bookmarks: 19265,38465,48065,57665,76865,96365,105665,124865,144065
DistanceSpacing: 1
BeatDivisor: 2
GridSize: 4
TimelineZoom: 1.7

[Metadata]
Title:Undulation
TitleUnicode:Undulation
Artist:USAO
ArtistUnicode:USAO
Creator:Zexous
Version:Easy
Source:
Tags:akitoshi -laura- nerova riuz gx nrg n/a kicks kick's for liberation 5 dubstep
BeatmapID:1344069
BeatmapSetID:623494

[Difficulty]
HPDrainRate:2
CircleSize:3.3
OverallDifficulty:2
ApproachRate:3
SliderMultiplier:1.6
SliderTickRate:1

[Events]
//Background and Video events
0,0,"futuristic skyline.jpg",0,0
//Break Periods
2,38665,46625
2,96265,99425
//Storyboard Layer 0 (Background)
//Storyboard Layer 1 (Fail)
//Storyboard Layer 2 (Pass)
//Storyboard Layer 3 (Foreground)
//Storyboard Sound Samples

[TimingPoints]
65,600,4,2,1,90,1,0
19265,-100,4,2,2,70,0,0
24065,-100,4,2,2,75,0,0
28865,-100,4,2,2,80,0,0
33665,-100,4,2,2,85,0,0
37265,-100,4,3,0,90,0,0
37865,-100,4,3,0,15,0,0
38465,-100,4,2,1,90,0,0
48065,-100,4,2,1,80,0,0
55265,-100,4,2,2,80,0,0
56465,-100,4,3,1,80,0,0
57065,-100,4,2,1,80,0,0
57665,-100,4,2,1,100,0,1
57815,-100,4,2,1,100,0,0
75665,-100,4,2,1,100,0,0
76265,-100,4,2,1,15,0,0
76865,-100,4,2,1,100,0,1
77015,-100,4,2,1,100,0,0
93665,-100,4,2,2,100,0,0
95465,-100,4,2,2,15,0,0
96065,-100,4,2,2,100,0,0
104465,-100,4,2,2,80,0,0
105665,-100,4,2,1,90,0,0
115265,-100,4,2,1,95,0,0
124865,-100,4,2,1,80,0,0
134465,-100,4,2,1,90,0,0
139265,-100,4,2,1,100,0,0
141665,-100,4,2,2,100,0,0
143465,-100,4,2,1,15,0,0
144065,-100,4,2,1,80,0,0

[Colours]
Combo1 : 151,255,151
Combo2 : 172,155,251

[HitObjects]
50,119,19265,5,0,0:0:0:0:
197,180,19865,1,0,0:0:0:0:
149,332,20465,2,0,P|234:335|310:289,1,160
462,265,21665,5,0,0:0:0:0:
315,204,22265,1,0,0:0:0:0:
363,52,22865,2,0,P|278:49|202:95,1,160
105,201,24065,5,4,0:1:0:0:
183,340,24665,1,8,0:0:0:0:
341,318,25265,2,0,P|421:331|503:298,1,160,0|8,0:0|0:0,0:0:0:0:
407,183,26465,5,4,0:1:0:0:
329,44,27065,1,8,0:0:0:0:
171,66,27665,2,0,P|91:53|9:86,1,160,0|8,0:0|0:0,0:0:0:0:
11,238,28865,5,4,0:1:0:0:
104,313,29315,2,0,P|184:312|239:285,1,120
277,241,30065,2,0,P|335:250|374:337,2,160,0|8|0,0:0|0:0|0:0,0:0:0:0:
380,180,31715,6,0,L|408:53,1,120
336,23,32465,2,0,L|314:112,2,80,0|0|8,0:0|0:0|0:0,0:0:0:0:
177,44,33665,5,4,0:1:0:0:
58,60,34115,2,0,P|51:120|76:184,1,120
129,229,34865,1,0,0:0:0:0:
205,206,35165,2,0,L|286:230,1,80,0|8,0:0|0:0,0:0:0:0:
414,318,36065,5,0,0:0:0:0:
470,168,36665,1,8,0:0:0:0:
316,124,37265,2,0,B|273:107|235:116|235:116|196:127|156:112,1,160,8|0,0:0|0:0,0:0:0:0:
22,29,38465,5,4,0:1:0:0:
33,302,48065,6,0,B|110:323|110:323|196:294,1,160,0|8,1:0|0:0,0:0:0:0:
260,268,48965,1,0,1:0:0:0:
419,283,49565,2,0,P|455:312|479:346,2,80,8|0|8,0:0|1:0|0:0,0:0:0:0:
353,237,50465,5,0,1:0:0:0:
473,132,51065,1,8,0:0:0:0:
340,41,51665,1,0,0:0:0:0:
220,147,52265,2,0,B|201:157|201:157|177:190|177:190|140:207,1,80,0|8,1:0|0:0,0:0:0:0:
81,188,52865,6,0,P|100:251|196:268,1,160,0|8,1:0|0:0,0:0:0:0:
237,332,53765,2,0,B|269:298|261:257|261:257|348:234,1,160,0|8,1:0|0:0,0:0:0:0:
415,224,54665,1,0,1:0:0:0:
458,70,55265,6,8,L|366:53,1,80
301,36,55865,2,8,L|209:53,1,80
144,68,56465,2,0,B|64:88|64:88|29:166,1,160,8|8,0:0|0:0,0:0:0:0:
38,318,57665,6,0,P|121:339|211:297,1,160,4|8,0:3|0:0,0:0:0:0:
250,264,58565,1,4,0:3:0:0:
401,315,59165,2,0,L|487:332,2,80,0|8|0,0:0|0:0|0:0,0:0:0:0:
404,234,60065,6,0,B|394:186|417:153|417:153|441:119|430:78,1,160,4|8,0:3|0:0,0:0:0:0:
353,102,60965,1,4,0:3:0:0:
198,60,61565,1,0,0:0:0:0:
119,44,61865,1,8,0:0:0:0:
79,113,62165,1,0,0:0:0:0:
133,173,62465,6,0,P|169:219|121:334,1,160,4|8,0:3|0:0,0:0:0:0:
71,329,63365,1,4,0:3:0:0:
50,170,63965,2,0,P|62:132|92:102,2,80,0|8|0,0:0|0:0|0:0,0:0:0:0:
133,173,64865,6,0,B|178:140|168:89|168:89|237:58,1,160,4|8,0:3|0:0,0:0:0:0:
300,35,65765,1,4,0:3:0:0:
370,72,66065,2,0,L|389:155,1,80
400,228,66665,1,8,0:0:0:0:
412,306,66965,1,0,0:0:0:0:
336,278,67265,6,0,P|269:263|162:320,1,160,4|8,0:3|0:0,0:0:0:0:
129,351,68165,1,4,0:3:0:0:
34,221,68765,2,0,P|34:181|21:134,2,80,0|8|0,0:0|0:0|0:0,0:0:0:0:
112,237,69665,6,0,B|191:215|191:215|227:143,1,160,4|8,0:3|0:0,0:0:0:0:
256,71,70565,1,4,0:3:0:0:
413,101,71165,2,0,L|451:27,2,80,0|8|0,0:0|0:0|0:0,0:0:0:0:
469,158,72065,6,0,B|443:183|411:181|411:181|382:219|378:275,1,160,4|8,0:3|0:0,0:0:0:0:
416,340,72965,2,0,P|344:345|298:275,1,160,4|0,0:3|0:0,0:0:0:0:
307,198,73865,1,8,0:0:0:0:
192,309,74465,6,0,P|101:311|64:256,1,160,4|8,0:3|0:0,0:0:0:0:
74,181,75365,1,4,0:3:0:0:
32,107,75665,6,0,B|70:90|107:104|107:104|152:117|188:97,1,160,8|0,3:0|0:0,0:0:0:0:
340,60,76865,6,0,P|380:131|389:215,1,160,4|8,0:3|0:0,0:0:0:0:
370,285,77765,2,0,L|289:323,1,80,4|0,0:3|0:0,0:0:0:0:
222,291,78365,2,0,L|126:275,2,80,0|8|0,0:0|0:0|0:0,0:0:0:0:
261,221,79265,6,0,L|129:198,2,120,4|4|4,0:3|0:3|0:3,0:0:0:0:
307,155,80465,1,0,0:0:0:0:
176,62,81065,2,0,B|149:63|149:63|120:51|120:51|99:52,1,80,8|0,0:0|0:0,0:0:0:0:
30,94,81665,6,0,B|19:176|19:176|72:238,1,160,4|8,0:3|0:0,0:0:0:0:
128,180,82565,2,0,L|187:250,1,80,4|0,0:3|0:0,0:0:0:0:
259,237,83165,2,0,L|355:253,2,80,0|8|0,0:0|0:0|0:0,0:0:0:0:
220,307,84065,6,0,L|352:330,2,120,4|4|4,0:3|0:3|0:3,0:0:0:0:
174,373,85265,2,0,P|147:344|138:305,1,80
174,234,85865,2,0,L|155:153,1,80,8|0,0:0|0:0,0:0:0:0:
139,77,86465,6,0,B|215:48|215:48|296:64,1,160,4|8,0:3|0:0,0:0:0:0:
323,136,87365,1,4,0:3:0:0:
373,74,87665,2,0,P|419:84|457:102,1,80
461,176,88265,2,0,L|439:261,1,80,8|0,0:0|0:0,0:0:0:0:
477,324,88865,6,0,P|417:329|366:283,2,120,4|4|4,0:3|0:3|0:3,0:0:0:0:
440,253,90065,1,0,0:0:0:0:
281,245,90665,2,0,L|198:266,1,80,8|0,0:0|0:0,0:0:0:0:
168,336,91265,6,0,P|99:333|37:268,1,160,4|8,0:3|0:0,0:0:0:0:
45,191,92165,1,4,0:3:0:0:
51,111,92465,2,0,L|111:45,2,80,0|0|8,0:0|0:0|0:0,0:0:0:0:
204,64,93665,6,8,L|286:54,1,80
320,125,94265,2,8,L|396:157,1,80
390,236,94865,2,0,B|438:303|438:303|423:381,1,160,8|0,3:0|3:0,3:0:0:0:
267,342,96065,5,4,0:1:0:0:
256,192,100865,12,8,104465,3:0:0:0:
51,320,105665,5,4,0:1:0:0:
163,279,106115,2,0,P|182:232|164:158,1,120
130,95,106865,1,0,0:0:0:0:
194,48,107165,2,0,P|236:46|275:54,2,80,0|8|0,0:0|0:0|0:0,0:0:0:0:
121,13,108065,5,0,0:0:0:0:
25,85,108515,2,0,B|28:134|28:134|70:196,1,120
137,153,109265,2,0,L|186:228,1,80
251,256,109865,2,0,B|270:242|270:242|283:213|283:213|304:199,1,80,8|0,0:0|0:0,0:0:0:0:
383,189,110465,5,4,0:1:0:0:
470,270,110915,2,0,P|440:298|359:307,1,120
204,303,111965,2,0,L|118:327,2,80,0|8|0,0:0|0:0|0:0,0:0:0:0:
256,240,112865,5,0,0:0:0:0:
104,189,113315,2,0,B|83:131|83:131|103:71,1,120
171,37,114065,2,0,L|272:62,1,80
311,105,114665,2,0,L|412:80,1,80,8|0,0:0|0:0,0:0:0:0:
447,31,115265,5,4,0:1:0:0:
457,190,115715,2,0,P|436:236|427:314,1,120
358,346,116465,1,0,0:0:0:0:
282,320,116765,2,0,P|242:329|207:346,2,80,0|8|0,0:0|0:0|0:0,0:0:0:0:
342,267,117665,5,0,0:0:0:0:
227,230,118115,2,0,L|98:209,1,120
34,240,118865,2,0,P|28:203|44:164,1,80
115,129,119465,2,0,L|198:111,1,80,8|0,0:0|0:0,0:0:0:0:
240,47,120065,5,4,0:1:0:0:
316,139,120515,2,0,P|371:137|443:93,1,120
467,221,121415,2,0,P|441:269|443:353,1,120,0|8,0:0|0:0,0:0:0:0:
296,258,122465,5,0,0:0:0:0:
201,331,122915,2,0,L|71:344,1,120
28,282,123665,2,0,P|24:236|95:138,1,160,8|8,3:0|0:0,0:0:0:0:
212,50,124865,5,4,0:1:0:0:
309,119,125315,2,0,P|356:118|436:80,1,120
475,150,126065,2,0,L|442:282,2,120
505,75,127265,5,0,0:0:0:0:
391,37,127715,2,0,B|345:26|345:26|266:45,1,120
198,67,128465,1,0,0:0:0:0:
124,36,128765,1,0,0:0:0:0:
50,67,129065,2,0,L|42:153,1,80
37,226,129665,5,4,0:1:0:0:
112,319,130115,2,0,P|162:317|231:285,1,120
343,267,131015,2,0,P|316:224|254:180,1,120
256,24,132065,5,0,0:0:0:0:
354,91,132515,2,0,L|495:120,1,120
458,194,133265,1,0,0:0:0:0:
445,273,133565,1,0,0:0:0:0:
433,352,133865,2,0,P|393:336|368:298,1,80
353,229,134465,6,0,P|303:209|185:211,1,160,2|8,0:0|0:0,0:0:0:0:
200,287,135365,2,0,P|129:252|124:175,1,160,2|0,0:0|0:0,0:0:0:0:
183,127,136265,2,0,P|171:88|142:55,1,80,10|0,0:0|0:0,0:0:0:0:
213,15,136865,6,0,B|244:49|254:83|254:83|293:71|339:74,1,160,2|8,0:0|0:0,0:0:0:0:
401,31,137765,2,0,P|458:41|444:136,1,160,2|0,0:0|0:0,0:0:0:0:
396,180,138665,1,10,0:0:0:0:
431,251,138965,1,0,0:0:0:0:
510,241,139265,6,0,P|488:308|399:325,1,160,0|8,1:0|0:0,0:0:0:0:
344,278,140165,2,0,P|279:295|223:322,2,120,0|0|8,0:0|0:0|0:0,0:0:0:0:
316,120,141665,6,8,L|269:53,1,80
216,114,142265,2,8,L|141:79,1,80
126,158,142865,2,0,P|76:178|96:281,1,160,8|0,3:0|0:0,0:0:0:0:
233,319,144065,5,4,0:1:0:0:
