osu file format v14

[General]
AudioFilename: audio.mp3
AudioLeadIn: 0
PreviewTime: -1
Countdown: 0
SampleSet: Normal
StackLeniency: 0.2
Mode: 0
LetterboxInBreaks: 0
WidescreenStoryboard: 0

[Editor]
DistanceSpacing: 2.4
BeatDivisor: 4
GridSize: 8
TimelineZoom: 1.7

[Metadata]
Title:Undulation
TitleUnicode:Undulation
Artist:USAO
ArtistUnicode:USAO
Creator:Rayne
Version:Insane
Source:
Tags:
BeatmapID:1776334
BeatmapSetID:849465

[Difficulty]
HPDrainRate:7
CircleSize:4
OverallDifficulty:8
ApproachRate:9
SliderMultiplier:2.59999990463257
SliderTickRate:1

[Events]
//Background and Video events
0,0,"Fujiwara.no.Mokou.full.1428897.jpg",0,0
//Break Periods
//Storyboard Layer 0 (Background)
//Storyboard Layer 1 (Fail)
//Storyboard Layer 2 (Pass)
//Storyboard Layer 3 (Foreground)
//Storyboard Sound Samples

[TimingPoints]
19228,600,4,1,0,100,1,0
28828,-76.9230769230769,4,1,0,100,0,0
38428,-71.4285714285714,4,1,0,100,0,0
48028,-66.6666666666667,4,1,0,100,0,0
51628,-71.4285714285714,4,1,0,100,0,0
52828,-71.4285714285714,4,1,0,100,0,0
56728,-55.5555555555556,4,1,0,100,0,0
57028,-41.6666666666667,4,1,0,100,0,0

[HitObjects]
396,95,19228,6,0,L|247:95,1,129.999995231629,8|0,0:0|0:0,0:0:0:0:
220,68,19603,2,0,L|238:15,3,32.4999988079071,8|2|2|4,0:0|0:0|0:0|0:0,0:0:0:0:
150,244,20128,1,8,0:0:0:0:
493,95,20428,6,0,L|404:95,1,64.9999976158143,8|0,0:0|0:0,0:0:0:0:
344,200,20728,2,0,L|433:200,1,64.9999976158143,8|0,0:0|0:0,0:0:0:0:
188,139,21028,2,0,L|117:139,1,64.9999976158143,8|0,0:0|0:0,0:0:0:0:
48,244,21328,2,0,L|136:244,1,64.9999976158143,8|0,0:0|0:0,0:0:0:0:
190,57,21628,6,0,B|147:56|147:56|119:154,1,129.999995231629,8|8,0:0|0:0,0:0:0:0:
200,175,22003,2,0,L|248:174,2,32.4999988079071
93,239,22228,6,0,L|13:239,1,64.9999976158143
268,336,22528,2,0,L|352:336,1,64.9999976158143,8|0,0:0|0:0,0:0:0:0:
232,174,22828,6,0,B|178:174|178:174|141:174,1,64.9999976158143,8|0,0:0|0:0,0:0:0:0:
120,88,23128,2,0,B|138:57|138:57|178:41,1,64.9999976158143
248,296,23428,2,0,B|160:296,1,64.9999976158143
258,53,23728,2,0,L|338:53,1,64.9999976158143
496,136,24028,6,0,B|452:136|452:136|408:224,1,129.999995231629,8|0,0:0|0:0,0:0:0:0:
275,180,24403,2,0,L|292:135,2,32.4999988079071
272,280,24628,6,0,L|201:253,1,64.9999976158143
71,86,24928,2,0,L|141:112,1,64.9999976158143
211,280,25228,6,0,L|116:280,1,64.9999976158143,8|0,0:0|0:0,0:0:0:0:
316,83,25528,2,0,L|410:84,1,64.9999976158143,8|0,0:0|0:0,0:0:0:0:
154,211,25828,2,0,L|57:211,1,64.9999976158143
336,291,26128,2,0,L|429:290,1,64.9999976158143
282,68,26428,6,0,B|238:68|238:68|195:169,1,129.999995231629,8|0,0:0|0:0,0:0:0:0:
250,233,26803,2,0,L|267:188,2,32.4999988079071
153,219,27028,2,0,L|73:183,1,64.9999976158143
352,144,27328,2,0,L|432:180,1,64.9999976158143,8|0,0:0|0:0,0:0:0:0:
168,80,27628,6,0,B|184:64|184:64|248:64,1,64.9999976158143,8|0,0:0|0:0,0:0:0:0:
424,220,27928,2,0,L|424:267,3,32.4999988079071
361,138,28228,2,0,L|289:138,1,64.9999976158143
59,246,28528,2,0,L|58:315,1,64.9999976158143
164,117,28828,6,0,B|199:81|199:81|366:81,1,211.24998258114,4|0,0:0|0:0,0:0:0:0:
432,192,29278,1,0,0:0:0:0:
360,81,29428,1,0,0:0:0:0:
504,80,29578,1,0,0:0:0:0:
381,200,29728,6,0,L|266:200,1,84.4999930324558
109,299,30028,6,0,B|135:299|135:299|170:387,1,84.4999930324558,8|0,0:0|0:0,0:0:0:0:
240,200,30328,2,0,B|266:200|266:200|301:111,1,84.4999930324558,8|0,0:0|0:0,0:0:0:0:
128,88,30628,2,0,L|32:88,1,84.4999930324558,8|0,0:0|0:0,0:0:0:0:
197,239,30928,2,0,L|293:239,1,84.4999930324558,8|0,0:0|0:0,0:0:0:0:
423,33,31228,6,0,B|361:33|361:33|300:147,1,168.999986064912,4|0,0:0|0:0,0:0:0:0:
394,169,31603,2,0,L|446:169,2,42.2499965162279
281,239,31828,6,0,L|158:239,1,84.4999930324558,8|0,0:0|0:0,0:0:0:0:
115,103,32128,2,0,B|115:86|115:86|203:42,1,84.4999930324558,8|0,0:0|0:0,0:0:0:0:
266,171,32428,6,0,L|183:171,1,42.2499965162279,8|0,0:0|0:0,0:0:0:0:
192,271,32578,2,0,L|192:354,1,42.2499965162279,8|0,0:0|0:0,0:0:0:0:
288,270,32728,2,0,L|350:270,1,42.2499965162279,8|0,0:0|0:0,0:0:0:0:
362,169,32878,2,0,L|362:85,1,42.2499965162279,8|0,0:0|0:0,0:0:0:0:
258,97,33028,6,0,L|133:97,1,84.4999930324558,8|0,0:0|0:0,0:0:0:0:
390,337,33328,2,0,L|515:337,1,84.4999930324558,8|0,0:0|0:0,0:0:0:0:
370,156,33628,6,0,B|247:156|247:156|194:218,1,168.999986064912,12|0,0:0|0:0,0:0:0:0:
283,229,34003,2,0,L|333:275,2,42.2499965162279
168,136,34228,6,0,B|147:115|147:115|75:115,1,84.4999930324558
18,280,34528,2,0,L|124:280,1,84.4999930324558
276,192,34828,6,0,L|276:108,1,42.2499965162279,8|0,0:0|0:0,0:0:0:0:
171,138,34978,2,0,L|87:138,1,42.2499965162279,8|0,0:0|0:0,0:0:0:0:
161,238,35128,2,0,L|161:300,1,42.2499965162279,8|0,0:0|0:0,0:0:0:0:
264,308,35278,2,0,L|347:308,1,42.2499965162279,8|0,0:0|0:0,0:0:0:0:
385,238,35428,6,0,B|385:196|385:196|385:123,1,84.4999930324558,8|0,0:0|0:0,0:0:0:0:
89,233,35728,2,0,B|89:275|89:275|89:348,1,84.4999930324558,8|0,0:0|0:0,0:0:0:0:
416,304,36028,6,0,B|416:251|416:251|355:223|355:223|355:127,1,211.24998258114,8|0,0:0|0:0,0:0:0:0:
352,48,36478,1,0,0:0:0:0:
140,249,36778,5,0,0:0:0:0:
140,249,37078,5,0,0:0:0:0:
392,248,37228,1,8,0:0:0:0:
140,249,37378,1,0,0:0:0:0:
392,104,37528,1,8,0:0:0:0:
144,104,37678,1,8,0:0:0:0:
392,248,37828,1,8,0:0:0:0:
392,248,38128,1,8,0:0:0:0:
392,96,38428,6,0,L|288:96,1,90.9999938850405,8|0,0:0|0:0,0:0:0:0:
165,188,38728,1,8,0:0:0:0:
258,327,38878,2,0,B|276:299|276:299|276:197,1,90.9999938850405,0|8,0:0|0:0,0:0:0:0:
168,80,39178,5,0,0:0:0:0:
72,213,39328,2,0,L|176:213,1,90.9999938850405,8|0,0:0|0:0,0:0:0:0:
390,219,39628,6,0,L|390:158,1,45.4999969425203,8|0,0:0|0:0,0:0:0:0:
383,60,39778,2,0,L|437:60,1,45.4999969425203,8|0,0:0|0:0,0:0:0:0:
490,155,39928,2,0,L|490:218,1,45.4999969425203,8|0,0:0|0:0,0:0:0:0:
390,219,40078,2,0,L|300:219,1,45.4999969425203,8|0,0:0|0:0,0:0:0:0:
279,125,40228,2,0,B|279:81|279:81|325:35,1,90.9999938850405,8|0,0:0|0:0,0:0:0:0:
484,184,40528,5,0,0:0:0:0:
386,349,40678,1,0,0:0:0:0:
312,202,40828,6,0,B|312:158|312:158|266:112,1,90.9999938850405,8|0,0:0|0:0,0:0:0:0:
117,37,41128,1,8,0:0:0:0:
224,183,41278,1,0,0:0:0:0:
348,50,41428,2,0,L|244:50,1,90.9999938850405,8|0,0:0|0:0,0:0:0:0:
376,256,41728,5,8,0:0:0:0:
376,120,41878,1,0,0:0:0:0:
248,160,42028,6,0,L|248:232,1,45.4999969425203,8|0,0:0|0:0,0:0:0:0:
154,269,42178,2,0,L|98:269,1,45.4999969425203,8|0,0:0|0:0,0:0:0:0:
128,157,42328,2,0,L|128:109,1,45.4999969425203,8|0,0:0|0:0,0:0:0:0:
236,77,42478,2,0,L|284:77,1,45.4999969425203,8|0,0:0|0:0,0:0:0:0:
248,205,42628,6,0,L|185:205,1,45.4999969425203,8|0,0:0|0:0,0:0:0:0:
344,152,42778,2,0,L|344:208,1,45.4999969425203,8|0,0:0|0:0,0:0:0:0:
368,288,42928,2,0,B|248:288,1,90.9999938850405,8|0,0:0|0:0,0:0:0:0:
100,174,43228,6,0,L|204:174,1,90.9999938850405,8|0,0:0|0:0,0:0:0:0:
256,344,43528,1,8,0:0:0:0:
191,174,43678,1,0,0:0:0:0:
165,344,43828,2,0,L|269:344,1,90.9999938850405,8|0,0:0|0:0,0:0:0:0:
191,174,44128,2,0,L|63:174,1,90.9999938850405,8|0,0:0|0:0,0:0:0:0:
312,249,44428,6,0,L|391:248,1,45.4999969425203,8|0,0:0|0:0,0:0:0:0:
318,114,44578,2,0,L|318:63,1,45.4999969425203,8|0,0:0|0:0,0:0:0:0:
191,174,44728,2,0,L|191:230,1,45.4999969425203,8|0,0:0|0:0,0:0:0:0:
312,249,44878,2,0,L|361:248,1,45.4999969425203,8|0,0:0|0:0,0:0:0:0:
240,104,45028,2,0,B|185:105|185:105|138:106,1,90.9999938850405,8|0,0:0|0:0,0:0:0:0:
240,288,45328,5,0,0:0:0:0:
424,288,45478,1,8,0:0:0:0:
312,104,45628,6,0,L|405:104,1,90.9999938850405,8|0,0:0|0:0,0:0:0:0:
336,192,45928,5,0,0:0:0:0:
184,296,46078,1,0,0:0:0:0:
336,376,46228,6,0,B|296:376|296:376|257:333,1,90.9999938850405,8|0,0:0|0:0,0:0:0:0:
160,88,46528,6,8,L|160:133,1,45.4999969425203,0|0,0:0|0:0,0:0:0:0:
253,232,46678,2,0,L|253:176,1,45.4999969425203,8|0,0:0|0:0,0:0:0:0:
334,77,46828,6,0,L|272:78,1,45.4999969425203,8|0,0:0|0:0,0:0:0:0:
207,186,46978,2,0,L|271:186,1,45.4999969425203,8|0,0:0|0:0,0:0:0:0:
334,77,47128,2,0,L|272:78,1,45.4999969425203,8|0,0:0|0:0,0:0:0:0:
207,186,47278,2,0,L|271:186,1,45.4999969425203,8|0,0:0|0:0,0:0:0:0:
334,77,47428,2,0,L|272:78,1,45.4999969425203,8|0,0:0|0:0,0:0:0:0:
207,186,47578,2,0,L|271:186,1,45.4999969425203,8|0,0:0|0:0,0:0:0:0:
334,77,47728,2,0,L|272:78,1,45.4999969425203,8|0,0:0|0:0,0:0:0:0:
207,186,47878,2,0,L|271:186,1,45.4999969425203,8|0,0:0|0:0,0:0:0:0:
368,224,48028,6,0,B|387:206|387:206|387:118,1,97.5000001430512,12|0,0:0|0:0,0:0:0:0:
309,121,48328,1,8,0:0:0:0:
201,216,48478,5,0,0:0:0:0:
381,290,48628,6,0,B|400:272|400:272|400:184,1,97.5000001430512,12|0,0:0|0:0,0:0:0:0:
348,142,48928,1,8,0:0:0:0:
128,216,49078,6,0,L|184:216,1,48.7500000715256,8|0,0:0|0:0,0:0:0:0:
264,176,49228,2,0,L|264:120,1,48.7500000715256,8|0,0:0|0:0,0:0:0:0:
167,58,49378,2,0,L|119:58,1,48.7500000715256,8|0,0:0|0:0,0:0:0:0:
29,137,49528,2,0,L|29:191,1,48.7500000715256,8|0,0:0|0:0,0:0:0:0:
128,216,49678,2,0,L|194:216,1,48.7500000715256,8|0,0:0|0:0,0:0:0:0:
376,123,49828,6,0,B|376:91|376:91|400:75|400:75|400:19,1,97.5000001430512,12|0,0:0|0:0,0:0:0:0:
136,261,50128,2,0,B|136:293|136:293|112:309|112:309|112:365,1,97.5000001430512,12|0,0:0|0:0,0:0:0:0:
360,152,50428,6,0,B|320:152|320:152|264:96,1,97.5000001430512,8|0,0:0|0:0,0:0:0:0:
464,40,50728,2,0,L|464:144,1,97.5000001430512,8|0,0:0|0:0,0:0:0:0:
200,360,51028,2,0,B|168:360|168:360|96:296,1,97.5000001430512,8|0,0:0|0:0,0:0:0:0:
80,112,51328,1,8,0:0:0:0:
254,351,51628,5,8,0:0:0:0:
147,203,51778,2,0,L|84:203,1,45.4999969425203,8|8,0:0|0:0,0:0:0:0:
99,339,51928,1,8,0:0:0:0:
335,202,52078,2,0,L|402:202,1,45.4999969425203,8|0,0:0|0:0,0:0:0:0:
381,338,52228,1,8,0:0:0:0:
256,95,52378,1,0,0:0:0:0:
481,248,52528,1,8,0:0:0:0:
101,203,52828,5,8,0:0:0:0:
462,331,53128,2,0,L|460:230,1,90.9999938850405,8|0,0:0|0:0,0:0:0:0:
101,203,53428,5,8,0:0:0:0:
462,331,53728,2,0,L|460:230,1,90.9999938850405,8|0,0:0|0:0,0:0:0:0:
272,15,54028,5,8,0:0:0:0:
5,268,54328,2,0,L|125:268,1,90.9999938850405,8|0,0:0|0:0,0:0:0:0:
356,40,54628,5,8,0:0:0:0:
144,266,54928,2,0,L|264:266,1,90.9999938850405,8|0,0:0|0:0,0:0:0:0:
432,258,55228,5,4,0:0:0:0:
306,185,55378,1,4,0:0:0:0:
206,330,55528,1,4,0:0:0:0:
432,258,55678,1,4,0:0:0:0:
206,186,55828,1,4,0:0:0:0:
394,75,55978,1,4,0:0:0:0:
301,272,56128,1,4,0:0:0:0:
487,158,56278,1,4,0:0:0:0:
201,125,56428,6,0,L|161:125,1,22.7499984712601,4|0,0:0|0:0,0:0:0:0:
310,257,56578,2,0,L|350:257,1,22.7499984712601,4|0,0:0|0:0,0:0:0:0:
188,114,56728,2,0,L|140:114,1,29.2499980344773,4|0,0:0|0:0,0:0:0:0:
333,273,56878,2,0,L|378:273,1,29.2499980344773,4|0,0:0|0:0,0:0:0:0:
177,102,57028,2,0,L|177:40,1,38.9999973793031,4|0,0:0|0:0,0:0:0:0:
