osu file format v14

[General]
AudioFilename: audio.mp3
AudioLeadIn: 0
PreviewTime: 216200
Countdown: 0
SampleSet: Normal
StackLeniency: 0.2
Mode: 1
LetterboxInBreaks: 0
WidescreenStoryboard: 1

[Editor]
DistanceSpacing: 0.64
BeatDivisor: 8
GridSize: 32
TimelineZoom: 2.2

[Metadata]
Title:USAO ULTIMATE HYPER MEGA MIX
TitleUnicode:USAO ULTIMATE HYPER MEGA MIX
Artist:USAO
ArtistUnicode:USAO
Creator:iceOC
Version:Frozen
Source:
Tags:medley miracle 5ympho boss rush dynamite outbreak zed hastur the commanders night sky brogamer invoker
BeatmapID:1956277
BeatmapSetID:936435

[Difficulty]
HPDrainRate:4
CircleSize:2
OverallDifficulty:7
ApproachRate:10
SliderMultiplier:1.4
SliderTickRate:1

[Events]
//Background and Video events
0,0,"BG.png",0,70
//Break Periods
//Storyboard Layer 0 (Background)
//Storyboard Layer 1 (Fail)
//Storyboard Layer 2 (Pass)
//Storyboard Layer 3 (Foreground)
//Storyboard Sound Samples

[TimingPoints]
200,300,4,1,0,100,1,8
1400,300,4,1,0,100,1,0
1400,-25,4,1,0,100,0,0
2562,-133.333333333333,4,1,0,100,0,0
19662,-125,4,1,0,100,0,0
19887,-117.647058823529,4,1,0,100,0,0
19962,-111.111111111111,4,1,0,100,0,0
20037,-105.263157894737,4,1,0,100,0,0
20187,-100,4,1,0,100,0,0
20337,-95.2380952380952,4,1,0,100,0,0
20487,-83.3333333333333,4,1,0,100,0,0
20562,-80,4,1,0,100,0,0
20862,-100,4,1,0,100,0,0
25362,-100,1,1,0,100,0,0
25512,-98.0392156862745,1,1,0,100,0,0
25662,-96.1538461538461,1,1,0,100,0,0
25812,-94.3396226415094,1,1,0,100,0,0
25962,-92.5925925925926,1,1,0,100,0,0
26112,-90.9090909090909,1,1,0,100,0,0
26262,-89.2857142857143,1,1,0,100,0,0
26412,-87.719298245614,1,1,0,100,0,0
26562,-86.2068965517241,1,1,0,100,0,0
26712,-84.0336134453781,1,1,0,100,0,0
26862,-81.9672131147541,1,1,0,100,0,0
27012,-80,1,1,0,100,0,0
27162,-78.125,1,1,0,100,0,0
27312,-76.3358778625954,1,1,0,100,0,0
27462,-74.6268656716418,1,1,0,100,0,0
27612,-72.992700729927,1,1,0,100,0,0
27762,-71.4285714285714,1,1,0,100,0,0
30012,-111.111111111111,4,1,0,100,0,0
30162,-100,4,1,0,100,0,0
34962,-100,1,1,0,100,0,0
35037,-99.009900990099,1,1,0,100,0,0
35112,-98.0392156862745,1,1,0,100,0,0
35187,-97.0873786407767,1,1,0,100,0,0
35262,-96.1538461538461,1,1,0,100,0,0
35337,-95.2380952380952,1,1,0,100,0,0
35412,-94.3396226415094,1,1,0,100,0,0
35487,-93.4579439252336,1,1,0,100,0,0
35562,-92.5925925925926,1,1,0,100,0,0
35637,-91.743119266055,1,1,0,100,0,0
35712,-90.9090909090909,1,1,0,100,0,0
35787,-90.0900900900901,1,1,0,100,0,0
35862,-89.2857142857143,1,1,0,100,0,0
35937,-88.4955752212389,1,1,0,100,0,0
36012,-87.719298245614,1,1,0,100,0,0
36087,-86.9565217391304,1,1,0,100,0,0
36162,-86.2068965517241,1,1,0,100,0,0
36237,-85.4700854700855,1,1,0,100,0,0
36312,-84.7457627118644,1,1,0,100,0,0
36387,-84.0336134453781,1,1,0,100,0,0
36462,-83.3333333333333,1,1,0,100,0,0
36537,-82.6446280991735,1,1,0,100,0,0
36612,-81.9672131147541,1,1,0,100,0,0
36687,-81.3008130081301,1,1,0,100,0,0
36762,-80.6451612903226,1,1,0,100,0,0
36837,-80,1,1,0,100,0,0
36912,-79.3650793650794,1,1,0,100,0,0
36987,-78.7401574803149,1,1,0,100,0,0
37062,-78.125,1,1,0,100,0,0
37137,-77.5193798449612,1,1,0,100,0,0
37212,-76.9230769230769,1,1,0,100,0,0
37287,-76.3358778625954,1,1,0,100,0,0
37362,-75.7575757575757,1,1,0,100,0,0
37437,-75.187969924812,1,1,0,100,0,0
37512,-74.6268656716418,1,1,0,100,0,0
37587,-74.0740740740741,1,1,0,100,0,0
37662,-73.5294117647059,1,1,0,100,0,0
37737,-72.992700729927,1,1,0,100,0,0
37812,-72.463768115942,1,1,0,100,0,0
37887,-71.9424460431654,1,1,0,100,0,0
37962,-71.4285714285714,1,1,0,100,0,0
38037,-70.9219858156028,1,1,0,100,0,0
38112,-70.4225352112676,1,1,0,100,0,0
38187,-69.9300699300699,1,1,0,100,0,0
38262,-69.4444444444444,1,1,0,100,0,0
38337,-68.9655172413793,1,1,0,100,0,0
38412,-68.4931506849315,1,1,0,100,0,0
38487,-68.0272108843537,1,1,0,100,0,0
38562,-67.5675675675676,1,1,0,100,0,0
39762,-100,1,1,0,100,0,0
54162,-100,1,1,0,100,0,0
54237,-98.0392156862745,1,1,0,100,0,0
54312,-96.1538461538461,1,1,0,100,0,0
54387,-94.3396226415094,1,1,0,100,0,0
54462,-92.5925925925926,1,1,0,100,0,0
54537,-90.9090909090909,1,1,0,100,0,0
54612,-89.2857142857143,1,1,0,100,0,0
54687,-87.719298245614,1,1,0,100,0,0
54762,-86.2068965517241,1,1,0,100,0,0
54837,-84.7457627118644,1,1,0,100,0,0
54912,-83.3333333333333,1,1,0,100,0,0
54987,-81.9672131147541,1,1,0,100,0,0
55062,-80.6451612903226,1,1,0,100,0,0
55137,-79.3650793650794,1,1,0,100,0,0
55212,-78.125,1,1,0,100,0,0
55287,-76.9230769230769,1,1,0,100,0,0
55362,-75.7575757575757,1,1,0,100,0,0
55437,-74.6268656716418,1,1,0,100,0,0
55512,-73.5294117647059,1,1,0,100,0,0
55587,-72.463768115942,1,1,0,100,0,0
55662,-71.4285714285714,1,1,0,100,0,0
55737,-70.4225352112676,1,1,0,100,0,0
55812,-69.4444444444444,1,1,0,100,0,0
55887,-68.4931506849315,1,1,0,100,0,0
55962,-67.5675675675676,1,1,0,100,0,0
56037,-66.6666666666666,1,1,0,100,0,0
56112,-65.7894736842105,1,1,0,100,0,0
56187,-64.9350649350649,1,1,0,100,0,0
56262,-64.1025641025641,1,1,0,100,0,0
56337,-63.2911392405063,1,1,0,100,0,0
56412,-62.5,1,1,0,100,0,0
56487,-61.7283950617284,1,1,0,100,0,0
56562,-60.9756097560976,1,1,0,100,0,0
56637,-59.8802395209581,1,1,0,100,0,0
56712,-58.8235294117647,1,1,0,100,0,0
56787,-57.8034682080925,1,1,0,100,0,0
56862,-56.8181818181818,1,1,0,100,0,0
56937,-55.8659217877095,1,1,0,100,0,0
57012,-54.9450549450549,1,1,0,100,0,0
57087,-54.054054054054,1,1,0,100,0,0
57162,-53.1914893617021,1,1,0,100,0,0
57237,-52.3560209424084,1,1,0,100,0,0
57312,-51.5463917525773,1,1,0,100,0,0
57387,-50.761421319797,1,1,0,100,0,0
57462,-50,1,1,0,100,0,0
57537,-49.2610837438424,1,1,0,100,0,0
57612,-48.5436893203884,1,1,0,100,0,0
57687,-47.8468899521531,1,1,0,100,0,0
57762,-47.1698113207547,1,1,0,100,0,0
58962,-100,1,1,0,100,0,0
59262,-196.078431372549,1,1,0,100,0,0
59412,-188.679245283019,1,1,0,100,0,0
59562,-181.818181818182,1,1,0,100,0,0
59862,-166.666666666667,1,1,0,100,0,0
60162,-153.846153846154,1,1,0,100,0,0
60462,-142.857142857143,1,1,0,100,0,0
60762,-125,1,1,0,100,0,0
61062,-111.111111111111,1,1,0,100,0,0
61362,-100,1,1,0,100,0,0
61512,-90.9090909090909,1,1,0,100,0,0
61662,-83.3333333333333,1,1,0,100,0,0
61812,-76.9230769230769,1,1,0,100,0,0
61962,-71.4285714285714,1,1,0,100,0,0
62112,-66.6666666666667,1,1,0,100,0,0
62262,-62.5,1,1,0,100,0,0
62412,-58.8235294117647,1,1,0,100,0,0
62562,-55.5555555555556,1,1,0,100,0,0
63762,-50,1,1,0,100,0,0
67962,-58.8235294117647,1,1,0,100,0,0
68037,-60.6060606060606,1,1,0,100,0,0
68187,-64.5161290322581,1,1,0,100,0,0
68262,-66.6666666666667,1,1,0,100,0,0
68412,-71.4285714285714,1,1,0,100,0,0
68562,-50,1,1,0,100,0,0
69762,-45.4545454545455,1,1,0,100,0,0
70962,-41.6666666666667,1,1,0,100,0,0
72162,-38.4615384615385,1,1,0,100,0,0
73362,-66.6666666666667,1,1,0,100,0,0
73437,-68.0272108843538,1,1,0,100,0,0
73512,-69.4444444444444,1,1,0,100,0,0
73587,-70.9219858156028,1,1,0,100,0,0
73662,-72.463768115942,1,1,0,100,0,0
73737,-74.0740740740741,1,1,0,100,0,0
73812,-75.7575757575758,1,1,0,100,0,0
73887,-77.5193798449613,1,1,0,100,0,0
73962,-79.3650793650794,1,1,0,100,0,0
74037,-81.3008130081301,1,1,0,100,0,0
74112,-83.3333333333334,1,1,0,100,0,0
74187,-85.4700854700855,1,1,0,100,0,0
74262,-87.7192982456141,1,1,0,100,0,0
74337,-90.0900900900901,1,1,0,100,0,0
74412,-92.5925925925926,1,1,0,100,0,0
74487,-95.2380952380953,1,1,0,100,0,0
74562,-98.0392156862745,1,1,0,100,0,0
74637,-100,1,1,0,100,0,0
74712,-102.040816326531,1,1,0,100,0,0
74787,-104.166666666667,1,1,0,100,0,0
74862,-106.382978723404,1,1,0,100,0,0
74937,-108.695652173913,1,1,0,100,0,0
75012,-111.111111111111,1,1,0,100,0,0
75087,-113.636363636364,1,1,0,100,0,0
75162,-116.279069767442,1,1,0,100,0,0
75237,-119.047619047619,1,1,0,100,0,0
75312,-121.951219512195,1,1,0,100,0,0
75387,-125,1,1,0,100,0,0
75462,-50,1,1,0,100,0,0
75762,-66.6666666666667,1,1,0,100,0,0
75837,-68.0272108843538,1,1,0,100,0,0
75912,-69.4444444444444,1,1,0,100,0,0
75987,-70.9219858156028,1,1,0,100,0,0
76062,-72.463768115942,1,1,0,100,0,0
76137,-74.0740740740741,1,1,0,100,0,0
76212,-75.7575757575758,1,1,0,100,0,0
76287,-77.5193798449613,1,1,0,100,0,0
76362,-79.3650793650794,1,1,0,100,0,0
76437,-81.3008130081301,1,1,0,100,0,0
76512,-83.3333333333334,1,1,0,100,0,0
76587,-85.4700854700855,1,1,0,100,0,0
76662,-87.7192982456141,1,1,0,100,0,0
76737,-90.0900900900901,1,1,0,100,0,0
76812,-92.5925925925926,1,1,0,100,0,0
76887,-95.2380952380953,1,1,0,100,0,0
76962,-98.0392156862745,1,1,0,100,0,0
77037,-100,1,1,0,100,0,0
77112,-102.040816326531,1,1,0,100,0,0
77187,-104.166666666667,1,1,0,100,0,0
77262,-106.382978723404,1,1,0,100,0,0
77337,-108.695652173913,1,1,0,100,0,0
77412,-111.111111111111,1,1,0,100,0,0
77487,-113.636363636364,1,1,0,100,0,0
77562,-116.279069767442,1,1,0,100,0,0
77637,-119.047619047619,1,1,0,100,0,0
77712,-121.951219512195,1,1,0,100,0,0
77787,-125,1,1,0,100,0,0
77862,-40,1,1,0,100,0,0
78162,-100,1,1,0,100,0,0
78237,-98.0392156862745,1,1,0,100,0,0
78312,-96.1538461538461,1,1,0,100,0,0
78387,-94.3396226415094,1,1,0,100,0,0
78462,-92.5925925925926,1,1,0,100,0,0
78537,-90.9090909090909,1,1,0,100,0,0
78612,-89.2857142857143,1,1,0,100,0,0
78687,-87.719298245614,1,1,0,100,0,0
78762,-86.2068965517241,1,1,0,100,0,0
78837,-84.7457627118644,1,1,0,100,0,0
78912,-83.3333333333333,1,1,0,100,0,0
78987,-81.9672131147541,1,1,0,100,0,0
79062,-80.6451612903226,1,1,0,100,0,0
79137,-79.3650793650794,1,1,0,100,0,0
79212,-78.125,1,1,0,100,0,0
79287,-76.9230769230769,1,1,0,100,0,0
79362,-75.7575757575757,1,1,0,100,0,0
79437,-74.6268656716418,1,1,0,100,0,0
79512,-73.5294117647059,1,1,0,100,0,0
79587,-72.463768115942,1,1,0,100,0,0
79662,-71.4285714285714,1,1,0,100,0,0
79737,-70.4225352112676,1,1,0,100,0,0
79812,-69.4444444444444,1,1,0,100,0,0
79887,-68.4931506849315,1,1,0,100,0,0
79962,-67.5675675675676,1,1,0,100,0,0
80037,-66.6666666666666,1,1,0,100,0,0
80112,-65.7894736842105,1,1,0,100,0,0
80187,-64.9350649350649,1,1,0,100,0,0
80262,-36.3636363636364,1,1,0,100,0,0
80562,-66.6666666666667,1,1,0,100,0,0
80637,-64.9350649350649,1,1,0,100,0,0
80712,-63.2911392405063,1,1,0,100,0,0
80787,-61.7283950617284,1,1,0,100,0,0
80862,-60.2409638554217,1,1,0,100,0,0
80937,-58.8235294117647,1,1,0,100,0,0
81012,-57.4712643678161,1,1,0,100,0,0
81087,-56.1797752808989,1,1,0,100,0,0
81162,-54.9450549450549,1,1,0,100,0,0
81237,-53.763440860215,1,1,0,100,0,0
81312,-52.6315789473684,1,1,0,100,0,0
81387,-51.5463917525773,1,1,0,100,0,0
81462,-50.5050505050505,1,1,0,100,0,0
81537,-49.5049504950495,1,1,0,100,0,0
81612,-48.5436893203883,1,1,0,100,0,0
81687,-47.6190476190476,1,1,0,100,0,0
81762,-33.3333333333333,1,1,0,100,0,0
82962,-100,1,1,0,100,0,0
84162,-111.111111111111,1,1,0,100,0,0
85362,-125,1,1,0,100,0,0
86562,-142.857142857143,1,1,0,100,0,0
87762,-166.666666666667,1,1,0,100,0,0
92562,-133.333333333333,1,1,0,100,0,0
102162,-125,1,1,0,100,0,0
102612,-121.951219512195,1,1,0,100,0,0
103062,-119.047619047619,1,1,0,100,0,0
103362,-116.279069767442,1,1,0,100,0,0
103812,-113.636363636364,1,1,0,100,0,0
104112,-111.111111111111,1,1,0,100,0,0
104412,-108.695652173913,1,1,0,100,0,0
104562,-106.382978723404,1,1,0,100,0,0
105012,-104.166666666667,1,1,0,100,0,0
105462,-102.040816326531,1,1,0,100,0,0
105762,-100,1,1,0,100,0,0
105912,-97.0873786407767,1,1,0,100,0,0
106062,-94.3396226415094,1,1,0,100,0,0
106212,-91.743119266055,1,1,0,100,0,0
106362,-89.2857142857143,1,1,0,100,0,0
106512,-86.9565217391304,1,1,0,100,0,0
106812,-83.3333333333333,1,1,0,100,0,0
106962,-80,1,1,0,100,0,0
107262,-76.9230769230769,1,1,0,100,0,0
107562,-74.0740740740741,1,1,0,100,0,0
107862,-71.4285714285714,1,1,0,100,0,0
108162,-68.9655172413793,1,1,0,100,0,0
108462,-66.6666666666667,1,1,0,100,0,0
108762,-64.5161290322581,1,1,0,100,0,0
109062,-62.5,1,1,0,100,0,0
109362,-60.6060606060606,1,1,0,100,0,0
109512,-58.8235294117647,1,1,0,100,0,0
109662,-57.1428571428571,1,1,0,100,0,0
109812,-55.5555555555556,1,1,0,100,0,0
109962,-54.054054054054,1,1,0,100,0,0
110112,-52.6315789473684,1,1,0,100,0,0
110262,-51.2820512820513,1,1,0,100,0,0
110412,-50,1,1,0,100,0,0
110562,-48.780487804878,1,1,0,100,0,0
110637,-47.6190476190476,1,1,0,100,0,0
110712,-46.5116279069767,1,1,0,100,0,0
110787,-45.4545454545455,1,1,0,100,0,0
110862,-44.4444444444445,1,1,0,100,0,0
110937,-43.4782608695652,1,1,0,100,0,0
111012,-42.5531914893617,1,1,0,100,0,0
111087,-41.6666666666667,1,1,0,100,0,0
111762,-133.333333333333,1,1,0,100,0,0
112362,-135.135135135135,1,1,0,100,0,0
112962,-136.986301369863,1,1,0,100,0,0
113862,-138.888888888889,1,1,0,100,0,0
113937,-135.135135135135,1,1,0,100,0,0
114012,-131.578947368421,1,1,0,100,0,0
114087,-128.205128205128,1,1,0,100,0,0
114162,-125,1,1,0,100,0,0
114762,-133.333333333333,1,1,0,100,0,0
115362,-135.135135135135,1,1,0,100,0,0
115962,-136.986301369863,1,1,0,100,0,0
116562,-138.888888888889,1,1,0,100,0,0
117462,-142.857142857143,1,1,0,100,0,0
117537,-136.986301369863,1,1,0,100,0,0
117612,-131.578947368421,1,1,0,100,0,0
117687,-126.582278481013,1,1,0,100,0,0
117762,-121.951219512195,1,1,0,100,0,0
118362,-133.333333333333,1,1,0,100,0,0
118962,-136.986301369863,1,1,0,100,0,0
120162,-138.888888888889,1,1,0,100,0,0
120762,-140.845070422535,1,1,0,100,0,0
121362,-142.857142857143,1,1,0,100,0,0
121662,-138.888888888889,1,1,0,100,0,0
121962,-135.135135135135,1,1,0,100,0,0
122262,-131.578947368421,1,1,0,100,0,0
122412,-128.205128205128,1,1,0,100,0,0
122562,-125,1,1,0,100,0,0
122712,-123.456790123457,1,1,0,100,0,0
122787,-121.951219512195,1,1,0,100,0,0
122862,-120.481927710843,1,1,0,100,0,0
123012,-117.647058823529,1,1,0,100,0,0
123162,-114.942528735632,1,1,0,100,0,0
123462,-111.111111111111,1,1,0,100,0,0
123537,-107.52688172043,1,1,0,100,0,0
123612,-104.166666666667,1,1,0,100,0,0
123687,-101.010101010101,1,1,0,100,0,0
123762,-98.0392156862745,1,1,0,100,0,0
124062,-111.111111111111,1,1,0,100,0,0
124212,-108.695652173913,1,1,0,100,0,0
124362,-106.382978723404,1,1,0,100,0,0
124512,-104.166666666667,1,1,0,100,0,0
124587,-103.092783505155,1,1,0,100,0,0
124662,-102.040816326531,1,1,0,100,0,0
124812,-100,1,1,0,100,0,0
124962,-98.0392156862745,1,1,0,100,0,0
125112,-96.1538461538461,1,1,0,100,0,0
125262,-94.3396226415094,1,1,0,100,0,0
125412,-92.5925925925926,1,1,0,100,0,0
125487,-90.9090909090909,1,1,0,100,0,0
125562,-89.2857142857143,1,1,0,100,0,0
125712,-86.9565217391304,1,1,0,100,0,0
125862,-84.7457627118644,1,1,0,100,0,0
126162,-100,1,1,0,100,0,0
126237,-99.009900990099,1,1,0,100,0,0
126312,-98.0392156862745,1,1,0,100,0,0
126387,-97.0873786407767,1,1,0,100,0,0
126462,-96.1538461538461,1,1,0,100,0,0
126537,-95.2380952380952,1,1,0,100,0,0
126612,-94.3396226415094,1,1,0,100,0,0
126687,-93.4579439252336,1,1,0,100,0,0
126762,-92.5925925925926,1,1,0,100,0,0
126837,-91.743119266055,1,1,0,100,0,0
126912,-90.9090909090909,1,1,0,100,0,0
126987,-90.0900900900901,1,1,0,100,0,0
127062,-89.2857142857143,1,1,0,100,0,0
127137,-88.4955752212389,1,1,0,100,0,0
127212,-87.719298245614,1,1,0,100,0,0
127287,-86.9565217391304,1,1,0,100,0,0
127362,-86.2068965517241,1,1,0,100,0,0
127437,-84.7457627118644,1,1,0,100,0,0
127512,-83.3333333333333,1,1,0,100,0,0
127587,-81.9672131147541,1,1,0,100,0,0
127662,-80.6451612903226,1,1,0,100,0,0
127737,-79.3650793650794,1,1,0,100,0,0
127812,-78.125,1,1,0,100,0,0
127887,-76.9230769230769,1,1,0,100,0,0
127962,-75.7575757575758,1,1,0,100,0,0
128037,-74.6268656716418,1,1,0,100,0,0
128112,-73.5294117647059,1,1,0,100,0,0
128187,-72.463768115942,1,1,0,100,0,0
128262,-71.4285714285714,1,1,0,100,0,0
128337,-70.4225352112676,1,1,0,100,0,0
128412,-69.4444444444444,1,1,0,100,0,0
128487,-68.4931506849315,1,1,0,100,0,0
128562,-67.5675675675676,1,1,0,100,0,0
128637,-66.2251655629139,1,1,0,100,0,0
128712,-64.9350649350649,1,1,0,100,0,0
128787,-63.6942675159236,1,1,0,100,0,0
128862,-62.5,1,1,0,100,0,0
128937,-61.3496932515337,1,1,0,100,0,0
129012,-60.2409638554217,1,1,0,100,0,0
129087,-59.1715976331361,1,1,0,100,0,0
129162,-58.1395348837209,1,1,0,100,0,0
129237,-56.8181818181818,1,1,0,100,0,0
129312,-55.5555555555556,1,1,0,100,0,0
129387,-54.3478260869565,1,1,0,100,0,0
129462,-53.1914893617021,1,1,0,100,0,0
129537,-51.8134715025907,1,1,0,100,0,0
129612,-50.5050505050505,1,1,0,100,0,0
129687,-49.0196078431373,1,1,0,100,0,0
129762,-47.6190476190476,1,1,0,100,0,0
130962,-100,1,1,0,100,0,0
131000,-100,1,1,0,100,0,1
150175,-111.111111111111,1,1,0,100,0,1
150200,-111.111111111111,1,1,0,100,0,0
150462,-117.647058823529,1,1,0,100,0,0
151062,-125,1,1,0,100,0,0
151362,-129.87012987013,1,1,0,100,0,0
151662,-133.333333333333,1,1,0,100,0,0
152112,-153.846153846154,1,1,0,100,0,0
152187,-147.058823529412,1,1,0,100,0,0
152262,-140.845070422535,1,1,0,100,0,0
152337,-135.135135135135,1,1,0,100,0,0
152412,-129.87012987013,1,1,0,100,0,0
152487,-125,1,1,0,100,0,0
152562,-120.481927710843,1,1,0,100,0,0
152862,-142.857142857143,1,1,0,100,0,0
153012,-138.888888888889,1,1,0,100,0,0
153462,-125,1,1,0,100,0,0
153762,-119.047619047619,1,1,0,100,0,0
154062,-113.636363636364,1,1,0,100,0,0
154212,-111.111111111111,1,1,0,100,0,0
154512,-106.382978723404,1,1,0,100,0,0
154812,-102.040816326531,1,1,0,100,0,0
154962,-100,1,1,0,100,0,0
155037,-99.009900990099,1,1,0,100,0,0
155112,-98.0392156862745,1,1,0,100,0,0
155187,-97.0873786407767,1,1,0,100,0,0
155262,-96.1538461538461,1,1,0,100,0,0
155337,-95.2380952380952,1,1,0,100,0,0
155412,-94.3396226415094,1,1,0,100,0,0
155487,-93.4579439252336,1,1,0,100,0,0
155562,-92.5925925925926,1,1,0,100,0,0
155637,-91.743119266055,1,1,0,100,0,0
155712,-90.9090909090909,1,1,0,100,0,0
155787,-90.0900900900901,1,1,0,100,0,0
155862,-89.2857142857143,1,1,0,100,0,0
155937,-88.4955752212389,1,1,0,100,0,0
156012,-87.719298245614,1,1,0,100,0,0
156087,-86.9565217391304,1,1,0,100,0,0
156162,-86.2068965517241,1,1,0,100,0,0
156237,-84.7457627118644,1,1,0,100,0,0
156312,-83.3333333333333,1,1,0,100,0,0
156387,-81.9672131147541,1,1,0,100,0,0
156462,-80.6451612903226,1,1,0,100,0,0
156537,-79.3650793650794,1,1,0,100,0,0
156612,-78.125,1,1,0,100,0,0
156687,-76.9230769230769,1,1,0,100,0,0
156762,-75.7575757575758,1,1,0,100,0,0
156837,-74.6268656716418,1,1,0,100,0,0
156912,-73.5294117647059,1,1,0,100,0,0
156987,-72.463768115942,1,1,0,100,0,0
157062,-71.4285714285714,1,1,0,100,0,0
157137,-70.4225352112676,1,1,0,100,0,0
157212,-69.4444444444444,1,1,0,100,0,0
157287,-68.4931506849315,1,1,0,100,0,0
157362,-67.5675675675676,1,1,0,100,0,0
157437,-66.2251655629139,1,1,0,100,0,0
157512,-64.9350649350649,1,1,0,100,0,0
157587,-63.6942675159236,1,1,0,100,0,0
157662,-62.5,1,1,0,100,0,0
157737,-61.3496932515337,1,1,0,100,0,0
157812,-60.2409638554217,1,1,0,100,0,0
157887,-59.1715976331361,1,1,0,100,0,0
157962,-58.1395348837209,1,1,0,100,0,0
158037,-56.8181818181818,1,1,0,100,0,0
158112,-55.5555555555556,1,1,0,100,0,0
158187,-54.3478260869565,1,1,0,100,0,0
158262,-53.1914893617021,1,1,0,100,0,0
158337,-51.8134715025907,1,1,0,100,0,0
158412,-50.5050505050505,1,1,0,100,0,0
158487,-49.0196078431373,1,1,0,100,0,0
158562,-47.6190476190476,1,1,0,100,0,0
159762,-100,1,1,0,100,0,0
159800,-100,1,1,0,100,0,1
174200,-105.263157894737,1,1,0,100,0,0
174762,-117.647058823529,1,1,0,100,0,0
175362,-133.333333333333,1,1,0,100,0,0
175962,-142.857142857143,1,1,0,100,0,0
176562,-153.846153846153,1,1,0,100,0,0
176862,-161.290322580645,1,1,0,100,0,0
177162,-169.491525423729,1,1,0,100,0,0
177312,-175.438596491228,1,1,0,100,0,0
177462,-181.818181818182,1,1,0,100,0,0
177537,-185.185185185185,1,1,0,100,0,0
177612,-188.679245283019,1,1,0,100,0,0
177687,-192.307692307692,1,1,0,100,0,0
177762,-196.078431372549,1,1,0,100,0,0
178512,-166.666666666667,1,1,0,100,0,0
178662,-47.6190476190476,1,1,0,100,0,0
178962,-83.3333333333333,1,1,0,100,0,0
179000,-83.3333333333333,1,1,0,100,0,1
183762,-80.6451612903226,1,1,0,100,0,1
183912,-78.125,1,1,0,100,0,1
183987,-76.9230769230769,1,1,0,100,0,1
184062,-75.7575757575758,1,1,0,100,0,1
184212,-71.4285714285714,1,1,0,100,0,1
187812,-72.463768115942,1,1,0,100,0,1
187887,-73.5294117647059,1,1,0,100,0,1
187962,-74.6268656716418,1,1,0,100,0,1
188037,-75.7575757575758,1,1,0,100,0,1
188187,-76.9230769230769,1,1,0,100,0,1
188262,-77.5193798449612,1,1,0,100,0,1
188337,-78.125,1,1,0,100,0,1
188412,-78.7401574803149,1,1,0,100,0,1
188487,-79.3650793650794,1,1,0,100,0,1
188562,-80,1,1,0,100,0,1
188862,-83.3333333333333,1,1,0,100,0,1
193362,-80,1,1,0,100,0,1
193512,-76.9230769230769,1,1,0,100,0,1
193662,-74.0740740740741,1,1,0,100,0,1
193812,-66.6666666666667,1,1,0,100,0,1
195762,-67.5675675675676,1,1,0,100,0,1
195800,-67.5675675675676,1,1,0,100,0,0
195837,-68.4931506849315,1,1,0,100,0,0
195912,-69.4444444444444,1,1,0,100,0,0
195987,-70.4225352112676,1,1,0,100,0,0
196062,-71.4285714285714,1,1,0,100,0,0
196137,-72.463768115942,1,1,0,100,0,0
196212,-73.5294117647059,1,1,0,100,0,0
196287,-74.6268656716418,1,1,0,100,0,0
196362,-75.7575757575758,1,1,0,100,0,0
196437,-76.9230769230769,1,1,0,100,0,0
196512,-78.125,1,1,0,100,0,0
196587,-79.3650793650794,1,1,0,100,0,0
196662,-80.6451612903226,1,1,0,100,0,0
196737,-81.9672131147541,1,1,0,100,0,0
196812,-83.3333333333334,1,1,0,100,0,0
196887,-84.7457627118644,1,1,0,100,0,0
196962,-86.2068965517242,1,1,0,100,0,0
197037,-86.9565217391304,1,1,0,100,0,0
197187,-88.4955752212389,1,1,0,100,0,0
197262,-89.2857142857143,1,1,0,100,0,0
197412,-90.9090909090909,1,1,0,100,0,0
197562,-92.5925925925926,1,1,0,100,0,0
197625,-93.4579439252336,1,1,0,100,0,0
197675,-94.3396226415094,1,1,0,100,0,0
197725,-95.2380952380952,1,1,0,100,0,0
197862,-97.0873786407767,1,1,0,100,0,0
198162,-97.0873786407767,1,1,0,100,0,0
198200,-100,1,1,0,100,0,0
212562,-100,1,1,0,100,0,0
212637,-98.0392156862745,1,1,0,100,0,0
212712,-96.1538461538461,1,1,0,100,0,0
212787,-94.3396226415094,1,1,0,100,0,0
212862,-92.5925925925926,1,1,0,100,0,0
212937,-90.9090909090909,1,1,0,100,0,0
213012,-89.2857142857143,1,1,0,100,0,0
213087,-87.719298245614,1,1,0,100,0,0
213162,-86.2068965517241,1,1,0,100,0,0
213237,-84.7457627118644,1,1,0,100,0,0
213312,-83.3333333333333,1,1,0,100,0,0
213387,-81.9672131147541,1,1,0,100,0,0
213462,-80.6451612903226,1,1,0,100,0,0
213537,-79.3650793650794,1,1,0,100,0,0
213612,-78.125,1,1,0,100,0,0
213687,-76.9230769230769,1,1,0,100,0,0
213762,-75.7575757575757,1,1,0,100,0,0
213837,-74.6268656716418,1,1,0,100,0,0
213912,-73.5294117647059,1,1,0,100,0,0
213987,-72.463768115942,1,1,0,100,0,0
214062,-71.4285714285714,1,1,0,100,0,0
214137,-70.4225352112676,1,1,0,100,0,0
214212,-69.4444444444444,1,1,0,100,0,0
214287,-68.4931506849315,1,1,0,100,0,0
214362,-67.5675675675676,1,1,0,100,0,0
214437,-66.6666666666666,1,1,0,100,0,0
214512,-65.7894736842105,1,1,0,100,0,0
214587,-64.9350649350649,1,1,0,100,0,0
214662,-64.1025641025641,1,1,0,100,0,0
214737,-63.2911392405063,1,1,0,100,0,0
214812,-62.5,1,1,0,100,0,0
214887,-61.7283950617284,1,1,0,100,0,0
214962,-60.9756097560976,1,1,0,100,0,0
215037,-59.5238095238095,1,1,0,100,0,0
215112,-58.1395348837209,1,1,0,100,0,0
215187,-56.8181818181818,1,1,0,100,0,0
215262,-55.5555555555556,1,1,0,100,0,0
215337,-54.054054054054,1,1,0,100,0,0
215412,-52.6315789473684,1,1,0,100,0,0
215487,-51.2820512820513,1,1,0,100,0,0
215562,-50,1,1,0,100,0,0
215637,-48.5436893203883,1,1,0,100,0,0
215712,-47.1698113207547,1,1,0,100,0,0
215787,-45.662100456621,1,1,0,100,0,0
215862,-44.2477876106195,1,1,0,100,0,0
215937,-42.7350427350427,1,1,0,100,0,0
216012,-41.3223140495868,1,1,0,100,0,0
216087,-40,1,1,0,100,0,0
216162,-33.3333333333333,1,1,0,100,0,0
217362,-90.9090909090909,1,1,0,100,0,0
217400,-90.9090909090909,1,1,0,100,0,1
232062,-90.9090909090909,1,1,0,100,0,1
232137,-90.0900900900901,1,1,0,100,0,1
232212,-89.2857142857143,1,1,0,100,0,1
232287,-88.4955752212389,1,1,0,100,0,1
232362,-87.719298245614,1,1,0,100,0,1
232437,-86.9565217391304,1,1,0,100,0,1
232512,-86.2068965517241,1,1,0,100,0,1
232587,-85.4700854700855,1,1,0,100,0,1
232662,-84.7457627118644,1,1,0,100,0,1
232737,-84.0336134453781,1,1,0,100,0,1
232812,-83.3333333333333,1,1,0,100,0,1
232887,-82.6446280991735,1,1,0,100,0,1
232962,-81.9672131147541,1,1,0,100,0,1
233037,-80.6451612903226,1,1,0,100,0,1
233112,-79.3650793650794,1,1,0,100,0,1
233187,-78.125,1,1,0,100,0,1
233262,-76.9230769230769,1,1,0,100,0,1
233337,-75.7575757575758,1,1,0,100,0,1
233412,-74.6268656716418,1,1,0,100,0,1
233487,-73.5294117647059,1,1,0,100,0,1
233562,-72.463768115942,1,1,0,100,0,1
233637,-71.4285714285714,1,1,0,100,0,1
233712,-70.4225352112676,1,1,0,100,0,1
233787,-69.4444444444444,1,1,0,100,0,1
233862,-68.4931506849315,1,1,0,100,0,1
233937,-67.5675675675676,1,1,0,100,0,1
234012,-66.6666666666667,1,1,0,100,0,1
234087,-65.7894736842105,1,1,0,100,0,1
234162,-64.9350649350649,1,1,0,100,0,1
234237,-63.6942675159236,1,1,0,100,0,1
234312,-62.5,1,1,0,100,0,1
234387,-61.3496932515337,1,1,0,100,0,1
234462,-60.2409638554217,1,1,0,100,0,1
234537,-59.1715976331361,1,1,0,100,0,1
234612,-58.1395348837209,1,1,0,100,0,1
234687,-57.1428571428571,1,1,0,100,0,1
234762,-56.1797752808989,1,1,0,100,0,1
234837,-54.9450549450549,1,1,0,100,0,1
234912,-53.763440860215,1,1,0,100,0,1
234987,-52.6315789473684,1,1,0,100,0,1
235062,-51.5463917525773,1,1,0,100,0,1
235137,-50.5050505050505,1,1,0,100,0,1
235212,-49.5049504950495,1,1,0,100,0,1
235287,-48.5436893203883,1,1,0,100,0,1
235362,-47.6190476190476,1,1,0,100,0,1
235400,-47.6190476190476,1,1,0,100,0,0
235962,-111.111111111111,1,1,0,100,0,0
236037,-107.52688172043,1,1,0,100,0,0
236112,-104.166666666667,1,1,0,100,0,0
236187,-101.010101010101,1,1,0,100,0,0
236262,-98.0392156862745,1,1,0,100,0,0
236337,-95.2380952380952,1,1,0,100,0,0
236412,-92.5925925925926,1,1,0,100,0,0
236487,-89.2857142857143,1,1,0,100,0,0
236562,-83.3333333333333,1,1,0,100,0,0
236600,-83.3333333333333,1,1,0,100,0,1
246087,-81.3008130081301,1,1,0,100,0,1
246162,-76.9230769230769,1,1,0,100,0,1
255500,-76.9230769230769,1,1,0,100,0,0
255762,-71.4285714285714,1,1,0,100,0,0
255800,-71.4285714285714,1,1,0,100,0,1
262812,-76.9230769230769,1,1,0,100,0,1
262887,-80,1,1,0,100,0,1
262962,-83.3333333333333,1,1,0,100,0,1
263000,-83.3333333333333,1,1,0,100,0,0
263112,-86.9565217391304,1,1,0,100,0,0
263262,-90.9090909090909,1,1,0,100,0,0
263412,-95.2380952380952,1,1,0,100,0,0
263712,-111.111111111111,1,1,0,100,0,0
263862,-117.647058823529,1,1,0,100,0,0
264012,-125,1,1,0,100,0,0
264162,-129.87012987013,1,1,0,100,0,0
264312,-111.111111111111,1,1,0,100,0,0
264462,-100,1,1,0,100,0,0
264612,-90.9090909090908,1,1,0,100,0,0
264762,-83.3333333333333,1,1,0,100,0,0
264912,-76.9230769230769,1,1,0,100,0,0
265062,-47.6190476190476,1,1,0,100,0,0
265362,-66.6666666666667,1,1,0,100,0,0
265400,-66.6666666666667,1,1,0,100,0,1
270462,-58.8235294117647,1,1,0,100,0,1
270612,-66.6666666666667,1,1,0,100,0,1
270687,-65.7894736842105,1,1,0,100,0,1
270762,-64.9350649350649,1,1,0,100,0,1
270837,-64.1025641025641,1,1,0,100,0,1
270912,-63.2911392405063,1,1,0,100,0,1
271062,-55.5555555555556,1,1,0,100,0,1
271212,-66.6666666666667,1,1,0,100,0,1
271287,-65.359477124183,1,1,0,100,0,1
271362,-64.1025641025641,1,1,0,100,0,1
271437,-62.8930817610063,1,1,0,100,0,1
271512,-61.7283950617284,1,1,0,100,0,1
271662,-52.6315789473684,1,1,0,100,0,1
271812,-66.6666666666667,1,1,0,100,0,1
271887,-63.6942675159236,1,1,0,100,0,1
271962,-60.9756097560976,1,1,0,100,0,1
272037,-58.4795321637427,1,1,0,100,0,1
272112,-56.1797752808989,1,1,0,100,0,1
272187,-54.054054054054,1,1,0,100,0,1
272262,-50,1,1,0,100,0,1
272412,-62.5,1,1,0,100,0,1
272487,-60.6060606060606,1,1,0,100,0,1
272562,-58.8235294117647,1,1,0,100,0,1
273012,-86.9565217391304,1,1,0,100,0,1
273162,-90.9090909090909,1,1,0,100,0,1
273462,-100,1,1,0,100,0,1
273612,-105.263157894737,1,1,0,100,0,1
273762,-100,1,1,0,100,0,1
273837,-95.2380952380952,1,1,0,100,0,1
273912,-90.0900900900901,1,1,0,100,0,1
273987,-85.4700854700855,1,1,0,100,0,1
274062,-80.6451612903226,1,1,0,100,0,1
274137,-76.3358778625954,1,1,0,100,0,1
274212,-71.9424460431655,1,1,0,100,0,1
274287,-68.0272108843537,1,1,0,100,0,1
274362,-64.1025641025641,1,1,0,100,0,1
274437,-60.6060606060606,1,1,0,100,0,1
274512,-57.1428571428571,1,1,0,100,0,1
274587,-53.763440860215,1,1,0,100,0,1
274662,-50.5050505050505,1,1,0,100,0,1
274962,-40,1,1,0,100,0,1
275000,-40,1,1,0,100,0,0
275562,-66.6666666666667,1,1,0,99,0,0
275862,-71.4285714285714,1,1,0,99,0,0
276162,-76.9230769230769,1,1,0,98,0,0
276462,-83.3333333333333,1,1,0,98,0,0
276762,-90.9090909090909,1,1,0,97,0,0
277062,-100,1,1,0,96,0,0
277362,-111.111111111111,1,1,0,95,0,0
277962,-117.647058823529,1,1,0,94,0,0
278562,-125,1,1,0,93,0,0
278862,-128.205128205128,1,1,0,93,0,0
279012,-131.578947368421,1,1,0,93,0,0
279162,-131.578947368421,1,1,0,92,0,0
279312,-135.135135135135,1,1,0,92,0,0
279462,-136.986301369863,1,1,0,91,0,0
279762,-142.857142857143,1,1,0,90,0,0
280362,-147.058823529412,1,1,0,89,0,0
280962,-151.515151515152,1,1,0,88,0,0
281262,-153.846153846154,1,1,0,87,0,0
281562,-156.25,1,1,0,86,0,0
282162,-161.290322580645,1,1,0,85,0,0
282762,-166.666666666667,1,1,0,84,0,0
283362,-172.413793103448,1,1,0,83,0,0
283662,-178.571428571429,1,1,0,83,0,0
283812,-181.818181818182,1,1,0,83,0,0
283962,-181.818181818182,1,1,0,82,0,0
284112,-188.679245283019,1,1,0,82,0,0
284262,-192.307692307692,1,1,0,81,0,0
284562,-200,1,1,0,80,0,0
285462,-181.818181818182,1,1,0,80,0,0
285762,-166.666666666667,1,1,0,80,0,0
286662,-208.333333333333,1,1,0,80,0,0
286737,-196.078431372549,1,1,0,80,0,0
286812,-185.185185185185,1,1,0,80,0,0
286887,-175.438596491228,1,1,0,80,0,0
286962,-166.666666666667,1,1,0,80,0,0
287562,-200,1,1,0,80,0,0
288162,-181.818181818182,1,1,0,79,0,0
288762,-166.666666666667,1,1,0,78,0,0
289362,-153.846153846154,1,1,0,77,0,0
290262,-250,1,1,0,75,0,0
290337,-222.222222222222,1,1,0,75,0,0
290412,-200,1,1,0,75,0,0
290487,-181.818181818182,1,1,0,75,0,0
290562,-166.666666666667,1,1,0,75,0,0
291162,-222.222222222222,1,1,0,74,0,0
291762,-200,1,1,0,73,0,0
292362,-200,1,1,0,72,0,0
292962,-250,1,1,0,71,0,0
293562,-200,1,1,0,70,0,0
294162,-166.666666666667,1,1,0,70,0,0
294275,-166.666666666667,1,1,0,40,0,0
294912,-200,1,1,0,40,0,0
294987,-192.307692307692,1,1,0,40,0,0
295062,-185.185185185185,1,1,0,40,0,0
295212,-175.438596491228,1,1,0,39,0,0
295362,-166.666666666667,1,1,0,38,0,0
295812,-172.413793103448,1,1,0,37,0,0
296262,-178.571428571429,1,1,0,36,0,0
296562,-181.818181818182,1,1,0,35,0,0
297012,-188.679245283019,1,1,0,34,0,0
297462,-196.078431372549,1,1,0,33,0,0
297757,-196.078431372549,1,1,0,32,0,0
297795,303.79746835443,4,1,0,32,1,0
297795,-202.53164557,4,1,0,32,0,0
297984,-202.53164557,4,1,0,31,0,0
298212,-212.765957446809,4,1,0,30,0,0
298668,-222.222222222222,4,1,0,29,0,0
298972,-227.272727272727,4,1,0,28,0,0
299731,-285.714285714286,4,1,0,27,0,0
299807,-270.27027027027,4,1,0,26,0,0
299883,-256.410256410256,4,1,0,25,0,0
299959,-256.410256410256,4,1,0,24,0,0
300035,-238.095238095238,4,1,0,23,0,0
300111,-238.095238095238,4,1,0,22,0,0
300185,-238.095238095238,4,1,0,21,0,0
300225,314.13612565445,4,1,0,21,1,0
300225,-217.391304347826,4,1,0,21,0,0
300421,-217.391304347826,4,1,0,20,0,0
300656,-227.272727272727,4,1,0,19,0,0
300892,-227.272727272727,4,1,0,18,0,0
301128,-238.095238095238,4,1,0,17,0,0
301440,-238.095238095238,4,1,0,16,0,0
301481,322.58064516129,7,1,0,16,1,0
301481,-243.90243902439,7,1,0,16,0,0
301682,-243.90243902439,7,1,0,15,0,0
301924,-256.410256410256,7,1,0,14,0,0
302166,-256.410256410256,7,1,0,13,0,0
302408,-270.27027027027,7,1,0,12,0,0
302569,-270.27027027027,7,1,0,11,0,0
302746,-270.27027027027,7,1,0,10,0,0
302788,333.333333333333,4,1,0,10,1,0
302788,-285.714285714286,4,1,0,10,0,0
302996,-285.714285714286,4,1,0,9,0,0
303245,-285.714285714286,4,1,0,8,0,0
303288,342.857142857143,4,1,0,8,1,8
303288,-312.5,4,1,0,8,0,0
303416,-312.5,4,1,0,7,0,0
303588,-312.5,4,1,0,6,0,0
303759,-333.333333333333,4,1,0,5,0,0

[HitObjects]
256,192,1400,12,0,10850,0:0:0:0:
256,192,11000,5,4,0:0:0:0:
256,192,11300,1,8,0:0:0:0:
256,192,11450,1,8,0:0:0:0:
256,192,11750,1,0,0:0:0:0:
256,192,11900,1,8,0:0:0:0:
256,192,12200,1,0,0:0:0:0:
256,192,12500,1,8,0:0:0:0:
256,192,12650,1,8,0:0:0:0:
256,192,12950,1,0,0:0:0:0:
256,192,13100,1,8,0:0:0:0:
256,192,13250,1,0,0:0:0:0:
256,192,13400,1,0,0:0:0:0:
256,192,13700,1,8,0:0:0:0:
256,192,13850,1,8,0:0:0:0:
256,192,14150,1,0,0:0:0:0:
256,192,14300,1,8,0:0:0:0:
256,192,14600,1,0,0:0:0:0:
256,192,14900,1,8,0:0:0:0:
256,192,15050,1,8,0:0:0:0:
256,192,15200,1,0,0:0:0:0:
256,192,15350,1,8,0:0:0:0:
256,192,15500,1,4,0:0:0:0:
256,192,15800,1,4,0:0:0:0:
256,192,16100,1,8,0:0:0:0:
256,192,16250,1,8,0:0:0:0:
256,192,16400,1,8,0:0:0:0:
256,192,16550,1,0,0:0:0:0:
256,192,16700,1,0,0:0:0:0:
256,192,16850,1,0,0:0:0:0:
256,192,17000,1,8,0:0:0:0:
256,192,17300,1,8,0:0:0:0:
256,192,17450,1,8,0:0:0:0:
256,192,17600,1,0,0:0:0:0:
256,192,17750,1,0,0:0:0:0:
256,192,17900,1,8,0:0:0:0:
256,192,18050,1,8,0:0:0:0:
256,192,18200,1,4,0:0:0:0:
256,192,18500,1,8,0:0:0:0:
256,192,18650,1,0,0:0:0:0:
256,192,18800,1,8,0:0:0:0:
256,192,18950,1,0,0:0:0:0:
256,192,19100,1,8,0:0:0:0:
256,192,19250,1,8,0:0:0:0:
256,192,19400,1,4,0:0:0:0:
256,192,19700,1,4,0:0:0:0:
256,192,19925,1,8,0:0:0:0:
256,192,20000,1,8,0:0:0:0:
256,192,20075,1,8,0:0:0:0:
256,192,20225,1,8,0:0:0:0:
256,192,20375,1,8,0:0:0:0:
256,192,20525,1,8,0:0:0:0:
256,192,20600,1,4,0:0:0:0:
256,192,20900,1,8,0:0:0:0:
256,192,21050,1,0,0:0:0:0:
256,192,21200,1,0,0:0:0:0:
256,192,21350,1,0,0:0:0:0:
256,192,21500,1,8,0:0:0:0:
256,192,21800,1,0,0:0:0:0:
256,192,21950,1,0,0:0:0:0:
256,192,22100,1,8,0:0:0:0:
256,192,22400,1,0,0:0:0:0:
256,192,22550,1,0,0:0:0:0:
256,192,22700,1,8,0:0:0:0:
256,192,22850,1,0,0:0:0:0:
256,192,23000,1,0,0:0:0:0:
256,192,23300,1,8,0:0:0:0:
256,192,23450,1,0,0:0:0:0:
256,192,23600,1,0,0:0:0:0:
256,192,23750,1,0,0:0:0:0:
256,192,23900,1,8,0:0:0:0:
256,192,24200,1,0,0:0:0:0:
256,192,24350,1,0,0:0:0:0:
256,192,24500,1,8,0:0:0:0:
256,192,24800,1,0,0:0:0:0:
256,192,24950,1,0,0:0:0:0:
256,192,25100,1,8,0:0:0:0:
256,192,25250,1,8,0:0:0:0:
256,192,25400,1,0,0:0:0:0:
256,192,25550,1,8,0:0:0:0:
256,192,25700,1,0,0:0:0:0:
256,192,25850,1,8,0:0:0:0:
256,192,26000,1,0,0:0:0:0:
256,192,26150,1,8,0:0:0:0:
256,192,26300,1,0,0:0:0:0:
256,192,26450,1,8,0:0:0:0:
256,192,26600,1,0,0:0:0:0:
256,192,26750,1,0,0:0:0:0:
256,192,26900,1,8,0:0:0:0:
256,192,27050,1,8,0:0:0:0:
256,192,27200,1,0,0:0:0:0:
256,192,27350,1,0,0:0:0:0:
256,192,27500,1,8,0:0:0:0:
256,192,27650,1,8,0:0:0:0:
256,192,27800,1,0,0:0:0:0:
256,192,27950,1,8,0:0:0:0:
256,192,28250,1,8,0:0:0:0:
256,192,28550,1,8,0:0:0:0:
256,192,28700,1,0,0:0:0:0:
256,192,28850,1,8,0:0:0:0:
256,192,29000,1,4,0:0:0:0:
256,192,30050,1,0,0:0:0:0:
256,192,30200,1,12,0:0:0:0:
256,192,30350,1,0,0:0:0:0:
256,192,30500,1,8,0:0:0:0:
256,192,30575,1,8,0:0:0:0:
256,192,30650,1,0,0:0:0:0:
256,192,30800,1,8,0:0:0:0:
256,192,30875,1,8,0:0:0:0:
256,192,30950,1,8,0:0:0:0:
256,192,31100,1,0,0:0:0:0:
256,192,31250,1,8,0:0:0:0:
256,192,31400,1,0,0:0:0:0:
256,192,31475,1,0,0:0:0:0:
256,192,31550,1,8,0:0:0:0:
256,192,31625,1,0,0:0:0:0:
256,192,31700,1,8,0:0:0:0:
256,192,31850,1,0,0:0:0:0:
256,192,32000,1,8,0:0:0:0:
256,192,32150,1,8,0:0:0:0:
256,192,32225,1,8,0:0:0:0:
256,192,32300,1,0,0:0:0:0:
256,192,32450,1,8,0:0:0:0:
256,192,32600,1,0,0:0:0:0:
256,192,32675,1,0,0:0:0:0:
256,192,32750,1,0,0:0:0:0:
256,192,32900,1,8,0:0:0:0:
256,192,33050,1,8,0:0:0:0:
256,192,33200,1,0,0:0:0:0:
256,192,33275,1,0,0:0:0:0:
256,192,33350,1,8,0:0:0:0:
256,192,33500,1,8,0:0:0:0:
256,192,33650,1,0,0:0:0:0:
256,192,33800,1,0,0:0:0:0:
256,192,33900,1,0,0:0:0:0:
256,192,34000,1,8,0:0:0:0:
256,192,34100,1,0,0:0:0:0:
256,192,34200,1,8,0:0:0:0:
256,192,34300,1,8,0:0:0:0:
256,192,34400,1,0,0:0:0:0:
256,192,34550,1,8,0:0:0:0:
256,192,34587,1,8,0:0:0:0:
256,192,34700,1,0,0:0:0:0:
256,192,34850,1,12,0:0:0:0:
256,192,35000,1,0,0:0:0:0:
256,192,35150,1,8,0:0:0:0:
256,192,35300,1,0,0:0:0:0:
256,192,35375,1,0,0:0:0:0:
256,192,35450,1,0,0:0:0:0:
256,192,35600,1,8,0:0:0:0:
256,192,35750,1,0,0:0:0:0:
256,192,35900,1,8,0:0:0:0:
256,192,35975,1,8,0:0:0:0:
256,192,36050,1,0,0:0:0:0:
256,192,36200,1,8,0:0:0:0:
256,192,36350,1,0,0:0:0:0:
256,192,36500,1,12,0:0:0:0:
256,192,36650,1,0,0:0:0:0:
256,192,36800,1,0,0:0:0:0:
256,192,36950,1,12,0:0:0:0:
256,192,37100,1,0,0:0:0:0:
256,192,37250,1,12,0:0:0:0:
256,192,37400,1,0,0:0:0:0:
256,192,37475,1,0,0:0:0:0:
256,192,37550,1,0,0:0:0:0:
256,192,37625,1,0,0:0:0:0:
256,192,37700,1,8,0:0:0:0:
256,192,37775,1,8,0:0:0:0:
256,192,37850,1,0,0:0:0:0:
256,192,37925,1,8,0:0:0:0:
256,192,38000,1,0,0:0:0:0:
256,192,38075,1,0,0:0:0:0:
256,192,38150,1,8,0:0:0:0:
256,192,38225,1,8,0:0:0:0:
256,192,38300,1,0,0:0:0:0:
256,192,38375,1,8,0:0:0:0:
256,192,38450,1,8,0:0:0:0:
256,192,38525,1,8,0:0:0:0:
256,192,38600,1,0,0:0:0:0:
256,192,38825,1,0,0:0:0:0:
256,192,39050,1,0,0:0:0:0:
256,192,39200,1,0,0:0:0:0:
256,192,39250,1,0,0:0:0:0:
256,192,39300,1,0,0:0:0:0:
256,192,39350,1,0,0:0:0:0:
256,192,39500,1,12,0:0:0:0:
256,192,39800,1,0,0:0:0:0:
256,192,39950,1,8,0:0:0:0:
256,192,40025,1,8,0:0:0:0:
256,192,40100,1,0,0:0:0:0:
256,192,40250,1,0,0:0:0:0:
256,192,40400,1,8,0:0:0:0:
256,192,40550,1,0,0:0:0:0:
256,192,40625,1,8,0:0:0:0:
256,192,40775,1,8,0:0:0:0:
256,192,40850,1,0,0:0:0:0:
256,192,41000,1,8,0:0:0:0:
256,192,41075,1,8,0:0:0:0:
256,192,41150,1,8,0:0:0:0:
256,192,41300,1,0,0:0:0:0:
256,192,41450,1,8,0:0:0:0:
256,192,41600,1,0,0:0:0:0:
256,192,41675,1,0,0:0:0:0:
256,192,41750,1,8,0:0:0:0:
256,192,41900,1,0,0:0:0:0:
256,192,42050,1,8,0:0:0:0:
256,192,42125,1,8,0:0:0:0:
256,192,42200,1,0,0:0:0:0:
256,192,42350,1,8,0:0:0:0:
256,192,42500,1,0,0:0:0:0:
256,192,42575,1,0,0:0:0:0:
256,192,42650,1,0,0:0:0:0:
256,192,42800,1,8,0:0:0:0:
256,192,42875,1,0,0:0:0:0:
256,192,42950,1,8,0:0:0:0:
256,192,43025,1,8,0:0:0:0:
256,192,43100,1,0,0:0:0:0:
256,192,43250,1,8,0:0:0:0:
256,192,43400,1,0,0:0:0:0:
256,192,43500,1,0,0:0:0:0:
256,192,43600,1,8,0:0:0:0:
256,192,43700,1,0,0:0:0:0:
256,192,43775,1,8,0:0:0:0:
256,192,43850,1,8,0:0:0:0:
256,192,43925,1,8,0:0:0:0:
256,192,44000,1,0,0:0:0:0:
256,192,44150,1,8,0:0:0:0:
256,192,44187,1,8,0:0:0:0:
256,192,44300,1,0,0:0:0:0:
256,192,44450,1,12,0:0:0:0:
256,192,44600,1,0,0:0:0:0:
256,192,44750,1,8,0:0:0:0:
256,192,44825,1,0,0:0:0:0:
256,192,44900,1,8,0:0:0:0:
256,192,45050,1,8,0:0:0:0:
256,192,45200,1,0,0:0:0:0:
256,192,45275,1,8,0:0:0:0:
256,192,45350,1,0,0:0:0:0:
256,192,45425,1,0,0:0:0:0:
256,192,45500,1,8,0:0:0:0:
256,192,45575,1,8,0:0:0:0:
256,192,45650,1,0,0:0:0:0:
256,192,45800,1,8,0:0:0:0:
256,192,45950,1,0,0:0:0:0:
256,192,46025,1,0,0:0:0:0:
256,192,46100,1,8,0:0:0:0:
256,192,46250,1,8,0:0:0:0:
256,192,46400,1,0,0:0:0:0:
256,192,46475,1,8,0:0:0:0:
256,192,46550,1,0,0:0:0:0:
256,192,46625,1,0,0:0:0:0:
256,192,46700,1,8,0:0:0:0:
256,192,46775,1,8,0:0:0:0:
256,192,46850,1,0,0:0:0:0:
256,192,47000,1,0,0:0:0:0:
256,192,47075,1,0,0:0:0:0:
256,192,47150,1,8,0:0:0:0:
256,192,47225,1,8,0:0:0:0:
256,192,47300,1,0,0:0:0:0:
256,192,47400,1,8,0:0:0:0:
256,192,47500,1,8,0:0:0:0:
256,192,47600,1,0,0:0:0:0:
256,192,47750,1,8,0:0:0:0:
256,192,47787,1,8,0:0:0:0:
256,192,47900,1,0,0:0:0:0:
256,192,48050,1,12,0:0:0:0:
256,192,48200,1,0,0:0:0:0:
256,192,48350,1,0,0:0:0:0:
256,192,48425,1,0,0:0:0:0:
256,192,48500,1,8,0:0:0:0:
256,192,48575,1,8,0:0:0:0:
256,192,48650,1,0,0:0:0:0:
256,192,48800,1,8,0:0:0:0:
256,192,48875,1,0,0:0:0:0:
256,192,48950,1,0,0:0:0:0:
256,192,49025,1,8,0:0:0:0:
256,192,49175,1,8,0:0:0:0:
256,192,49250,1,0,0:0:0:0:
256,192,49400,1,12,0:0:0:0:
256,192,49700,1,8,0:0:0:0:
256,192,49850,1,0,0:0:0:0:
256,192,50000,1,8,0:0:0:0:
256,192,50075,1,8,0:0:0:0:
256,192,50150,1,0,0:0:0:0:
256,192,50300,1,8,0:0:0:0:
256,192,50450,1,8,0:0:0:0:
256,192,50525,1,8,0:0:0:0:
256,192,50600,1,0,0:0:0:0:
256,192,50750,1,8,0:0:0:0:
256,192,50825,1,8,0:0:0:0:
256,192,50900,1,8,0:0:0:0:
256,192,51050,1,0,0:0:0:0:
256,192,51200,1,8,0:0:0:0:
256,192,51275,1,0,0:0:0:0:
256,192,51350,1,8,0:0:0:0:
256,192,51500,1,8,0:0:0:0:
256,192,51650,1,0,0:0:0:0:
256,192,51725,1,0,0:0:0:0:
256,192,51800,1,8,0:0:0:0:
256,192,51950,1,0,0:0:0:0:
256,192,52100,1,8,0:0:0:0:
256,192,52175,1,8,0:0:0:0:
256,192,52250,1,0,0:0:0:0:
256,192,52400,1,8,0:0:0:0:
256,192,52475,1,0,0:0:0:0:
256,192,52550,1,8,0:0:0:0:
256,192,52700,1,8,0:0:0:0:
256,192,52850,1,8,0:0:0:0:
256,192,52925,1,0,0:0:0:0:
256,192,53075,1,0,0:0:0:0:
256,192,53150,1,8,0:0:0:0:
256,192,53225,1,8,0:0:0:0:
256,192,53300,1,0,0:0:0:0:
256,192,53450,1,8,0:0:0:0:
256,192,53525,1,0,0:0:0:0:
256,192,53600,1,8,0:0:0:0:
256,192,53675,1,8,0:0:0:0:
256,192,53750,1,0,0:0:0:0:
256,192,53900,1,8,0:0:0:0:
256,192,54050,1,0,0:0:0:0:
256,192,54200,1,0,0:0:0:0:
256,192,54275,1,0,0:0:0:0:
256,192,54350,1,0,0:0:0:0:
256,192,54425,1,0,0:0:0:0:
256,192,54500,1,8,0:0:0:0:
256,192,54575,1,8,0:0:0:0:
256,192,54650,1,0,0:0:0:0:
256,192,54725,1,0,0:0:0:0:
256,192,54800,1,8,0:0:0:0:
256,192,54875,1,0,0:0:0:0:
256,192,54950,1,0,0:0:0:0:
256,192,55025,1,0,0:0:0:0:
256,192,55100,1,8,0:0:0:0:
256,192,55175,1,8,0:0:0:0:
256,192,55250,1,0,0:0:0:0:
256,192,55325,1,8,0:0:0:0:
256,192,55400,1,0,0:0:0:0:
256,192,55475,1,8,0:0:0:0:
256,192,55550,1,0,0:0:0:0:
256,192,55625,1,0,0:0:0:0:
256,192,55700,1,8,0:0:0:0:
256,192,55775,1,8,0:0:0:0:
256,192,55850,1,0,0:0:0:0:
256,192,55925,1,0,0:0:0:0:
256,192,56000,1,8,0:0:0:0:
256,192,56075,1,0,0:0:0:0:
256,192,56150,1,8,0:0:0:0:
256,192,56225,1,0,0:0:0:0:
256,192,56300,1,8,0:0:0:0:
256,192,56375,1,8,0:0:0:0:
256,192,56450,1,8,0:0:0:0:
256,192,56525,1,8,0:0:0:0:
256,192,56600,1,0,0:0:0:0:
256,192,56675,1,0,0:0:0:0:
256,192,56750,1,0,0:0:0:0:
256,192,56825,1,0,0:0:0:0:
256,192,56900,1,8,0:0:0:0:
256,192,56975,1,8,0:0:0:0:
256,192,57050,1,0,0:0:0:0:
256,192,57125,1,0,0:0:0:0:
256,192,57200,1,8,0:0:0:0:
256,192,57275,1,0,0:0:0:0:
256,192,57350,1,0,0:0:0:0:
256,192,57425,1,0,0:0:0:0:
256,192,57500,1,8,0:0:0:0:
256,192,57575,1,8,0:0:0:0:
256,192,57650,1,0,0:0:0:0:
256,192,57725,1,0,0:0:0:0:
256,192,57800,1,8,0:0:0:0:
256,192,59000,1,4,0:0:0:0:
256,192,59300,1,0,0:0:0:0:
256,192,59450,1,0,0:0:0:0:
256,192,59600,1,0,0:0:0:0:
256,192,59900,1,0,0:0:0:0:
256,192,60200,1,8,0:0:0:0:
256,192,60500,1,8,0:0:0:0:
256,192,60800,1,8,0:0:0:0:
256,192,61100,1,8,0:0:0:0:
256,192,61400,1,4,0:0:0:0:
256,192,61550,1,8,0:0:0:0:
256,192,61700,1,8,0:0:0:0:
256,192,61850,1,8,0:0:0:0:
256,192,62000,1,8,0:0:0:0:
256,192,62150,1,8,0:0:0:0:
256,192,62300,1,8,0:0:0:0:
256,192,62450,1,8,0:0:0:0:
256,192,62600,1,4,0:0:0:0:
256,192,63800,5,4,0:0:0:0:
256,192,64025,1,4,0:0:0:0:
256,192,64250,1,4,0:0:0:0:
256,192,64475,1,4,0:0:0:0:
256,192,64700,1,12,0:0:0:0:
256,192,65000,5,4,0:0:0:0:
256,192,65225,1,4,0:0:0:0:
256,192,65450,1,4,0:0:0:0:
256,192,65675,1,4,0:0:0:0:
256,192,65900,1,12,0:0:0:0:
256,192,66200,5,4,0:0:0:0:
256,192,66425,1,4,0:0:0:0:
256,192,66650,1,4,0:0:0:0:
256,192,66875,1,4,0:0:0:0:
256,192,67100,1,12,0:0:0:0:
256,192,67400,1,4,0:0:0:0:
256,192,67625,1,4,0:0:0:0:
256,192,67850,1,4,0:0:0:0:
256,192,68000,1,8,0:0:0:0:
256,192,68075,1,0,0:0:0:0:
256,192,68225,1,0,0:0:0:0:
256,192,68300,1,8,0:0:0:0:
256,192,68450,1,8,0:0:0:0:
256,192,68600,5,4,0:0:0:0:
256,192,68825,1,4,0:0:0:0:
256,192,69050,1,4,0:0:0:0:
256,192,69275,1,4,0:0:0:0:
256,192,69500,1,12,0:0:0:0:
256,192,69800,5,4,0:0:0:0:
256,192,70025,1,4,0:0:0:0:
256,192,70250,1,4,0:0:0:0:
256,192,70475,1,4,0:0:0:0:
256,192,70700,1,12,0:0:0:0:
256,192,71000,5,4,0:0:0:0:
256,192,71225,1,4,0:0:0:0:
256,192,71450,1,4,0:0:0:0:
256,192,71675,1,4,0:0:0:0:
256,192,71900,1,12,0:0:0:0:
256,192,72200,1,4,0:0:0:0:
256,192,73400,1,0,0:0:0:0:
256,192,73475,1,8,0:0:0:0:
256,192,73625,1,8,0:0:0:0:
256,192,73700,1,0,0:0:0:0:
256,192,73850,1,0,0:0:0:0:
256,192,73925,1,8,0:0:0:0:
256,192,74000,1,8,0:0:0:0:
256,192,74150,1,0,0:0:0:0:
256,192,74225,1,8,0:0:0:0:
256,192,74300,1,8,0:0:0:0:
256,192,74375,1,8,0:0:0:0:
256,192,74450,1,0,0:0:0:0:
256,192,74600,1,0,0:0:0:0:
256,192,74675,1,8,0:0:0:0:
256,192,74825,1,8,0:0:0:0:
256,192,74900,1,0,0:0:0:0:
256,192,75050,1,8,0:0:0:0:
256,192,75125,1,8,0:0:0:0:
256,192,75200,1,0,0:0:0:0:
256,192,75275,1,8,0:0:0:0:
256,192,75350,1,0,0:0:0:0:
256,192,75500,1,12,0:0:0:0:
256,192,75800,1,0,0:0:0:0:
256,192,75875,1,8,0:0:0:0:
256,192,76025,1,8,0:0:0:0:
256,192,76100,1,0,0:0:0:0:
256,192,76250,1,0,0:0:0:0:
256,192,76325,1,8,0:0:0:0:
256,192,76400,1,8,0:0:0:0:
256,192,76550,1,0,0:0:0:0:
256,192,76625,1,8,0:0:0:0:
256,192,76700,1,8,0:0:0:0:
256,192,76775,1,8,0:0:0:0:
256,192,76850,1,0,0:0:0:0:
256,192,76925,1,8,0:0:0:0:
256,192,77000,1,0,0:0:0:0:
256,192,77075,1,8,0:0:0:0:
256,192,77225,1,8,0:0:0:0:
256,192,77300,1,0,0:0:0:0:
256,192,77450,1,8,0:0:0:0:
256,192,77525,1,8,0:0:0:0:
256,192,77600,1,0,0:0:0:0:
256,192,77675,1,8,0:0:0:0:
256,192,77750,1,0,0:0:0:0:
256,192,77900,1,12,0:0:0:0:
256,192,78200,1,8,0:0:0:0:
256,192,78275,1,8,0:0:0:0:
256,192,78350,1,0,0:0:0:0:
256,192,78425,1,8,0:0:0:0:
256,192,78500,1,0,0:0:0:0:
256,192,78650,1,8,0:0:0:0:
256,192,78725,1,8,0:0:0:0:
256,192,78800,1,0,0:0:0:0:
256,192,78875,1,8,0:0:0:0:
256,192,78950,1,8,0:0:0:0:
256,192,79100,1,0,0:0:0:0:
256,192,79175,1,8,0:0:0:0:
256,192,79250,1,0,0:0:0:0:
256,192,79325,1,8,0:0:0:0:
256,192,79400,1,0,0:0:0:0:
256,192,79475,1,0,0:0:0:0:
256,192,79550,1,8,0:0:0:0:
256,192,79625,1,8,0:0:0:0:
256,192,79700,1,0,0:0:0:0:
256,192,79850,1,8,0:0:0:0:
256,192,79925,1,8,0:0:0:0:
256,192,80000,1,0,0:0:0:0:
256,192,80075,1,8,0:0:0:0:
256,192,80150,1,0,0:0:0:0:
256,192,80300,1,12,0:0:0:0:
256,192,80600,1,0,0:0:0:0:
256,192,80675,1,0,0:0:0:0:
256,192,80750,1,0,0:0:0:0:
256,192,80825,1,0,0:0:0:0:
256,192,80900,1,8,0:0:0:0:
256,192,81050,1,0,0:0:0:0:
256,192,81125,1,0,0:0:0:0:
256,192,81200,1,8,0:0:0:0:
256,192,81350,1,0,0:0:0:0:
256,192,81425,1,0,0:0:0:0:
256,192,81500,1,0,0:0:0:0:
256,192,81575,1,0,0:0:0:0:
256,192,81650,1,8,0:0:0:0:
256,192,81800,1,4,0:0:0:0:
256,192,83000,1,0,0:0:0:0:
256,192,87800,1,0,0:0:0:0:
256,192,88100,1,8,0:0:0:0:
256,192,88700,1,8,0:0:0:0:
256,192,89300,1,8,0:0:0:0:
256,192,89900,1,8,0:0:0:0:
256,192,90500,1,8,0:0:0:0:
256,192,91100,1,8,0:0:0:0:
256,192,91400,12,0,92300,0:0:0:0:
256,192,92600,5,4,0:0:0:0:
256,192,93200,1,8,0:0:0:0:
256,192,93500,1,0,0:0:0:0:
256,192,93650,1,0,0:0:0:0:
256,192,94100,1,0,0:0:0:0:
256,192,94400,1,8,0:0:0:0:
256,192,94700,1,0,0:0:0:0:
256,192,94850,1,8,0:0:0:0:
256,192,95000,1,0,0:0:0:0:
256,192,95600,1,8,0:0:0:0:
256,192,96050,1,8,0:0:0:0:
256,192,96200,1,0,0:0:0:0:
256,192,96500,1,0,0:0:0:0:
256,192,96800,1,8,0:0:0:0:
256,192,97400,1,0,0:0:0:0:
256,192,98000,1,8,0:0:0:0:
256,192,98300,1,0,0:0:0:0:
256,192,98450,1,0,0:0:0:0:
256,192,98900,1,0,0:0:0:0:
256,192,99200,1,8,0:0:0:0:
256,192,99500,1,8,0:0:0:0:
256,192,99650,1,8,0:0:0:0:
256,192,99800,1,0,0:0:0:0:
256,192,100250,1,0,0:0:0:0:
256,192,100400,1,8,0:0:0:0:
256,192,100700,1,0,0:0:0:0:
256,192,101300,1,0,0:0:0:0:
256,192,102200,1,4,0:0:0:0:
256,192,102650,1,0,0:0:0:0:
256,192,103100,1,0,0:0:0:0:
256,192,103400,1,8,0:0:0:0:
256,192,103850,1,8,0:0:0:0:
256,192,104150,1,8,0:0:0:0:
256,192,104450,1,8,0:0:0:0:
256,192,104600,1,0,0:0:0:0:
256,192,105050,1,0,0:0:0:0:
256,192,105500,1,0,0:0:0:0:
256,192,105800,1,8,0:0:0:0:
256,192,105950,1,8,0:0:0:0:
256,192,106100,1,8,0:0:0:0:
256,192,106250,1,8,0:0:0:0:
256,192,106400,1,8,0:0:0:0:
256,192,106550,1,8,0:0:0:0:
256,192,106850,1,0,0:0:0:0:
256,192,107000,1,12,0:0:0:0:
256,192,107300,1,12,0:0:0:0:
256,192,107600,1,12,0:0:0:0:
256,192,107900,1,12,0:0:0:0:
256,192,108200,1,12,0:0:0:0:
256,192,108500,1,12,0:0:0:0:
256,192,108800,1,12,0:0:0:0:
256,192,109100,1,12,0:0:0:0:
256,192,109400,1,12,0:0:0:0:
256,192,109550,1,12,0:0:0:0:
256,192,109700,1,12,0:0:0:0:
256,192,109850,1,12,0:0:0:0:
256,192,110000,1,12,0:0:0:0:
256,192,110150,1,12,0:0:0:0:
256,192,110300,1,12,0:0:0:0:
256,192,110450,1,12,0:0:0:0:
256,192,110600,1,8,0:0:0:0:
256,192,110675,1,8,0:0:0:0:
256,192,110750,1,8,0:0:0:0:
256,192,110825,1,8,0:0:0:0:
256,192,110900,1,8,0:0:0:0:
256,192,110975,1,8,0:0:0:0:
256,192,111050,1,8,0:0:0:0:
256,192,111125,1,8,0:0:0:0:
256,192,111800,1,4,0:0:0:0:
256,192,112400,1,8,0:0:0:0:
256,192,113000,1,0,0:0:0:0:
256,192,113900,1,0,0:0:0:0:
256,192,113975,1,0,0:0:0:0:
256,192,114050,1,0,0:0:0:0:
256,192,114125,1,0,0:0:0:0:
256,192,114200,1,8,0:0:0:0:
256,192,114800,1,8,0:0:0:0:
256,192,115400,1,0,0:0:0:0:
256,192,116000,1,8,0:0:0:0:
256,192,116600,1,0,0:0:0:0:
256,192,117500,1,0,0:0:0:0:
256,192,117575,1,0,0:0:0:0:
256,192,117650,1,0,0:0:0:0:
256,192,117725,1,0,0:0:0:0:
256,192,117800,1,8,0:0:0:0:
256,192,118400,1,8,0:0:0:0:
256,192,119000,1,0,0:0:0:0:
256,192,120200,1,8,0:0:0:0:
256,192,120800,1,0,0:0:0:0:
256,192,121400,1,4,0:0:0:0:
256,192,121700,1,8,0:0:0:0:
256,192,122000,1,0,0:0:0:0:
256,192,122300,1,0,0:0:0:0:
256,192,122450,1,8,0:0:0:0:
256,192,122600,1,0,0:0:0:0:
256,192,122750,1,8,0:0:0:0:
256,192,122825,1,8,0:0:0:0:
256,192,122900,1,0,0:0:0:0:
256,192,123050,1,8,0:0:0:0:
256,192,123200,1,0,0:0:0:0:
256,192,123500,1,8,0:0:0:0:
256,192,123575,1,8,0:0:0:0:
256,192,123650,1,8,0:0:0:0:
256,192,123725,1,8,0:0:0:0:
256,192,123800,1,0,0:0:0:0:
256,192,124100,1,8,0:0:0:0:
256,192,124250,1,8,0:0:0:0:
256,192,124400,1,0,0:0:0:0:
256,192,124550,1,0,0:0:0:0:
256,192,124625,1,0,0:0:0:0:
256,192,124700,1,8,0:0:0:0:
256,192,124850,1,8,0:0:0:0:
256,192,125000,1,0,0:0:0:0:
256,192,125150,1,0,0:0:0:0:
256,192,125300,1,8,0:0:0:0:
256,192,125450,1,8,0:0:0:0:
256,192,125525,1,8,0:0:0:0:
256,192,125600,1,0,0:0:0:0:
256,192,125750,1,0,0:0:0:0:
256,192,125900,1,12,0:0:0:0:
256,192,126200,1,0,0:0:0:0:
256,192,126275,1,0,0:0:0:0:
256,192,126350,1,8,0:0:0:0:
256,192,126425,1,8,0:0:0:0:
256,192,126500,1,0,0:0:0:0:
256,192,126575,1,0,0:0:0:0:
256,192,126650,1,0,0:0:0:0:
256,192,126725,1,8,0:0:0:0:
256,192,126800,1,0,0:0:0:0:
256,192,126875,1,0,0:0:0:0:
256,192,126950,1,8,0:0:0:0:
256,192,127025,1,8,0:0:0:0:
256,192,127100,1,0,0:0:0:0:
256,192,127175,1,8,0:0:0:0:
256,192,127250,1,8,0:0:0:0:
256,192,127325,1,8,0:0:0:0:
256,192,127400,1,0,0:0:0:0:
256,192,127475,1,0,0:0:0:0:
256,192,127550,1,8,0:0:0:0:
256,192,127625,1,8,0:0:0:0:
256,192,127700,1,0,0:0:0:0:
256,192,127775,1,8,0:0:0:0:
256,192,127850,1,0,0:0:0:0:
256,192,127925,1,8,0:0:0:0:
256,192,128000,1,0,0:0:0:0:
256,192,128075,1,0,0:0:0:0:
256,192,128150,1,8,0:0:0:0:
256,192,128225,1,0,0:0:0:0:
256,192,128300,1,8,0:0:0:0:
256,192,128375,1,8,0:0:0:0:
256,192,128450,1,8,0:0:0:0:
256,192,128525,1,8,0:0:0:0:
256,192,128600,1,0,0:0:0:0:
256,192,128675,1,0,0:0:0:0:
256,192,128750,1,8,0:0:0:0:
256,192,128825,1,0,0:0:0:0:
256,192,128900,1,8,0:0:0:0:
256,192,128975,1,8,0:0:0:0:
256,192,129050,1,0,0:0:0:0:
256,192,129125,1,0,0:0:0:0:
256,192,129200,1,8,0:0:0:0:
256,192,129275,1,8,0:0:0:0:
256,192,129350,1,8,0:0:0:0:
256,192,129425,1,8,0:0:0:0:
256,192,129500,1,0,0:0:0:0:
256,192,129575,1,0,0:0:0:0:
256,192,129650,1,0,0:0:0:0:
256,192,129725,1,0,0:0:0:0:
256,192,129800,1,8,0:0:0:0:
256,192,130700,1,12,0:0:0:0:
256,192,131000,1,4,0:0:0:0:
256,192,131150,1,0,0:0:0:0:
256,192,131300,1,8,0:0:0:0:
256,192,131450,1,0,0:0:0:0:
256,192,131525,1,0,0:0:0:0:
256,192,131675,1,8,0:0:0:0:
256,192,131750,1,0,0:0:0:0:
256,192,131900,1,8,0:0:0:0:
256,192,132050,1,0,0:0:0:0:
256,192,132125,1,0,0:0:0:0:
256,192,132200,1,8,0:0:0:0:
256,192,132350,1,0,0:0:0:0:
256,192,132500,1,8,0:0:0:0:
256,192,132650,1,0,0:0:0:0:
256,192,132725,1,8,0:0:0:0:
256,192,132875,1,8,0:0:0:0:
256,192,132950,1,0,0:0:0:0:
256,192,133025,1,0,0:0:0:0:
256,192,133100,1,8,0:0:0:0:
256,192,133175,1,8,0:0:0:0:
256,192,133250,1,0,0:0:0:0:
256,192,133400,1,8,0:0:0:0:
256,192,133550,1,0,0:0:0:0:
256,192,133625,1,0,0:0:0:0:
256,192,133700,1,8,0:0:0:0:
256,192,133850,1,0,0:0:0:0:
256,192,133925,1,0,0:0:0:0:
256,192,134075,1,8,0:0:0:0:
256,192,134150,1,0,0:0:0:0:
256,192,134300,1,8,0:0:0:0:
256,192,134450,1,0,0:0:0:0:
256,192,134525,1,0,0:0:0:0:
256,192,134600,1,8,0:0:0:0:
256,192,134750,1,0,0:0:0:0:
256,192,134900,1,8,0:0:0:0:
256,192,135050,1,0,0:0:0:0:
256,192,135125,1,8,0:0:0:0:
256,192,135275,1,0,0:0:0:0:
256,192,135350,1,0,0:0:0:0:
256,192,135500,1,8,0:0:0:0:
256,192,135650,1,8,0:0:0:0:
256,192,135725,1,8,0:0:0:0:
256,192,135800,1,0,0:0:0:0:
256,192,135950,1,0,0:0:0:0:
256,192,136100,1,8,0:0:0:0:
256,192,136250,1,0,0:0:0:0:
256,192,136325,1,8,0:0:0:0:
256,192,136475,1,8,0:0:0:0:
256,192,136550,1,0,0:0:0:0:
256,192,136700,1,8,0:0:0:0:
256,192,136850,1,0,0:0:0:0:
256,192,136925,1,0,0:0:0:0:
256,192,137000,1,8,0:0:0:0:
256,192,137150,1,8,0:0:0:0:
256,192,137225,1,0,0:0:0:0:
256,192,137375,1,0,0:0:0:0:
256,192,137450,1,8,0:0:0:0:
256,192,137600,1,0,0:0:0:0:
256,192,137750,1,8,0:0:0:0:
256,192,137825,1,0,0:0:0:0:
256,192,137900,1,8,0:0:0:0:
256,192,137975,1,8,0:0:0:0:
256,192,138050,1,0,0:0:0:0:
256,192,138125,1,0,0:0:0:0:
256,192,138200,1,8,0:0:0:0:
256,192,138350,1,0,0:0:0:0:
256,192,138425,1,0,0:0:0:0:
256,192,138500,1,8,0:0:0:0:
256,192,138650,1,0,0:0:0:0:
256,192,138725,1,0,0:0:0:0:
256,192,138875,1,8,0:0:0:0:
256,192,138950,1,0,0:0:0:0:
256,192,139100,1,8,0:0:0:0:
256,192,139250,1,0,0:0:0:0:
256,192,139325,1,0,0:0:0:0:
256,192,139400,1,8,0:0:0:0:
256,192,139550,1,0,0:0:0:0:
256,192,139625,1,0,0:0:0:0:
256,192,139775,1,8,0:0:0:0:
256,192,139850,1,0,0:0:0:0:
256,192,140000,1,0,0:0:0:0:
256,192,140075,1,0,0:0:0:0:
256,192,140150,1,0,0:0:0:0:
256,192,140225,1,0,0:0:0:0:
256,192,140300,1,8,0:0:0:0:
256,192,140600,1,8,0:0:0:0:
256,192,140675,1,8,0:0:0:0:
256,192,140750,1,8,0:0:0:0:
256,192,140900,1,0,0:0:0:0:
256,192,141050,1,8,0:0:0:0:
256,192,141125,1,8,0:0:0:0:
256,192,141200,1,8,0:0:0:0:
256,192,141350,1,0,0:0:0:0:
256,192,141500,1,8,0:0:0:0:
256,192,141575,1,8,0:0:0:0:
256,192,141650,1,0,0:0:0:0:
256,192,141800,1,8,0:0:0:0:
256,192,141875,1,8,0:0:0:0:
256,192,141950,1,8,0:0:0:0:
256,192,142100,1,0,0:0:0:0:
256,192,142250,1,8,0:0:0:0:
256,192,142325,1,0,0:0:0:0:
256,192,142475,1,8,0:0:0:0:
256,192,142550,1,0,0:0:0:0:
256,192,142625,1,0,0:0:0:0:
256,192,142700,1,8,0:0:0:0:
256,192,142775,1,8,0:0:0:0:
256,192,142850,1,0,0:0:0:0:
256,192,142925,1,0,0:0:0:0:
256,192,143000,1,8,0:0:0:0:
256,192,143150,1,8,0:0:0:0:
256,192,143225,1,8,0:0:0:0:
256,192,143300,1,0,0:0:0:0:
256,192,143450,1,8,0:0:0:0:
256,192,143525,1,8,0:0:0:0:
256,192,143600,1,8,0:0:0:0:
256,192,143750,1,0,0:0:0:0:
256,192,143900,1,8,0:0:0:0:
256,192,144050,1,0,0:0:0:0:
256,192,144125,1,0,0:0:0:0:
256,192,144200,1,8,0:0:0:0:
256,192,144275,1,8,0:0:0:0:
256,192,144350,1,8,0:0:0:0:
256,192,144500,1,0,0:0:0:0:
256,192,144650,1,8,0:0:0:0:
256,192,144725,1,8,0:0:0:0:
256,192,144800,1,8,0:0:0:0:
256,192,144950,1,8,0:0:0:0:
256,192,145100,1,0,0:0:0:0:
256,192,145400,1,8,0:0:0:0:
256,192,145475,1,0,0:0:0:0:
256,192,145550,1,0,0:0:0:0:
256,192,145625,1,8,0:0:0:0:
256,192,145700,1,0,0:0:0:0:
256,192,145850,1,8,0:0:0:0:
256,192,145925,1,8,0:0:0:0:
256,192,146000,1,8,0:0:0:0:
256,192,146150,1,0,0:0:0:0:
256,192,146300,1,8,0:0:0:0:
256,192,146375,1,0,0:0:0:0:
256,192,146450,1,0,0:0:0:0:
256,192,146600,1,0,0:0:0:0:
256,192,146675,1,8,0:0:0:0:
256,192,146750,1,8,0:0:0:0:
256,192,146825,1,8,0:0:0:0:
256,192,146900,1,0,0:0:0:0:
256,192,147050,1,8,0:0:0:0:
256,192,147125,1,0,0:0:0:0:
256,192,147275,1,0,0:0:0:0:
256,192,147350,1,8,0:0:0:0:
256,192,147425,1,0,0:0:0:0:
256,192,147500,1,8,0:0:0:0:
256,192,147575,1,8,0:0:0:0:
256,192,147650,1,0,0:0:0:0:
256,192,147725,1,0,0:0:0:0:
256,192,147800,1,8,0:0:0:0:
256,192,147950,1,8,0:0:0:0:
256,192,148025,1,8,0:0:0:0:
256,192,148100,1,0,0:0:0:0:
256,192,148250,1,8,0:0:0:0:
256,192,148400,1,0,0:0:0:0:
256,192,148475,1,0,0:0:0:0:
256,192,148550,1,8,0:0:0:0:
256,192,148700,1,0,0:0:0:0:
256,192,149000,1,8,0:0:0:0:
256,192,149075,1,8,0:0:0:0:
256,192,149150,1,8,0:0:0:0:
256,192,149225,1,8,0:0:0:0:
256,192,149300,1,0,0:0:0:0:
256,192,149450,1,8,0:0:0:0:
256,192,149525,1,8,0:0:0:0:
256,192,149600,1,0,0:0:0:0:
256,192,149750,1,4,0:0:0:0:
256,192,149900,1,12,0:0:0:0:
256,192,150200,1,0,0:0:0:0:
256,192,150500,1,8,0:0:0:0:
256,192,151100,1,8,0:0:0:0:
256,192,151700,1,8,0:0:0:0:
256,192,152150,1,0,0:0:0:0:
256,192,152225,1,0,0:0:0:0:
256,192,152300,1,8,0:0:0:0:
256,192,152375,1,8,0:0:0:0:
256,192,152450,1,0,0:0:0:0:
256,192,152525,1,0,0:0:0:0:
256,192,152600,1,8,0:0:0:0:
256,192,152900,1,0,0:0:0:0:
256,192,153050,1,8,0:0:0:0:
256,192,153500,1,8,0:0:0:0:
256,192,153800,1,8,0:0:0:0:
256,192,154100,1,0,0:0:0:0:
256,192,154250,1,8,0:0:0:0:
256,192,154550,1,8,0:0:0:0:
256,192,154850,1,8,0:0:0:0:
256,192,155000,1,0,0:0:0:0:
256,192,155150,1,0,0:0:0:0:
256,192,155225,1,0,0:0:0:0:
256,192,155300,1,8,0:0:0:0:
256,192,155450,1,0,0:0:0:0:
256,192,155525,1,0,0:0:0:0:
256,192,155600,1,8,0:0:0:0:
256,192,155675,1,0,0:0:0:0:
256,192,155750,1,0,0:0:0:0:
256,192,155900,1,8,0:0:0:0:
256,192,155975,1,0,0:0:0:0:
256,192,156050,1,8,0:0:0:0:
256,192,156125,1,8,0:0:0:0:
256,192,156200,1,0,0:0:0:0:
256,192,156350,1,0,0:0:0:0:
256,192,156425,1,0,0:0:0:0:
256,192,156500,1,8,0:0:0:0:
256,192,156650,1,0,0:0:0:0:
256,192,156725,1,0,0:0:0:0:
256,192,156800,1,8,0:0:0:0:
256,192,156875,1,0,0:0:0:0:
256,192,156950,1,8,0:0:0:0:
256,192,157025,1,8,0:0:0:0:
256,192,157100,1,0,0:0:0:0:
256,192,157250,1,8,0:0:0:0:
256,192,157325,1,8,0:0:0:0:
256,192,157400,1,0,0:0:0:0:
256,192,157475,1,0,0:0:0:0:
256,192,157550,1,8,0:0:0:0:
256,192,157625,1,0,0:0:0:0:
256,192,157700,1,8,0:0:0:0:
256,192,157775,1,8,0:0:0:0:
256,192,157850,1,8,0:0:0:0:
256,192,157925,1,0,0:0:0:0:
256,192,158000,1,8,0:0:0:0:
256,192,158075,1,8,0:0:0:0:
256,192,158150,1,0,0:0:0:0:
256,192,158225,1,8,0:0:0:0:
256,192,158300,1,0,0:0:0:0:
256,192,158375,1,8,0:0:0:0:
256,192,158450,1,8,0:0:0:0:
256,192,158525,1,8,0:0:0:0:
256,192,158600,1,0,0:0:0:0:
256,192,159500,1,12,0:0:0:0:
256,192,159800,1,0,0:0:0:0:
256,192,159850,1,0,0:0:0:0:
256,192,159900,1,0,0:0:0:0:
256,192,159950,1,0,0:0:0:0:
256,192,160100,1,8,0:0:0:0:
256,192,160175,1,8,0:0:0:0:
256,192,160250,1,0,0:0:0:0:
256,192,160400,1,8,0:0:0:0:
256,192,160437,1,8,0:0:0:0:
256,192,160700,1,8,0:0:0:0:
256,192,160737,1,8,0:0:0:0:
256,192,160850,1,8,0:0:0:0:
256,192,160887,1,8,0:0:0:0:
256,192,161000,1,0,0:0:0:0:
256,192,161150,1,8,0:0:0:0:
256,192,161225,1,0,0:0:0:0:
256,192,161300,1,8,0:0:0:0:
256,192,161450,1,8,0:0:0:0:
256,192,161600,1,0,0:0:0:0:
256,192,161675,1,0,0:0:0:0:
256,192,161750,1,8,0:0:0:0:
256,192,161825,1,0,0:0:0:0:
256,192,161900,1,8,0:0:0:0:
256,192,162200,1,0,0:0:0:0:
256,192,162275,1,0,0:0:0:0:
256,192,162350,1,0,0:0:0:0:
256,192,162500,1,8,0:0:0:0:
256,192,162550,1,8,0:0:0:0:
256,192,162600,1,8,0:0:0:0:
256,192,162650,1,0,0:0:0:0:
256,192,162800,1,8,0:0:0:0:
256,192,162950,1,0,0:0:0:0:
256,192,163100,1,8,0:0:0:0:
256,192,163137,1,8,0:0:0:0:
256,192,163250,1,8,0:0:0:0:
256,192,163287,1,8,0:0:0:0:
256,192,163400,1,0,0:0:0:0:
256,192,163550,1,8,0:0:0:0:
256,192,163625,1,0,0:0:0:0:
256,192,163700,1,8,0:0:0:0:
256,192,163850,1,8,0:0:0:0:
256,192,164000,1,0,0:0:0:0:
256,192,164050,1,0,0:0:0:0:
256,192,164100,1,0,0:0:0:0:
256,192,164150,1,0,0:0:0:0:
256,192,164300,1,12,0:0:0:0:
256,192,164450,1,12,0:0:0:0:
256,192,164600,1,0,0:0:0:0:
256,192,164900,1,8,0:0:0:0:
256,192,164950,1,8,0:0:0:0:
256,192,165000,1,8,0:0:0:0:
256,192,165050,1,0,0:0:0:0:
256,192,165200,1,0,0:0:0:0:
256,192,165350,1,0,0:0:0:0:
256,192,165500,1,8,0:0:0:0:
256,192,165537,1,8,0:0:0:0:
256,192,165650,1,0,0:0:0:0:
256,192,165687,1,0,0:0:0:0:
256,192,165800,1,8,0:0:0:0:
256,192,165950,1,0,0:0:0:0:
256,192,166025,1,0,0:0:0:0:
256,192,166100,1,8,0:0:0:0:
256,192,166250,1,8,0:0:0:0:
256,192,166400,1,0,0:0:0:0:
256,192,166700,1,8,0:0:0:0:
256,192,166750,1,8,0:0:0:0:
256,192,166800,1,8,0:0:0:0:
256,192,166850,1,8,0:0:0:0:
256,192,167000,1,0,0:0:0:0:
256,192,167150,1,0,0:0:0:0:
256,192,167300,1,8,0:0:0:0:
256,192,167337,1,8,0:0:0:0:
256,192,167450,1,0,0:0:0:0:
256,192,167487,1,0,0:0:0:0:
256,192,167600,1,8,0:0:0:0:
256,192,167750,1,0,0:0:0:0:
256,192,167825,1,0,0:0:0:0:
256,192,167900,1,8,0:0:0:0:
256,192,168050,1,8,0:0:0:0:
256,192,168200,1,0,0:0:0:0:
256,192,168350,1,8,0:0:0:0:
256,192,168387,1,8,0:0:0:0:
256,192,168500,1,8,0:0:0:0:
256,192,168537,1,8,0:0:0:0:
256,192,168650,1,0,0:0:0:0:
256,192,168800,1,8,0:0:0:0:
256,192,168875,1,0,0:0:0:0:
256,192,168950,1,0,0:0:0:0:
256,192,169100,1,8,0:0:0:0:
256,192,169400,1,4,0:0:0:0:
256,192,169550,1,8,0:0:0:0:
256,192,169700,1,8,0:0:0:0:
256,192,169850,1,0,0:0:0:0:
256,192,170150,1,0,0:0:0:0:
256,192,170225,1,0,0:0:0:0:
256,192,170300,1,8,0:0:0:0:
256,192,170450,1,8,0:0:0:0:
256,192,170600,1,0,0:0:0:0:
256,192,170750,1,8,0:0:0:0:
256,192,170900,1,8,0:0:0:0:
256,192,171050,1,0,0:0:0:0:
256,192,171125,1,0,0:0:0:0:
256,192,171200,1,8,0:0:0:0:
256,192,171275,1,8,0:0:0:0:
256,192,171350,1,0,0:0:0:0:
256,192,171500,1,8,0:0:0:0:
256,192,171550,1,8,0:0:0:0:
256,192,171600,1,8,0:0:0:0:
256,192,171650,1,0,0:0:0:0:
256,192,171800,1,12,0:0:0:0:
256,192,171950,1,0,0:0:0:0:
256,192,172100,1,0,0:0:0:0:
256,192,172250,1,8,0:0:0:0:
256,192,172550,1,0,0:0:0:0:
256,192,172625,1,0,0:0:0:0:
256,192,172700,1,8,0:0:0:0:
256,192,172850,1,8,0:0:0:0:
256,192,173000,1,0,0:0:0:0:
256,192,173150,1,8,0:0:0:0:
256,192,173225,1,0,0:0:0:0:
256,192,173300,1,8,0:0:0:0:
256,192,173450,1,8,0:0:0:0:
256,192,173600,1,0,0:0:0:0:
256,192,173650,1,0,0:0:0:0:
256,192,173700,1,0,0:0:0:0:
256,192,173750,1,0,0:0:0:0:
256,192,173900,1,12,0:0:0:0:
256,192,174200,1,0,0:0:0:0:
256,192,174800,1,0,0:0:0:0:
256,192,175400,1,0,0:0:0:0:
256,192,176000,1,0,0:0:0:0:
256,192,176600,1,0,0:0:0:0:
256,192,176900,1,0,0:0:0:0:
256,192,177200,1,0,0:0:0:0:
256,192,177350,1,0,0:0:0:0:
256,192,177500,1,0,0:0:0:0:
256,192,177575,1,0,0:0:0:0:
256,192,177650,1,0,0:0:0:0:
256,192,177725,1,0,0:0:0:0:
256,192,177800,1,0,0:0:0:0:
256,192,178550,1,0,0:0:0:0:
256,192,178700,1,12,0:0:0:0:
256,192,179000,1,0,0:0:0:0:
256,192,179150,1,8,0:0:0:0:
256,192,179225,1,0,0:0:0:0:
256,192,179300,1,0,0:0:0:0:
256,192,179450,1,8,0:0:0:0:
256,192,179600,1,0,0:0:0:0:
256,192,179750,1,8,0:0:0:0:
256,192,179825,1,8,0:0:0:0:
256,192,179900,1,0,0:0:0:0:
256,192,179975,1,0,0:0:0:0:
256,192,180050,1,8,0:0:0:0:
256,192,180125,1,8,0:0:0:0:
256,192,180200,1,0,0:0:0:0:
256,192,180350,1,8,0:0:0:0:
256,192,180425,1,8,0:0:0:0:
256,192,180500,1,0,0:0:0:0:
256,192,180650,1,8,0:0:0:0:
256,192,180800,1,0,0:0:0:0:
256,192,180850,1,0,0:0:0:0:
256,192,180900,1,0,0:0:0:0:
256,192,180950,1,8,0:0:0:0:
256,192,181100,1,0,0:0:0:0:
256,192,181150,1,0,0:0:0:0:
256,192,181200,1,0,0:0:0:0:
256,192,181250,1,0,0:0:0:0:
256,192,181400,1,8,0:0:0:0:
256,192,181475,1,8,0:0:0:0:
256,192,181550,1,0,0:0:0:0:
256,192,181700,1,0,0:0:0:0:
256,192,181750,1,8,0:0:0:0:
256,192,181800,1,8,0:0:0:0:
256,192,181850,1,0,0:0:0:0:
256,192,182000,1,0,0:0:0:0:
256,192,182150,1,8,0:0:0:0:
256,192,182225,1,8,0:0:0:0:
256,192,182300,1,0,0:0:0:0:
256,192,182375,1,0,0:0:0:0:
256,192,182450,1,8,0:0:0:0:
256,192,182525,1,8,0:0:0:0:
256,192,182600,1,0,0:0:0:0:
256,192,182675,1,8,0:0:0:0:
256,192,182750,1,8,0:0:0:0:
256,192,182825,1,8,0:0:0:0:
256,192,182900,1,0,0:0:0:0:
256,192,183050,1,8,0:0:0:0:
256,192,183200,1,0,0:0:0:0:
256,192,183250,1,0,0:0:0:0:
256,192,183300,1,0,0:0:0:0:
256,192,183350,1,8,0:0:0:0:
256,192,183500,1,8,0:0:0:0:
256,192,183550,1,8,0:0:0:0:
256,192,183600,1,8,0:0:0:0:
256,192,183650,1,0,0:0:0:0:
256,192,183800,1,4,0:0:0:0:
256,192,183950,1,0,0:0:0:0:
256,192,184025,1,0,0:0:0:0:
256,192,184100,1,0,0:0:0:0:
256,192,184250,1,8,0:0:0:0:
256,192,184287,1,8,0:0:0:0:
256,192,184400,1,0,0:0:0:0:
256,192,184550,1,8,0:0:0:0:
256,192,184587,1,8,0:0:0:0:
256,192,184700,1,0,0:0:0:0:
256,192,184850,1,8,0:0:0:0:
256,192,184887,1,8,0:0:0:0:
256,192,185000,1,0,0:0:0:0:
256,192,185037,1,8,0:0:0:0:
256,192,185150,1,0,0:0:0:0:
256,192,185300,1,8,0:0:0:0:
256,192,185337,1,8,0:0:0:0:
256,192,185450,1,8,0:0:0:0:
256,192,185487,1,8,0:0:0:0:
256,192,185600,1,0,0:0:0:0:
256,192,185750,1,0,0:0:0:0:
256,192,185900,1,8,0:0:0:0:
256,192,185950,1,8,0:0:0:0:
256,192,186000,1,8,0:0:0:0:
256,192,186050,1,8,0:0:0:0:
256,192,186200,1,0,0:0:0:0:
256,192,186350,1,0,0:0:0:0:
256,192,186425,1,0,0:0:0:0:
256,192,186500,1,8,0:0:0:0:
256,192,186575,1,8,0:0:0:0:
256,192,186650,1,8,0:0:0:0:
256,192,186800,1,0,0:0:0:0:
256,192,186950,1,0,0:0:0:0:
256,192,186987,1,8,0:0:0:0:
256,192,187100,1,0,0:0:0:0:
256,192,187150,1,0,0:0:0:0:
256,192,187200,1,0,0:0:0:0:
256,192,187250,1,8,0:0:0:0:
256,192,187400,1,12,0:0:0:0:
256,192,187550,1,0,0:0:0:0:
256,192,187700,1,12,0:0:0:0:
256,192,187850,1,0,0:0:0:0:
256,192,187925,1,0,0:0:0:0:
256,192,188000,1,8,0:0:0:0:
256,192,188075,1,8,0:0:0:0:
256,192,188225,1,0,0:0:0:0:
256,192,188300,1,8,0:0:0:0:
256,192,188375,1,0,0:0:0:0:
256,192,188450,1,8,0:0:0:0:
256,192,188525,1,8,0:0:0:0:
256,192,188600,1,0,0:0:0:0:
256,192,188900,1,0,0:0:0:0:
256,192,189050,1,8,0:0:0:0:
256,192,189200,1,0,0:0:0:0:
256,192,189275,1,0,0:0:0:0:
256,192,189350,1,8,0:0:0:0:
256,192,189500,1,0,0:0:0:0:
256,192,189575,1,0,0:0:0:0:
256,192,189650,1,8,0:0:0:0:
256,192,189725,1,8,0:0:0:0:
256,192,189800,1,0,0:0:0:0:
256,192,189950,1,8,0:0:0:0:
256,192,190025,1,0,0:0:0:0:
256,192,190100,1,8,0:0:0:0:
256,192,190250,1,8,0:0:0:0:
256,192,190400,1,0,0:0:0:0:
256,192,190450,1,0,0:0:0:0:
256,192,190500,1,0,0:0:0:0:
256,192,190550,1,0,0:0:0:0:
256,192,190700,1,8,0:0:0:0:
256,192,190775,1,8,0:0:0:0:
256,192,190850,1,0,0:0:0:0:
256,192,191000,1,0,0:0:0:0:
256,192,191050,1,8,0:0:0:0:
256,192,191100,1,8,0:0:0:0:
256,192,191150,1,0,0:0:0:0:
256,192,191300,1,8,0:0:0:0:
256,192,191350,1,8,0:0:0:0:
256,192,191400,1,8,0:0:0:0:
256,192,191450,1,0,0:0:0:0:
256,192,191600,1,0,0:0:0:0:
256,192,191675,1,0,0:0:0:0:
256,192,191750,1,8,0:0:0:0:
256,192,191900,1,0,0:0:0:0:
256,192,191975,1,0,0:0:0:0:
256,192,192050,1,8,0:0:0:0:
256,192,192125,1,0,0:0:0:0:
256,192,192200,1,8,0:0:0:0:
256,192,192275,1,8,0:0:0:0:
256,192,192350,1,0,0:0:0:0:
256,192,192500,1,8,0:0:0:0:
256,192,192650,1,0,0:0:0:0:
256,192,192725,1,0,0:0:0:0:
256,192,192800,1,0,0:0:0:0:
256,192,192950,1,8,0:0:0:0:
256,192,193000,1,0,0:0:0:0:
256,192,193050,1,0,0:0:0:0:
256,192,193100,1,8,0:0:0:0:
256,192,193250,1,8,0:0:0:0:
256,192,193400,1,4,0:0:0:0:
256,192,193550,1,4,0:0:0:0:
256,192,193700,1,4,0:0:0:0:
256,192,193850,1,8,0:0:0:0:
256,192,193887,1,8,0:0:0:0:
256,192,194000,1,0,0:0:0:0:
256,192,194150,1,8,0:0:0:0:
256,192,194187,1,8,0:0:0:0:
256,192,194300,1,0,0:0:0:0:
256,192,194450,1,8,0:0:0:0:
256,192,194487,1,8,0:0:0:0:
256,192,194600,1,0,0:0:0:0:
256,192,194637,1,8,0:0:0:0:
256,192,194750,1,0,0:0:0:0:
256,192,194900,1,8,0:0:0:0:
256,192,194937,1,8,0:0:0:0:
256,192,195050,1,8,0:0:0:0:
256,192,195087,1,8,0:0:0:0:
256,192,195200,1,0,0:0:0:0:
256,192,195350,1,0,0:0:0:0:
256,192,195500,1,8,0:0:0:0:
256,192,195550,1,8,0:0:0:0:
256,192,195600,1,8,0:0:0:0:
256,192,195650,1,8,0:0:0:0:
256,192,195800,1,0,0:0:0:0:
256,192,195875,1,8,0:0:0:0:
256,192,195950,1,0,0:0:0:0:
256,192,196025,1,8,0:0:0:0:
256,192,196100,1,0,0:0:0:0:
256,192,196175,1,0,0:0:0:0:
256,192,196250,1,0,0:0:0:0:
256,192,196325,1,8,0:0:0:0:
256,192,196400,1,0,0:0:0:0:
256,192,196475,1,0,0:0:0:0:
256,192,196550,1,8,0:0:0:0:
256,192,196625,1,8,0:0:0:0:
256,192,196700,1,0,0:0:0:0:
256,192,196775,1,8,0:0:0:0:
256,192,196850,1,8,0:0:0:0:
256,192,196925,1,8,0:0:0:0:
256,192,197000,1,0,0:0:0:0:
256,192,197075,1,8,0:0:0:0:
256,192,197225,1,8,0:0:0:0:
256,192,197300,1,0,0:0:0:0:
256,192,197450,1,8,0:0:0:0:
256,192,197600,1,0,0:0:0:0:
256,192,197650,1,0,0:0:0:0:
256,192,197700,1,0,0:0:0:0:
256,192,197750,1,8,0:0:0:0:
256,192,197900,1,0,0:0:0:0:
256,192,198200,1,4,0:0:0:0:
256,192,198350,1,8,0:0:0:0:
256,192,198425,1,8,0:0:0:0:
256,192,198500,1,0,0:0:0:0:
256,192,198650,1,0,0:0:0:0:
256,192,198800,1,8,0:0:0:0:
256,192,198950,1,0,0:0:0:0:
256,192,199025,1,8,0:0:0:0:
256,192,199175,1,8,0:0:0:0:
256,192,199250,1,0,0:0:0:0:
256,192,199400,1,8,0:0:0:0:
256,192,199475,1,8,0:0:0:0:
256,192,199550,1,8,0:0:0:0:
256,192,199700,1,0,0:0:0:0:
256,192,199850,1,8,0:0:0:0:
256,192,200000,1,0,0:0:0:0:
256,192,200075,1,0,0:0:0:0:
256,192,200150,1,8,0:0:0:0:
256,192,200225,1,0,0:0:0:0:
256,192,200300,1,8,0:0:0:0:
256,192,200450,1,8,0:0:0:0:
256,192,200525,1,8,0:0:0:0:
256,192,200600,1,0,0:0:0:0:
256,192,200750,1,8,0:0:0:0:
256,192,200900,1,0,0:0:0:0:
256,192,200975,1,0,0:0:0:0:
256,192,201050,1,8,0:0:0:0:
256,192,201200,1,8,0:0:0:0:
256,192,201275,1,0,0:0:0:0:
256,192,201350,1,8,0:0:0:0:
256,192,201425,1,8,0:0:0:0:
256,192,201500,1,0,0:0:0:0:
256,192,201650,1,8,0:0:0:0:
256,192,201800,1,0,0:0:0:0:
256,192,201900,1,0,0:0:0:0:
256,192,202000,1,8,0:0:0:0:
256,192,202100,1,0,0:0:0:0:
256,192,202175,1,8,0:0:0:0:
256,192,202250,1,8,0:0:0:0:
256,192,202325,1,8,0:0:0:0:
256,192,202400,1,0,0:0:0:0:
256,192,202550,1,8,0:0:0:0:
256,192,202587,1,8,0:0:0:0:
256,192,202700,1,0,0:0:0:0:
256,192,202850,1,12,0:0:0:0:
256,192,203000,1,0,0:0:0:0:
256,192,203150,1,8,0:0:0:0:
256,192,203225,1,8,0:0:0:0:
256,192,203300,1,0,0:0:0:0:
256,192,203450,1,0,0:0:0:0:
256,192,203600,1,8,0:0:0:0:
256,192,203675,1,8,0:0:0:0:
256,192,203750,1,0,0:0:0:0:
256,192,203825,1,0,0:0:0:0:
256,192,203900,1,8,0:0:0:0:
256,192,204050,1,0,0:0:0:0:
256,192,204200,1,8,0:0:0:0:
256,192,204275,1,8,0:0:0:0:
256,192,204350,1,8,0:0:0:0:
256,192,204500,1,0,0:0:0:0:
256,192,204650,1,8,0:0:0:0:
256,192,204800,1,4,0:0:0:0:
256,192,204950,1,4,0:0:0:0:
256,192,205100,1,12,0:0:0:0:
256,192,205400,1,0,0:0:0:0:
256,192,205475,1,0,0:0:0:0:
256,192,205550,1,8,0:0:0:0:
256,192,205625,1,8,0:0:0:0:
256,192,205700,1,0,0:0:0:0:
256,192,205800,1,8,0:0:0:0:
256,192,205900,1,8,0:0:0:0:
256,192,206000,1,0,0:0:0:0:
256,192,206150,1,8,0:0:0:0:
256,192,206187,1,8,0:0:0:0:
256,192,206300,1,4,0:0:0:0:
256,192,206450,1,8,0:0:0:0:
256,192,206525,1,8,0:0:0:0:
256,192,206600,1,0,0:0:0:0:
256,192,206750,1,0,0:0:0:0:
256,192,206825,1,8,0:0:0:0:
256,192,206900,1,0,0:0:0:0:
256,192,206975,1,0,0:0:0:0:
256,192,207050,1,8,0:0:0:0:
256,192,207125,1,0,0:0:0:0:
256,192,207200,1,8,0:0:0:0:
256,192,207350,1,0,0:0:0:0:
256,192,207425,1,8,0:0:0:0:
256,192,207575,1,8,0:0:0:0:
256,192,207650,1,0,0:0:0:0:
256,192,207800,1,12,0:0:0:0:
256,192,207950,1,12,0:0:0:0:
256,192,208100,1,12,0:0:0:0:
256,192,208250,1,0,0:0:0:0:
256,192,208400,1,8,0:0:0:0:
256,192,208475,1,8,0:0:0:0:
256,192,208550,1,0,0:0:0:0:
256,192,208700,1,8,0:0:0:0:
256,192,208775,1,0,0:0:0:0:
256,192,208850,1,8,0:0:0:0:
256,192,208925,1,8,0:0:0:0:
256,192,209075,1,0,0:0:0:0:
256,192,209150,1,8,0:0:0:0:
256,192,209300,1,0,0:0:0:0:
256,192,209450,1,8,0:0:0:0:
256,192,209525,1,0,0:0:0:0:
256,192,209600,1,8,0:0:0:0:
256,192,209675,1,8,0:0:0:0:
256,192,209750,1,0,0:0:0:0:
256,192,209900,1,8,0:0:0:0:
256,192,210050,1,0,0:0:0:0:
256,192,210125,1,0,0:0:0:0:
256,192,210200,1,8,0:0:0:0:
256,192,210350,1,0,0:0:0:0:
256,192,210500,1,8,0:0:0:0:
256,192,210575,1,8,0:0:0:0:
256,192,210650,1,0,0:0:0:0:
256,192,210800,1,8,0:0:0:0:
256,192,210875,1,0,0:0:0:0:
256,192,210950,1,8,0:0:0:0:
256,192,211100,1,8,0:0:0:0:
256,192,211175,1,0,0:0:0:0:
256,192,211250,1,8,0:0:0:0:
256,192,211325,1,8,0:0:0:0:
256,192,211475,1,0,0:0:0:0:
256,192,211550,1,8,0:0:0:0:
256,192,211625,1,8,0:0:0:0:
256,192,211700,1,0,0:0:0:0:
256,192,211850,1,0,0:0:0:0:
256,192,211925,1,0,0:0:0:0:
256,192,212000,1,8,0:0:0:0:
256,192,212075,1,8,0:0:0:0:
256,192,212150,1,0,0:0:0:0:
256,192,212300,1,12,0:0:0:0:
256,192,212600,1,0,0:0:0:0:
256,192,212675,1,0,0:0:0:0:
256,192,212750,1,0,0:0:0:0:
256,192,212825,1,0,0:0:0:0:
256,192,212900,1,8,0:0:0:0:
256,192,212975,1,8,0:0:0:0:
256,192,213050,1,0,0:0:0:0:
256,192,213125,1,8,0:0:0:0:
256,192,213200,1,0,0:0:0:0:
256,192,213275,1,0,0:0:0:0:
256,192,213350,1,8,0:0:0:0:
256,192,213425,1,8,0:0:0:0:
256,192,213500,1,0,0:0:0:0:
256,192,213575,1,0,0:0:0:0:
256,192,213650,1,8,0:0:0:0:
256,192,213725,1,0,0:0:0:0:
256,192,213800,1,0,0:0:0:0:
256,192,213875,1,0,0:0:0:0:
256,192,213950,1,8,0:0:0:0:
256,192,214025,1,0,0:0:0:0:
256,192,214100,1,8,0:0:0:0:
256,192,214175,1,0,0:0:0:0:
256,192,214250,1,8,0:0:0:0:
256,192,214325,1,8,0:0:0:0:
256,192,214400,1,0,0:0:0:0:
256,192,214475,1,0,0:0:0:0:
256,192,214550,1,8,0:0:0:0:
256,192,214625,1,0,0:0:0:0:
256,192,214700,1,8,0:0:0:0:
256,192,214775,1,8,0:0:0:0:
256,192,214850,1,8,0:0:0:0:
256,192,214925,1,8,0:0:0:0:
256,192,215000,1,0,0:0:0:0:
256,192,215075,1,0,0:0:0:0:
256,192,215150,1,0,0:0:0:0:
256,192,215225,1,0,0:0:0:0:
256,192,215300,1,8,0:0:0:0:
256,192,215375,1,8,0:0:0:0:
256,192,215450,1,0,0:0:0:0:
256,192,215525,1,0,0:0:0:0:
256,192,215600,1,8,0:0:0:0:
256,192,215675,1,0,0:0:0:0:
256,192,215750,1,0,0:0:0:0:
256,192,215825,1,0,0:0:0:0:
256,192,215900,1,8,0:0:0:0:
256,192,215975,1,8,0:0:0:0:
256,192,216050,1,8,0:0:0:0:
256,192,216125,1,8,0:0:0:0:
256,192,216200,12,0,217250,0:0:0:0:
256,192,217400,5,4,0:0:0:0:
256,192,217550,1,0,0:0:0:0:
256,192,217625,1,0,0:0:0:0:
256,192,217700,1,8,0:0:0:0:
256,192,217850,1,0,0:0:0:0:
256,192,218000,1,8,0:0:0:0:
256,192,218075,1,0,0:0:0:0:
256,192,218150,1,8,0:0:0:0:
256,192,218225,1,8,0:0:0:0:
256,192,218300,1,0,0:0:0:0:
256,192,218450,1,8,0:0:0:0:
256,192,218600,1,0,0:0:0:0:
256,192,218750,1,0,0:0:0:0:
256,192,218825,1,0,0:0:0:0:
256,192,218900,1,8,0:0:0:0:
256,192,219050,1,0,0:0:0:0:
256,192,219200,1,8,0:0:0:0:
256,192,219350,1,0,0:0:0:0:
256,192,219425,1,8,0:0:0:0:
256,192,219500,1,0,0:0:0:0:
256,192,219650,1,0,0:0:0:0:
256,192,219800,1,8,0:0:0:0:
256,192,219875,1,8,0:0:0:0:
256,192,219950,1,0,0:0:0:0:
256,192,220025,1,0,0:0:0:0:
256,192,220100,1,8,0:0:0:0:
256,192,220250,1,0,0:0:0:0:
256,192,220325,1,0,0:0:0:0:
256,192,220400,1,8,0:0:0:0:
256,192,220550,1,0,0:0:0:0:
256,192,220700,1,8,0:0:0:0:
256,192,220775,1,8,0:0:0:0:
256,192,220850,1,0,0:0:0:0:
256,192,220925,1,8,0:0:0:0:
256,192,221000,1,0,0:0:0:0:
256,192,221150,1,0,0:0:0:0:
256,192,221300,1,8,0:0:0:0:
256,192,221375,1,8,0:0:0:0:
256,192,221450,1,8,0:0:0:0:
256,192,221525,1,0,0:0:0:0:
256,192,221600,1,8,0:0:0:0:
256,192,221675,1,8,0:0:0:0:
256,192,221750,1,0,0:0:0:0:
256,192,221825,1,0,0:0:0:0:
256,192,221900,1,8,0:0:0:0:
256,192,222050,1,8,0:0:0:0:
256,192,222200,1,4,0:0:0:0:
256,192,222350,1,0,0:0:0:0:
256,192,222425,1,0,0:0:0:0:
256,192,222500,1,8,0:0:0:0:
256,192,222650,1,0,0:0:0:0:
256,192,222800,1,8,0:0:0:0:
256,192,222875,1,8,0:0:0:0:
256,192,222950,1,0,0:0:0:0:
256,192,223025,1,0,0:0:0:0:
256,192,223100,1,8,0:0:0:0:
256,192,223250,1,8,0:0:0:0:
256,192,223400,1,0,0:0:0:0:
256,192,223550,1,8,0:0:0:0:
256,192,223625,1,0,0:0:0:0:
256,192,223700,1,8,0:0:0:0:
256,192,223850,1,8,0:0:0:0:
256,192,224000,1,0,0:0:0:0:
256,192,224150,1,0,0:0:0:0:
256,192,224225,1,0,0:0:0:0:
256,192,224300,1,0,0:0:0:0:
256,192,224450,1,8,0:0:0:0:
256,192,224600,1,0,0:0:0:0:
256,192,224675,1,8,0:0:0:0:
256,192,224750,1,0,0:0:0:0:
256,192,224825,1,0,0:0:0:0:
256,192,224900,1,8,0:0:0:0:
256,192,225050,1,0,0:0:0:0:
256,192,225200,1,8,0:0:0:0:
256,192,225275,1,8,0:0:0:0:
256,192,225350,1,0,0:0:0:0:
256,192,225500,1,8,0:0:0:0:
256,192,225650,1,0,0:0:0:0:
256,192,225725,1,0,0:0:0:0:
256,192,225800,1,8,0:0:0:0:
256,192,225875,1,8,0:0:0:0:
256,192,225950,1,0,0:0:0:0:
256,192,226100,1,8,0:0:0:0:
256,192,226250,1,0,0:0:0:0:
256,192,226325,1,8,0:0:0:0:
256,192,226400,1,0,0:0:0:0:
256,192,226475,1,0,0:0:0:0:
256,192,226550,1,8,0:0:0:0:
256,192,226625,1,0,0:0:0:0:
256,192,226700,1,8,0:0:0:0:
256,192,226850,1,8,0:0:0:0:
256,192,226925,1,8,0:0:0:0:
256,192,227000,1,0,0:0:0:0:
256,192,227300,1,12,0:0:0:0:
256,192,227450,1,0,0:0:0:0:
256,192,227525,1,0,0:0:0:0:
256,192,227600,1,0,0:0:0:0:
256,192,227750,1,0,0:0:0:0:
256,192,227900,1,12,0:0:0:0:
256,192,228050,1,0,0:0:0:0:
256,192,228125,1,0,0:0:0:0:
256,192,228200,1,8,0:0:0:0:
256,192,228350,1,0,0:0:0:0:
256,192,228500,1,12,0:0:0:0:
256,192,228650,1,0,0:0:0:0:
256,192,228725,1,8,0:0:0:0:
256,192,228800,1,0,0:0:0:0:
256,192,228950,1,0,0:0:0:0:
256,192,229100,1,12,0:0:0:0:
256,192,229250,1,0,0:0:0:0:
256,192,229325,1,0,0:0:0:0:
256,192,229400,1,8,0:0:0:0:
256,192,229475,1,0,0:0:0:0:
256,192,229550,1,0,0:0:0:0:
256,192,229700,1,12,0:0:0:0:
256,192,229850,1,0,0:0:0:0:
256,192,229925,1,0,0:0:0:0:
256,192,230000,1,8,0:0:0:0:
256,192,230075,1,8,0:0:0:0:
256,192,230150,1,0,0:0:0:0:
256,192,230300,1,12,0:0:0:0:
256,192,230450,1,0,0:0:0:0:
256,192,230525,1,0,0:0:0:0:
256,192,230600,1,8,0:0:0:0:
256,192,230675,1,0,0:0:0:0:
256,192,230750,1,8,0:0:0:0:
256,192,230900,1,12,0:0:0:0:
256,192,231050,1,8,0:0:0:0:
256,192,231125,1,8,0:0:0:0:
256,192,231200,1,0,0:0:0:0:
256,192,231275,1,0,0:0:0:0:
256,192,231350,1,8,0:0:0:0:
256,192,231500,1,12,0:0:0:0:
256,192,231650,1,0,0:0:0:0:
256,192,231725,1,0,0:0:0:0:
256,192,231800,1,0,0:0:0:0:
256,192,231950,1,0,0:0:0:0:
256,192,232100,1,8,0:0:0:0:
256,192,232175,1,0,0:0:0:0:
256,192,232250,1,8,0:0:0:0:
256,192,232325,1,0,0:0:0:0:
256,192,232400,1,8,0:0:0:0:
256,192,232475,1,0,0:0:0:0:
256,192,232550,1,8,0:0:0:0:
256,192,232625,1,8,0:0:0:0:
256,192,232700,1,0,0:0:0:0:
256,192,232775,1,0,0:0:0:0:
256,192,232850,1,8,0:0:0:0:
256,192,232925,1,8,0:0:0:0:
256,192,233000,1,0,0:0:0:0:
256,192,233075,1,8,0:0:0:0:
256,192,233150,1,0,0:0:0:0:
256,192,233225,1,0,0:0:0:0:
256,192,233300,1,8,0:0:0:0:
256,192,233375,1,8,0:0:0:0:
256,192,233450,1,0,0:0:0:0:
256,192,233525,1,0,0:0:0:0:
256,192,233600,1,8,0:0:0:0:
256,192,233675,1,0,0:0:0:0:
256,192,233750,1,8,0:0:0:0:
256,192,233825,1,8,0:0:0:0:
256,192,233900,1,0,0:0:0:0:
256,192,233975,1,0,0:0:0:0:
256,192,234050,1,0,0:0:0:0:
256,192,234125,1,0,0:0:0:0:
256,192,234200,1,8,0:0:0:0:
256,192,234275,1,8,0:0:0:0:
256,192,234350,1,8,0:0:0:0:
256,192,234425,1,8,0:0:0:0:
256,192,234500,1,0,0:0:0:0:
256,192,234575,1,0,0:0:0:0:
256,192,234650,1,8,0:0:0:0:
256,192,234725,1,8,0:0:0:0:
256,192,234800,1,8,0:0:0:0:
256,192,234875,1,8,0:0:0:0:
256,192,234950,1,0,0:0:0:0:
256,192,235025,1,0,0:0:0:0:
256,192,235100,1,8,0:0:0:0:
256,192,235175,1,8,0:0:0:0:
256,192,235250,1,0,0:0:0:0:
256,192,235325,1,0,0:0:0:0:
256,192,235400,1,8,0:0:0:0:
256,192,236000,1,0,0:0:0:0:
256,192,236075,1,0,0:0:0:0:
256,192,236150,1,8,0:0:0:0:
256,192,236225,1,8,0:0:0:0:
256,192,236300,1,0,0:0:0:0:
256,192,236375,1,8,0:0:0:0:
256,192,236450,1,8,0:0:0:0:
256,192,236525,1,8,0:0:0:0:
256,192,236600,1,4,0:0:0:0:
256,192,236750,1,8,0:0:0:0:
256,192,236825,1,0,0:0:0:0:
256,192,236900,1,8,0:0:0:0:
256,192,237050,1,0,0:0:0:0:
256,192,237125,1,0,0:0:0:0:
256,192,237200,1,8,0:0:0:0:
256,192,237350,1,0,0:0:0:0:
256,192,237425,1,0,0:0:0:0:
256,192,237500,1,8,0:0:0:0:
256,192,237575,1,0,0:0:0:0:
256,192,237650,1,8,0:0:0:0:
256,192,237800,1,0,0:0:0:0:
256,192,237950,1,8,0:0:0:0:
256,192,238025,1,0,0:0:0:0:
256,192,238100,1,8,0:0:0:0:
256,192,238250,1,0,0:0:0:0:
256,192,238325,1,0,0:0:0:0:
256,192,238400,1,8,0:0:0:0:
256,192,238475,1,0,0:0:0:0:
256,192,238625,1,0,0:0:0:0:
256,192,238700,1,8,0:0:0:0:
256,192,238775,1,8,0:0:0:0:
256,192,238850,1,0,0:0:0:0:
256,192,238925,1,0,0:0:0:0:
256,192,239000,1,8,0:0:0:0:
256,192,239150,1,8,0:0:0:0:
256,192,239225,1,0,0:0:0:0:
256,192,239300,1,0,0:0:0:0:
256,192,239450,1,8,0:0:0:0:
256,192,239600,1,0,0:0:0:0:
256,192,239675,1,0,0:0:0:0:
256,192,239750,1,8,0:0:0:0:
256,192,239900,1,0,0:0:0:0:
256,192,239975,1,0,0:0:0:0:
256,192,240050,1,8,0:0:0:0:
256,192,240125,1,8,0:0:0:0:
256,192,240200,1,0,0:0:0:0:
256,192,240350,1,8,0:0:0:0:
256,192,240425,1,0,0:0:0:0:
256,192,240500,1,8,0:0:0:0:
256,192,240575,1,8,0:0:0:0:
256,192,240650,1,0,0:0:0:0:
256,192,240800,1,8,0:0:0:0:
256,192,240950,1,0,0:0:0:0:
256,192,241025,1,0,0:0:0:0:
256,192,241100,1,0,0:0:0:0:
256,192,241250,1,8,0:0:0:0:
256,192,241400,1,4,0:0:0:0:
256,192,241550,1,0,0:0:0:0:
256,192,241625,1,0,0:0:0:0:
256,192,241700,1,8,0:0:0:0:
256,192,241775,1,8,0:0:0:0:
256,192,241850,1,0,0:0:0:0:
256,192,242000,1,8,0:0:0:0:
256,192,242075,1,8,0:0:0:0:
256,192,242150,1,0,0:0:0:0:
256,192,242300,1,8,0:0:0:0:
256,192,242375,1,0,0:0:0:0:
256,192,242450,1,8,0:0:0:0:
256,192,242525,1,8,0:0:0:0:
256,192,242600,1,0,0:0:0:0:
256,192,242750,1,8,0:0:0:0:
256,192,242825,1,8,0:0:0:0:
256,192,242900,1,0,0:0:0:0:
256,192,243050,1,8,0:0:0:0:
256,192,243125,1,8,0:0:0:0:
256,192,243200,1,8,0:0:0:0:
256,192,243350,1,0,0:0:0:0:
256,192,243500,1,8,0:0:0:0:
256,192,243650,1,0,0:0:0:0:
256,192,243725,1,8,0:0:0:0:
256,192,243875,1,8,0:0:0:0:
256,192,243950,1,0,0:0:0:0:
256,192,244100,1,0,0:0:0:0:
256,192,244250,1,0,0:0:0:0:
256,192,244325,1,8,0:0:0:0:
256,192,244475,1,8,0:0:0:0:
256,192,244550,1,0,0:0:0:0:
256,192,244700,1,8,0:0:0:0:
256,192,244850,1,0,0:0:0:0:
256,192,244925,1,8,0:0:0:0:
256,192,245000,1,0,0:0:0:0:
256,192,245100,1,0,0:0:0:0:
256,192,245200,1,8,0:0:0:0:
256,192,245300,1,0,0:0:0:0:
256,192,245375,1,8,0:0:0:0:
256,192,245450,1,8,0:0:0:0:
256,192,245525,1,8,0:0:0:0:
256,192,245600,1,0,0:0:0:0:
256,192,245750,1,8,0:0:0:0:
256,192,245787,1,8,0:0:0:0:
256,192,245900,1,0,0:0:0:0:
256,192,246050,1,8,0:0:0:0:
256,192,246125,1,8,0:0:0:0:
256,192,246200,1,4,0:0:0:0:
256,192,246350,1,8,0:0:0:0:
256,192,246500,1,0,0:0:0:0:
256,192,246537,1,0,0:0:0:0:
256,192,246650,1,0,0:0:0:0:
256,192,246687,1,0,0:0:0:0:
256,192,246800,1,0,0:0:0:0:
256,192,246837,1,0,0:0:0:0:
256,192,246950,1,8,0:0:0:0:
256,192,247100,1,0,0:0:0:0:
256,192,247175,1,8,0:0:0:0:
256,192,247250,1,0,0:0:0:0:
256,192,247400,1,0,0:0:0:0:
256,192,247475,1,0,0:0:0:0:
256,192,247550,1,8,0:0:0:0:
256,192,247700,1,8,0:0:0:0:
256,192,247775,1,8,0:0:0:0:
256,192,247850,1,0,0:0:0:0:
256,192,248000,1,0,0:0:0:0:
256,192,248075,1,0,0:0:0:0:
256,192,248150,1,8,0:0:0:0:
256,192,248300,1,0,0:0:0:0:
256,192,248375,1,0,0:0:0:0:
256,192,248450,1,8,0:0:0:0:
256,192,248525,1,8,0:0:0:0:
256,192,248600,1,0,0:0:0:0:
256,192,248750,1,8,0:0:0:0:
256,192,248900,1,0,0:0:0:0:
256,192,248937,1,0,0:0:0:0:
256,192,249050,1,0,0:0:0:0:
256,192,249087,1,0,0:0:0:0:
256,192,249200,1,0,0:0:0:0:
256,192,249237,1,0,0:0:0:0:
256,192,249350,1,8,0:0:0:0:
256,192,249500,1,0,0:0:0:0:
256,192,249575,1,8,0:0:0:0:
256,192,249650,1,0,0:0:0:0:
256,192,249725,1,0,0:0:0:0:
256,192,249800,1,8,0:0:0:0:
256,192,249950,1,8,0:0:0:0:
256,192,250025,1,0,0:0:0:0:
256,192,250100,1,0,0:0:0:0:
256,192,250250,1,8,0:0:0:0:
256,192,250325,1,8,0:0:0:0:
256,192,250400,1,0,0:0:0:0:
256,192,250550,1,0,0:0:0:0:
256,192,250625,1,8,0:0:0:0:
256,192,250700,1,0,0:0:0:0:
256,192,250850,1,8,0:0:0:0:
256,192,251000,1,4,0:0:0:0:
256,192,251150,1,0,0:0:0:0:
256,192,251225,1,0,0:0:0:0:
256,192,251300,1,8,0:0:0:0:
256,192,251375,1,8,0:0:0:0:
256,192,251450,1,0,0:0:0:0:
256,192,251600,1,8,0:0:0:0:
256,192,251675,1,0,0:0:0:0:
256,192,251750,1,8,0:0:0:0:
256,192,251900,1,8,0:0:0:0:
256,192,252050,1,8,0:0:0:0:
256,192,252125,1,0,0:0:0:0:
256,192,252200,1,8,0:0:0:0:
256,192,252350,1,8,0:0:0:0:
256,192,252425,1,0,0:0:0:0:
256,192,252500,1,8,0:0:0:0:
256,192,252650,1,0,0:0:0:0:
256,192,252725,1,0,0:0:0:0:
256,192,252800,1,8,0:0:0:0:
256,192,252875,1,0,0:0:0:0:
256,192,252950,1,8,0:0:0:0:
256,192,253100,1,8,0:0:0:0:
256,192,253250,1,0,0:0:0:0:
256,192,253325,1,0,0:0:0:0:
256,192,253400,1,8,0:0:0:0:
256,192,253475,1,0,0:0:0:0:
256,192,253625,1,0,0:0:0:0:
256,192,253700,1,8,0:0:0:0:
256,192,253850,1,8,0:0:0:0:
256,192,253925,1,0,0:0:0:0:
256,192,254075,1,0,0:0:0:0:
256,192,254150,1,8,0:0:0:0:
256,192,254300,1,8,0:0:0:0:
256,192,254450,1,0,0:0:0:0:
256,192,254525,1,8,0:0:0:0:
256,192,254600,1,0,0:0:0:0:
256,192,254675,1,8,0:0:0:0:
256,192,254750,1,8,0:0:0:0:
256,192,254825,1,8,0:0:0:0:
256,192,254900,1,0,0:0:0:0:
256,192,255050,1,0,0:0:0:0:
256,192,255200,1,8,0:0:0:0:
256,192,255275,1,0,0:0:0:0:
256,192,255400,1,0,0:0:0:0:
256,192,255450,1,0,0:0:0:0:
256,192,255500,1,8,0:0:0:0:
256,192,255800,1,4,0:0:0:0:
256,192,255950,1,0,0:0:0:0:
256,192,256025,1,0,0:0:0:0:
256,192,256100,1,8,0:0:0:0:
256,192,256250,1,8,0:0:0:0:
256,192,256300,1,8,0:0:0:0:
256,192,256350,1,8,0:0:0:0:
256,192,256400,1,0,0:0:0:0:
256,192,256550,1,0,0:0:0:0:
256,192,256625,1,8,0:0:0:0:
256,192,256700,1,0,0:0:0:0:
256,192,256850,1,8,0:0:0:0:
256,192,256925,1,8,0:0:0:0:
256,192,257075,1,0,0:0:0:0:
256,192,257150,1,0,0:0:0:0:
256,192,257300,1,8,0:0:0:0:
256,192,257450,1,8,0:0:0:0:
256,192,257500,1,8,0:0:0:0:
256,192,257550,1,8,0:0:0:0:
256,192,257600,1,0,0:0:0:0:
256,192,257750,1,0,0:0:0:0:
256,192,257825,1,8,0:0:0:0:
256,192,257900,1,0,0:0:0:0:
256,192,258050,1,8,0:0:0:0:
256,192,258200,1,0,0:0:0:0:
256,192,258350,1,0,0:0:0:0:
256,192,258425,1,8,0:0:0:0:
256,192,258500,1,0,0:0:0:0:
256,192,258575,1,0,0:0:0:0:
256,192,258650,1,8,0:0:0:0:
256,192,258725,1,0,0:0:0:0:
256,192,258800,1,8,0:0:0:0:
256,192,258875,1,8,0:0:0:0:
256,192,258950,1,0,0:0:0:0:
256,192,259100,1,0,0:0:0:0:
256,192,259250,1,8,0:0:0:0:
256,192,259325,1,8,0:0:0:0:
256,192,259400,1,8,0:0:0:0:
256,192,259475,1,8,0:0:0:0:
256,192,259550,1,0,0:0:0:0:
256,192,259700,1,0,0:0:0:0:
256,192,259850,1,8,0:0:0:0:
256,192,259887,1,8,0:0:0:0:
256,192,260000,1,0,0:0:0:0:
256,192,260050,1,0,0:0:0:0:
256,192,260100,1,0,0:0:0:0:
256,192,260150,1,0,0:0:0:0:
256,192,260300,1,8,0:0:0:0:
256,192,260450,1,8,0:0:0:0:
256,192,260600,1,0,0:0:0:0:
256,192,260675,1,0,0:0:0:0:
256,192,260750,1,0,0:0:0:0:
256,192,260900,1,12,0:0:0:0:
256,192,261050,1,0,0:0:0:0:
256,192,261125,1,8,0:0:0:0:
256,192,261200,1,0,0:0:0:0:
256,192,261350,1,0,0:0:0:0:
256,192,261500,1,12,0:0:0:0:
256,192,261650,1,0,0:0:0:0:
256,192,261725,1,0,0:0:0:0:
256,192,261800,1,0,0:0:0:0:
256,192,261950,1,0,0:0:0:0:
256,192,262100,1,12,0:0:0:0:
256,192,262250,1,0,0:0:0:0:
256,192,262325,1,0,0:0:0:0:
256,192,262400,1,8,0:0:0:0:
256,192,262475,1,8,0:0:0:0:
256,192,262550,1,0,0:0:0:0:
256,192,262700,1,12,0:0:0:0:
256,192,262850,1,8,0:0:0:0:
256,192,262925,1,8,0:0:0:0:
256,192,263000,1,0,0:0:0:0:
256,192,263150,1,0,0:0:0:0:
256,192,263300,1,8,0:0:0:0:
256,192,263450,1,8,0:0:0:0:
256,192,263750,1,0,0:0:0:0:
256,192,263900,1,8,0:0:0:0:
256,192,264050,1,0,0:0:0:0:
256,192,264200,1,8,0:0:0:0:
256,192,264350,1,8,0:0:0:0:
256,192,264500,1,0,0:0:0:0:
256,192,264650,1,0,0:0:0:0:
256,192,264800,1,8,0:0:0:0:
256,192,264950,1,0,0:0:0:0:
256,192,265100,1,12,0:0:0:0:
256,192,265400,1,0,0:0:0:0:
256,192,265475,1,0,0:0:0:0:
256,192,265550,1,0,0:0:0:0:
256,192,265625,1,8,0:0:0:0:
256,192,265700,1,0,0:0:0:0:
256,192,265775,1,0,0:0:0:0:
256,192,265850,1,8,0:0:0:0:
256,192,265900,1,8,0:0:0:0:
256,192,265950,1,8,0:0:0:0:
256,192,266000,1,0,0:0:0:0:
256,192,266150,1,0,0:0:0:0:
256,192,266225,1,8,0:0:0:0:
256,192,266300,1,0,0:0:0:0:
256,192,266450,1,8,0:0:0:0:
256,192,266525,1,8,0:0:0:0:
256,192,266600,1,8,0:0:0:0:
256,192,266675,1,0,0:0:0:0:
256,192,266750,1,0,0:0:0:0:
261,197,266825,1,0,0:0:0:0:
256,192,266900,1,8,0:0:0:0:
256,192,266975,1,0,0:0:0:0:
256,192,267050,1,8,0:0:0:0:
256,192,267100,1,8,0:0:0:0:
256,192,267150,1,8,0:0:0:0:
256,192,267200,1,0,0:0:0:0:
256,192,267350,1,0,0:0:0:0:
256,192,267425,1,8,0:0:0:0:
256,192,267500,1,8,0:0:0:0:
256,192,267575,1,0,0:0:0:0:
256,192,267650,1,0,0:0:0:0:
256,192,267725,1,8,0:0:0:0:
256,192,267800,1,0,0:0:0:0:
256,192,267950,1,8,0:0:0:0:
256,192,268025,1,8,0:0:0:0:
256,192,268100,1,0,0:0:0:0:
256,192,268175,1,0,0:0:0:0:
256,192,268250,1,0,0:0:0:0:
256,192,268325,1,8,0:0:0:0:
256,192,268400,1,0,0:0:0:0:
256,192,268450,1,0,0:0:0:0:
256,192,268500,1,0,0:0:0:0:
256,192,268550,1,8,0:0:0:0:
256,192,268700,1,0,0:0:0:0:
256,192,268850,1,8,0:0:0:0:
256,192,268925,1,8,0:0:0:0:
256,192,269000,1,8,0:0:0:0:
256,192,269075,1,8,0:0:0:0:
256,192,269150,1,0,0:0:0:0:
256,192,269225,1,0,0:0:0:0:
256,192,269300,1,8,0:0:0:0:
256,192,269450,1,8,0:0:0:0:
256,192,269487,1,8,0:0:0:0:
256,192,269600,1,0,0:0:0:0:
256,192,269650,1,0,0:0:0:0:
256,192,269700,1,0,0:0:0:0:
256,192,269750,1,0,0:0:0:0:
256,192,269900,1,8,0:0:0:0:
256,192,270050,1,8,0:0:0:0:
256,192,270125,1,0,0:0:0:0:
256,192,270200,1,0,0:0:0:0:
256,192,270275,1,0,0:0:0:0:
256,192,270350,1,8,0:0:0:0:
256,192,270500,1,12,0:0:0:0:
256,192,270650,1,0,0:0:0:0:
256,192,270725,1,0,0:0:0:0:
256,192,270800,1,8,0:0:0:0:
256,192,270875,1,8,0:0:0:0:
256,192,270950,1,0,0:0:0:0:
256,192,271100,1,12,0:0:0:0:
256,192,271250,1,8,0:0:0:0:
256,192,271325,1,8,0:0:0:0:
256,192,271400,1,0,0:0:0:0:
256,192,271475,1,8,0:0:0:0:
256,192,271550,1,0,0:0:0:0:
256,192,271700,1,12,0:0:0:0:
256,192,271850,1,0,0:0:0:0:
256,192,271925,1,0,0:0:0:0:
256,192,272000,1,8,0:0:0:0:
256,192,272075,1,0,0:0:0:0:
256,192,272150,1,8,0:0:0:0:
256,192,272225,1,0,0:0:0:0:
256,192,272300,1,12,0:0:0:0:
256,192,272450,1,8,0:0:0:0:
256,192,272525,1,8,0:0:0:0:
256,192,272600,1,0,0:0:0:0:
256,192,273050,1,0,0:0:0:0:
256,192,273200,1,8,0:0:0:0:
256,192,273500,1,8,0:0:0:0:
256,192,273650,1,0,0:0:0:0:
256,192,273800,1,8,0:0:0:0:
256,192,273875,1,8,0:0:0:0:
256,192,273950,1,8,0:0:0:0:
256,192,274025,1,8,0:0:0:0:
256,192,274100,1,0,0:0:0:0:
256,192,274175,1,0,0:0:0:0:
256,192,274250,1,8,0:0:0:0:
256,192,274325,1,8,0:0:0:0:
256,192,274400,1,0,0:0:0:0:
256,192,274475,1,0,0:0:0:0:
256,192,274550,1,0,0:0:0:0:
256,192,274625,1,0,0:0:0:0:
256,192,274700,1,8,0:0:0:0:
256,192,275000,1,4,0:0:0:0:
256,192,275600,1,8,0:0:0:0:
256,192,276500,1,0,0:0:0:0:
256,192,276800,1,8,0:0:0:0:
256,192,277400,1,0,0:0:0:0:
256,192,278000,1,8,0:0:0:0:
256,192,278600,1,0,0:0:0:0:
256,192,278900,1,0,0:0:0:0:
256,192,279050,1,8,0:0:0:0:
256,192,279350,1,8,0:0:0:0:
256,192,279500,1,0,0:0:0:0:
256,192,279800,1,4,0:0:0:0:
256,192,280400,1,8,0:0:0:0:
256,192,281300,1,0,0:0:0:0:
256,192,281600,1,8,0:0:0:0:
256,192,282200,1,0,0:0:0:0:
256,192,282800,1,8,0:0:0:0:
256,192,283400,1,8,0:0:0:0:
256,192,283700,1,0,0:0:0:0:
256,192,283850,1,0,0:0:0:0:
256,192,284150,1,8,0:0:0:0:
256,192,284300,1,0,0:0:0:0:
256,192,284600,1,4,0:0:0:0:
256,192,285500,1,8,0:0:0:0:
256,192,286700,1,0,0:0:0:0:
256,192,286775,1,0,0:0:0:0:
256,192,286850,1,0,0:0:0:0:
256,192,286925,1,0,0:0:0:0:
256,192,287000,1,8,0:0:0:0:
256,192,287600,1,8,0:0:0:0:
256,192,288200,1,8,0:0:0:0:
256,192,288800,1,0,0:0:0:0:
256,192,289400,1,0,0:0:0:0:
256,192,290300,1,0,0:0:0:0:
256,192,290375,1,0,0:0:0:0:
256,192,290450,1,0,0:0:0:0:
256,192,290525,1,0,0:0:0:0:
256,192,290600,1,8,0:0:0:0:
256,192,291200,1,8,0:0:0:0:
256,192,291800,1,0,0:0:0:0:
256,192,293000,1,8,0:0:0:0:
256,192,293600,1,0,0:0:0:0:
256,192,294200,1,0,0:0:0:0:
256,192,294950,1,0,0:0:0:0:
256,192,295025,1,0,0:0:0:0:
256,192,295100,1,8,0:0:0:0:
256,192,295250,1,8,0:0:0:0:
256,192,295400,1,0,0:0:0:0:
256,192,295850,1,0,0:0:0:0:
256,192,296300,1,0,0:0:0:0:
256,192,296600,1,8,0:0:0:0:
256,192,297050,1,0,0:0:0:0:
256,192,297500,1,0,0:0:0:0:
256,192,297795,1,8,0:0:0:0:
256,192,298250,1,8,0:0:0:0:
256,192,298706,1,8,0:0:0:0:
256,192,299010,1,0,0:0:0:0:
256,192,299769,1,0,0:0:0:0:
256,192,299845,1,0,0:0:0:0:
256,192,299921,1,8,0:0:0:0:
256,192,300073,1,8,0:0:0:0:
256,192,300225,1,0,0:0:0:0:
256,192,300696,1,8,0:0:0:0:
256,192,301167,1,8,0:0:0:0:
256,192,301481,1,0,0:0:0:0:
256,192,301964,1,8,0:0:0:0:
256,192,302448,1,0,0:0:0:0:
256,192,302788,1,0,0:0:0:0:
256,192,303288,1,8,0:0:0:0:
256,192,303802,1,0,0:0:0:0:
