osu file format v14

[General]
AudioFilename: audio.mp3
AudioLeadIn: 0
PreviewTime: -1
Countdown: 1
SampleSet: Normal
StackLeniency: 0.7
Mode: 3
LetterboxInBreaks: 0
SkinPreference:O2Jam UUltimate HY
SpecialStyle: 0
WidescreenStoryboard: 0

[Editor]
Bookmarks: 10038,10338
DistanceSpacing: 0.8
BeatDivisor: 4
GridSize: 8
TimelineZoom: 1.8

[Metadata]
Title:USAO ULTIMATE HYPER MEGA MIX
TitleUnicode:USAO ULTIMATE HYPER MEGA MIX
Artist:USAO
ArtistUnicode:USAO
Creator:-97keys-
Version:MEGAMIX
Source:
Tags:
BeatmapID:1742194
BeatmapSetID:831586

[Difficulty]
HPDrainRate:8
CircleSize:4
OverallDifficulty:5
ApproachRate:5
SliderMultiplier:1.4
SliderTickRate:1

[Events]
//Background and Video events
0,0,"hero.jpg",0,0
//Break Periods
//Storyboard Layer 0 (Background)
//Storyboard Layer 1 (Fail)
//Storyboard Layer 2 (Pass)
//Storyboard Layer 3 (Foreground)
//Storyboard Sound Samples

[TimingPoints]
11088.2812637967,300,4,1,0,100,1,0
294400,-200,4,1,0,100,0,0

[HitObjects]
64,192,11088,5,0,0:0:0:33:
192,192,11088,1,0,0:0:0:33:
320,192,11088,1,0,0:0:0:33:
448,192,11088,1,0,0:0:0:33:
320,192,11388,1,0,0:0:0:66:
192,192,11388,1,0,0:0:0:66:
448,192,11538,1,0,0:0:0:133:
64,192,11688,1,0,0:0:0:66:
320,192,11688,1,0,0:0:0:66:
192,192,11838,1,0,0:0:0:133:
320,192,11988,1,0,0:0:0:133:
448,192,12138,1,0,0:0:0:66:
64,192,12138,1,0,0:0:0:66:
320,192,12288,1,0,0:0:0:133:
192,192,12438,1,0,0:0:0:133:
320,192,12588,1,0,0:0:0:66:
448,192,12588,1,0,0:0:0:66:
192,192,12738,1,0,0:0:0:66:
64,192,12738,1,0,0:0:0:66:
320,192,12888,1,0,0:0:0:66:
448,192,12888,1,0,0:0:0:66:
192,192,13038,1,0,0:0:0:133:
64,192,13188,1,0,0:0:0:133:
320,192,13338,1,0,0:0:0:66:
448,192,13338,1,0,0:0:0:66:
192,192,13488,1,0,0:0:0:133:
64,192,13638,1,0,0:0:0:133:
192,192,13788,1,0,0:0:0:66:
320,192,13788,1,0,0:0:0:66:
64,192,13938,1,0,0:0:0:66:
320,192,13938,1,0,0:0:0:66:
192,192,14088,1,0,0:0:0:66:
448,192,14088,1,0,0:0:0:66:
320,192,14238,1,0,0:0:0:133:
192,192,14388,1,0,0:0:0:133:
64,192,14538,1,0,0:0:0:133:
192,192,14688,1,0,0:0:0:44:
320,192,14688,1,0,0:0:0:44:
448,192,14688,1,0,0:0:0:44:
64,192,14838,1,0,0:0:0:133:
192,192,14988,1,0,0:0:0:133:
320,192,15138,1,0,0:0:0:66:
448,192,15138,1,0,0:0:0:66:
64,192,15288,1,0,0:0:0:66:
192,192,15288,1,0,0:0:0:66:
320,192,15438,1,0,0:0:0:66:
448,192,15438,1,0,0:0:0:66:
64,192,15588,1,0,0:0:0:44:
192,192,15588,1,0,0:0:0:44:
320,192,15588,1,0,0:0:0:44:
192,192,15738,1,0,0:0:0:133:
320,192,15888,1,0,0:0:0:44:
448,192,15888,1,0,0:0:0:44:
64,192,15888,1,0,0:0:0:0:
192,192,15963,1,0,0:0:0:0:
320,192,16038,1,0,0:0:0:0:
64,192,16038,1,0,0:0:0:0:
192,192,16113,1,0,0:0:0:0:
448,192,16188,1,0,0:0:0:66:
320,192,16188,1,0,0:0:0:0:
192,192,16263,1,0,0:0:0:0:
448,192,16338,1,0,0:0:0:66:
64,192,16338,1,0,0:0:0:0:
320,192,16413,1,0,0:0:0:0:
192,192,16488,1,0,0:0:0:66:
64,192,16488,1,0,0:0:0:66:
320,192,16563,1,0,0:0:0:0:
192,192,16638,1,0,0:0:0:66:
448,192,16638,1,0,0:0:0:66:
64,192,16713,1,0,0:0:0:0:
320,192,16788,1,0,0:0:0:66:
192,192,16788,1,0,0:0:0:0:
448,192,16863,1,0,0:0:0:0:
192,192,16938,1,0,0:0:0:66:
320,192,16938,1,0,0:0:0:66:
64,192,17013,1,0,0:0:0:0:
320,192,17088,1,0,0:0:0:44:
448,192,17088,1,0,0:0:0:44:
192,192,17163,1,0,0:0:0:0:
64,192,17238,1,0,0:0:0:0:
320,192,17238,1,0,0:0:0:0:
448,192,17313,1,0,0:0:0:0:
320,192,17388,1,0,0:0:0:66:
192,192,17388,1,0,0:0:0:66:
448,192,17463,1,0,0:0:0:0:
64,192,17538,1,0,0:0:0:66:
320,192,17538,1,0,0:0:0:66:
192,192,17613,1,0,0:0:0:0:
448,192,17688,1,0,0:0:0:66:
320,192,17688,1,0,0:0:0:0:
64,192,17763,1,0,0:0:0:0:
320,192,17838,1,0,0:0:0:66:
192,192,17838,1,0,0:0:0:66:
448,192,17913,1,0,0:0:0:0:
64,192,17988,1,0,0:0:0:66:
320,192,17988,1,0,0:0:0:66:
192,192,18063,1,0,0:0:0:0:
448,192,18138,1,0,0:0:0:66:
320,192,18138,1,0,0:0:0:0:
320,192,18288,1,0,0:0:0:44:
192,192,18288,1,0,0:0:0:44:
64,192,18288,1,0,0:0:0:44:
448,192,18438,1,0,0:0:0:66:
320,192,18438,1,0,0:0:0:66:
64,192,18513,1,0,0:0:0:0:
192,192,18513,1,0,0:0:0:0:
320,192,18588,1,0,0:0:0:0:
448,192,18588,1,0,0:0:0:0:
192,192,18663,1,0,0:0:0:0:
64,192,18663,1,0,0:0:0:0:
320,192,18738,1,0,0:0:0:66:
448,192,18738,1,0,0:0:0:66:
192,192,18813,1,0,0:0:0:0:
64,192,18813,1,0,0:0:0:0:
320,192,18888,1,0,0:0:0:0:
448,192,18888,1,0,0:0:0:0:
192,192,18963,1,0,0:0:0:0:
64,192,18963,1,0,0:0:0:0:
320,192,19038,1,0,0:0:0:66:
448,192,19038,1,0,0:0:0:66:
192,192,19113,1,0,0:0:0:0:
64,192,19113,1,0,0:0:0:0:
320,192,19188,1,0,0:0:0:0:
448,192,19188,1,0,0:0:0:0:
64,192,19338,1,0,0:0:0:0:
192,192,19338,1,0,0:0:0:0:
320,192,19338,1,0,0:0:0:0:
64,192,19488,1,0,0:0:0:133:
192,192,19525,1,0,0:0:0:133:
320,192,19563,1,0,0:0:0:133:
192,192,19638,1,0,0:0:0:66:
64,192,19638,1,0,0:0:0:66:
320,192,19675,1,0,0:0:0:133:
448,192,19750,1,0,0:0:0:133:
320,192,19788,1,0,0:0:0:133:
192,192,19825,1,0,0:0:0:133:
64,192,19863,1,0,0:0:0:133:
192,192,19900,1,0,0:0:0:133:
320,192,19938,1,0,0:0:0:66:
448,192,19938,1,0,0:0:0:66:
192,192,19975,1,0,0:0:0:133:
64,192,20013,1,0,0:0:0:133:
192,192,20088,1,0,0:0:0:66:
320,192,20088,1,0,0:0:0:66:
192,192,20238,1,0,0:0:0:0:
320,192,20238,1,0,0:0:0:0:
192,192,20388,1,0,0:0:0:0:
320,192,20388,1,0,0:0:0:0:
192,192,20538,1,0,0:0:0:0:
320,192,20538,1,0,0:0:0:0:
320,192,20688,1,4,0:0:0:44:
192,192,20688,1,0,0:0:0:44:
64,192,20688,1,0,0:0:0:44:
64,192,20838,1,0,0:0:0:133:
448,192,20988,1,2,0:0:0:44:
192,192,20988,1,0,0:0:0:44:
320,192,20988,1,0,0:0:0:44:
320,192,21138,1,0,0:0:0:133:
320,192,21288,1,0,0:0:0:44:
192,192,21288,1,0,0:0:0:44:
448,192,21288,1,4,0:0:0:44:
192,192,21438,1,0,0:0:0:133:
64,192,21588,1,2,0:0:0:44:
192,192,21588,1,0,0:0:0:44:
320,192,21588,1,0,0:0:0:44:
448,192,21738,1,0,0:0:0:133:
192,192,21888,1,0,0:0:0:44:
320,192,21888,1,4,0:0:0:44:
448,192,21888,1,0,0:0:0:44:
192,192,22038,1,0,0:0:0:133:
192,192,22188,1,0,0:0:0:44:
320,192,22188,1,2,0:0:0:44:
448,192,22188,1,0,0:0:0:44:
448,192,22338,1,0,0:0:0:133:
320,192,22488,1,0,0:0:0:44:
192,192,22488,1,4,0:0:0:44:
64,192,22488,1,0,0:0:0:44:
320,192,22638,1,0,0:0:0:133:
192,192,22788,1,0,0:0:0:44:
64,192,22788,1,2,0:0:0:44:
448,192,22788,1,0,0:0:0:44:
192,192,22938,1,0,0:0:0:133:
192,192,23088,1,0,0:0:0:44:
320,192,23088,1,0,0:0:0:44:
448,192,23088,1,4,0:0:0:44:
64,192,23238,1,0,0:0:0:133:
192,192,23388,1,0,0:0:0:44:
320,192,23388,1,2,0:0:0:44:
448,192,23388,1,0,0:0:0:44:
448,192,23538,1,0,0:0:0:133:
320,192,23688,1,4,0:0:0:44:
192,192,23688,1,0,0:0:0:44:
64,192,23688,1,0,0:0:0:44:
192,192,23838,1,0,0:0:0:133:
320,192,23988,1,0,0:0:0:44:
448,192,23988,1,0,0:0:0:44:
64,192,23988,1,2,0:0:0:44:
320,192,24138,1,0,0:0:0:133:
192,192,24288,1,0,0:0:0:44:
320,192,24288,1,4,0:0:0:44:
448,192,24288,1,0,0:0:0:44:
192,192,24438,1,0,0:0:0:133:
64,192,24588,1,2,0:0:0:44:
320,192,24588,1,0,0:0:0:44:
448,192,24588,1,0,0:0:0:44:
320,192,24738,1,0,0:0:0:133:
64,192,24888,1,0,0:0:0:44:
320,192,24888,1,4,0:0:0:44:
448,192,24888,1,0,0:0:0:44:
64,192,25038,1,0,0:0:0:133:
64,192,25188,1,0,0:0:0:44:
192,192,25188,1,2,0:0:0:44:
320,192,25188,1,0,0:0:0:44:
320,192,25338,1,0,0:0:0:133:
192,192,25488,1,0,0:0:0:44:
320,192,25488,1,4,0:0:0:44:
448,192,25488,1,0,0:0:0:44:
192,192,25638,1,0,0:0:0:133:
320,192,25788,1,0,0:0:0:44:
448,192,25788,1,0,0:0:0:44:
64,192,25788,1,2,0:0:0:44:
320,192,25938,1,0,0:0:0:133:
192,192,26088,1,0,0:0:0:44:
320,192,26088,1,4,0:0:0:44:
448,192,26088,1,0,0:0:0:44:
192,192,26238,1,0,0:0:0:133:
64,192,26388,1,0,0:0:0:44:
192,192,26388,1,2,0:0:0:44:
448,192,26388,1,0,0:0:0:44:
448,192,26538,1,0,0:0:0:133:
192,192,26688,1,0,0:0:0:44:
448,192,26688,1,0,0:0:0:44:
320,192,26688,1,4,0:0:0:44:
320,192,26838,1,0,0:0:0:133:
192,192,26988,1,2,0:0:0:44:
64,192,26988,1,0,0:0:0:44:
320,192,26988,1,0,0:0:0:44:
192,192,27138,1,0,0:0:0:133:
192,192,27288,1,0,0:0:0:44:
320,192,27288,1,0,0:0:0:44:
448,192,27288,1,4,0:0:0:44:
448,192,27438,1,0,0:0:0:133:
192,192,27588,1,0,0:0:0:44:
64,192,27588,1,2,0:0:0:44:
448,192,27588,1,0,0:0:0:44:
64,192,27738,1,0,0:0:0:133:
64,192,27888,1,0,0:0:0:44:
320,192,27888,1,4,0:0:0:44:
448,192,27888,1,0,0:0:0:44:
320,192,28038,1,0,0:0:0:133:
192,192,28188,1,2,0:0:0:44:
320,192,28188,1,0,0:0:0:44:
448,192,28188,1,0,0:0:0:44:
192,192,28338,1,0,0:0:0:133:
64,192,28488,1,0,0:0:0:44:
320,192,28488,1,4,0:0:0:44:
448,192,28488,1,0,0:0:0:44:
448,192,28638,1,0,0:0:0:133:
448,192,28788,1,0,0:0:0:44:
320,192,28788,1,0,0:0:0:44:
192,192,28788,1,2,0:0:0:44:
192,192,28938,1,0,0:0:0:133:
64,192,29088,1,0,0:0:0:33:
320,192,29088,1,0,0:0:0:33:
448,192,29088,1,0,0:0:0:33:
192,192,29088,128,0,29238:0:0:0:33:
320,192,29238,128,0,29388:0:0:0:66:
64,192,29238,1,0,0:0:0:66:
448,192,29388,1,0,0:0:0:133:
320,192,29538,128,0,29613:0:0:0:133:
192,192,29613,1,0,0:0:0:133:
64,192,29650,128,0,29725:0:0:0:133:
192,192,29763,1,0,0:0:0:66:
320,192,29763,128,0,29838:0:0:0:66:
448,192,29875,1,0,0:0:0:66:
192,192,29875,1,0,0:0:0:66:
320,192,29913,1,0,0:0:0:133:
192,192,30138,128,0,30288:0:0:0:66:
320,192,30138,128,0,30288:0:0:0:66:
448,192,30288,1,0,0:0:0:133:
448,192,30438,1,0,0:0:0:133:
192,192,30588,1,0,0:0:0:44:
64,192,30588,1,0,0:0:0:44:
320,192,30588,1,8,0:0:0:44:
320,192,30738,1,0,0:0:0:133:
320,192,30888,1,0,0:0:0:44:
448,192,30888,1,0,0:0:0:44:
64,192,30888,128,0,30963:0:0:0:44:
448,192,31038,1,0,0:0:0:133:
448,192,31188,1,0,0:0:0:44:
320,192,31188,128,0,31263:0:0:0:44:
64,192,31188,1,8,0:0:0:44:
64,192,31338,1,0,0:0:0:133:
64,192,31488,1,0,0:0:0:44:
320,192,31488,1,0,0:0:0:44:
192,192,31488,128,0,31563:0:0:0:44:
192,192,31638,128,0,31713:0:0:0:133:
64,192,31788,1,0,0:0:0:33:
320,192,31788,1,0,0:0:0:33:
448,192,31788,1,8,0:0:0:33:
192,192,31788,128,0,31863:0:0:0:33:
320,192,31863,128,0,31938:0:0:0:133:
192,192,31938,128,0,32013:0:0:0:133:
448,192,32013,128,0,32088:0:0:0:133:
192,192,32088,1,0,0:0:0:66:
64,192,32088,1,0,0:0:0:66:
320,192,32163,1,0,0:0:0:66:
448,192,32163,1,0,0:0:0:66:
192,192,32238,1,0,0:0:0:66:
64,192,32238,1,0,0:0:0:66:
320,192,32313,1,0,0:0:0:66:
448,192,32313,1,0,0:0:0:66:
64,192,32388,1,0,0:0:0:66:
192,192,32388,1,0,0:0:0:66:
448,192,32463,128,0,32688:0:0:0:133:
320,192,32688,128,0,32838:0:0:0:44:
192,192,32688,1,0,0:0:0:44:
64,192,32688,1,0,0:0:0:44:
192,192,32838,128,0,32988:0:0:0:133:
64,192,32988,128,0,33063:0:0:0:44:
320,192,32988,1,0,0:0:0:44:
448,192,32988,1,8,0:0:0:44:
64,192,33138,1,0,0:0:0:133:
192,192,33288,1,0,0:0:0:44:
448,192,33288,1,0,0:0:0:44:
320,192,33288,1,0,0:0:0:44:
192,192,33438,1,0,0:0:0:133:
64,192,33588,1,8,0:0:0:44:
320,192,33588,1,0,0:0:0:44:
448,192,33588,1,0,0:0:0:44:
320,192,33738,1,0,0:0:0:133:
192,192,33888,1,0,0:0:0:44:
320,192,33888,1,0,0:0:0:44:
448,192,33888,1,0,0:0:0:44:
192,192,34038,1,0,0:0:0:0:
64,192,34188,1,0,0:0:0:0:
192,192,34188,1,0,0:0:0:0:
320,192,34188,1,0,0:0:0:0:
320,192,34338,1,0,0:0:0:0:
320,192,34488,1,0,0:0:0:0:
192,192,34488,1,0,0:0:0:0:
448,192,34488,1,0,0:0:0:0:
192,192,34638,1,0,0:0:0:0:
448,192,34788,1,0,0:0:0:0:
320,192,34788,1,0,0:0:0:0:
64,192,34788,1,0,0:0:0:0:
448,192,34938,128,0,35088:0:0:0:0:
64,192,34938,128,0,35088:0:0:0:0:
320,192,34938,1,0,0:0:0:0:
192,192,34938,1,0,0:0:0:0:
320,192,35088,1,0,0:0:0:0:
320,192,35238,1,0,0:0:0:0:
192,192,35388,1,0,0:0:0:0:
320,192,35388,1,8,0:0:0:0:
448,192,35388,1,0,0:0:0:0:
192,192,35538,1,0,0:0:0:0:
320,192,35688,128,0,35763:0:0:0:0:
448,192,35688,1,0,0:0:0:0:
64,192,35688,1,0,0:0:0:0:
192,192,35838,1,0,0:0:0:0:
192,192,35988,1,0,0:0:0:0:
64,192,35988,128,0,36063:0:0:0:0:
448,192,35988,1,8,0:0:0:0:
192,192,36138,1,0,0:0:0:0:
320,192,36288,128,0,36363:0:0:0:0:
192,192,36288,1,0,0:0:0:0:
64,192,36288,1,0,0:0:0:0:
448,192,36288,1,0,0:0:0:0:
448,192,36438,1,0,0:0:0:0:
64,192,36513,1,0,0:0:0:44:
192,192,36513,1,0,0:0:0:44:
320,192,36513,128,0,36588:0:0:0:44:
320,192,36663,128,0,36738:0:0:0:133:
192,192,36738,128,0,36813:0:0:0:133:
320,192,36813,128,0,36888:0:0:0:44:
64,192,36813,1,0,0:0:0:44:
448,192,36813,1,0,0:0:0:44:
192,192,36963,1,0,0:0:0:133:
64,192,37113,1,0,0:0:0:44:
320,192,37113,1,0,0:0:0:44:
448,192,37113,1,0,0:0:0:44:
64,192,37338,128,0,37638:0:0:0:44:
320,192,37338,1,0,0:0:0:44:
448,192,37338,1,0,0:0:0:44:
320,192,37488,1,0,0:0:0:133:
192,192,37638,128,0,37788:0:0:0:44:
448,192,37638,1,0,0:0:0:44:
320,192,37638,1,8,0:0:0:44:
320,192,37788,128,0,37938:0:0:0:66:
64,192,37788,1,0,0:0:0:66:
448,192,37938,128,0,38163:0:0:0:44:
192,192,37938,1,0,0:0:0:44:
320,192,38088,1,0,0:0:0:133:
320,192,38238,1,8,0:0:0:44:
192,192,38238,1,0,0:0:0:44:
64,192,38238,1,0,0:0:0:44:
320,192,38388,1,0,0:0:0:133:
192,192,38538,1,0,0:0:0:44:
320,192,38538,1,0,0:0:0:44:
448,192,38538,1,0,0:0:0:44:
64,192,38538,1,0,0:0:0:0:
320,192,38688,1,0,0:0:0:66:
448,192,38688,1,0,0:0:0:66:
64,192,38838,1,0,0:0:0:66:
448,192,38838,1,0,0:0:0:66:
320,192,38838,1,0,0:0:0:0:
192,192,38838,1,0,0:0:0:0:
192,192,38988,1,0,0:0:0:133:
320,192,38988,1,0,0:0:0:0:
64,192,39138,1,0,0:0:0:0:
192,192,39138,1,0,0:0:0:0:
320,192,39138,1,0,0:0:0:0:
448,192,39138,1,0,0:0:0:0:
448,192,39288,1,0,0:0:0:0:
192,192,39288,1,0,0:0:0:0:
448,192,39438,1,0,0:0:0:0:
320,192,39438,1,0,0:0:0:0:
192,192,39438,1,0,0:0:0:0:
448,192,39588,1,4,0:0:0:133:
64,192,39588,1,0,0:0:0:0:
192,192,39588,1,0,0:0:0:0:
320,192,39588,1,0,0:0:0:0:
64,192,39813,1,0,0:0:0:44:
192,192,39813,1,4,0:0:0:44:
448,192,39813,128,0,40188:0:0:0:0:
320,192,40188,128,0,40338:0:0:0:0:
64,192,40188,1,0,0:0:0:0:
192,192,40338,128,0,40488:0:0:0:0:
448,192,40338,128,0,40488:0:0:0:0:
320,192,40488,128,0,40638:0:0:0:0:
64,192,40488,1,0,0:0:0:0:
192,192,40638,128,0,40788:0:0:0:0:
320,192,40788,128,0,40938:0:0:0:0:
64,192,40788,1,0,0:0:0:0:
64,192,40938,128,0,41088:0:0:0:0:
448,192,40938,128,0,41088:0:0:0:0:
192,192,41088,1,0,0:0:0:0:
320,192,41088,1,4,0:0:0:0:
192,192,41238,1,0,0:0:0:0:
64,192,41388,1,0,0:0:0:0:
320,192,41388,1,0,0:0:0:0:
448,192,41388,1,0,0:0:0:0:
192,192,41538,1,0,0:0:0:0:
448,192,41688,1,0,0:0:0:0:
320,192,41688,1,0,0:0:0:0:
64,192,41838,1,0,0:0:0:0:
192,192,41838,1,0,0:0:0:0:
320,192,41988,1,0,0:0:0:0:
448,192,41988,1,0,0:0:0:0:
64,192,42138,1,0,0:0:0:0:
192,192,42138,128,0,42288:0:0:0:0:
320,192,42288,128,4,42438:0:0:0:0:
64,192,42588,128,0,42663:0:0:0:0:
448,192,42588,1,0,0:0:0:0:
448,192,42738,128,0,42813:0:0:0:0:
64,192,42813,1,0,0:0:0:0:
320,192,42888,128,0,42963:0:0:0:0:
448,192,42963,1,0,0:0:0:0:
192,192,43038,128,0,43113:0:0:0:0:
320,192,43113,1,0,0:0:0:0:
64,192,43188,128,0,43263:0:0:0:0:
192,192,43263,1,0,0:0:0:0:
320,192,43338,128,0,43413:0:0:0:0:
448,192,43338,1,0,0:0:0:0:
192,192,43488,128,0,43563:0:0:0:0:
320,192,43563,1,0,0:0:0:0:
448,192,43638,1,0,0:0:0:0:
64,192,43713,1,0,0:0:0:0:
320,192,43788,1,0,0:0:0:0:
448,192,43788,1,0,0:0:0:0:
192,192,43788,1,0,0:0:0:0:
64,192,43863,1,0,0:0:0:0:
320,192,43938,1,0,0:0:0:0:
448,192,44013,1,0,0:0:0:0:
192,192,44013,1,0,0:0:0:0:
64,192,44013,1,0,0:0:0:0:
320,192,44088,1,0,0:0:0:0:
192,192,44163,1,0,0:0:0:0:
320,192,44238,1,0,0:0:0:0:
64,192,44313,1,0,0:0:0:0:
192,192,44313,1,0,0:0:0:0:
448,192,44313,1,0,0:0:0:0:
320,192,44388,1,0,0:0:0:0:
64,192,44463,1,0,0:0:0:0:
192,192,44538,1,0,0:0:0:0:
320,192,44538,1,0,0:0:0:0:
448,192,44538,1,0,0:0:0:0:
64,192,44688,1,4,0:0:0:0:
192,192,44688,1,0,0:0:0:0:
320,192,44688,1,0,0:0:0:0:
448,192,44688,1,0,0:0:0:0:
192,192,44838,1,0,0:0:0:0:
448,192,44838,1,0,0:0:0:0:
320,192,44988,1,0,0:0:0:0:
64,192,44988,1,0,0:0:0:0:
448,192,44988,1,0,0:0:0:0:
192,192,45138,1,0,0:0:0:0:
320,192,45138,1,0,0:0:0:0:
192,192,45288,1,0,0:0:0:0:
448,192,45288,1,0,0:0:0:0:
320,192,45288,1,0,0:0:0:0:
64,192,45438,1,0,0:0:0:0:
320,192,45438,1,0,0:0:0:0:
448,192,45588,1,0,0:0:0:0:
192,192,45588,1,0,0:0:0:0:
64,192,45588,1,0,0:0:0:0:
64,192,45738,1,0,0:0:0:0:
320,192,45738,1,0,0:0:0:0:
192,192,45888,1,0,0:0:0:0:
320,192,45888,1,0,0:0:0:0:
448,192,45888,1,4,0:0:0:0:
192,192,46038,1,0,0:0:0:0:
448,192,46038,1,0,0:0:0:0:
64,192,46188,1,0,0:0:0:0:
192,192,46188,1,0,0:0:0:0:
320,192,46188,1,0,0:0:0:0:
192,192,46338,1,0,0:0:0:0:
320,192,46338,1,0,0:0:0:0:
192,192,46488,1,0,0:0:0:0:
320,192,46488,1,0,0:0:0:0:
448,192,46488,1,0,0:0:0:0:
192,192,46638,1,0,0:0:0:0:
448,192,46638,1,0,0:0:0:0:
64,192,46788,1,0,0:0:0:0:
192,192,46788,1,0,0:0:0:0:
320,192,46788,1,0,0:0:0:0:
448,192,46938,1,0,0:0:0:0:
320,192,46938,1,0,0:0:0:0:
64,192,47088,1,4,0:0:0:0:
192,192,47088,1,0,0:0:0:0:
320,192,47088,1,0,0:0:0:0:
448,192,47163,1,0,0:0:0:0:
320,192,47238,1,0,0:0:0:0:
192,192,47313,1,0,0:0:0:66:
64,192,47313,1,0,0:0:0:66:
448,192,47313,1,0,0:0:0:0:
320,192,47388,1,0,0:0:0:0:
192,192,47463,1,0,0:0:0:0:
448,192,47538,1,0,0:0:0:0:
64,192,47538,1,0,0:0:0:0:
320,192,47538,1,0,0:0:0:0:
192,192,47613,1,0,0:0:0:0:
448,192,47688,1,0,0:0:0:0:
64,192,47763,1,0,0:0:0:0:
320,192,47763,1,0,0:0:0:0:
192,192,47763,1,0,0:0:0:0:
448,192,47838,1,0,0:0:0:0:
320,192,47913,1,0,0:0:0:0:
192,192,47988,1,0,0:0:0:0:
64,192,47988,1,0,0:0:0:0:
448,192,47988,1,0,0:0:0:0:
320,192,48063,1,0,0:0:0:0:
192,192,48138,1,0,0:0:0:0:
64,192,48138,1,0,0:0:0:0:
448,192,48138,1,0,0:0:0:0:
192,192,48288,1,0,0:0:0:0:
320,192,48288,1,0,0:0:0:0:
448,192,48288,1,0,0:0:0:0:
320,192,48438,1,0,0:0:0:0:
192,192,48438,1,0,0:0:0:0:
448,192,48588,1,0,0:0:0:0:
320,192,48588,1,0,0:0:0:0:
192,192,48588,1,0,0:0:0:0:
64,192,48738,1,0,0:0:0:0:
192,192,48738,1,0,0:0:0:0:
64,192,48888,1,0,0:0:0:0:
192,192,48888,1,0,0:0:0:0:
320,192,48888,1,0,0:0:0:0:
448,192,49038,1,0,0:0:0:0:
320,192,49038,1,0,0:0:0:0:
192,192,49188,1,0,0:0:0:0:
320,192,49188,1,0,0:0:0:0:
448,192,49188,1,0,0:0:0:0:
320,192,49488,1,0,0:0:0:0:
192,192,49488,1,0,0:0:0:0:
64,192,49488,128,0,49563:0:0:0:0:
64,192,49788,128,0,49863:0:0:0:44:
192,192,49788,1,0,0:0:0:44:
320,192,49788,1,0,0:0:0:44:
64,192,50088,128,0,50163:0:0:0:44:
320,192,50088,1,0,0:0:0:44:
448,192,50088,1,0,0:0:0:44:
64,192,50388,128,0,50463:0:0:0:44:
192,192,50388,1,0,0:0:0:44:
320,192,50388,1,0,0:0:0:44:
64,192,50538,128,0,50613:0:0:0:44:
320,192,50538,1,0,0:0:0:44:
448,192,50538,1,0,0:0:0:44:
64,192,50838,128,0,50913:0:0:0:44:
192,192,50838,1,0,0:0:0:44:
320,192,50838,1,0,0:0:0:44:
64,192,50988,128,0,51063:0:0:0:44:
320,192,50988,1,0,0:0:0:44:
448,192,50988,1,0,0:0:0:44:
320,192,51138,1,0,0:0:0:66:
192,192,51138,128,0,51288:0:0:0:66:
64,192,51288,1,0,0:0:0:66:
320,192,51288,128,0,51438:0:0:0:66:
64,192,51438,1,0,0:0:0:44:
192,192,51438,1,0,0:0:0:44:
448,192,51438,128,0,51588:0:0:0:44:
320,192,51588,1,0,0:0:0:133:
192,192,51738,1,0,0:0:0:44:
64,192,51738,1,0,0:0:0:44:
448,192,51738,128,0,51813:0:0:0:44:
192,192,51888,1,0,0:0:0:44:
64,192,51888,1,0,0:0:0:44:
448,192,51888,128,0,51963:0:0:0:44:
192,192,52188,1,0,0:0:0:44:
64,192,52188,1,0,0:0:0:44:
448,192,52188,128,0,52263:0:0:0:0:
448,192,52488,128,0,52563:0:0:0:0:
192,192,52488,1,0,0:0:0:0:
64,192,52488,1,0,0:0:0:0:
448,192,52788,128,0,52863:0:0:0:44:
192,192,52788,1,0,0:0:0:44:
64,192,52788,1,0,0:0:0:44:
448,192,52938,128,0,53013:0:0:0:44:
192,192,52938,1,0,0:0:0:44:
64,192,52938,1,0,0:0:0:44:
448,192,53238,128,0,53313:0:0:0:44:
320,192,53238,1,0,0:0:0:44:
192,192,53238,1,0,0:0:0:44:
448,192,53388,128,0,53463:0:0:0:44:
192,192,53388,1,0,0:0:0:44:
64,192,53388,1,0,0:0:0:44:
320,192,53538,128,0,53613:0:0:0:44:
192,192,53538,1,0,0:0:0:44:
64,192,53538,1,0,0:0:0:44:
448,192,53688,128,0,53763:0:0:0:44:
192,192,53688,1,0,0:0:0:44:
64,192,53688,1,0,0:0:0:44:
448,192,53838,128,0,53913:0:0:0:44:
320,192,53838,1,0,0:0:0:44:
192,192,53838,1,0,0:0:0:44:
64,192,53988,1,0,0:0:0:0:
192,192,53988,1,0,0:0:0:0:
320,192,53988,1,0,0:0:0:0:
192,192,54288,1,0,0:0:0:66:
320,192,54288,1,0,0:0:0:66:
192,192,54438,1,0,0:0:0:66:
320,192,54438,1,0,0:0:0:66:
192,192,54588,1,0,0:0:0:33:
320,192,54588,1,0,0:0:0:33:
448,192,54588,1,0,0:0:0:33:
64,192,54588,1,0,0:0:0:33:
64,192,54738,1,0,0:0:0:66:
192,192,54738,1,0,0:0:0:66:
320,192,54888,1,0,0:0:0:66:
192,192,54888,1,0,0:0:0:66:
448,192,55038,1,0,0:0:0:66:
192,192,55038,1,0,0:0:0:66:
192,192,55188,1,0,0:0:0:33:
64,192,55188,1,0,0:0:0:33:
320,192,55188,1,0,0:0:0:33:
448,192,55188,1,0,0:0:0:33:
320,192,55338,1,0,0:0:0:66:
64,192,55338,1,0,0:0:0:66:
192,192,55488,1,0,0:0:0:66:
448,192,55488,1,0,0:0:0:66:
192,192,55638,1,0,0:0:0:66:
64,192,55638,1,0,0:0:0:66:
64,192,55788,1,0,0:0:0:33:
192,192,55788,1,0,0:0:0:33:
320,192,55788,1,0,0:0:0:33:
448,192,55788,1,0,0:0:0:33:
448,192,55938,1,0,0:0:0:66:
192,192,55938,1,0,0:0:0:66:
320,192,56088,1,0,0:0:0:66:
448,192,56088,1,0,0:0:0:66:
192,192,56238,1,0,0:0:0:66:
64,192,56238,1,0,0:0:0:66:
64,192,56388,1,0,0:0:0:33:
192,192,56388,1,0,0:0:0:33:
320,192,56388,1,0,0:0:0:33:
448,192,56388,1,0,0:0:0:33:
320,192,56538,1,0,0:0:0:0:
448,192,56538,1,0,0:0:0:0:
192,192,56613,1,0,0:0:0:0:
64,192,56613,1,0,0:0:0:0:
448,192,56688,1,0,0:0:0:0:
320,192,56688,1,0,0:0:0:0:
64,192,56763,1,0,0:0:0:0:
192,192,56763,1,0,0:0:0:0:
448,192,56838,1,0,0:0:0:66:
320,192,56838,1,0,0:0:0:0:
64,192,56913,1,0,0:0:0:0:
192,192,56913,1,0,0:0:0:0:
448,192,56988,1,0,0:0:0:0:
320,192,56988,1,0,0:0:0:0:
192,192,57063,1,0,0:0:0:0:
64,192,57063,1,0,0:0:0:0:
448,192,57138,1,0,0:0:0:0:
320,192,57138,1,0,0:0:0:0:
192,192,57213,1,0,0:0:0:0:
64,192,57213,1,0,0:0:0:0:
320,192,57288,1,0,0:0:0:133:
448,192,57288,1,0,0:0:0:0:
64,192,57363,1,0,0:0:0:133:
192,192,57363,1,0,0:0:0:0:
320,192,57438,1,0,0:0:0:133:
448,192,57438,1,0,0:0:0:0:
64,192,57513,1,0,0:0:0:133:
192,192,57513,1,0,0:0:0:0:
320,192,57588,1,0,0:0:0:133:
448,192,57588,1,0,0:0:0:0:
64,192,57663,1,0,0:0:0:0:
192,192,57663,1,0,0:0:0:0:
320,192,57738,1,0,0:0:0:0:
448,192,57738,1,0,0:0:0:0:
192,192,57813,1,0,0:0:0:0:
64,192,57813,1,0,0:0:0:0:
448,192,57888,128,0,58113:0:0:0:0:
64,192,57888,128,0,58113:0:0:0:0:
64,192,58188,128,0,58413:0:0:0:0:
448,192,58188,128,0,58413:0:0:0:0:
64,192,58488,128,0,58563:0:0:0:0:
448,192,58488,128,0,58563:0:0:0:0:
192,192,58488,128,0,58563:0:0:0:0:
320,192,58488,128,0,58563:0:0:0:0:
192,192,59088,1,0,0:0:0:0:
64,192,59088,1,0,0:0:0:0:
320,192,59088,1,0,0:0:0:0:
448,192,59088,1,0,0:0:0:0:
320,192,59388,1,0,0:0:0:0:
192,192,59388,1,0,0:0:0:0:
448,192,59388,1,0,0:0:0:0:
320,192,59538,1,0,0:0:0:0:
192,192,59538,1,0,0:0:0:0:
320,192,59688,1,0,0:0:0:0:
192,192,59688,1,0,0:0:0:0:
64,192,59688,1,0,0:0:0:0:
320,192,59838,1,0,0:0:0:0:
192,192,59838,1,0,0:0:0:0:
192,192,59988,1,0,0:0:0:0:
448,192,59988,1,0,0:0:0:0:
320,192,59988,1,0,0:0:0:0:
320,192,60138,1,0,0:0:0:0:
64,192,60138,1,0,0:0:0:0:
64,192,60288,1,0,0:0:0:0:
192,192,60288,1,0,0:0:0:0:
448,192,60288,1,0,0:0:0:0:
192,192,60438,1,0,0:0:0:0:
448,192,60438,1,0,0:0:0:0:
448,192,60588,1,0,0:0:0:0:
320,192,60588,1,0,0:0:0:0:
192,192,60588,1,0,0:0:0:0:
64,192,60588,128,0,60888:0:0:0:0:
320,192,60888,128,0,61188:0:0:0:0:
192,192,60888,128,0,61188:0:0:0:0:
448,192,61188,128,0,61488:0:0:0:0:
192,192,61488,1,0,0:0:0:0:
320,192,61488,1,0,0:0:0:0:
64,192,61488,1,0,0:0:0:0:
64,192,61788,1,0,0:0:0:0:
320,192,61788,1,0,0:0:0:0:
320,192,61938,1,0,0:0:0:0:
448,192,61938,1,0,0:0:0:0:
64,192,62088,1,0,0:0:0:0:
320,192,62088,1,0,0:0:0:0:
64,192,62238,1,0,0:0:0:0:
192,192,62238,1,0,0:0:0:0:
192,192,62388,1,0,0:0:0:0:
448,192,62388,1,0,0:0:0:0:
320,192,62538,1,0,0:0:0:0:
448,192,62538,1,0,0:0:0:0:
64,192,62688,1,0,0:0:0:0:
192,192,62688,1,0,0:0:0:0:
320,192,62688,1,0,0:0:0:0:
448,192,62688,128,0,62763:0:0:0:0:
192,192,63213,128,0,63288:0:0:0:0:
320,192,63213,128,0,63288:0:0:0:0:
448,192,63213,128,0,63438:0:0:0:0:
64,192,63213,128,0,63438:0:0:0:0:
64,192,63888,1,0,0:0:0:0:
192,192,63888,1,0,0:0:0:0:
320,192,63888,1,0,0:0:0:0:
64,192,64113,1,0,0:0:0:0:
192,192,64113,1,0,0:0:0:0:
320,192,64113,1,0,0:0:0:0:
64,192,64338,1,0,0:0:0:0:
192,192,64338,1,0,0:0:0:0:
320,192,64338,1,0,0:0:0:0:
64,192,64563,1,0,0:0:0:0:
320,192,64563,1,0,0:0:0:0:
64,192,64788,1,0,0:0:0:0:
192,192,64788,1,0,0:0:0:0:
320,192,64788,1,0,0:0:0:0:
448,192,64788,1,0,0:0:0:0:
448,192,65088,1,0,0:0:0:0:
320,192,65088,1,0,0:0:0:0:
192,192,65088,1,0,0:0:0:0:
192,192,65313,1,0,0:0:0:0:
320,192,65313,1,0,0:0:0:0:
448,192,65313,1,0,0:0:0:0:
448,192,65538,1,0,0:0:0:0:
320,192,65538,1,0,0:0:0:0:
192,192,65538,1,0,0:0:0:0:
192,192,65763,1,0,0:0:0:0:
448,192,65763,1,0,0:0:0:0:
448,192,65988,1,0,0:0:0:0:
320,192,65988,1,0,0:0:0:0:
192,192,65988,1,0,0:0:0:0:
64,192,65988,1,0,0:0:0:0:
64,192,66288,1,0,0:0:0:0:
192,192,66288,1,0,0:0:0:0:
448,192,66288,1,0,0:0:0:0:
320,192,66513,1,0,0:0:0:0:
448,192,66513,1,0,0:0:0:0:
64,192,66513,1,0,0:0:0:0:
64,192,66738,1,0,0:0:0:0:
192,192,66738,1,0,0:0:0:0:
448,192,66738,1,0,0:0:0:0:
192,192,66963,1,0,0:0:0:0:
320,192,66963,1,0,0:0:0:0:
64,192,67188,1,0,0:0:0:0:
192,192,67188,1,0,0:0:0:0:
448,192,67188,1,0,0:0:0:0:
320,192,67188,1,0,0:0:0:0:
64,192,67488,1,0,0:0:0:0:
192,192,67488,1,0,0:0:0:0:
320,192,67488,1,0,0:0:0:0:
448,192,67488,1,0,0:0:0:0:
64,192,67713,1,0,0:0:0:0:
192,192,67713,1,0,0:0:0:0:
320,192,67713,1,0,0:0:0:0:
320,192,67938,1,0,0:0:0:0:
448,192,67938,1,0,0:0:0:0:
64,192,67938,1,0,0:0:0:0:
192,192,68013,1,0,0:0:0:0:
320,192,68088,1,0,0:0:0:0:
64,192,68163,1,0,0:0:0:0:
192,192,68163,1,0,0:0:0:0:
320,192,68238,1,0,0:0:0:0:
192,192,68313,1,0,0:0:0:0:
64,192,68313,1,0,0:0:0:0:
448,192,68313,1,0,0:0:0:0:
320,192,68388,1,0,0:0:0:0:
320,192,68463,1,0,0:0:0:0:
192,192,68463,1,0,0:0:0:0:
192,192,68538,1,0,0:0:0:0:
320,192,68613,1,0,0:0:0:0:
64,192,68688,1,0,0:0:0:0:
448,192,68688,1,0,0:0:0:0:
192,192,68688,1,0,0:0:0:0:
192,192,68913,1,0,0:0:0:0:
320,192,68913,1,0,0:0:0:0:
448,192,68913,1,0,0:0:0:0:
320,192,69138,1,0,0:0:0:0:
448,192,69138,1,0,0:0:0:0:
64,192,69138,1,0,0:0:0:0:
320,192,69288,1,0,0:0:0:0:
192,192,69288,1,0,0:0:0:0:
64,192,69438,1,0,0:0:0:0:
192,192,69438,1,0,0:0:0:0:
64,192,69588,1,0,0:0:0:0:
192,192,69588,1,0,0:0:0:0:
320,192,69588,1,0,0:0:0:0:
448,192,69588,1,0,0:0:0:0:
64,192,69888,1,0,0:0:0:0:
192,192,69888,1,0,0:0:0:0:
448,192,69888,1,0,0:0:0:0:
64,192,70113,1,0,0:0:0:0:
192,192,70113,1,0,0:0:0:0:
320,192,70113,1,0,0:0:0:0:
192,192,70338,1,0,0:0:0:0:
320,192,70338,1,0,0:0:0:0:
448,192,70338,1,0,0:0:0:0:
192,192,70488,1,0,0:0:0:0:
320,192,70488,1,0,0:0:0:0:
64,192,70638,1,0,0:0:0:0:
448,192,70638,1,0,0:0:0:0:
448,192,70788,1,0,0:0:0:0:
320,192,70788,1,0,0:0:0:0:
192,192,70788,1,0,0:0:0:0:
64,192,70788,1,0,0:0:0:0:
320,192,70938,1,0,0:0:0:0:
192,192,70938,1,0,0:0:0:0:
64,192,71088,1,0,0:0:0:0:
192,192,71125,1,0,0:0:0:0:
448,192,71163,1,0,0:0:0:0:
320,192,71200,1,0,0:0:0:0:
64,192,71238,1,0,0:0:0:0:
192,192,71275,1,0,0:0:0:0:
448,192,71313,1,0,0:0:0:0:
320,192,71350,1,0,0:0:0:0:
64,192,71388,1,0,0:0:0:0:
192,192,71425,1,0,0:0:0:0:
448,192,71463,1,0,0:0:0:0:
320,192,71500,1,0,0:0:0:0:
64,192,71538,1,0,0:0:0:0:
192,192,71575,1,0,0:0:0:0:
448,192,71613,1,0,0:0:0:0:
320,192,71650,1,0,0:0:0:0:
64,192,71688,1,0,0:0:0:0:
192,192,71725,1,0,0:0:0:0:
448,192,71763,1,0,0:0:0:0:
320,192,71800,1,0,0:0:0:0:
64,192,71838,1,0,0:0:0:0:
192,192,71875,1,0,0:0:0:0:
448,192,71913,1,0,0:0:0:0:
320,192,71950,1,0,0:0:0:0:
64,192,71988,1,0,0:0:0:0:
192,192,72025,1,0,0:0:0:0:
448,192,72063,1,0,0:0:0:0:
320,192,72100,1,0,0:0:0:0:
64,192,72138,1,0,0:0:0:0:
192,192,72175,1,0,0:0:0:0:
64,192,72288,1,0,0:0:0:0:
448,192,72288,1,0,0:0:0:0:
192,192,72288,128,0,72513:0:0:0:0:
64,192,72513,1,0,0:0:0:0:
448,192,72513,1,0,0:0:0:0:
320,192,72513,128,0,72738:0:0:0:0:
64,192,72738,1,0,0:0:0:0:
448,192,72738,1,0,0:0:0:0:
192,192,72738,128,0,72813:0:0:0:0:
320,192,72813,128,0,72888:0:0:0:0:
192,192,72888,128,0,72963:0:0:0:0:
320,192,72963,128,0,73038:0:0:0:0:
192,192,73038,128,0,73113:0:0:0:0:
320,192,73113,128,0,73188:0:0:0:0:
192,192,73188,128,0,73263:0:0:0:0:
320,192,73263,128,0,73338:0:0:0:0:
192,192,73338,128,0,73413:0:0:0:0:
64,192,73413,1,0,0:0:0:0:
448,192,73413,1,0,0:0:0:0:
448,192,73488,128,0,73563:0:0:0:0:
64,192,73488,128,0,73638:0:0:0:0:
448,192,73713,128,0,73863:0:0:0:0:
64,192,73713,128,0,73788:0:0:0:0:
448,192,73938,128,0,74088:0:0:0:0:
64,192,73938,128,0,74088:0:0:0:0:
192,192,74088,128,0,74238:0:0:0:0:
320,192,74088,128,0,74238:0:0:0:0:
448,192,74238,128,0,74313:0:0:0:0:
64,192,74238,128,0,74388:0:0:0:0:
192,192,74388,128,0,74463:0:0:0:0:
64,192,74538,1,0,0:0:0:0:
192,192,74538,1,0,0:0:0:0:
320,192,74538,1,0,0:0:0:0:
320,192,74613,128,0,74763:0:0:0:0:
320,192,74838,128,0,74913:0:0:0:0:
192,192,74913,128,0,74988:0:0:0:0:
64,192,74988,128,0,75138:0:0:0:0:
448,192,74988,128,0,75063:0:0:0:0:
320,192,75138,128,0,75288:0:0:0:0:
192,192,75138,128,0,75213:0:0:0:0:
64,192,75288,128,0,75438:0:0:0:0:
448,192,75288,128,0,75438:0:0:0:0:
192,192,75438,128,0,75588:0:0:0:0:
320,192,75438,128,0,75588:0:0:0:0:
64,192,75588,1,0,0:0:0:0:
448,192,75588,1,0,0:0:0:0:
192,192,75888,128,0,76038:0:0:0:0:
448,192,75888,128,0,75963:0:0:0:0:
64,192,76113,128,0,76188:0:0:0:0:
320,192,76113,128,0,76263:0:0:0:0:
192,192,76338,128,0,76488:0:0:0:0:
320,192,76338,128,0,76488:0:0:0:0:
64,192,76488,128,0,76638:0:0:0:0:
448,192,76488,128,0,76563:0:0:0:0:
448,192,76638,128,0,76788:0:0:0:0:
320,192,76638,128,0,76713:0:0:0:0:
192,192,76788,128,0,76938:0:0:0:0:
64,192,76788,128,0,76938:0:0:0:0:
320,192,76938,1,0,0:0:0:0:
448,192,76938,1,0,0:0:0:0:
192,192,77088,128,0,77238:0:0:0:0:
448,192,77088,128,0,77163:0:0:0:0:
192,192,77313,128,0,77463:0:0:0:0:
320,192,77313,128,0,77388:0:0:0:0:
448,192,77538,128,0,77688:0:0:0:0:
64,192,77538,128,0,77688:0:0:0:0:
320,192,77763,128,0,77913:0:0:0:0:
192,192,77763,128,0,77838:0:0:0:0:
192,192,77988,128,0,78063:0:0:0:0:
64,192,77988,128,0,78063:0:0:0:0:
320,192,77988,128,0,78063:0:0:0:0:
448,192,77988,128,0,78063:0:0:0:0:
64,192,78213,128,0,78588:0:0:0:0:
192,192,78588,128,0,78738:0:0:0:0:
320,192,78738,128,0,78888:0:0:0:0:
448,192,78888,128,0,79038:0:0:0:0:
192,192,78888,128,0,79038:0:0:0:0:
64,192,79038,128,0,79188:0:0:0:0:
320,192,79038,128,0,79188:0:0:0:0:
192,192,79188,128,0,79338:0:0:0:0:
448,192,79188,128,0,79338:0:0:0:0:
320,192,79338,128,0,79488:0:0:0:0:
192,192,79488,128,0,79638:0:0:0:0:
64,192,79638,128,0,79788:0:0:0:0:
320,192,79788,128,0,79938:0:0:0:0:
448,192,79788,128,0,79938:0:0:0:0:
64,192,79938,128,0,80088:0:0:0:0:
192,192,79938,128,0,80088:0:0:0:0:
320,192,80088,128,0,80238:0:0:0:0:
448,192,80088,128,0,80238:0:0:0:0:
64,192,80238,128,0,80388:0:0:0:0:
192,192,80238,128,0,80388:0:0:0:0:
320,192,80388,128,0,80688:0:0:0:0:
448,192,80688,1,0,0:0:0:0:
64,192,80763,1,0,0:0:0:0:
192,192,80763,1,0,0:0:0:0:
320,192,80838,1,0,0:0:0:0:
448,192,80838,1,0,0:0:0:0:
192,192,80913,1,0,0:0:0:0:
64,192,80913,1,0,0:0:0:0:
320,192,80988,1,0,0:0:0:0:
448,192,80988,1,0,0:0:0:0:
192,192,81063,1,0,0:0:0:0:
64,192,81063,1,0,0:0:0:0:
320,192,81138,1,0,0:0:0:0:
448,192,81138,1,0,0:0:0:0:
192,192,81213,1,0,0:0:0:0:
64,192,81213,1,0,0:0:0:0:
320,192,81288,1,0,0:0:0:0:
448,192,81288,1,0,0:0:0:0:
192,192,81363,1,0,0:0:0:0:
64,192,81363,1,0,0:0:0:0:
320,192,81438,1,0,0:0:0:0:
448,192,81438,1,0,0:0:0:0:
192,192,81513,1,0,0:0:0:0:
64,192,81513,1,0,0:0:0:0:
320,192,81588,1,0,0:0:0:0:
448,192,81588,1,0,0:0:0:0:
192,192,81663,1,0,0:0:0:0:
64,192,81663,1,0,0:0:0:0:
320,192,81738,1,0,0:0:0:0:
448,192,81738,1,0,0:0:0:0:
64,192,81888,128,0,82863:0:0:0:0:
192,192,81888,128,0,82638:0:0:0:0:
320,192,81888,128,0,82413:0:0:0:0:
448,192,81888,128,0,82263:0:0:0:0:
64,192,83088,1,0,0:0:0:0:
448,192,83088,128,0,83538:0:0:0:0:
192,192,83538,128,0,83988:0:0:0:0:
320,192,83988,128,0,84138:0:0:0:0:
192,192,84288,1,0,0:0:0:0:
320,192,84363,1,0,0:0:0:0:
192,192,84438,1,0,0:0:0:0:
64,192,84513,1,0,0:0:0:0:
192,192,84588,1,0,0:0:0:0:
320,192,84663,1,0,0:0:0:0:
192,192,84738,1,0,0:0:0:0:
64,192,84813,1,0,0:0:0:0:
192,192,84888,1,0,0:0:0:0:
320,192,84963,1,0,0:0:0:0:
192,192,85038,1,0,0:0:0:0:
64,192,85113,1,0,0:0:0:0:
192,192,85188,1,0,0:0:0:0:
64,192,85263,1,0,0:0:0:0:
192,192,85338,1,0,0:0:0:0:
320,192,85413,1,0,0:0:0:0:
448,192,85488,1,0,0:0:0:0:
448,192,85563,128,0,85938:0:0:0:0:
320,192,85938,128,0,86388:0:0:0:0:
192,192,86388,128,0,86463:0:0:0:0:
64,192,86463,1,0,0:0:0:0:
64,192,86613,1,0,0:0:0:0:
192,192,86688,1,0,0:0:0:0:
320,192,86763,1,0,0:0:0:0:
448,192,86838,1,0,0:0:0:0:
320,192,86988,1,0,0:0:0:0:
192,192,87063,1,0,0:0:0:0:
64,192,87138,1,0,0:0:0:0:
192,192,87288,1,0,0:0:0:0:
320,192,87363,1,0,0:0:0:0:
192,192,87438,1,0,0:0:0:0:
64,192,87513,1,0,0:0:0:0:
192,192,87588,1,0,0:0:0:0:
320,192,87663,1,0,0:0:0:0:
64,192,87738,1,0,0:0:0:0:
192,192,87813,1,0,0:0:0:0:
320,192,87888,1,0,0:0:0:0:
448,192,87888,128,0,88188:0:0:0:0:
64,192,87888,128,0,88188:0:0:0:0:
320,192,88188,1,8,0:0:0:0:
192,192,88188,1,0,0:0:0:0:
320,192,88263,128,0,88713:0:0:0:0:
64,192,88338,1,0,0:0:0:0:
192,192,88413,1,0,0:0:0:0:
448,192,88488,1,0,0:0:0:0:
320,192,88788,1,8,0:0:0:0:
192,192,88788,1,0,0:0:0:0:
192,192,88863,128,0,89313:0:0:0:0:
448,192,88938,1,0,0:0:0:0:
320,192,89013,1,0,0:0:0:0:
64,192,89088,1,0,0:0:0:0:
192,192,89388,1,8,0:0:0:0:
320,192,89388,1,0,0:0:0:0:
64,192,89463,128,0,89913:0:0:0:0:
448,192,89538,1,0,0:0:0:0:
320,192,89613,1,0,0:0:0:0:
192,192,89688,1,0,0:0:0:0:
448,192,89988,128,0,90213:0:0:0:0:
64,192,89988,128,8,90213:0:0:0:0:
192,192,90288,1,0,0:0:0:0:
320,192,90288,1,0,0:0:0:0:
320,192,90363,128,0,90513:0:0:0:0:
192,192,90363,128,0,90513:0:0:0:0:
64,192,90588,1,0,0:0:0:0:
448,192,90588,1,0,0:0:0:0:
192,192,90663,128,0,91113:0:0:0:0:
320,192,90663,128,0,91113:0:0:0:0:
192,192,91188,1,0,0:0:0:0:
320,192,91188,1,0,0:0:0:0:
192,192,91263,128,0,92313:0:0:0:0:
64,192,91263,128,0,92013:0:0:0:0:
448,192,91263,128,0,92313:0:0:0:0:
320,192,91263,128,0,92013:0:0:0:0:
64,192,92088,128,0,92613:0:0:0:0:
320,192,92088,128,0,92613:0:0:0:0:
192,192,92388,128,0,92613:0:0:0:0:
448,192,92388,128,0,92613:0:0:0:0:
320,192,92688,1,0,0:0:0:0:
192,192,92688,1,0,0:0:0:0:
448,192,92688,1,0,0:0:0:0:
64,192,92688,128,0,95088:0:0:0:0:
192,192,92838,1,0,0:0:0:0:
320,192,92988,1,0,0:0:0:0:
448,192,92988,1,0,0:0:0:0:
192,192,93138,1,0,0:0:0:0:
192,192,93288,1,0,0:0:0:0:
320,192,93288,1,0,0:0:0:0:
448,192,93288,1,0,0:0:0:0:
320,192,93438,1,0,0:0:0:0:
192,192,93588,1,0,0:0:0:0:
448,192,93588,1,0,0:0:0:0:
448,192,93738,1,0,0:0:0:0:
320,192,93888,1,0,0:0:0:0:
192,192,94038,1,0,0:0:0:0:
192,192,94188,1,0,0:0:0:0:
320,192,94188,1,0,0:0:0:0:
448,192,94188,1,0,0:0:0:0:
320,192,94338,1,0,0:0:0:0:
192,192,94488,1,0,0:0:0:0:
320,192,94488,1,0,0:0:0:0:
448,192,94488,1,0,0:0:0:0:
192,192,94638,1,0,0:0:0:0:
320,192,94788,1,0,0:0:0:0:
448,192,94938,1,0,0:0:0:0:
192,192,95088,1,0,0:0:0:0:
320,192,95088,1,0,0:0:0:0:
448,192,95088,128,0,96288:0:0:0:0:
192,192,95238,1,0,0:0:0:0:
64,192,95388,1,0,0:0:0:0:
320,192,95388,1,0,0:0:0:0:
192,192,95538,1,0,0:0:0:0:
320,192,95688,1,0,0:0:0:0:
192,192,95688,1,0,0:0:0:0:
64,192,95688,1,0,0:0:0:0:
320,192,95838,1,0,0:0:0:0:
64,192,95988,1,0,0:0:0:0:
192,192,95988,1,0,0:0:0:0:
320,192,96138,1,0,0:0:0:0:
192,192,96288,1,0,0:0:0:0:
64,192,96288,1,0,0:0:0:0:
320,192,96288,128,0,96438:0:0:0:0:
448,192,96438,1,0,0:0:0:0:
192,192,96438,128,0,96738:0:0:0:0:
320,192,96588,1,0,0:0:0:0:
320,192,96738,1,0,0:0:0:0:
64,192,96738,1,0,0:0:0:0:
448,192,96738,128,0,97038:0:0:0:0:
192,192,96888,1,0,0:0:0:0:
320,192,97038,1,0,0:0:0:0:
64,192,97038,1,0,0:0:0:0:
192,192,97038,128,0,97188:0:0:0:0:
64,192,97188,1,0,0:0:0:0:
320,192,97188,1,0,0:0:0:0:
448,192,97188,128,0,97488:0:0:0:0:
192,192,97488,1,0,0:0:0:0:
64,192,97488,1,0,0:0:0:0:
320,192,97488,128,0,99288:0:0:0:0:
192,192,97638,1,0,0:0:0:0:
64,192,97788,1,0,0:0:0:0:
448,192,97788,1,0,0:0:0:0:
192,192,97938,1,0,0:0:0:0:
64,192,98088,1,0,0:0:0:0:
192,192,98088,1,0,0:0:0:0:
448,192,98088,1,0,0:0:0:0:
192,192,98238,1,0,0:0:0:0:
448,192,98388,1,0,0:0:0:0:
64,192,98388,1,0,0:0:0:0:
192,192,98538,1,0,0:0:0:0:
64,192,98688,1,0,0:0:0:0:
192,192,98838,1,0,0:0:0:0:
192,192,98988,1,0,0:0:0:0:
64,192,98988,1,0,0:0:0:0:
448,192,98988,1,0,0:0:0:0:
64,192,99138,1,0,0:0:0:0:
64,192,99288,1,0,0:0:0:0:
448,192,99288,1,0,0:0:0:0:
192,192,99288,128,0,99888:0:0:0:0:
64,192,99438,1,0,0:0:0:0:
320,192,99588,1,0,0:0:0:0:
448,192,99738,1,0,0:0:0:0:
64,192,99888,1,0,0:0:0:0:
448,192,99888,1,0,0:0:0:0:
320,192,99888,128,0,100338:0:0:0:0:
192,192,100038,1,0,0:0:0:0:
64,192,100188,1,0,0:0:0:0:
448,192,100338,1,0,0:0:0:0:
192,192,100338,128,0,100713:0:0:0:0:
320,192,100488,1,0,0:0:0:0:
64,192,100638,1,0,0:0:0:0:
320,192,100713,128,0,101088:0:0:0:0:
64,192,100788,1,0,0:0:0:0:
192,192,100938,1,0,0:0:0:0:
448,192,101088,1,0,0:0:0:0:
64,192,101088,1,0,0:0:0:0:
192,192,101088,128,0,101388:0:0:0:0:
448,192,101388,1,0,0:0:0:0:
64,192,101388,128,0,101538:0:0:0:0:
320,192,101388,128,0,101538:0:0:0:0:
192,192,101538,128,0,101988:0:0:0:0:
320,192,101688,1,0,0:0:0:0:
64,192,101838,1,0,0:0:0:0:
448,192,101988,1,0,0:0:0:0:
320,192,101988,128,0,102288:0:0:0:0:
448,192,102288,1,0,0:0:0:0:
64,192,102288,1,0,0:0:0:0:
192,192,102288,128,0,102888:0:0:0:0:
64,192,102888,1,0,0:0:0:0:
448,192,102888,1,0,0:0:0:0:
320,192,102888,1,0,0:0:0:0:
192,192,103038,1,0,0:0:0:0:
64,192,103188,1,0,0:0:0:0:
192,192,103188,1,0,0:0:0:0:
448,192,103188,1,0,0:0:0:0:
320,192,103188,128,0,103263:0:0:0:0:
192,192,103338,1,0,0:0:0:0:
320,192,103338,128,0,103788:0:0:0:0:
64,192,103488,1,0,0:0:0:0:
192,192,103638,1,0,0:0:0:0:
64,192,103788,1,0,0:0:0:0:
448,192,103788,1,0,0:0:0:0:
192,192,103788,128,0,104088:0:0:0:0:
448,192,103938,1,0,0:0:0:0:
448,192,104088,1,0,0:0:0:0:
320,192,104088,128,0,104238:0:0:0:0:
64,192,104238,128,0,104388:0:0:0:0:
448,192,104388,1,0,0:0:0:0:
192,192,104388,128,0,104538:0:0:0:0:
448,192,104538,1,0,0:0:0:0:
320,192,104538,128,0,104688:0:0:0:0:
192,192,104688,1,0,0:0:0:0:
64,192,104688,1,0,0:0:0:0:
448,192,104688,128,0,104988:0:0:0:0:
192,192,104838,1,0,0:0:0:0:
192,192,104988,1,0,0:0:0:0:
64,192,104988,1,0,0:0:0:0:
320,192,104988,128,0,105288:0:0:0:0:
192,192,105138,1,0,0:0:0:0:
64,192,105288,1,0,0:0:0:0:
192,192,105288,128,0,105438:0:0:0:0:
448,192,105438,1,0,0:0:0:0:
64,192,105438,128,0,105738:0:0:0:0:
320,192,105588,1,0,0:0:0:0:
192,192,105738,1,0,0:0:0:0:
320,192,105738,1,0,0:0:0:0:
448,192,105738,128,0,106788:0:0:0:0:
192,192,105888,1,0,0:0:0:0:
64,192,106038,1,0,0:0:0:0:
64,192,106188,1,0,0:0:0:0:
192,192,106188,1,0,0:0:0:0:
320,192,106188,1,0,0:0:0:0:
320,192,106338,1,0,0:0:0:0:
64,192,106488,1,0,0:0:0:0:
192,192,106488,1,0,0:0:0:0:
320,192,106488,1,0,0:0:0:0:
192,192,106638,1,0,0:0:0:0:
64,192,106788,1,0,0:0:0:0:
64,192,106938,128,0,107013:0:0:0:0:
448,192,106938,128,0,107013:0:0:0:0:
320,192,107088,1,0,0:0:0:0:
192,192,107088,1,0,0:0:0:0:
448,192,107088,128,0,107163:0:0:0:0:
64,192,107088,128,0,107163:0:0:0:0:
192,192,107238,1,0,0:0:0:0:
192,192,107388,1,0,0:0:0:0:
320,192,107388,1,0,0:0:0:0:
64,192,107388,128,0,107463:0:0:0:0:
320,192,107538,1,0,0:0:0:0:
320,192,107688,1,0,0:0:0:0:
192,192,107688,128,0,107763:0:0:0:0:
448,192,107688,1,0,0:0:0:0:
448,192,107838,1,0,0:0:0:0:
320,192,107988,128,0,108063:0:0:0:0:
448,192,107988,1,0,0:0:0:0:
64,192,107988,1,0,0:0:0:0:
64,192,108138,1,0,0:0:0:0:
192,192,108288,1,0,0:0:0:0:
320,192,108288,1,0,0:0:0:0:
448,192,108288,128,0,108363:0:0:0:0:
448,192,108438,1,0,0:0:0:0:
64,192,108588,1,0,0:0:0:0:
320,192,108588,1,0,0:0:0:0:
192,192,108588,128,0,108663:0:0:0:0:
320,192,108738,1,0,0:0:0:0:
64,192,108813,128,0,108888:0:0:0:0:
448,192,108888,1,0,0:0:0:0:
320,192,108888,1,0,0:0:0:0:
192,192,108888,1,0,0:0:0:0:
64,192,108963,128,0,109188:0:0:0:0:
320,192,109038,1,0,0:0:0:0:
192,192,109188,128,0,109338:0:0:0:0:
320,192,109338,128,0,109488:0:0:0:0:
192,192,109488,1,0,0:0:0:0:
64,192,109488,1,0,0:0:0:0:
448,192,109488,128,0,109638:0:0:0:0:
320,192,109638,128,0,109788:0:0:0:0:
192,192,109788,128,0,109938:0:0:0:0:
320,192,109938,128,0,110088:0:0:0:0:
64,192,110088,128,0,110238:0:0:0:0:
448,192,110088,128,0,110238:0:0:0:0:
320,192,110238,128,0,110388:0:0:0:0:
192,192,110238,128,0,110388:0:0:0:0:
64,192,110388,128,0,110538:0:0:0:0:
448,192,110388,128,0,110538:0:0:0:0:
192,192,110538,128,0,110613:0:0:0:0:
320,192,110538,128,0,110613:0:0:0:0:
64,192,110688,1,0,0:0:0:0:
448,192,110688,1,0,0:0:0:0:
192,192,110763,1,0,0:0:0:0:
320,192,110763,1,0,0:0:0:0:
64,192,110838,1,0,0:0:0:0:
448,192,110838,1,0,0:0:0:0:
320,192,110913,1,0,0:0:0:0:
192,192,110913,1,0,0:0:0:0:
64,192,110988,1,0,0:0:0:0:
448,192,110988,1,0,0:0:0:0:
320,192,111063,1,0,0:0:0:0:
192,192,111063,1,0,0:0:0:0:
64,192,111138,1,0,0:0:0:0:
448,192,111138,1,0,0:0:0:0:
320,192,111213,1,0,0:0:0:0:
192,192,111213,1,0,0:0:0:0:
448,192,111288,128,0,111738:0:0:0:0:
192,192,111288,128,0,111588:0:0:0:0:
64,192,111288,128,0,111513:0:0:0:0:
320,192,111288,128,0,111663:0:0:0:0:
64,192,111588,128,0,112413:0:0:0:0:
192,192,111663,128,0,113988:0:0:0:0:
320,192,111738,128,0,111813:0:0:0:0:
448,192,111813,128,0,112413:0:0:0:0:
320,192,111888,128,0,113013:0:0:0:0:
448,192,112488,128,0,114138:0:0:0:0:
64,192,112488,128,0,113913:0:0:0:0:
320,192,113088,128,0,114063:0:0:0:0:
64,192,113988,128,0,116013:0:0:0:0:
192,192,114063,128,0,115413:0:0:0:0:
320,192,114138,128,0,114213:0:0:0:0:
448,192,114213,128,0,116613:0:0:0:0:
320,192,114288,128,0,114813:0:0:0:0:
320,192,114888,128,0,117588:0:0:0:0:
192,192,115488,128,0,117513:0:0:0:0:
64,192,116088,128,0,117663:0:0:0:0:
448,192,116688,128,0,117738:0:0:0:0:
192,192,117588,128,0,117813:0:0:0:0:
320,192,117663,128,0,118413:0:0:0:0:
64,192,117738,128,0,120213:0:0:0:0:
448,192,117813,128,0,120213:0:0:0:0:
192,192,117888,128,0,119013:0:0:0:0:
320,192,118488,128,0,120813:0:0:0:0:
192,192,119088,128,0,120813:0:0:0:0:
64,192,120288,128,0,121413:0:0:0:0:
448,192,120288,128,0,121413:0:0:0:0:
192,192,120888,128,0,121413:0:0:0:0:
320,192,120888,128,0,121413:0:0:0:0:
320,192,121488,1,0,0:0:0:0:
64,192,121488,128,0,122388:0:0:0:0:
320,192,121638,1,0,0:0:0:0:
448,192,121788,1,0,0:0:0:0:
320,192,121938,1,0,0:0:0:0:
192,192,122088,1,0,0:0:0:0:
320,192,122088,1,0,0:0:0:0:
448,192,122088,1,0,0:0:0:0:
320,192,122238,1,0,0:0:0:0:
192,192,122388,1,0,0:0:0:0:
320,192,122388,1,0,0:0:0:0:
448,192,122388,128,0,123588:0:0:0:0:
192,192,122538,1,0,0:0:0:0:
64,192,122688,1,0,0:0:0:0:
320,192,122838,1,0,0:0:0:0:
192,192,122988,1,0,0:0:0:0:
64,192,122988,1,0,0:0:0:0:
320,192,122988,1,0,0:0:0:0:
64,192,123138,1,0,0:0:0:0:
320,192,123288,1,0,0:0:0:0:
192,192,123438,1,0,0:0:0:0:
64,192,123588,1,0,0:0:0:0:
320,192,123663,1,0,0:0:0:0:
192,192,123738,1,0,0:0:0:0:
320,192,123813,1,0,0:0:0:0:
448,192,123813,1,0,0:0:0:0:
64,192,123813,128,0,124488:0:0:0:0:
448,192,123888,1,0,0:0:0:0:
320,192,123963,1,0,0:0:0:0:
192,192,124038,1,0,0:0:0:0:
448,192,124113,1,0,0:0:0:0:
320,192,124188,1,0,0:0:0:0:
192,192,124263,1,0,0:0:0:0:
448,192,124338,1,0,0:0:0:0:
320,192,124413,1,0,0:0:0:0:
192,192,124488,1,0,0:0:0:0:
448,192,124488,128,0,125088:0:0:0:0:
64,192,124563,1,0,0:0:0:0:
192,192,124638,1,0,0:0:0:0:
64,192,124713,1,0,0:0:0:0:
192,192,124788,1,0,0:0:0:0:
320,192,124863,1,0,0:0:0:0:
64,192,124938,1,0,0:0:0:0:
192,192,125013,1,0,0:0:0:0:
320,192,125088,1,0,0:0:0:0:
64,192,125088,128,0,125688:0:0:0:0:
192,192,125163,1,0,0:0:0:0:
320,192,125238,1,0,0:0:0:0:
192,192,125313,1,0,0:0:0:0:
448,192,125388,1,0,0:0:0:0:
320,192,125463,1,0,0:0:0:0:
448,192,125538,1,0,0:0:0:0:
320,192,125613,1,0,0:0:0:0:
192,192,125688,1,0,0:0:0:0:
448,192,125688,128,0,126288:0:0:0:0:
192,192,125763,1,0,0:0:0:0:
64,192,125838,1,0,0:0:0:0:
192,192,125913,1,0,0:0:0:0:
320,192,125988,1,0,0:0:0:0:
192,192,126063,1,0,0:0:0:0:
64,192,126138,1,0,0:0:0:0:
192,192,126213,1,0,0:0:0:0:
64,192,126288,1,0,0:0:0:0:
320,192,126288,128,0,128688:0:0:0:0:
192,192,126438,1,0,0:0:0:0:
64,192,126588,1,0,0:0:0:0:
192,192,126588,1,0,0:0:0:0:
448,192,126588,1,0,0:0:0:0:
64,192,126738,1,0,0:0:0:0:
448,192,126888,1,0,0:0:0:0:
192,192,126888,1,0,0:0:0:0:
64,192,126888,1,0,0:0:0:0:
448,192,127038,1,0,0:0:0:0:
64,192,127188,1,0,0:0:0:0:
192,192,127188,1,0,0:0:0:0:
448,192,127188,1,0,0:0:0:0:
192,192,127338,1,0,0:0:0:0:
448,192,127488,1,0,0:0:0:0:
64,192,127488,1,0,0:0:0:0:
192,192,127488,1,0,0:0:0:0:
64,192,127638,1,0,0:0:0:0:
64,192,127788,1,0,0:0:0:0:
448,192,127788,1,0,0:0:0:0:
192,192,127788,1,0,0:0:0:0:
192,192,127938,1,0,0:0:0:0:
448,192,128088,1,0,0:0:0:0:
192,192,128088,1,0,0:0:0:0:
64,192,128088,1,0,0:0:0:0:
448,192,128238,1,0,0:0:0:0:
64,192,128388,1,0,0:0:0:0:
192,192,128388,1,0,0:0:0:0:
448,192,128388,1,0,0:0:0:0:
192,192,128538,1,0,0:0:0:0:
448,192,128688,1,0,0:0:0:0:
64,192,128688,1,0,0:0:0:0:
320,192,128763,1,0,0:0:0:0:
64,192,128838,1,0,0:0:0:0:
192,192,128838,1,0,0:0:0:0:
192,192,128913,1,0,0:0:0:0:
448,192,128988,1,0,0:0:0:0:
320,192,128988,1,0,0:0:0:0:
448,192,129063,1,0,0:0:0:0:
64,192,129138,1,0,0:0:0:0:
192,192,129138,1,0,0:0:0:0:
64,192,129213,1,0,0:0:0:0:
448,192,129288,1,0,0:0:0:0:
320,192,129325,1,0,0:0:0:0:
192,192,129363,1,0,0:0:0:0:
64,192,129400,1,0,0:0:0:0:
448,192,129438,1,0,0:0:0:0:
320,192,129475,1,0,0:0:0:0:
192,192,129513,1,0,0:0:0:0:
64,192,129550,1,0,0:0:0:0:
448,192,129588,1,0,0:0:0:0:
320,192,129625,1,0,0:0:0:0:
192,192,129663,1,0,0:0:0:0:
64,192,129700,1,0,0:0:0:0:
448,192,129738,1,0,0:0:0:0:
320,192,129775,1,0,0:0:0:0:
192,192,129813,1,0,0:0:0:0:
64,192,129850,1,0,0:0:0:0:
448,192,129888,1,0,0:0:0:0:
320,192,129888,1,0,0:0:0:0:
320,192,130113,1,0,0:0:0:0:
448,192,130113,1,0,0:0:0:0:
320,192,130338,1,0,0:0:0:0:
448,192,130338,1,0,0:0:0:0:
320,192,130563,1,0,0:0:0:0:
448,192,130563,1,0,0:0:0:0:
64,192,130563,128,0,130600:0:0:0:0:
192,192,130600,128,0,130638:0:0:0:0:
320,192,130638,128,0,130675:0:0:0:0:
448,192,130675,128,0,130713:0:0:0:0:
64,192,130713,128,0,130750:0:0:0:0:
192,192,130750,128,0,130788:0:0:0:0:
320,192,130788,128,0,130825:0:0:0:0:
448,192,130825,128,0,130863:0:0:0:0:
64,192,130863,128,0,130900:0:0:0:0:
192,192,130900,128,0,130938:0:0:0:0:
320,192,130938,128,0,130975:0:0:0:0:
448,192,130975,128,0,131013:0:0:0:0:
64,192,131013,128,0,131050:0:0:0:0:
192,192,131088,1,0,0:0:0:0:
448,192,131088,1,0,0:0:0:0:
320,192,131163,1,0,0:0:0:0:
192,192,131238,1,0,0:0:0:0:
64,192,131238,1,0,0:0:0:0:
320,192,131313,1,0,0:0:0:0:
448,192,131388,1,0,0:0:0:0:
64,192,131388,1,0,0:0:0:0:
192,192,131463,1,0,0:0:0:0:
320,192,131538,1,0,0:0:0:0:
448,192,131538,1,0,0:0:0:0:
192,192,131613,1,0,0:0:0:0:
320,192,131688,1,0,0:0:0:0:
64,192,131763,1,0,0:0:0:0:
192,192,131838,1,0,0:0:0:0:
448,192,131838,1,0,0:0:0:0:
64,192,131913,1,0,0:0:0:0:
192,192,131988,1,0,0:0:0:0:
320,192,131988,1,0,0:0:0:0:
448,192,131988,1,0,0:0:0:0:
64,192,132063,1,0,0:0:0:0:
320,192,132138,1,0,0:0:0:0:
192,192,132213,1,0,0:0:0:0:
320,192,132288,1,0,0:0:0:0:
448,192,132288,1,0,0:0:0:0:
192,192,132363,1,0,0:0:0:0:
64,192,132438,1,0,0:0:0:0:
192,192,132513,1,0,0:0:0:0:
320,192,132513,1,0,0:0:0:0:
448,192,132588,1,0,0:0:0:0:
320,192,132663,1,0,0:0:0:0:
192,192,132738,1,0,0:0:0:0:
64,192,132738,1,0,0:0:0:0:
448,192,132738,1,0,0:0:0:0:
320,192,132813,1,0,0:0:0:0:
192,192,132888,1,0,0:0:0:0:
448,192,132963,1,0,0:0:0:0:
192,192,133038,1,0,0:0:0:0:
320,192,133038,1,0,0:0:0:0:
64,192,133113,1,0,0:0:0:0:
192,192,133188,1,0,0:0:0:0:
320,192,133188,1,0,0:0:0:0:
448,192,133188,1,0,0:0:0:0:
64,192,133263,1,0,0:0:0:0:
192,192,133338,1,0,0:0:0:0:
320,192,133413,1,0,0:0:0:0:
448,192,133488,1,0,0:0:0:0:
192,192,133488,1,0,0:0:0:0:
320,192,133563,1,0,0:0:0:0:
448,192,133638,1,0,0:0:0:0:
64,192,133713,1,0,0:0:0:0:
320,192,133788,1,0,0:0:0:0:
192,192,133788,1,0,0:0:0:0:
448,192,133863,1,0,0:0:0:0:
320,192,133938,1,0,0:0:0:0:
192,192,133938,1,0,0:0:0:0:
64,192,133938,1,0,0:0:0:0:
448,192,134013,1,0,0:0:0:0:
64,192,134088,1,0,0:0:0:0:
320,192,134163,1,0,0:0:0:0:
192,192,134238,1,0,0:0:0:0:
448,192,134238,1,0,0:0:0:0:
320,192,134313,1,0,0:0:0:0:
64,192,134388,1,0,0:0:0:0:
192,192,134388,1,0,0:0:0:0:
448,192,134388,1,0,0:0:0:0:
320,192,134463,1,0,0:0:0:0:
64,192,134538,1,0,0:0:0:0:
192,192,134613,1,0,0:0:0:0:
320,192,134688,1,0,0:0:0:0:
448,192,134688,1,0,0:0:0:0:
192,192,134763,1,0,0:0:0:0:
320,192,134838,1,0,0:0:0:0:
448,192,134913,1,0,0:0:0:0:
192,192,134988,1,0,0:0:0:0:
64,192,134988,1,0,0:0:0:0:
320,192,135063,1,0,0:0:0:0:
192,192,135138,1,0,0:0:0:0:
64,192,135138,1,0,0:0:0:0:
448,192,135138,1,0,0:0:0:0:
320,192,135213,1,0,0:0:0:0:
64,192,135288,1,0,0:0:0:0:
192,192,135363,1,0,0:0:0:0:
320,192,135438,1,0,0:0:0:0:
448,192,135438,1,0,0:0:0:0:
64,192,135513,1,0,0:0:0:0:
192,192,135588,1,0,0:0:0:0:
320,192,135588,1,0,0:0:0:0:
448,192,135588,1,0,0:0:0:0:
64,192,135663,1,0,0:0:0:0:
192,192,135738,1,0,0:0:0:0:
448,192,135738,1,0,0:0:0:0:
64,192,135813,1,0,0:0:0:0:
192,192,135888,1,0,0:0:0:0:
320,192,135888,1,0,0:0:0:0:
448,192,135888,1,0,0:0:0:0:
64,192,135963,1,0,0:0:0:0:
192,192,136038,1,0,0:0:0:0:
448,192,136113,1,0,0:0:0:0:
192,192,136188,1,0,0:0:0:0:
320,192,136188,1,0,0:0:0:0:
64,192,136263,1,0,0:0:0:0:
192,192,136338,1,0,0:0:0:0:
320,192,136338,1,0,0:0:0:0:
448,192,136338,1,0,0:0:0:0:
64,192,136413,1,0,0:0:0:0:
448,192,136488,1,0,0:0:0:0:
64,192,136563,1,0,0:0:0:0:
192,192,136638,1,0,0:0:0:0:
320,192,136638,1,0,0:0:0:0:
448,192,136713,1,0,0:0:0:0:
192,192,136788,1,0,0:0:0:0:
64,192,136788,1,0,0:0:0:0:
320,192,136788,1,0,0:0:0:0:
448,192,136863,1,0,0:0:0:0:
192,192,136938,1,0,0:0:0:0:
320,192,137013,1,0,0:0:0:0:
448,192,137088,1,0,0:0:0:0:
64,192,137088,1,0,0:0:0:0:
192,192,137088,1,0,0:0:0:0:
320,192,137163,1,0,0:0:0:0:
192,192,137238,1,0,0:0:0:0:
448,192,137313,1,0,0:0:0:0:
192,192,137388,1,0,0:0:0:0:
320,192,137388,1,0,0:0:0:0:
448,192,137463,1,0,0:0:0:0:
64,192,137538,1,0,0:0:0:0:
192,192,137538,1,0,0:0:0:0:
320,192,137538,1,0,0:0:0:0:
448,192,137613,1,0,0:0:0:0:
64,192,137688,1,0,0:0:0:0:
192,192,137763,1,0,0:0:0:0:
320,192,137838,1,0,0:0:0:0:
448,192,137838,1,0,0:0:0:0:
64,192,137838,1,0,0:0:0:0:
192,192,137913,1,0,0:0:0:0:
320,192,137988,1,0,0:0:0:0:
448,192,138063,1,0,0:0:0:0:
192,192,138063,1,0,0:0:0:0:
320,192,138138,1,0,0:0:0:0:
192,192,138213,1,0,0:0:0:0:
64,192,138288,1,0,0:0:0:0:
320,192,138288,1,0,0:0:0:0:
448,192,138288,1,0,0:0:0:0:
192,192,138363,1,0,0:0:0:0:
64,192,138438,1,0,0:0:0:0:
448,192,138513,1,0,0:0:0:0:
64,192,138588,1,0,0:0:0:0:
192,192,138588,1,0,0:0:0:0:
320,192,138663,1,0,0:0:0:0:
192,192,138738,1,0,0:0:0:0:
448,192,138738,1,0,0:0:0:0:
64,192,138738,1,0,0:0:0:0:
320,192,138813,1,0,0:0:0:0:
448,192,138888,1,0,0:0:0:0:
320,192,138963,1,0,0:0:0:0:
192,192,139038,1,0,0:0:0:0:
64,192,139038,1,0,0:0:0:0:
448,192,139113,1,0,0:0:0:0:
320,192,139188,1,0,0:0:0:0:
192,192,139188,1,0,0:0:0:0:
64,192,139188,1,0,0:0:0:0:
448,192,139263,1,0,0:0:0:0:
64,192,139338,1,0,0:0:0:0:
192,192,139413,1,0,0:0:0:0:
64,192,139488,1,0,0:0:0:0:
320,192,139488,1,0,0:0:0:0:
448,192,139488,1,0,0:0:0:0:
192,192,139563,1,0,0:0:0:0:
320,192,139638,1,0,0:0:0:0:
448,192,139713,1,0,0:0:0:0:
192,192,139788,1,0,0:0:0:0:
320,192,139788,1,0,0:0:0:0:
64,192,139863,1,0,0:0:0:0:
192,192,139938,1,0,0:0:0:0:
320,192,139938,1,0,0:0:0:0:
448,192,139938,1,0,0:0:0:0:
192,192,140238,1,0,0:0:0:0:
320,192,140238,1,0,0:0:0:0:
64,192,140313,128,0,140388:0:0:0:0:
448,192,140313,128,0,140388:0:0:0:0:
320,192,140388,128,0,140463:0:0:0:0:
192,192,140388,128,0,140463:0:0:0:0:
64,192,140688,1,0,0:0:0:0:
192,192,140688,1,0,0:0:0:0:
320,192,140688,1,0,0:0:0:0:
448,192,140763,1,0,0:0:0:0:
64,192,140838,1,0,0:0:0:0:
192,192,140913,1,0,0:0:0:0:
320,192,140988,1,0,0:0:0:0:
448,192,140988,1,0,0:0:0:0:
192,192,141063,1,0,0:0:0:0:
320,192,141138,1,0,0:0:0:0:
448,192,141138,1,0,0:0:0:0:
64,192,141138,1,0,0:0:0:0:
192,192,141213,1,0,0:0:0:0:
320,192,141288,1,0,0:0:0:0:
192,192,141363,1,0,0:0:0:0:
448,192,141438,1,0,0:0:0:0:
64,192,141438,1,0,0:0:0:0:
320,192,141513,1,0,0:0:0:0:
64,192,141588,1,0,0:0:0:0:
192,192,141588,1,0,0:0:0:0:
448,192,141588,1,0,0:0:0:0:
320,192,141663,1,0,0:0:0:0:
192,192,141738,1,0,0:0:0:0:
64,192,141813,1,0,0:0:0:0:
192,192,141888,1,0,0:0:0:0:
448,192,141888,1,0,0:0:0:0:
320,192,141888,1,0,0:0:0:0:
64,192,141963,1,0,0:0:0:0:
448,192,142038,1,0,0:0:0:0:
320,192,142113,1,0,0:0:0:0:
192,192,142188,1,0,0:0:0:0:
64,192,142188,1,0,0:0:0:0:
320,192,142263,1,0,0:0:0:0:
64,192,142338,1,0,0:0:0:0:
192,192,142338,1,0,0:0:0:0:
448,192,142338,1,0,0:0:0:0:
320,192,142413,1,0,0:0:0:0:
192,192,142488,1,0,0:0:0:0:
448,192,142563,1,0,0:0:0:0:
192,192,142638,1,0,0:0:0:0:
320,192,142638,1,0,0:0:0:0:
64,192,142638,1,0,0:0:0:0:
448,192,142713,1,0,0:0:0:0:
320,192,142788,1,0,0:0:0:0:
192,192,142863,1,0,0:0:0:0:
64,192,142938,1,0,0:0:0:0:
320,192,142938,1,0,0:0:0:0:
192,192,143013,1,0,0:0:0:0:
64,192,143088,1,0,0:0:0:0:
448,192,143088,1,0,0:0:0:0:
320,192,143088,1,0,0:0:0:0:
192,192,143163,1,0,0:0:0:0:
448,192,143238,1,0,0:0:0:0:
64,192,143238,1,0,0:0:0:0:
320,192,143313,1,0,0:0:0:0:
192,192,143388,1,0,0:0:0:0:
64,192,143388,1,0,0:0:0:0:
320,192,143463,1,0,0:0:0:0:
192,192,143538,1,0,0:0:0:0:
64,192,143538,1,0,0:0:0:0:
448,192,143538,1,0,0:0:0:0:
320,192,143613,1,0,0:0:0:0:
192,192,143688,1,0,0:0:0:0:
320,192,143763,1,0,0:0:0:0:
192,192,143838,1,0,0:0:0:0:
448,192,143838,1,0,0:0:0:0:
64,192,143913,1,0,0:0:0:0:
448,192,143988,1,0,0:0:0:0:
192,192,143988,1,0,0:0:0:0:
320,192,143988,1,0,0:0:0:0:
64,192,144063,1,0,0:0:0:0:
448,192,144138,1,0,0:0:0:0:
192,192,144213,1,0,0:0:0:0:
448,192,144288,1,0,0:0:0:0:
320,192,144288,1,0,0:0:0:0:
192,192,144363,1,0,0:0:0:0:
64,192,144438,1,0,0:0:0:0:
192,192,144513,1,0,0:0:0:0:
320,192,144588,1,0,0:0:0:0:
448,192,144588,1,0,0:0:0:0:
64,192,144588,1,0,0:0:0:0:
192,192,144663,1,0,0:0:0:0:
320,192,144738,1,0,0:0:0:0:
448,192,144738,1,0,0:0:0:0:
192,192,144813,1,0,0:0:0:0:
64,192,144888,1,0,0:0:0:0:
320,192,144963,1,0,0:0:0:0:
64,192,145038,1,0,0:0:0:0:
448,192,145038,1,0,0:0:0:0:
192,192,145113,1,0,0:0:0:0:
64,192,145188,1,0,0:0:0:0:
448,192,145188,1,0,0:0:0:0:
320,192,145188,1,0,0:0:0:0:
192,192,145263,1,0,0:0:0:0:
448,192,145338,1,0,0:0:0:0:
192,192,145413,1,0,0:0:0:0:
448,192,145488,1,0,0:0:0:0:
64,192,145488,1,0,0:0:0:0:
320,192,145488,1,0,0:0:0:0:
192,192,145563,1,0,0:0:0:0:
320,192,145638,1,0,0:0:0:0:
192,192,145713,1,0,0:0:0:0:
64,192,145788,1,0,0:0:0:0:
448,192,145863,1,0,0:0:0:0:
64,192,145938,1,0,0:0:0:0:
192,192,145938,1,0,0:0:0:0:
320,192,146013,1,0,0:0:0:0:
192,192,146088,1,0,0:0:0:0:
64,192,146163,1,0,0:0:0:0:
448,192,146238,1,0,0:0:0:0:
320,192,146313,1,0,0:0:0:0:
448,192,146388,1,0,0:0:0:0:
64,192,146388,1,0,0:0:0:0:
192,192,146388,1,0,0:0:0:0:
320,192,146463,1,0,0:0:0:0:
192,192,146538,1,0,0:0:0:0:
320,192,146613,1,0,0:0:0:0:
448,192,146688,1,0,0:0:0:0:
192,192,146688,1,0,0:0:0:0:
64,192,146688,1,0,0:0:0:0:
320,192,146763,1,0,0:0:0:0:
64,192,146838,1,0,0:0:0:0:
448,192,146913,1,0,0:0:0:0:
64,192,146988,1,0,0:0:0:0:
192,192,146988,1,0,0:0:0:0:
320,192,147063,1,0,0:0:0:0:
64,192,147138,1,0,0:0:0:0:
192,192,147138,1,0,0:0:0:0:
448,192,147138,1,0,0:0:0:0:
320,192,147213,1,0,0:0:0:0:
64,192,147288,1,0,0:0:0:0:
192,192,147288,1,0,0:0:0:0:
320,192,147363,1,0,0:0:0:0:
192,192,147438,1,0,0:0:0:0:
320,192,147513,1,0,0:0:0:0:
192,192,147588,1,0,0:0:0:0:
448,192,147588,1,0,0:0:0:0:
320,192,147663,1,0,0:0:0:0:
192,192,147738,1,0,0:0:0:0:
64,192,147813,1,0,0:0:0:0:
192,192,147888,1,0,0:0:0:0:
320,192,147888,1,0,0:0:0:0:
448,192,147888,1,0,0:0:0:0:
64,192,147963,1,0,0:0:0:0:
192,192,148038,1,0,0:0:0:0:
64,192,148113,1,0,0:0:0:0:
448,192,148188,1,0,0:0:0:0:
192,192,148188,1,0,0:0:0:0:
320,192,148263,1,0,0:0:0:0:
192,192,148338,1,0,0:0:0:0:
448,192,148338,1,0,0:0:0:0:
320,192,148413,1,0,0:0:0:0:
64,192,148488,1,0,0:0:0:0:
448,192,148563,1,0,0:0:0:0:
64,192,148638,1,0,0:0:0:0:
192,192,148638,1,0,0:0:0:0:
320,192,148713,1,0,0:0:0:0:
448,192,148788,1,0,0:0:0:0:
192,192,148788,1,0,0:0:0:0:
64,192,148788,1,0,0:0:0:0:
320,192,148863,1,0,0:0:0:0:
448,192,148938,1,0,0:0:0:0:
192,192,149013,1,0,0:0:0:0:
448,192,149088,1,0,0:0:0:0:
64,192,149088,1,0,0:0:0:0:
320,192,149088,1,0,0:0:0:0:
192,192,149163,1,0,0:0:0:0:
320,192,149238,1,0,0:0:0:0:
448,192,149313,1,0,0:0:0:0:
320,192,149388,1,0,0:0:0:0:
64,192,149388,1,0,0:0:0:0:
192,192,149463,1,0,0:0:0:0:
64,192,149538,1,0,0:0:0:0:
448,192,149538,1,0,0:0:0:0:
320,192,149538,1,0,0:0:0:0:
192,192,149838,128,0,149913:0:0:0:0:
320,192,149838,128,0,149913:0:0:0:0:
64,192,149913,128,0,149988:0:0:0:0:
448,192,149913,128,0,149988:0:0:0:0:
320,192,149988,1,0,0:0:0:0:
192,192,150063,1,0,0:0:0:0:
320,192,150138,1,0,0:0:0:0:
192,192,150213,1,0,0:0:0:0:
320,192,150288,1,0,0:0:0:0:
448,192,150288,1,0,0:0:0:0:
64,192,150288,1,0,0:0:0:0:
320,192,150588,1,0,0:0:0:0:
448,192,150588,1,0,0:0:0:0:
192,192,150588,128,0,150663:0:0:0:0:
448,192,151188,1,0,0:0:0:0:
320,192,151188,1,0,0:0:0:0:
64,192,151488,128,0,151788:0:0:0:0:
192,192,151488,128,0,151638:0:0:0:0:
320,192,151788,1,0,0:0:0:0:
448,192,151788,1,0,0:0:0:0:
64,192,151863,128,0,151938:0:0:0:0:
192,192,151938,128,0,152388:0:0:0:0:
320,192,152388,1,0,0:0:0:0:
448,192,152388,1,0,0:0:0:0:
64,192,152688,128,0,152988:0:0:0:0:
192,192,152688,128,0,152913:0:0:0:0:
320,192,152988,1,0,0:0:0:0:
448,192,152988,1,0,0:0:0:0:
64,192,153063,128,0,153138:0:0:0:0:
192,192,153138,128,0,153588:0:0:0:0:
320,192,153588,1,0,0:0:0:0:
448,192,153588,1,0,0:0:0:0:
64,192,153888,128,0,154188:0:0:0:0:
192,192,153888,128,0,154113:0:0:0:0:
320,192,154188,1,0,0:0:0:0:
448,192,154188,1,0,0:0:0:0:
64,192,154263,128,0,154338:0:0:0:0:
192,192,154338,128,0,154413:0:0:0:0:
192,192,154488,128,0,154563:0:0:0:0:
320,192,154788,1,0,0:0:0:0:
448,192,154788,1,0,0:0:0:0:
192,192,154788,128,0,154863:0:0:0:0:
192,192,154938,128,0,155013:0:0:0:0:
192,192,155088,128,0,155388:0:0:0:0:
64,192,155088,128,0,155313:0:0:0:0:
320,192,155388,1,0,0:0:0:0:
448,192,155388,1,0,0:0:0:0:
64,192,155463,128,0,155538:0:0:0:0:
192,192,155538,128,0,155988:0:0:0:0:
320,192,155988,1,0,0:0:0:0:
448,192,155988,1,0,0:0:0:0:
64,192,156288,128,0,156513:0:0:0:0:
192,192,156288,128,0,156588:0:0:0:0:
320,192,156588,1,0,0:0:0:0:
448,192,156588,1,0,0:0:0:0:
192,192,156663,128,0,156738:0:0:0:0:
64,192,156738,128,0,157188:0:0:0:0:
320,192,157188,1,0,0:0:0:0:
448,192,157188,1,0,0:0:0:0:
64,192,157488,128,0,157788:0:0:0:0:
192,192,157488,128,0,157713:0:0:0:0:
320,192,157788,1,0,0:0:0:0:
448,192,157788,1,0,0:0:0:0:
64,192,157863,128,0,157938:0:0:0:0:
192,192,157938,128,0,158388:0:0:0:0:
320,192,158388,1,0,0:0:0:0:
448,192,158388,1,0,0:0:0:0:
64,192,158688,128,0,158763:0:0:0:0:
192,192,158688,128,0,158838:0:0:0:0:
320,192,158913,128,0,159063:0:0:0:0:
448,192,158913,128,0,158988:0:0:0:0:
320,192,159138,128,0,159213:0:0:0:0:
448,192,159138,128,0,159288:0:0:0:0:
64,192,159288,128,0,159363:0:0:0:0:
192,192,159288,128,0,159363:0:0:0:0:
64,192,159438,128,0,159513:0:0:0:0:
192,192,159438,128,0,159513:0:0:0:0:
64,192,159888,1,0,0:0:0:0:
192,192,159888,1,0,0:0:0:0:
320,192,159888,1,0,0:0:0:0:
192,192,160038,1,0,0:0:0:0:
64,192,160038,128,0,160113:0:0:0:0:
192,192,160188,1,0,0:0:0:0:
64,192,160188,128,0,160263:0:0:0:0:
320,192,160188,128,0,160338:0:0:0:0:
192,192,160488,1,0,0:0:0:0:
64,192,160488,1,0,0:0:0:0:
448,192,160488,128,0,160563:0:0:0:0:
448,192,160638,128,0,160863:0:0:0:0:
192,192,160638,1,0,0:0:0:0:
64,192,160638,1,0,0:0:0:0:
320,192,160788,1,0,0:0:0:0:
448,192,160938,128,0,161013:0:0:0:0:
320,192,160938,1,0,0:0:0:0:
192,192,160938,1,0,0:0:0:0:
448,192,161088,128,0,161163:0:0:0:0:
192,192,161088,1,0,0:0:0:0:
320,192,161088,1,0,0:0:0:0:
320,192,161238,128,0,161388:0:0:0:0:
192,192,161388,128,0,161538:0:0:0:0:
448,192,161388,128,0,161463:0:0:0:0:
64,192,161538,1,0,0:0:0:0:
320,192,161688,128,0,161763:0:0:0:0:
448,192,161688,128,0,161763:0:0:0:0:
320,192,161838,128,0,161913:0:0:0:0:
448,192,161838,128,0,161913:0:0:0:0:
320,192,161988,128,0,162063:0:0:0:0:
448,192,161988,128,0,162138:0:0:0:0:
64,192,162288,1,0,0:0:0:0:
320,192,162288,1,0,0:0:0:0:
192,192,162288,128,0,162363:0:0:0:0:
64,192,162438,1,0,0:0:0:0:
320,192,162438,1,0,0:0:0:0:
192,192,162588,1,0,0:0:0:0:
448,192,162588,128,0,162663:0:0:0:0:
320,192,162588,1,0,0:0:0:0:
64,192,162888,1,0,0:0:0:0:
192,192,162888,1,0,0:0:0:0:
320,192,162888,1,0,0:0:0:0:
192,192,163038,1,0,0:0:0:0:
320,192,163038,1,0,0:0:0:0:
64,192,163038,128,0,163113:0:0:0:0:
448,192,163188,128,0,163263:0:0:0:0:
320,192,163188,1,0,0:0:0:0:
192,192,163188,1,0,0:0:0:0:
192,192,163338,1,0,0:0:0:0:
64,192,163338,1,0,0:0:0:0:
192,192,163488,1,0,0:0:0:0:
64,192,163488,128,0,163563:0:0:0:0:
320,192,163488,1,0,0:0:0:0:
64,192,163638,128,0,163938:0:0:0:0:
448,192,163638,128,0,163938:0:0:0:0:
192,192,163938,128,0,164088:0:0:0:0:
320,192,163938,128,0,164013:0:0:0:0:
64,192,164088,128,0,164163:0:0:0:0:
448,192,164088,128,0,164163:0:0:0:0:
64,192,164238,128,0,164313:0:0:0:0:
448,192,164238,128,0,164313:0:0:0:0:
192,192,164388,128,0,164463:0:0:0:0:
320,192,164388,128,0,164463:0:0:0:0:
64,192,164538,1,0,0:0:0:0:
448,192,164538,1,0,0:0:0:0:
192,192,164688,1,0,0:0:0:0:
320,192,164688,1,0,0:0:0:0:
448,192,164688,128,0,164763:0:0:0:0:
320,192,164838,1,0,0:0:0:0:
64,192,164838,1,0,0:0:0:0:
192,192,164988,1,0,0:0:0:0:
448,192,164988,1,0,0:0:0:0:
64,192,164988,128,0,165138:0:0:0:0:
320,192,165138,1,0,0:0:0:0:
448,192,165138,1,0,0:0:0:0:
192,192,165138,128,0,165438:0:0:0:0:
448,192,165438,128,0,165513:0:0:0:0:
64,192,165438,128,0,165513:0:0:0:0:
64,192,165588,128,0,165663:0:0:0:0:
448,192,165588,128,0,165663:0:0:0:0:
448,192,165738,128,0,165813:0:0:0:0:
64,192,165738,128,0,165813:0:0:0:0:
64,192,165888,128,0,166038:0:0:0:0:
448,192,165888,128,0,166038:0:0:0:0:
192,192,166038,128,0,166188:0:0:0:0:
320,192,166038,128,0,166188:0:0:0:0:
64,192,166188,128,0,166338:0:0:0:0:
448,192,166188,128,0,166338:0:0:0:0:
320,192,166338,128,0,166413:0:0:0:0:
192,192,166338,128,0,166413:0:0:0:0:
192,192,166488,128,0,166788:0:0:0:0:
320,192,166488,128,0,166788:0:0:0:0:
448,192,166788,1,0,0:0:0:0:
64,192,166788,1,0,0:0:0:0:
64,192,167088,1,0,0:0:0:0:
448,192,167088,1,0,0:0:0:0:
192,192,167088,128,0,167238:0:0:0:0:
320,192,167238,128,0,167388:0:0:0:0:
192,192,167388,128,0,167538:0:0:0:0:
64,192,167388,1,0,0:0:0:0:
448,192,167388,1,0,0:0:0:0:
320,192,167538,1,0,0:0:0:0:
448,192,167538,128,0,167838:0:0:0:0:
320,192,167838,128,0,167913:0:0:0:0:
192,192,167838,128,0,167913:0:0:0:0:
192,192,167988,128,0,168063:0:0:0:0:
320,192,167988,128,0,168063:0:0:0:0:
192,192,168138,128,0,168213:0:0:0:0:
320,192,168138,128,0,168213:0:0:0:0:
64,192,168288,128,0,168363:0:0:0:0:
64,192,168438,128,0,168513:0:0:0:0:
64,192,168588,128,0,168813:0:0:0:0:
448,192,168888,128,0,169038:0:0:0:0:
320,192,168888,1,0,0:0:0:0:
320,192,169038,128,0,169188:0:0:0:0:
192,192,169038,1,0,0:0:0:0:
192,192,169188,128,0,169338:0:0:0:0:
64,192,169338,1,0,0:0:0:0:
320,192,169488,1,0,0:0:0:0:
448,192,169488,1,0,0:0:0:0:
192,192,169488,128,0,169638:0:0:0:0:
64,192,169638,128,0,169788:0:0:0:0:
192,192,169788,128,0,169938:0:0:0:0:
320,192,169938,128,0,170088:0:0:0:0:
64,192,170238,1,0,0:0:0:0:
448,192,170238,1,0,0:0:0:0:
192,192,170238,128,0,170388:0:0:0:0:
320,192,170388,1,0,0:0:0:0:
448,192,170388,1,0,0:0:0:0:
64,192,170388,128,0,170538:0:0:0:0:
192,192,170538,128,0,170688:0:0:0:0:
448,192,170688,1,0,0:0:0:0:
320,192,170688,128,0,170838:0:0:0:0:
192,192,170838,1,0,0:0:0:0:
64,192,170838,1,0,0:0:0:0:
448,192,170838,128,0,170988:0:0:0:0:
320,192,170988,128,0,171138:0:0:0:0:
192,192,171138,128,0,171288:0:0:0:0:
64,192,171288,1,0,0:0:0:0:
448,192,171288,1,0,0:0:0:0:
448,192,171363,128,0,171588:0:0:0:0:
64,192,171363,128,0,171588:0:0:0:0:
320,192,171588,128,0,171888:0:0:0:0:
64,192,171888,1,0,0:0:0:0:
448,192,171888,1,0,0:0:0:0:
192,192,171888,128,0,172038:0:0:0:0:
320,192,172038,1,0,0:0:0:0:
64,192,172038,128,0,172188:0:0:0:0:
192,192,172188,128,0,172338:0:0:0:0:
320,192,172338,1,0,0:0:0:0:
448,192,172488,1,0,0:0:0:0:
64,192,172488,1,0,0:0:0:0:
192,192,172638,1,0,0:0:0:0:
448,192,172788,1,0,0:0:0:0:
320,192,172788,128,0,172938:0:0:0:0:
192,192,172938,128,0,173088:0:0:0:0:
64,192,173088,128,0,173238:0:0:0:0:
320,192,173238,1,0,0:0:0:0:
448,192,173238,1,0,0:0:0:0:
192,192,173238,128,0,173388:0:0:0:0:
320,192,173388,128,0,173538:0:0:0:0:
192,192,173538,1,0,0:0:0:0:
64,192,173538,1,0,0:0:0:0:
64,192,173688,1,0,0:0:0:0:
192,192,173838,1,0,0:0:0:0:
448,192,173838,1,0,0:0:0:0:
320,192,173838,1,0,0:0:0:0:
448,192,173988,1,0,0:0:0:0:
192,192,174138,1,0,0:0:0:0:
320,192,174138,1,0,0:0:0:0:
448,192,174138,1,0,0:0:0:0:
192,192,174288,1,0,0:0:0:0:
448,192,174288,1,0,0:0:0:0:
320,192,174288,1,0,0:0:0:0:
64,192,174288,128,0,174888:0:0:0:0:
320,192,174438,1,0,0:0:0:0:
192,192,174588,1,0,0:0:0:0:
320,192,174738,1,0,0:0:0:0:
320,192,174888,1,0,0:0:0:0:
192,192,174888,1,0,0:0:0:0:
448,192,174888,128,0,175488:0:0:0:0:
320,192,175038,1,0,0:0:0:0:
192,192,175188,1,0,0:0:0:0:
64,192,175338,1,0,0:0:0:0:
320,192,175488,1,0,0:0:0:0:
192,192,175488,1,0,0:0:0:0:
64,192,175488,128,0,176088:0:0:0:0:
192,192,175638,1,0,0:0:0:0:
320,192,175788,1,0,0:0:0:0:
448,192,175938,1,0,0:0:0:0:
192,192,176088,1,0,0:0:0:0:
320,192,176088,1,0,0:0:0:0:
448,192,176088,128,0,176688:0:0:0:0:
64,192,176238,1,0,0:0:0:0:
320,192,176388,1,0,0:0:0:0:
64,192,176538,1,0,0:0:0:0:
192,192,176688,1,0,0:0:0:0:
320,192,176688,1,0,0:0:0:0:
320,192,176838,1,0,0:0:0:0:
192,192,176838,1,0,0:0:0:0:
64,192,176988,1,0,0:0:0:0:
192,192,176988,1,0,0:0:0:0:
320,192,176988,1,0,0:0:0:0:
64,192,177138,1,0,0:0:0:0:
320,192,177138,1,0,0:0:0:0:
320,192,177288,1,0,0:0:0:0:
448,192,177288,1,0,0:0:0:0:
192,192,177363,1,0,0:0:0:0:
64,192,177363,1,0,0:0:0:0:
320,192,177438,1,0,0:0:0:0:
448,192,177438,1,0,0:0:0:0:
192,192,177513,1,0,0:0:0:0:
64,192,177513,1,0,0:0:0:0:
320,192,177588,1,0,0:0:0:0:
448,192,177588,1,0,0:0:0:0:
192,192,177663,1,0,0:0:0:0:
64,192,177663,1,0,0:0:0:0:
320,192,177738,1,0,0:0:0:0:
448,192,177738,1,0,0:0:0:0:
192,192,177813,1,0,0:0:0:0:
64,192,177813,1,0,0:0:0:0:
320,192,177888,1,0,0:0:0:0:
448,192,177888,1,0,0:0:0:0:
192,192,177963,1,0,0:0:0:0:
64,192,177963,128,0,178188:0:0:0:0:
192,192,178188,128,0,178488:0:0:0:0:
320,192,178488,128,0,178788:0:0:0:0:
448,192,178788,1,0,0:0:0:0:
64,192,179088,1,0,0:0:0:0:
192,192,179088,1,0,0:0:0:0:
192,192,179238,1,0,0:0:0:0:
448,192,179388,1,0,0:0:0:0:
192,192,179388,1,0,0:0:0:0:
64,192,179388,1,0,0:0:0:0:
448,192,179538,1,0,0:0:0:0:
192,192,179688,1,0,0:0:0:0:
64,192,179688,1,0,0:0:0:0:
192,192,179838,1,0,0:0:0:0:
448,192,179838,128,0,179913:0:0:0:0:
320,192,179988,1,0,0:0:0:0:
192,192,179988,1,0,0:0:0:0:
448,192,179988,1,0,0:0:0:0:
64,192,180138,1,0,0:0:0:0:
448,192,180138,128,0,180213:0:0:0:0:
192,192,180288,1,0,0:0:0:0:
320,192,180288,1,0,0:0:0:0:
448,192,180288,1,0,0:0:0:0:
192,192,180438,1,0,0:0:0:0:
448,192,180438,128,0,180513:0:0:0:0:
320,192,180588,1,0,0:0:0:0:
192,192,180588,1,0,0:0:0:0:
64,192,180588,128,0,180663:0:0:0:0:
192,192,180738,1,0,0:0:0:0:
64,192,180738,128,0,180813:0:0:0:0:
320,192,180888,1,0,0:0:0:0:
64,192,180888,128,0,180963:0:0:0:0:
320,192,181038,1,0,0:0:0:0:
320,192,181188,1,0,0:0:0:0:
448,192,181188,1,0,0:0:0:0:
64,192,181188,128,0,181263:0:0:0:0:
448,192,181338,1,0,0:0:0:0:
192,192,181488,1,0,0:0:0:0:
64,192,181488,128,0,181713:0:0:0:0:
320,192,181788,1,0,0:0:0:0:
448,192,181788,1,0,0:0:0:0:
64,192,181788,128,0,181863:0:0:0:0:
320,192,181938,1,0,0:0:0:0:
192,192,182088,1,0,0:0:0:0:
64,192,182088,1,0,0:0:0:0:
320,192,182088,1,0,0:0:0:0:
448,192,182238,1,0,0:0:0:0:
192,192,182238,128,0,182313:0:0:0:0:
320,192,182388,1,0,0:0:0:0:
448,192,182388,1,0,0:0:0:0:
192,192,182388,1,0,0:0:0:0:
448,192,182538,1,0,0:0:0:0:
192,192,182538,128,0,182613:0:0:0:0:
192,192,182688,1,0,0:0:0:0:
64,192,182688,1,0,0:0:0:0:
320,192,182688,1,0,0:0:0:0:
64,192,182838,1,0,0:0:0:0:
192,192,182838,128,0,182913:0:0:0:0:
320,192,182988,1,0,0:0:0:0:
448,192,182988,1,0,0:0:0:0:
192,192,182988,1,0,0:0:0:0:
448,192,183138,1,0,0:0:0:0:
192,192,183138,1,0,0:0:0:0:
64,192,183288,1,0,0:0:0:0:
192,192,183288,1,0,0:0:0:0:
320,192,183288,1,0,0:0:0:0:
320,192,183438,128,0,183513:0:0:0:0:
448,192,183588,1,0,0:0:0:0:
320,192,183588,128,0,183663:0:0:0:0:
320,192,183738,128,0,183888:0:0:0:0:
192,192,183888,1,0,0:0:0:0:
64,192,183888,1,0,0:0:0:0:
448,192,183888,128,0,184113:0:0:0:0:
192,192,184038,1,0,0:0:0:0:
320,192,184188,1,0,0:0:0:0:
64,192,184188,1,0,0:0:0:0:
448,192,184188,128,0,184338:0:0:0:0:
320,192,184338,128,0,184563:0:0:0:0:
320,192,184638,128,0,184713:0:0:0:0:
320,192,184788,128,0,184863:0:0:0:0:
320,192,184938,128,0,185013:0:0:0:0:
448,192,185088,128,0,185238:0:0:0:0:
320,192,185238,128,0,185388:0:0:0:0:
64,192,185238,1,0,0:0:0:0:
448,192,185388,1,0,0:0:0:0:
192,192,185388,128,0,185688:0:0:0:0:
320,192,185688,128,0,185838:0:0:0:0:
64,192,185688,1,0,0:0:0:0:
448,192,185838,128,0,185988:0:0:0:0:
192,192,185838,1,0,0:0:0:0:
64,192,185988,1,0,0:0:0:0:
320,192,185988,128,0,186138:0:0:0:0:
192,192,186138,1,0,0:0:0:0:
192,192,186288,128,0,186513:0:0:0:0:
320,192,186288,128,0,186513:0:0:0:0:
448,192,186588,128,0,186813:0:0:0:0:
64,192,186588,128,0,186813:0:0:0:0:
192,192,186888,128,0,187038:0:0:0:0:
320,192,187038,128,0,187188:0:0:0:0:
448,192,187188,128,0,187338:0:0:0:0:
448,192,187488,128,0,187788:0:0:0:0:
320,192,187488,128,0,187713:0:0:0:0:
320,192,187788,128,0,188088:0:0:0:0:
192,192,187788,128,0,188013:0:0:0:0:
192,192,188088,128,0,188238:0:0:0:0:
320,192,188238,128,0,188388:0:0:0:0:
192,192,188388,1,0,0:0:0:0:
448,192,188538,128,0,188613:0:0:0:0:
64,192,188538,128,0,188613:0:0:0:0:
320,192,188688,1,0,0:0:0:0:
192,192,188688,1,0,0:0:0:0:
64,192,188688,1,0,0:0:0:0:
448,192,188688,1,0,0:0:0:0:
192,192,188838,1,0,0:0:0:0:
64,192,188838,128,0,188913:0:0:0:0:
320,192,188988,1,0,0:0:0:0:
64,192,188988,128,0,189063:0:0:0:0:
192,192,189138,1,0,0:0:0:0:
320,192,189138,1,0,0:0:0:0:
448,192,189138,128,0,189213:0:0:0:0:
320,192,189438,1,0,0:0:0:0:
448,192,189438,1,0,0:0:0:0:
64,192,189438,128,0,189513:0:0:0:0:
320,192,189588,1,0,0:0:0:0:
448,192,189588,1,0,0:0:0:0:
64,192,189588,128,0,189663:0:0:0:0:
320,192,189738,1,0,0:0:0:0:
448,192,189738,1,0,0:0:0:0:
64,192,189738,128,0,189813:0:0:0:0:
320,192,189888,1,0,0:0:0:0:
192,192,189888,128,0,189963:0:0:0:0:
192,192,190038,1,0,0:0:0:0:
320,192,190038,128,0,190113:0:0:0:0:
192,192,190188,1,0,0:0:0:0:
448,192,190188,128,0,190263:0:0:0:0:
448,192,190338,1,0,0:0:0:0:
192,192,190338,1,0,0:0:0:0:
192,192,190488,1,0,0:0:0:0:
320,192,190488,1,0,0:0:0:0:
64,192,190488,128,0,190563:0:0:0:0:
192,192,190638,1,0,0:0:0:0:
64,192,190788,1,0,0:0:0:0:
448,192,190788,1,0,0:0:0:0:
320,192,190788,128,0,190863:0:0:0:0:
64,192,191088,128,0,191163:0:0:0:0:
192,192,191088,128,0,191238:0:0:0:0:
320,192,191088,128,0,191163:0:0:0:0:
448,192,191088,128,0,191238:0:0:0:0:
64,192,191388,1,0,0:0:0:0:
192,192,191388,1,0,0:0:0:0:
448,192,191388,1,0,0:0:0:0:
192,192,191538,1,0,0:0:0:0:
320,192,191538,1,0,0:0:0:0:
320,192,191688,1,0,0:0:0:0:
448,192,191688,1,0,0:0:0:0:
192,192,191838,1,0,0:0:0:0:
448,192,191838,1,0,0:0:0:0:
64,192,191988,1,0,0:0:0:0:
192,192,191988,1,0,0:0:0:0:
64,192,192138,1,0,0:0:0:0:
192,192,192138,1,0,0:0:0:0:
192,192,192288,1,0,0:0:0:0:
320,192,192288,1,0,0:0:0:0:
448,192,192288,1,0,0:0:0:0:
320,192,192438,1,0,0:0:0:0:
64,192,192438,1,0,0:0:0:0:
192,192,192438,1,0,0:0:0:0:
192,192,192588,1,0,0:0:0:0:
320,192,192588,1,0,0:0:0:0:
448,192,192588,1,0,0:0:0:0:
320,192,192738,1,0,0:0:0:0:
448,192,192738,1,0,0:0:0:0:
320,192,192888,1,0,0:0:0:0:
64,192,192888,1,0,0:0:0:0:
192,192,193038,1,0,0:0:0:0:
320,192,193038,1,0,0:0:0:0:
448,192,193038,1,0,0:0:0:0:
192,192,193188,1,0,0:0:0:0:
64,192,193188,1,0,0:0:0:0:
320,192,193338,1,0,0:0:0:0:
448,192,193338,1,0,0:0:0:0:
320,192,193488,1,0,0:0:0:0:
64,192,193488,128,0,193563:0:0:0:0:
320,192,193638,1,0,0:0:0:0:
64,192,193638,128,0,193713:0:0:0:0:
192,192,193788,1,0,0:0:0:0:
320,192,193788,1,0,0:0:0:0:
448,192,193788,128,0,193863:0:0:0:0:
320,192,193938,1,0,0:0:0:0:
192,192,193938,1,0,0:0:0:0:
64,192,193938,128,0,194238:0:0:0:0:
320,192,194238,1,0,0:0:0:0:
192,192,194238,128,0,194313:0:0:0:0:
320,192,194388,1,0,0:0:0:0:
192,192,194388,128,0,194463:0:0:0:0:
320,192,194538,1,0,0:0:0:0:
192,192,194538,128,0,194613:0:0:0:0:
64,192,194688,128,0,194838:0:0:0:0:
192,192,194838,128,0,194988:0:0:0:0:
320,192,194988,128,0,195288:0:0:0:0:
192,192,195288,128,0,195438:0:0:0:0:
320,192,195438,128,0,195588:0:0:0:0:
64,192,195438,1,0,0:0:0:0:
192,192,195588,1,0,0:0:0:0:
448,192,195738,128,0,195813:0:0:0:0:
192,192,195738,128,0,195813:0:0:0:0:
192,192,195888,128,0,196038:0:0:0:0:
448,192,195888,128,0,196038:0:0:0:0:
320,192,196038,128,0,196188:0:0:0:0:
192,192,196188,128,0,196338:0:0:0:0:
64,192,196188,128,0,196338:0:0:0:0:
320,192,196338,128,0,196488:0:0:0:0:
192,192,196488,128,0,196638:0:0:0:0:
448,192,196488,128,0,196638:0:0:0:0:
320,192,196638,128,0,196788:0:0:0:0:
64,192,196788,128,0,196938:0:0:0:0:
192,192,196938,128,0,197088:0:0:0:0:
320,192,197088,128,0,197313:0:0:0:0:
448,192,197088,128,0,197313:0:0:0:0:
64,192,197313,128,0,197463:0:0:0:0:
192,192,197313,128,0,197463:0:0:0:0:
64,192,197538,128,0,197613:0:0:0:0:
192,192,197538,128,0,197613:0:0:0:0:
64,192,197688,128,0,197763:0:0:0:0:
192,192,197688,128,0,197763:0:0:0:0:
320,192,197763,128,0,197838:0:0:0:0:
448,192,197763,128,0,197838:0:0:0:0:
64,192,197838,128,0,197913:0:0:0:0:
192,192,197838,128,0,197913:0:0:0:0:
320,192,197913,128,0,197988:0:0:0:0:
448,192,197913,128,0,197988:0:0:0:0:
192,192,197988,128,0,198063:0:0:0:0:
64,192,197988,128,0,198063:0:0:0:0:
320,192,198063,128,0,198288:0:0:0:0:
448,192,198063,128,0,198288:0:0:0:0:
192,192,198288,1,0,0:0:0:0:
64,192,198288,1,0,0:0:0:0:
192,192,198438,1,0,0:0:0:0:
320,192,198438,1,0,0:0:0:0:
320,192,198588,128,0,198738:0:0:0:0:
64,192,198738,1,0,0:0:0:0:
192,192,198738,128,0,198888:0:0:0:0:
448,192,198888,1,0,0:0:0:0:
320,192,198888,128,0,199038:0:0:0:0:
192,192,199038,1,0,0:0:0:0:
64,192,199038,128,0,199188:0:0:0:0:
448,192,199188,1,0,0:0:0:0:
192,192,199188,128,0,199338:0:0:0:0:
448,192,199338,1,0,0:0:0:0:
320,192,199338,128,0,199488:0:0:0:0:
448,192,199488,128,0,199638:0:0:0:0:
64,192,199638,1,0,0:0:0:0:
192,192,199788,1,0,0:0:0:0:
320,192,199938,1,0,0:0:0:0:
448,192,200088,1,0,0:0:0:0:
320,192,200238,1,0,0:0:0:0:
192,192,200388,1,0,0:0:0:0:
64,192,200538,128,0,200688:0:0:0:0:
320,192,200538,1,0,0:0:0:0:
192,192,200688,128,0,200838:0:0:0:0:
448,192,200688,1,0,0:0:0:0:
320,192,200838,1,0,0:0:0:0:
192,192,200988,128,0,201138:0:0:0:0:
320,192,200988,1,0,0:0:0:0:
320,192,201138,128,0,201288:0:0:0:0:
64,192,201138,1,0,0:0:0:0:
448,192,201288,128,0,201438:0:0:0:0:
192,192,201288,1,0,0:0:0:0:
320,192,201438,128,0,201588:0:0:0:0:
192,192,201438,1,0,0:0:0:0:
192,192,201588,128,0,201738:0:0:0:0:
64,192,201588,1,0,0:0:0:0:
320,192,201738,128,0,201888:0:0:0:0:
64,192,201888,1,0,0:0:0:0:
448,192,201888,1,0,0:0:0:0:
64,192,202038,1,0,0:0:0:0:
192,192,202038,1,0,0:0:0:0:
320,192,202113,1,0,0:0:0:0:
448,192,202188,1,0,0:0:0:0:
192,192,202188,1,0,0:0:0:0:
320,192,202263,1,0,0:0:0:0:
192,192,202338,1,0,0:0:0:0:
64,192,202338,1,0,0:0:0:0:
320,192,202413,1,0,0:0:0:0:
64,192,202488,1,0,0:0:0:0:
192,192,202488,1,0,0:0:0:0:
448,192,202563,1,0,0:0:0:0:
192,192,202638,1,0,0:0:0:0:
320,192,202638,1,0,0:0:0:0:
64,192,202713,1,0,0:0:0:0:
192,192,202788,1,0,0:0:0:0:
320,192,202788,1,0,0:0:0:0:
448,192,202788,1,0,0:0:0:0:
64,192,203088,1,0,0:0:0:0:
192,192,203088,1,0,0:0:0:0:
320,192,203088,1,0,0:0:0:0:
448,192,203238,1,0,0:0:0:0:
320,192,203388,128,0,203538:0:0:0:0:
64,192,203388,1,0,0:0:0:0:
192,192,203538,128,0,203688:0:0:0:0:
448,192,203538,1,0,0:0:0:0:
64,192,203688,128,0,203838:0:0:0:0:
448,192,203688,1,0,0:0:0:0:
192,192,203838,128,0,203988:0:0:0:0:
448,192,203838,1,0,0:0:0:0:
64,192,203988,128,0,204138:0:0:0:0:
448,192,203988,1,0,0:0:0:0:
192,192,204138,128,0,204288:0:0:0:0:
448,192,204138,1,0,0:0:0:0:
320,192,204288,128,0,204438:0:0:0:0:
448,192,204288,1,0,0:0:0:0:
192,192,204438,1,0,0:0:0:0:
64,192,204588,1,0,0:0:0:0:
192,192,204738,1,0,0:0:0:0:
320,192,204888,1,0,0:0:0:0:
448,192,205038,1,0,0:0:0:0:
192,192,205188,128,0,205338:0:0:0:0:
64,192,205188,1,0,0:0:0:0:
320,192,205338,128,0,205488:0:0:0:0:
64,192,205338,1,0,0:0:0:0:
448,192,205488,128,0,205638:0:0:0:0:
64,192,205488,1,0,0:0:0:0:
320,192,205788,128,0,205863:0:0:0:0:
192,192,205938,128,0,206013:0:0:0:0:
64,192,206088,128,0,206163:0:0:0:0:
192,192,206238,128,0,206313:0:0:0:0:
320,192,206388,128,0,206463:0:0:0:0:
448,192,206538,128,0,206613:0:0:0:0:
64,192,206538,128,0,206613:0:0:0:0:
192,192,206688,128,0,206763:0:0:0:0:
320,192,206688,128,0,206763:0:0:0:0:
64,192,206838,128,0,206913:0:0:0:0:
448,192,206838,128,0,206913:0:0:0:0:
64,192,206988,128,0,207063:0:0:0:0:
448,192,206988,128,0,207063:0:0:0:0:
192,192,207138,1,0,0:0:0:0:
320,192,207138,1,0,0:0:0:0:
320,192,207288,128,0,207363:0:0:0:0:
192,192,207288,1,0,0:0:0:0:
192,192,207438,128,0,207513:0:0:0:0:
320,192,207438,1,0,0:0:0:0:
320,192,207588,128,0,207663:0:0:0:0:
192,192,207588,1,0,0:0:0:0:
320,192,207888,1,0,0:0:0:0:
192,192,207888,1,0,0:0:0:0:
448,192,207888,128,0,208038:0:0:0:0:
320,192,208038,1,0,0:0:0:0:
192,192,208188,1,0,0:0:0:0:
64,192,208188,1,0,0:0:0:0:
448,192,208188,128,0,208338:0:0:0:0:
192,192,208338,1,0,0:0:0:0:
448,192,208488,128,0,208563:0:0:0:0:
320,192,208488,1,0,0:0:0:0:
192,192,208488,1,0,0:0:0:0:
448,192,208788,128,0,208863:0:0:0:0:
320,192,208788,1,0,0:0:0:0:
192,192,208788,1,0,0:0:0:0:
448,192,208938,128,0,209013:0:0:0:0:
192,192,208938,1,0,0:0:0:0:
64,192,208938,1,0,0:0:0:0:
448,192,209238,128,0,209313:0:0:0:0:
320,192,209238,1,0,0:0:0:0:
192,192,209238,1,0,0:0:0:0:
448,192,209538,128,0,209613:0:0:0:0:
320,192,209538,1,0,0:0:0:0:
192,192,209538,1,0,0:0:0:0:
448,192,209688,128,0,209763:0:0:0:0:
192,192,209688,1,0,0:0:0:0:
64,192,209688,1,0,0:0:0:0:
448,192,209988,128,0,210213:0:0:0:0:
320,192,209988,1,0,0:0:0:0:
192,192,209988,1,0,0:0:0:0:
320,192,210138,1,0,0:0:0:0:
192,192,210288,1,0,0:0:0:0:
320,192,210288,1,0,0:0:0:0:
64,192,210288,128,0,210438:0:0:0:0:
192,192,210438,1,0,0:0:0:0:
320,192,210588,1,0,0:0:0:0:
448,192,210588,1,0,0:0:0:0:
64,192,210588,128,0,210738:0:0:0:0:
192,192,210738,1,0,0:0:0:0:
64,192,210888,128,0,210963:0:0:0:0:
192,192,210888,1,0,0:0:0:0:
320,192,210888,1,0,0:0:0:0:
64,192,211188,128,0,211263:0:0:0:0:
320,192,211188,1,0,0:0:0:0:
448,192,211188,1,0,0:0:0:0:
64,192,211338,128,0,211413:0:0:0:0:
192,192,211338,1,0,0:0:0:0:
320,192,211338,1,0,0:0:0:0:
64,192,211638,128,0,211713:0:0:0:0:
192,192,211638,1,0,0:0:0:0:
320,192,211638,1,0,0:0:0:0:
64,192,211938,128,0,212013:0:0:0:0:
192,192,211938,1,0,0:0:0:0:
320,192,211938,1,0,0:0:0:0:
64,192,212088,128,0,212163:0:0:0:0:
192,192,212088,1,0,0:0:0:0:
320,192,212088,1,0,0:0:0:0:
64,192,212238,128,0,212313:0:0:0:0:
320,192,212238,1,0,0:0:0:0:
448,192,212238,1,0,0:0:0:0:
64,192,212388,128,0,212463:0:0:0:0:
320,192,212388,1,0,0:0:0:0:
192,192,212388,1,0,0:0:0:0:
320,192,212688,1,0,0:0:0:0:
192,192,212688,1,0,0:0:0:0:
448,192,212688,128,0,212838:0:0:0:0:
192,192,212838,1,0,0:0:0:0:
192,192,212988,1,0,0:0:0:0:
64,192,212988,1,0,0:0:0:0:
448,192,212988,128,0,213138:0:0:0:0:
320,192,213138,1,0,0:0:0:0:
448,192,213288,128,0,213363:0:0:0:0:
192,192,213288,1,0,0:0:0:0:
320,192,213288,1,0,0:0:0:0:
448,192,213588,128,0,213663:0:0:0:0:
192,192,213588,1,0,0:0:0:0:
64,192,213588,1,0,0:0:0:0:
448,192,213738,128,0,213813:0:0:0:0:
192,192,213738,1,0,0:0:0:0:
320,192,213738,1,0,0:0:0:0:
448,192,214038,128,0,214113:0:0:0:0:
320,192,214038,1,0,0:0:0:0:
192,192,214038,1,0,0:0:0:0:
192,192,214188,1,0,0:0:0:0:
448,192,214338,128,0,214413:0:0:0:0:
320,192,214338,1,0,0:0:0:0:
192,192,214338,1,0,0:0:0:0:
448,192,214488,128,0,214563:0:0:0:0:
320,192,214488,1,0,0:0:0:0:
192,192,214488,1,0,0:0:0:0:
448,192,214638,128,0,214713:0:0:0:0:
192,192,214638,1,0,0:0:0:0:
64,192,214638,1,0,0:0:0:0:
448,192,214788,128,0,214863:0:0:0:0:
192,192,214788,1,0,0:0:0:0:
320,192,214788,1,0,0:0:0:0:
192,192,215088,1,0,0:0:0:0:
64,192,215088,128,0,215613:0:0:0:0:
320,192,215163,1,0,0:0:0:0:
448,192,215238,1,0,0:0:0:0:
320,192,215313,1,0,0:0:0:0:
192,192,215388,1,0,0:0:0:0:
320,192,215463,1,0,0:0:0:0:
448,192,215538,1,0,0:0:0:0:
320,192,215613,1,0,0:0:0:0:
64,192,215688,128,0,215763:0:0:0:0:
192,192,215688,1,0,0:0:0:0:
320,192,215763,1,0,0:0:0:0:
448,192,215838,1,0,0:0:0:0:
320,192,215913,1,0,0:0:0:0:
64,192,215988,128,0,216063:0:0:0:0:
192,192,215988,1,0,0:0:0:0:
320,192,216063,1,0,0:0:0:0:
64,192,216138,128,0,216213:0:0:0:0:
448,192,216138,1,0,0:0:0:0:
320,192,216213,1,0,0:0:0:0:
192,192,216288,128,0,216438:0:0:0:0:
64,192,216438,1,0,0:0:0:0:
320,192,216513,128,0,216813:0:0:0:0:
192,192,216813,128,0,216963:0:0:0:0:
192,192,217038,128,0,217188:0:0:0:0:
320,192,217188,1,0,0:0:0:0:
192,192,217338,1,0,0:0:0:0:
64,192,217413,1,0,0:0:0:0:
192,192,217488,1,0,0:0:0:0:
320,192,217488,1,0,0:0:0:0:
448,192,217488,1,0,0:0:0:0:
64,192,217563,1,0,0:0:0:0:
192,192,217638,1,0,0:0:0:0:
448,192,217713,1,0,0:0:0:0:
192,192,217788,1,0,0:0:0:0:
64,192,217788,1,0,0:0:0:0:
320,192,217788,1,0,0:0:0:0:
448,192,217863,1,0,0:0:0:0:
320,192,217938,1,0,0:0:0:0:
192,192,218013,1,0,0:0:0:0:
320,192,218088,1,0,0:0:0:0:
448,192,218088,1,0,0:0:0:0:
192,192,218163,1,0,0:0:0:0:
64,192,218238,1,0,0:0:0:0:
448,192,218313,1,0,0:0:0:0:
320,192,218388,1,0,0:0:0:0:
192,192,218388,1,0,0:0:0:0:
64,192,218388,1,0,0:0:0:0:
448,192,218463,1,0,0:0:0:0:
320,192,218538,1,0,0:0:0:0:
192,192,218613,1,0,0:0:0:0:
320,192,218688,1,0,0:0:0:0:
448,192,218688,1,0,0:0:0:0:
192,192,218763,1,0,0:0:0:0:
64,192,218838,1,0,0:0:0:0:
448,192,218913,1,0,0:0:0:0:
192,192,218988,1,0,0:0:0:0:
64,192,218988,1,0,0:0:0:0:
320,192,218988,1,0,0:0:0:0:
448,192,219063,1,0,0:0:0:0:
320,192,219138,1,0,0:0:0:0:
64,192,219213,1,0,0:0:0:0:
320,192,219288,1,0,0:0:0:0:
448,192,219288,1,0,0:0:0:0:
192,192,219363,1,0,0:0:0:0:
64,192,219438,1,0,0:0:0:0:
192,192,219513,1,0,0:0:0:0:
320,192,219588,1,0,0:0:0:0:
448,192,219588,1,0,0:0:0:0:
64,192,219588,1,0,0:0:0:0:
192,192,219663,1,0,0:0:0:0:
320,192,219738,1,0,0:0:0:0:
192,192,219813,1,0,0:0:0:0:
320,192,219888,1,0,0:0:0:0:
448,192,219888,1,0,0:0:0:0:
64,192,219888,1,0,0:0:0:0:
192,192,219963,1,0,0:0:0:0:
448,192,220038,1,0,0:0:0:0:
192,192,220113,1,0,0:0:0:0:
320,192,220188,1,0,0:0:0:0:
448,192,220188,1,0,0:0:0:0:
64,192,220188,1,0,0:0:0:0:
192,192,220263,1,0,0:0:0:0:
448,192,220338,1,0,0:0:0:0:
192,192,220413,1,0,0:0:0:0:
320,192,220488,1,0,0:0:0:0:
448,192,220488,1,0,0:0:0:0:
64,192,220488,1,0,0:0:0:0:
192,192,220563,1,0,0:0:0:0:
64,192,220638,1,0,0:0:0:0:
320,192,220713,1,0,0:0:0:0:
448,192,220788,1,0,0:0:0:0:
64,192,220788,1,0,0:0:0:0:
192,192,220788,1,0,0:0:0:0:
320,192,220863,1,0,0:0:0:0:
64,192,220938,1,0,0:0:0:0:
320,192,221013,1,0,0:0:0:0:
448,192,221088,1,0,0:0:0:0:
64,192,221088,1,0,0:0:0:0:
192,192,221088,1,0,0:0:0:0:
320,192,221163,1,0,0:0:0:0:
448,192,221238,1,0,0:0:0:0:
320,192,221313,1,0,0:0:0:0:
192,192,221388,1,0,0:0:0:0:
64,192,221388,1,0,0:0:0:0:
320,192,221463,1,0,0:0:0:0:
64,192,221538,1,0,0:0:0:0:
192,192,221613,1,0,0:0:0:0:
320,192,221688,1,0,0:0:0:0:
448,192,221688,1,0,0:0:0:0:
192,192,221763,1,0,0:0:0:0:
448,192,221838,1,0,0:0:0:0:
192,192,221913,1,0,0:0:0:0:
320,192,221988,1,0,0:0:0:0:
448,192,221988,1,0,0:0:0:0:
64,192,221988,1,0,0:0:0:0:
192,192,222063,1,0,0:0:0:0:
320,192,222138,1,0,0:0:0:0:
64,192,222213,1,0,0:0:0:0:
448,192,222288,1,0,0:0:0:0:
320,192,222288,1,0,0:0:0:0:
192,192,222363,1,0,0:0:0:0:
320,192,222438,1,0,0:0:0:0:
448,192,222513,1,0,0:0:0:0:
192,192,222588,1,0,0:0:0:0:
64,192,222588,1,0,0:0:0:0:
320,192,222588,1,0,0:0:0:0:
448,192,222663,1,0,0:0:0:0:
64,192,222738,1,0,0:0:0:0:
192,192,222813,1,0,0:0:0:0:
320,192,222888,1,0,0:0:0:0:
448,192,222888,1,0,0:0:0:0:
192,192,222963,1,0,0:0:0:0:
448,192,223038,1,0,0:0:0:0:
64,192,223113,1,0,0:0:0:0:
320,192,223188,1,0,0:0:0:0:
192,192,223188,1,0,0:0:0:0:
448,192,223263,1,0,0:0:0:0:
320,192,223338,1,0,0:0:0:0:
64,192,223413,1,0,0:0:0:0:
320,192,223488,1,0,0:0:0:0:
448,192,223488,1,0,0:0:0:0:
192,192,223563,1,0,0:0:0:0:
448,192,223638,1,0,0:0:0:0:
320,192,223713,1,0,0:0:0:0:
448,192,223788,1,0,0:0:0:0:
64,192,223788,1,0,0:0:0:0:
192,192,223788,1,0,0:0:0:0:
320,192,223863,1,0,0:0:0:0:
64,192,223938,1,0,0:0:0:0:
320,192,224013,1,0,0:0:0:0:
192,192,224088,1,0,0:0:0:0:
64,192,224088,1,0,0:0:0:0:
448,192,224163,1,0,0:0:0:0:
192,192,224238,1,0,0:0:0:0:
320,192,224313,1,0,0:0:0:0:
448,192,224388,1,0,0:0:0:0:
64,192,224388,1,0,0:0:0:0:
192,192,224388,1,0,0:0:0:0:
320,192,224463,1,0,0:0:0:0:
192,192,224538,1,0,0:0:0:0:
64,192,224613,1,0,0:0:0:0:
320,192,224688,1,0,0:0:0:0:
448,192,224688,1,0,0:0:0:0:
192,192,224763,1,0,0:0:0:0:
64,192,224838,1,0,0:0:0:0:
192,192,224913,1,0,0:0:0:0:
320,192,224988,1,0,0:0:0:0:
448,192,224988,1,0,0:0:0:0:
64,192,224988,1,0,0:0:0:0:
192,192,225063,1,0,0:0:0:0:
448,192,225138,1,0,0:0:0:0:
320,192,225213,1,0,0:0:0:0:
448,192,225288,1,0,0:0:0:0:
192,192,225288,1,0,0:0:0:0:
320,192,225363,1,0,0:0:0:0:
64,192,225438,1,0,0:0:0:0:
192,192,225513,1,0,0:0:0:0:
448,192,225588,1,0,0:0:0:0:
320,192,225588,1,0,0:0:0:0:
64,192,225588,1,0,0:0:0:0:
192,192,225663,1,0,0:0:0:0:
448,192,225738,1,0,0:0:0:0:
192,192,225813,1,0,0:0:0:0:
320,192,225888,1,0,0:0:0:0:
448,192,225888,1,0,0:0:0:0:
192,192,225963,1,0,0:0:0:0:
448,192,226038,1,0,0:0:0:0:
192,192,226113,1,0,0:0:0:0:
320,192,226188,1,0,0:0:0:0:
448,192,226188,1,0,0:0:0:0:
64,192,226188,128,0,226488:0:0:0:0:
320,192,226488,1,0,0:0:0:0:
448,192,226488,1,0,0:0:0:0:
192,192,226488,128,0,226788:0:0:0:0:
448,192,226788,1,0,0:0:0:0:
320,192,226788,128,0,227088:0:0:0:0:
192,192,226938,1,0,0:0:0:0:
64,192,226938,1,0,0:0:0:0:
192,192,227013,1,0,0:0:0:0:
64,192,227013,1,0,0:0:0:0:
192,192,227088,1,0,0:0:0:0:
64,192,227088,1,0,0:0:0:0:
448,192,227163,1,0,0:0:0:0:
192,192,227238,1,0,0:0:0:0:
64,192,227313,1,0,0:0:0:0:
192,192,227388,1,0,0:0:0:0:
320,192,227388,1,0,0:0:0:0:
448,192,227388,1,0,0:0:0:0:
64,192,227463,1,0,0:0:0:0:
192,192,227538,1,0,0:0:0:0:
448,192,227613,1,0,0:0:0:0:
320,192,227688,1,0,0:0:0:0:
192,192,227688,1,0,0:0:0:0:
448,192,227763,1,0,0:0:0:0:
320,192,227838,1,0,0:0:0:0:
64,192,227913,1,0,0:0:0:0:
192,192,227988,1,0,0:0:0:0:
320,192,227988,1,0,0:0:0:0:
448,192,227988,1,0,0:0:0:0:
64,192,228063,1,0,0:0:0:0:
320,192,228138,1,0,0:0:0:0:
448,192,228213,1,0,0:0:0:0:
192,192,228288,1,0,0:0:0:0:
320,192,228288,1,0,0:0:0:0:
64,192,228363,1,0,0:0:0:0:
320,192,228438,1,0,0:0:0:0:
192,192,228513,1,0,0:0:0:0:
320,192,228588,1,0,0:0:0:0:
64,192,228588,1,0,0:0:0:0:
448,192,228588,1,0,0:0:0:0:
192,192,228663,1,0,0:0:0:0:
320,192,228738,1,0,0:0:0:0:
448,192,228813,1,0,0:0:0:0:
192,192,228888,1,0,0:0:0:0:
320,192,228888,1,0,0:0:0:0:
64,192,228963,1,0,0:0:0:0:
192,192,229038,1,0,0:0:0:0:
64,192,229113,1,0,0:0:0:0:
192,192,229188,1,0,0:0:0:0:
320,192,229188,1,0,0:0:0:0:
448,192,229188,1,0,0:0:0:0:
64,192,229263,1,0,0:0:0:0:
320,192,229338,1,0,0:0:0:0:
448,192,229413,1,0,0:0:0:0:
320,192,229488,1,0,0:0:0:0:
192,192,229488,1,0,0:0:0:0:
64,192,229563,1,0,0:0:0:0:
320,192,229638,1,0,0:0:0:0:
448,192,229713,1,0,0:0:0:0:
192,192,229788,1,0,0:0:0:0:
320,192,229788,1,0,0:0:0:0:
64,192,229788,1,0,0:0:0:0:
448,192,229863,1,0,0:0:0:0:
320,192,229938,1,0,0:0:0:0:
64,192,230013,1,0,0:0:0:0:
192,192,230088,1,0,0:0:0:0:
320,192,230088,1,0,0:0:0:0:
448,192,230163,1,0,0:0:0:0:
192,192,230238,1,0,0:0:0:0:
64,192,230313,1,0,0:0:0:0:
192,192,230388,1,0,0:0:0:0:
320,192,230388,1,0,0:0:0:0:
448,192,230388,1,0,0:0:0:0:
64,192,230463,1,0,0:0:0:0:
320,192,230538,1,0,0:0:0:0:
448,192,230613,1,0,0:0:0:0:
320,192,230688,1,0,0:0:0:0:
192,192,230688,1,0,0:0:0:0:
448,192,230763,1,0,0:0:0:0:
192,192,230838,1,0,0:0:0:0:
448,192,230913,1,0,0:0:0:0:
320,192,230988,1,0,0:0:0:0:
192,192,230988,1,0,0:0:0:0:
64,192,230988,1,0,0:0:0:0:
448,192,231063,1,0,0:0:0:0:
320,192,231138,1,0,0:0:0:0:
64,192,231213,1,0,0:0:0:0:
192,192,231288,1,0,0:0:0:0:
320,192,231288,1,0,0:0:0:0:
448,192,231363,1,0,0:0:0:0:
192,192,231438,1,0,0:0:0:0:
64,192,231513,1,0,0:0:0:0:
192,192,231588,1,0,0:0:0:0:
320,192,231588,1,0,0:0:0:0:
448,192,231588,1,0,0:0:0:0:
64,192,231663,1,0,0:0:0:0:
448,192,231738,1,0,0:0:0:0:
192,192,231738,1,0,0:0:0:0:
320,192,231813,1,0,0:0:0:0:
192,192,231888,1,0,0:0:0:0:
64,192,231888,1,0,0:0:0:0:
320,192,231963,1,0,0:0:0:0:
192,192,232038,1,0,0:0:0:0:
448,192,232038,1,0,0:0:0:0:
320,192,232113,1,0,0:0:0:0:
192,192,232188,1,0,0:0:0:0:
64,192,232188,1,0,0:0:0:0:
320,192,232188,128,0,232263:0:0:0:0:
64,192,232338,1,0,0:0:0:0:
192,192,232338,1,0,0:0:0:0:
320,192,232338,128,0,232413:0:0:0:0:
64,192,232488,1,0,0:0:0:0:
192,192,232488,1,0,0:0:0:0:
448,192,232488,128,0,232563:0:0:0:0:
320,192,232638,1,0,0:0:0:0:
64,192,232713,1,0,0:0:0:0:
320,192,232788,1,0,0:0:0:0:
448,192,232788,1,0,0:0:0:0:
192,192,232788,128,0,232863:0:0:0:0:
320,192,232938,1,0,0:0:0:0:
448,192,232938,1,0,0:0:0:0:
192,192,232938,128,0,233013:0:0:0:0:
320,192,233088,1,0,0:0:0:0:
448,192,233088,1,0,0:0:0:0:
64,192,233088,128,0,233388:0:0:0:0:
320,192,233238,1,0,0:0:0:0:
320,192,233388,1,0,0:0:0:0:
448,192,233388,1,0,0:0:0:0:
192,192,233388,128,0,233688:0:0:0:0:
64,192,233538,1,0,0:0:0:0:
448,192,233688,1,0,0:0:0:0:
320,192,233688,128,0,233988:0:0:0:0:
64,192,233688,1,0,0:0:0:0:
192,192,233838,1,0,0:0:0:0:
448,192,233988,128,0,234288:0:0:0:0:
192,192,233988,1,0,0:0:0:0:
64,192,233988,1,0,0:0:0:0:
320,192,234138,1,0,0:0:0:0:
64,192,234288,1,0,0:0:0:0:
192,192,234288,1,0,0:0:0:0:
320,192,234288,1,0,0:0:0:0:
448,192,234363,1,0,0:0:0:0:
320,192,234400,1,0,0:0:0:0:
192,192,234438,1,0,0:0:0:0:
64,192,234475,1,0,0:0:0:0:
448,192,234513,1,0,0:0:0:0:
320,192,234550,1,0,0:0:0:0:
192,192,234588,1,0,0:0:0:0:
64,192,234625,1,0,0:0:0:0:
448,192,234663,1,0,0:0:0:0:
320,192,234700,1,0,0:0:0:0:
192,192,234738,1,0,0:0:0:0:
64,192,234775,1,0,0:0:0:0:
448,192,234813,1,0,0:0:0:0:
320,192,234850,1,0,0:0:0:0:
192,192,234888,1,0,0:0:0:0:
64,192,234925,1,0,0:0:0:0:
448,192,234963,1,0,0:0:0:0:
320,192,235000,1,0,0:0:0:0:
192,192,235038,1,0,0:0:0:0:
64,192,235075,1,0,0:0:0:0:
448,192,235113,1,0,0:0:0:0:
320,192,235150,1,0,0:0:0:0:
192,192,235188,1,0,0:0:0:0:
64,192,235225,1,0,0:0:0:0:
64,192,235488,128,0,235713:0:0:0:0:
448,192,235488,128,0,236613:0:0:0:0:
320,192,235488,128,0,236013:0:0:0:0:
192,192,235488,128,0,236163:0:0:0:0:
64,192,235788,128,0,236688:0:0:0:0:
320,192,236088,128,0,236313:0:0:0:0:
192,192,236238,128,0,236688:0:0:0:0:
320,192,236388,128,0,236688:0:0:0:0:
448,192,236688,128,0,236913:0:0:0:0:
192,192,236763,1,0,0:0:0:0:
64,192,236838,1,0,0:0:0:0:
192,192,236913,1,0,0:0:0:0:
320,192,236988,1,0,0:0:0:0:
448,192,236988,128,0,237213:0:0:0:0:
192,192,237063,1,0,0:0:0:0:
64,192,237138,1,0,0:0:0:0:
192,192,237213,1,0,0:0:0:0:
448,192,237288,1,0,0:0:0:0:
320,192,237288,128,0,237438:0:0:0:0:
448,192,237363,1,0,0:0:0:0:
64,192,237438,1,0,0:0:0:0:
192,192,237438,128,0,237588:0:0:0:0:
448,192,237588,1,0,0:0:0:0:
64,192,237588,128,0,237738:0:0:0:0:
320,192,237663,1,0,0:0:0:0:
448,192,237738,1,0,0:0:0:0:
192,192,237738,128,0,237888:0:0:0:0:
448,192,237888,128,0,238038:0:0:0:0:
64,192,237963,1,0,0:0:0:0:
320,192,238038,128,0,238188:0:0:0:0:
64,192,238188,1,0,0:0:0:0:
320,192,238338,1,0,0:0:0:0:
448,192,238338,1,0,0:0:0:0:
192,192,238338,128,0,238488:0:0:0:0:
64,192,238413,1,0,0:0:0:0:
320,192,238488,1,0,0:0:0:0:
192,192,238638,1,0,0:0:0:0:
64,192,238638,1,0,0:0:0:0:
448,192,238638,128,0,238788:0:0:0:0:
320,192,238713,1,0,0:0:0:0:
192,192,238788,1,0,0:0:0:0:
64,192,238788,1,0,0:0:0:0:
192,192,239088,1,0,0:0:0:0:
448,192,239088,128,0,239238:0:0:0:0:
320,192,239163,1,0,0:0:0:0:
192,192,239238,1,0,0:0:0:0:
64,192,239238,128,0,239388:0:0:0:0:
320,192,239313,1,0,0:0:0:0:
192,192,239388,1,0,0:0:0:0:
448,192,239388,128,0,239538:0:0:0:0:
320,192,239463,1,0,0:0:0:0:
192,192,239538,1,0,0:0:0:0:
320,192,239688,1,0,0:0:0:0:
448,192,239688,1,0,0:0:0:0:
192,192,239688,128,0,239838:0:0:0:0:
448,192,239988,1,0,0:0:0:0:
320,192,239988,128,0,240138:0:0:0:0:
64,192,240063,1,0,0:0:0:0:
448,192,240138,1,0,0:0:0:0:
192,192,240138,128,0,240288:0:0:0:0:
64,192,240288,128,0,240438:0:0:0:0:
320,192,240363,1,0,0:0:0:0:
320,192,240438,1,0,0:0:0:0:
448,192,240438,128,0,240588:0:0:0:0:
192,192,240588,1,0,0:0:0:0:
320,192,240588,128,0,240738:0:0:0:0:
64,192,240738,1,0,0:0:0:0:
192,192,240738,128,0,240888:0:0:0:0:
320,192,240888,128,0,241038:0:0:0:0:
448,192,241038,1,0,0:0:0:0:
192,192,241038,128,0,241188:0:0:0:0:
320,192,241188,1,0,0:0:0:0:
448,192,241188,1,0,0:0:0:0:
192,192,241488,1,0,0:0:0:0:
64,192,241488,128,0,241788:0:0:0:0:
320,192,241638,1,0,0:0:0:0:
320,192,241788,1,0,0:0:0:0:
448,192,241788,128,0,242088:0:0:0:0:
192,192,241938,1,0,0:0:0:0:
320,192,242088,1,0,0:0:0:0:
64,192,242088,128,0,242238:0:0:0:0:
320,192,242238,1,0,0:0:0:0:
192,192,242388,1,0,0:0:0:0:
448,192,242388,1,0,0:0:0:0:
64,192,242388,128,0,242688:0:0:0:0:
448,192,242538,1,0,0:0:0:0:
320,192,242538,1,0,0:0:0:0:
192,192,242688,1,0,0:0:0:0:
320,192,242688,1,0,0:0:0:0:
448,192,242688,1,0,0:0:0:0:
320,192,242838,1,0,0:0:0:0:
320,192,242988,1,0,0:0:0:0:
448,192,242988,1,0,0:0:0:0:
64,192,242988,128,0,243063:0:0:0:0:
320,192,243138,1,0,0:0:0:0:
448,192,243138,1,0,0:0:0:0:
64,192,243138,128,0,243213:0:0:0:0:
448,192,243288,1,0,0:0:0:0:
320,192,243288,1,0,0:0:0:0:
64,192,243288,128,0,243363:0:0:0:0:
320,192,243438,1,0,0:0:0:0:
448,192,243438,1,0,0:0:0:0:
64,192,243438,128,0,243513:0:0:0:0:
192,192,243588,128,0,243738:0:0:0:0:
64,192,243738,1,0,0:0:0:0:
320,192,243738,128,0,244038:0:0:0:0:
64,192,243888,1,0,0:0:0:0:
192,192,244038,1,0,0:0:0:0:
448,192,244038,128,0,244188:0:0:0:0:
320,192,244188,1,0,0:0:0:0:
320,192,244338,1,0,0:0:0:0:
448,192,244338,128,0,244488:0:0:0:0:
320,192,244638,1,0,0:0:0:0:
448,192,244638,128,0,245013:0:0:0:0:
64,192,245088,1,0,0:0:0:0:
192,192,245163,1,0,0:0:0:0:
320,192,245163,1,0,0:0:0:0:
448,192,245238,1,0,0:0:0:0:
320,192,245313,1,0,0:0:0:0:
192,192,245313,1,0,0:0:0:0:
64,192,245388,1,0,0:0:0:0:
320,192,245463,1,0,0:0:0:0:
192,192,245463,1,0,0:0:0:0:
448,192,245538,1,0,0:0:0:0:
320,192,245613,1,0,0:0:0:0:
192,192,245613,1,0,0:0:0:0:
64,192,245688,1,0,0:0:0:0:
320,192,245763,1,0,0:0:0:0:
192,192,245763,1,0,0:0:0:0:
448,192,245838,1,0,0:0:0:0:
320,192,245913,1,0,0:0:0:0:
192,192,245913,1,0,0:0:0:0:
448,192,245988,1,0,0:0:0:0:
64,192,246063,1,0,0:0:0:0:
192,192,246063,1,0,0:0:0:0:
320,192,246138,1,0,0:0:0:0:
448,192,246138,1,0,0:0:0:0:
192,192,246213,1,0,0:0:0:0:
64,192,246213,1,0,0:0:0:0:
320,192,246288,1,0,0:0:0:0:
448,192,246363,1,0,0:0:0:0:
320,192,246438,1,0,0:0:0:0:
192,192,246513,1,0,0:0:0:0:
320,192,246588,1,0,0:0:0:0:
448,192,246588,1,0,0:0:0:0:
192,192,246663,1,0,0:0:0:0:
320,192,246738,1,0,0:0:0:0:
448,192,246738,1,0,0:0:0:0:
192,192,246813,1,0,0:0:0:0:
320,192,246888,1,0,0:0:0:0:
448,192,246888,1,0,0:0:0:0:
64,192,246963,1,0,0:0:0:0:
320,192,247038,1,0,0:0:0:0:
192,192,247113,1,0,0:0:0:0:
448,192,247188,1,0,0:0:0:0:
320,192,247188,1,0,0:0:0:0:
192,192,247263,1,0,0:0:0:0:
64,192,247338,1,0,0:0:0:0:
320,192,247338,1,0,0:0:0:0:
192,192,247413,1,0,0:0:0:0:
320,192,247488,1,0,0:0:0:0:
448,192,247488,1,0,0:0:0:0:
64,192,247563,1,0,0:0:0:0:
192,192,247638,1,0,0:0:0:0:
448,192,247713,1,0,0:0:0:0:
320,192,247788,1,0,0:0:0:0:
192,192,247788,1,0,0:0:0:0:
64,192,247863,1,0,0:0:0:0:
448,192,247938,1,0,0:0:0:0:
320,192,248013,1,0,0:0:0:0:
192,192,248088,1,0,0:0:0:0:
64,192,248088,1,0,0:0:0:0:
320,192,248163,1,0,0:0:0:0:
448,192,248238,1,0,0:0:0:0:
64,192,248313,1,0,0:0:0:0:
192,192,248388,1,0,0:0:0:0:
320,192,248388,1,0,0:0:0:0:
448,192,248463,1,0,0:0:0:0:
320,192,248538,1,0,0:0:0:0:
64,192,248613,1,0,0:0:0:0:
192,192,248688,1,0,0:0:0:0:
320,192,248688,1,0,0:0:0:0:
448,192,248688,1,0,0:0:0:0:
64,192,248763,1,0,0:0:0:0:
192,192,248838,1,0,0:0:0:0:
320,192,248913,1,0,0:0:0:0:
192,192,248988,1,0,0:0:0:0:
64,192,248988,1,0,0:0:0:0:
320,192,249063,1,0,0:0:0:0:
192,192,249138,1,0,0:0:0:0:
64,192,249138,1,0,0:0:0:0:
320,192,249213,1,0,0:0:0:0:
192,192,249288,1,0,0:0:0:0:
64,192,249288,1,0,0:0:0:0:
448,192,249363,1,0,0:0:0:0:
192,192,249438,1,0,0:0:0:0:
448,192,249513,1,0,0:0:0:0:
320,192,249588,1,0,0:0:0:0:
192,192,249588,1,0,0:0:0:0:
64,192,249663,1,0,0:0:0:0:
448,192,249738,1,0,0:0:0:0:
192,192,249738,1,0,0:0:0:0:
64,192,249813,1,0,0:0:0:0:
320,192,249888,1,0,0:0:0:0:
448,192,249888,1,0,0:0:0:0:
192,192,249963,1,0,0:0:0:0:
448,192,250038,1,0,0:0:0:0:
64,192,250113,1,0,0:0:0:0:
320,192,250188,1,0,0:0:0:0:
192,192,250188,1,0,0:0:0:0:
448,192,250263,1,0,0:0:0:0:
320,192,250338,1,0,0:0:0:0:
448,192,250413,1,0,0:0:0:0:
192,192,250488,1,0,0:0:0:0:
64,192,250488,1,0,0:0:0:0:
320,192,250563,1,0,0:0:0:0:
192,192,250638,1,0,0:0:0:0:
64,192,250713,1,0,0:0:0:0:
320,192,250788,1,0,0:0:0:0:
448,192,250788,1,0,0:0:0:0:
192,192,250863,1,0,0:0:0:0:
64,192,250938,1,0,0:0:0:0:
320,192,250938,1,0,0:0:0:0:
448,192,251013,1,0,0:0:0:0:
192,192,251088,1,0,0:0:0:0:
64,192,251088,128,0,251388:0:0:0:0:
320,192,251238,1,0,0:0:0:0:
320,192,251388,1,0,0:0:0:0:
448,192,251388,128,0,251688:0:0:0:0:
192,192,251538,1,0,0:0:0:0:
64,192,251688,128,0,251838:0:0:0:0:
320,192,251688,1,0,0:0:0:0:
320,192,251838,1,0,0:0:0:0:
448,192,251988,1,0,0:0:0:0:
192,192,251988,1,0,0:0:0:0:
64,192,251988,128,0,252288:0:0:0:0:
192,192,252138,1,0,0:0:0:0:
320,192,252138,1,0,0:0:0:0:
448,192,252288,1,0,0:0:0:0:
320,192,252288,1,0,0:0:0:0:
192,192,252288,1,0,0:0:0:0:
320,192,252438,1,0,0:0:0:0:
64,192,252588,1,0,0:0:0:0:
192,192,252588,1,0,0:0:0:0:
448,192,252588,128,0,252663:0:0:0:0:
64,192,252738,1,0,0:0:0:0:
192,192,252738,1,0,0:0:0:0:
448,192,252738,128,0,252813:0:0:0:0:
64,192,252888,1,0,0:0:0:0:
192,192,252888,1,0,0:0:0:0:
448,192,252888,128,0,252963:0:0:0:0:
64,192,253038,1,0,0:0:0:0:
192,192,253038,1,0,0:0:0:0:
448,192,253038,128,0,253113:0:0:0:0:
192,192,253188,128,0,253338:0:0:0:0:
320,192,253338,128,0,253638:0:0:0:0:
64,192,253338,1,0,0:0:0:0:
64,192,253488,1,0,0:0:0:0:
448,192,253638,128,0,253788:0:0:0:0:
192,192,253638,1,0,0:0:0:0:
320,192,253788,1,0,0:0:0:0:
320,192,253938,1,0,0:0:0:0:
448,192,253938,128,0,254088:0:0:0:0:
320,192,254238,1,0,0:0:0:0:
448,192,254238,128,0,254688:0:0:0:0:
64,192,254238,128,0,254688:0:0:0:0:
192,192,254688,128,0,254988:0:0:0:0:
320,192,254688,128,0,254988:0:0:0:0:
448,192,254988,128,0,255288:0:0:0:0:
64,192,254988,128,0,255288:0:0:0:0:
320,192,255288,128,0,255588:0:0:0:0:
192,192,255288,128,0,255588:0:0:0:0:
64,192,255588,1,0,0:0:0:0:
448,192,255588,1,0,0:0:0:0:
320,192,255738,1,0,0:0:0:0:
448,192,255813,1,0,0:0:0:0:
64,192,255888,1,0,0:0:0:0:
192,192,255888,1,0,0:0:0:0:
320,192,255888,1,0,0:0:0:0:
448,192,255963,1,0,0:0:0:0:
320,192,256038,1,0,0:0:0:0:
448,192,256113,1,0,0:0:0:0:
192,192,256188,1,0,0:0:0:0:
64,192,256188,1,0,0:0:0:0:
320,192,256263,1,0,0:0:0:0:
448,192,256338,1,0,0:0:0:0:
192,192,256338,1,0,0:0:0:0:
320,192,256413,1,0,0:0:0:0:
192,192,256488,1,0,0:0:0:0:
64,192,256488,1,0,0:0:0:0:
448,192,256488,1,0,0:0:0:0:
320,192,256563,1,0,0:0:0:0:
448,192,256638,1,0,0:0:0:0:
64,192,256638,1,0,0:0:0:0:
192,192,256713,1,0,0:0:0:0:
64,192,256788,1,0,0:0:0:0:
320,192,256863,1,0,0:0:0:0:
192,192,256938,1,0,0:0:0:0:
64,192,257013,1,0,0:0:0:0:
192,192,257088,1,0,0:0:0:0:
320,192,257088,1,0,0:0:0:0:
448,192,257088,1,0,0:0:0:0:
64,192,257163,1,0,0:0:0:0:
192,192,257238,1,0,0:0:0:0:
64,192,257313,1,0,0:0:0:0:
320,192,257388,1,0,0:0:0:0:
448,192,257388,1,0,0:0:0:0:
192,192,257463,1,0,0:0:0:0:
64,192,257538,1,0,0:0:0:0:
320,192,257538,1,0,0:0:0:0:
192,192,257613,1,0,0:0:0:0:
320,192,257688,1,0,0:0:0:0:
448,192,257688,1,0,0:0:0:0:
64,192,257688,1,0,0:0:0:0:
192,192,257763,1,0,0:0:0:0:
64,192,257838,1,0,0:0:0:0:
448,192,257838,1,0,0:0:0:0:
320,192,257913,1,0,0:0:0:0:
448,192,257988,1,0,0:0:0:0:
320,192,258063,1,0,0:0:0:0:
64,192,258138,1,0,0:0:0:0:
448,192,258213,1,0,0:0:0:0:
64,192,258288,1,0,0:0:0:0:
192,192,258288,1,0,0:0:0:0:
320,192,258288,1,0,0:0:0:0:
448,192,258363,1,0,0:0:0:0:
192,192,258438,1,0,0:0:0:0:
64,192,258513,1,0,0:0:0:0:
448,192,258588,1,0,0:0:0:0:
320,192,258588,1,0,0:0:0:0:
192,192,258663,1,0,0:0:0:0:
320,192,258738,1,0,0:0:0:0:
64,192,258738,1,0,0:0:0:0:
448,192,258813,1,0,0:0:0:0:
192,192,258888,1,0,0:0:0:0:
64,192,258888,1,0,0:0:0:0:
320,192,258888,1,0,0:0:0:0:
448,192,258963,1,0,0:0:0:0:
320,192,259038,1,0,0:0:0:0:
192,192,259038,1,0,0:0:0:0:
64,192,259113,1,0,0:0:0:0:
192,192,259188,1,0,0:0:0:0:
320,192,259263,1,0,0:0:0:0:
192,192,259338,1,0,0:0:0:0:
64,192,259413,1,0,0:0:0:0:
192,192,259488,1,0,0:0:0:0:
320,192,259488,1,0,0:0:0:0:
448,192,259488,1,0,0:0:0:0:
64,192,259563,1,0,0:0:0:0:
192,192,259638,1,0,0:0:0:0:
320,192,259713,1,0,0:0:0:0:
192,192,259788,1,0,0:0:0:0:
64,192,259788,1,0,0:0:0:0:
448,192,259863,1,0,0:0:0:0:
192,192,259938,1,0,0:0:0:0:
320,192,259938,1,0,0:0:0:0:
64,192,260013,1,0,0:0:0:0:
320,192,260088,1,0,0:0:0:0:
448,192,260088,1,0,0:0:0:0:
192,192,260088,1,0,0:0:0:0:
64,192,260163,1,0,0:0:0:0:
192,192,260238,1,0,0:0:0:0:
448,192,260238,1,0,0:0:0:0:
320,192,260313,1,0,0:0:0:0:
448,192,260388,1,0,0:0:0:0:
192,192,260463,1,0,0:0:0:0:
320,192,260538,1,0,0:0:0:0:
192,192,260613,1,0,0:0:0:0:
64,192,260688,1,0,0:0:0:0:
192,192,260688,1,0,0:0:0:0:
320,192,260688,1,0,0:0:0:0:
448,192,260688,1,0,0:0:0:0:
192,192,260838,1,0,0:0:0:0:
320,192,260838,1,0,0:0:0:0:
320,192,261138,1,0,0:0:0:0:
192,192,261138,1,0,0:0:0:0:
64,192,261138,1,0,0:0:0:0:
448,192,261138,1,0,0:0:0:0:
64,192,261588,1,0,0:0:0:0:
192,192,261588,1,0,0:0:0:0:
320,192,261588,1,0,0:0:0:0:
448,192,261588,1,0,0:0:0:0:
64,192,261888,128,0,262113:0:0:0:0:
192,192,261888,128,0,262263:0:0:0:0:
320,192,261888,128,0,262413:0:0:0:0:
448,192,261888,128,0,262713:0:0:0:0:
64,192,262188,128,0,263013:0:0:0:0:
192,192,262338,128,0,263013:0:0:0:0:
320,192,262488,128,0,263013:0:0:0:0:
448,192,262788,128,0,263013:0:0:0:0:
64,192,263088,1,0,0:0:0:0:
192,192,263088,1,0,0:0:0:0:
320,192,263088,1,0,0:0:0:0:
448,192,263088,1,0,0:0:0:0:
320,192,263538,1,0,0:0:0:0:
192,192,263538,1,0,0:0:0:0:
64,192,263538,1,0,0:0:0:0:
448,192,263538,1,0,0:0:0:0:
64,192,263988,1,0,0:0:0:0:
192,192,263988,1,0,0:0:0:0:
448,192,263988,1,0,0:0:0:0:
320,192,263988,1,0,0:0:0:0:
192,192,264288,1,0,0:0:0:0:
320,192,264288,1,0,0:0:0:0:
64,192,264588,1,0,0:0:0:0:
192,192,264588,128,0,264738:0:0:0:0:
320,192,264738,128,0,264888:0:0:0:0:
192,192,264888,1,0,0:0:0:0:
448,192,264888,128,0,265038:0:0:0:0:
320,192,265038,1,0,0:0:0:0:
320,192,265188,1,0,0:0:0:0:
192,192,265188,1,0,0:0:0:0:
64,192,265188,1,0,0:0:0:0:
64,192,265488,1,0,0:0:0:0:
192,192,265488,1,0,0:0:0:0:
448,192,265563,1,0,0:0:0:0:
320,192,265638,1,0,0:0:0:0:
448,192,265713,1,0,0:0:0:0:
64,192,265788,1,0,0:0:0:0:
320,192,265788,1,0,0:0:0:0:
192,192,265863,1,0,0:0:0:0:
320,192,265938,1,0,0:0:0:0:
448,192,265938,1,0,0:0:0:0:
192,192,266013,1,0,0:0:0:0:
64,192,266088,1,0,0:0:0:0:
320,192,266088,1,0,0:0:0:0:
448,192,266088,1,0,0:0:0:0:
192,192,266163,1,0,0:0:0:0:
320,192,266238,1,0,0:0:0:0:
448,192,266238,1,0,0:0:0:0:
64,192,266313,1,0,0:0:0:0:
192,192,266388,1,0,0:0:0:0:
448,192,266463,1,0,0:0:0:0:
192,192,266538,1,0,0:0:0:0:
64,192,266613,1,0,0:0:0:0:
192,192,266688,1,0,0:0:0:0:
320,192,266688,1,0,0:0:0:0:
448,192,266688,1,0,0:0:0:0:
64,192,266763,1,0,0:0:0:0:
192,192,266838,1,0,0:0:0:0:
320,192,266913,1,0,0:0:0:0:
448,192,266988,1,0,0:0:0:0:
192,192,266988,1,0,0:0:0:0:
320,192,267063,1,0,0:0:0:0:
192,192,267138,1,0,0:0:0:0:
64,192,267138,1,0,0:0:0:0:
320,192,267213,1,0,0:0:0:0:
192,192,267288,1,0,0:0:0:0:
448,192,267288,1,0,0:0:0:0:
64,192,267288,1,0,0:0:0:0:
320,192,267363,1,0,0:0:0:0:
192,192,267438,1,0,0:0:0:0:
64,192,267438,1,0,0:0:0:0:
320,192,267513,1,0,0:0:0:0:
448,192,267588,1,0,0:0:0:0:
320,192,267663,1,0,0:0:0:0:
192,192,267738,1,0,0:0:0:0:
448,192,267813,1,0,0:0:0:0:
64,192,267888,1,0,0:0:0:0:
192,192,267888,1,0,0:0:0:0:
320,192,267888,1,0,0:0:0:0:
448,192,267963,1,0,0:0:0:0:
320,192,268038,1,0,0:0:0:0:
192,192,268113,1,0,0:0:0:0:
448,192,268188,1,0,0:0:0:0:
320,192,268188,1,0,0:0:0:0:
192,192,268263,1,0,0:0:0:0:
320,192,268338,1,0,0:0:0:0:
448,192,268338,1,0,0:0:0:0:
192,192,268413,1,0,0:0:0:0:
64,192,268488,1,0,0:0:0:0:
320,192,268488,1,0,0:0:0:0:
448,192,268488,1,0,0:0:0:0:
192,192,268563,1,0,0:0:0:0:
320,192,268638,1,0,0:0:0:0:
448,192,268638,1,0,0:0:0:0:
192,192,268713,1,0,0:0:0:0:
320,192,268788,1,0,0:0:0:0:
448,192,268863,1,0,0:0:0:0:
64,192,268938,1,0,0:0:0:0:
192,192,269013,1,0,0:0:0:0:
320,192,269088,1,0,0:0:0:0:
448,192,269088,1,0,0:0:0:0:
64,192,269088,1,0,0:0:0:0:
192,192,269163,1,0,0:0:0:0:
64,192,269238,1,0,0:0:0:0:
320,192,269313,1,0,0:0:0:0:
192,192,269388,1,0,0:0:0:0:
64,192,269388,1,0,0:0:0:0:
448,192,269463,1,0,0:0:0:0:
192,192,269538,1,0,0:0:0:0:
320,192,269538,1,0,0:0:0:0:
448,192,269613,1,0,0:0:0:0:
64,192,269688,1,0,0:0:0:0:
320,192,269688,1,0,0:0:0:0:
192,192,269688,1,0,0:0:0:0:
448,192,269763,1,0,0:0:0:0:
64,192,269838,1,0,0:0:0:0:
192,192,269838,1,0,0:0:0:0:
320,192,269913,1,0,0:0:0:0:
448,192,269988,1,0,0:0:0:0:
320,192,270063,1,0,0:0:0:0:
192,192,270138,1,0,0:0:0:0:
64,192,270213,1,0,0:0:0:0:
192,192,270288,1,0,0:0:0:0:
320,192,270288,1,0,0:0:0:0:
448,192,270288,128,0,270588:0:0:0:0:
192,192,270588,1,0,0:0:0:0:
320,192,270588,128,0,270738:0:0:0:0:
448,192,270738,128,0,270888:0:0:0:0:
192,192,270888,1,0,0:0:0:0:
320,192,270888,128,0,271038:0:0:0:0:
64,192,271038,1,0,0:0:0:0:
192,192,271038,128,0,271188:0:0:0:0:
320,192,271188,128,0,271338:0:0:0:0:
448,192,271338,128,0,271488:0:0:0:0:
448,192,271788,128,0,271938:0:0:0:0:
320,192,271938,128,0,272088:0:0:0:0:
192,192,272088,1,0,0:0:0:0:
320,192,272163,1,0,0:0:0:0:
192,192,272238,1,0,0:0:0:0:
64,192,272313,1,0,0:0:0:0:
192,192,272388,1,0,0:0:0:0:
320,192,272463,1,0,0:0:0:0:
192,192,272538,1,0,0:0:0:0:
64,192,272613,1,0,0:0:0:0:
448,192,272688,1,0,0:0:0:0:
320,192,272688,128,0,272838:0:0:0:0:
192,192,272838,128,0,272988:0:0:0:0:
64,192,272988,1,0,0:0:0:0:
320,192,272988,128,0,273138:0:0:0:0:
448,192,273138,128,0,273738:0:0:0:0:
64,192,273288,1,0,0:0:0:0:
192,192,273288,1,0,0:0:0:0:
320,192,273288,1,0,0:0:0:0:
320,192,273438,1,0,0:0:0:0:
192,192,273588,1,0,0:0:0:0:
320,192,273738,1,0,0:0:0:0:
192,192,273888,1,0,0:0:0:0:
64,192,273888,1,0,0:0:0:0:
320,192,273963,1,0,0:0:0:0:
448,192,273963,1,0,0:0:0:0:
192,192,274038,1,0,0:0:0:0:
64,192,274038,1,0,0:0:0:0:
320,192,274113,1,0,0:0:0:0:
448,192,274113,1,0,0:0:0:0:
192,192,274188,1,0,0:0:0:0:
64,192,274188,1,0,0:0:0:0:
320,192,274263,1,0,0:0:0:0:
448,192,274263,1,0,0:0:0:0:
192,192,274338,1,0,0:0:0:0:
64,192,274338,1,0,0:0:0:0:
320,192,274413,1,0,0:0:0:0:
448,192,274413,1,0,0:0:0:0:
192,192,274488,1,0,0:0:0:0:
64,192,274488,1,0,0:0:0:0:
320,192,274563,1,0,0:0:0:0:
448,192,274563,1,0,0:0:0:0:
64,192,274638,1,0,0:0:0:0:
192,192,274638,1,0,0:0:0:0:
320,192,274713,1,0,0:0:0:0:
448,192,274713,1,0,0:0:0:0:
64,192,274788,1,0,0:0:0:0:
192,192,274788,1,0,0:0:0:0:
320,192,275088,1,0,0:0:0:0:
192,192,275088,1,0,0:0:0:0:
448,192,275088,1,0,0:0:0:0:
64,192,275088,128,0,277488:0:0:0:0:
192,192,275238,1,0,0:0:0:0:
320,192,275388,1,0,0:0:0:0:
448,192,275538,1,0,0:0:0:0:
192,192,275688,1,0,0:0:0:0:
320,192,275688,1,0,0:0:0:0:
448,192,275688,1,0,0:0:0:0:
320,192,275838,1,0,0:0:0:0:
192,192,275988,1,0,0:0:0:0:
448,192,276138,1,0,0:0:0:0:
320,192,276288,1,0,0:0:0:0:
192,192,276438,1,0,0:0:0:0:
192,192,276588,1,0,0:0:0:0:
320,192,276588,1,0,0:0:0:0:
448,192,276588,1,0,0:0:0:0:
320,192,276738,1,0,0:0:0:0:
192,192,276888,1,0,0:0:0:0:
320,192,276888,1,0,0:0:0:0:
448,192,276888,1,0,0:0:0:0:
192,192,277038,1,0,0:0:0:0:
320,192,277188,1,0,0:0:0:0:
448,192,277338,1,0,0:0:0:0:
192,192,277488,1,0,0:0:0:0:
320,192,277488,1,0,0:0:0:0:
448,192,277488,128,0,278688:0:0:0:0:
192,192,277638,1,0,0:0:0:0:
64,192,277788,1,0,0:0:0:0:
192,192,277938,1,0,0:0:0:0:
320,192,278088,1,0,0:0:0:0:
192,192,278088,1,0,0:0:0:0:
64,192,278088,1,0,0:0:0:0:
192,192,278238,1,0,0:0:0:0:
64,192,278388,1,0,0:0:0:0:
192,192,278538,1,0,0:0:0:0:
192,192,278688,1,0,0:0:0:0:
64,192,278688,1,0,0:0:0:0:
320,192,278688,128,0,278838:0:0:0:0:
448,192,278838,1,0,0:0:0:0:
192,192,278838,128,0,279138:0:0:0:0:
320,192,278988,1,0,0:0:0:0:
320,192,279138,1,0,0:0:0:0:
64,192,279138,1,0,0:0:0:0:
448,192,279138,128,0,279438:0:0:0:0:
192,192,279288,1,0,0:0:0:0:
320,192,279438,1,0,0:0:0:0:
64,192,279438,1,0,0:0:0:0:
192,192,279438,128,0,279588:0:0:0:0:
64,192,279588,1,0,0:0:0:0:
320,192,279588,1,0,0:0:0:0:
448,192,279588,128,0,279888:0:0:0:0:
192,192,279888,1,0,0:0:0:0:
64,192,279888,1,0,0:0:0:0:
320,192,279888,128,0,281688:0:0:0:0:
192,192,280038,1,0,0:0:0:0:
64,192,280188,1,0,0:0:0:0:
448,192,280338,1,0,0:0:0:0:
64,192,280488,1,0,0:0:0:0:
192,192,280488,1,0,0:0:0:0:
448,192,280488,1,0,0:0:0:0:
192,192,280638,1,0,0:0:0:0:
448,192,280788,1,0,0:0:0:0:
192,192,280938,1,0,0:0:0:0:
64,192,281088,1,0,0:0:0:0:
192,192,281238,1,0,0:0:0:0:
192,192,281388,1,0,0:0:0:0:
64,192,281388,1,0,0:0:0:0:
448,192,281388,1,0,0:0:0:0:
64,192,281538,1,0,0:0:0:0:
64,192,281688,1,0,0:0:0:0:
448,192,281688,1,0,0:0:0:0:
192,192,281688,128,0,282288:0:0:0:0:
64,192,281838,1,0,0:0:0:0:
320,192,281988,1,0,0:0:0:0:
448,192,282138,1,0,0:0:0:0:
64,192,282288,1,0,0:0:0:0:
448,192,282288,1,0,0:0:0:0:
320,192,282288,128,0,282738:0:0:0:0:
192,192,282438,1,0,0:0:0:0:
64,192,282588,1,0,0:0:0:0:
448,192,282738,1,0,0:0:0:0:
192,192,282738,128,0,283113:0:0:0:0:
320,192,282888,1,0,0:0:0:0:
64,192,283038,1,0,0:0:0:0:
320,192,283113,128,0,283488:0:0:0:0:
64,192,283188,1,0,0:0:0:0:
192,192,283338,1,0,0:0:0:0:
448,192,283488,1,0,0:0:0:0:
64,192,283488,1,0,0:0:0:0:
192,192,283488,128,0,283788:0:0:0:0:
448,192,283788,1,0,0:0:0:0:
64,192,283788,128,0,283938:0:0:0:0:
320,192,283788,128,0,283938:0:0:0:0:
192,192,283938,128,0,284388:0:0:0:0:
320,192,284088,1,0,0:0:0:0:
64,192,284238,1,0,0:0:0:0:
448,192,284388,1,0,0:0:0:0:
320,192,284388,128,0,284688:0:0:0:0:
448,192,284688,1,0,0:0:0:0:
64,192,284688,1,0,0:0:0:0:
192,192,284688,128,0,285588:0:0:0:0:
64,192,285288,1,0,0:0:0:0:
448,192,285288,1,0,0:0:0:0:
320,192,285288,1,0,0:0:0:0:
64,192,285588,1,0,0:0:0:0:
448,192,285588,1,0,0:0:0:0:
320,192,285588,128,0,286638:0:0:0:0:
192,192,285738,1,0,0:0:0:0:
64,192,285888,1,0,0:0:0:0:
192,192,286038,1,0,0:0:0:0:
64,192,286188,1,0,0:0:0:0:
448,192,286188,1,0,0:0:0:0:
448,192,286338,1,0,0:0:0:0:
448,192,286488,1,0,0:0:0:0:
192,192,286488,1,0,0:0:0:0:
64,192,286488,1,0,0:0:0:0:
64,192,286788,128,0,286863:0:0:0:0:
192,192,286863,128,0,286938:0:0:0:0:
320,192,286938,128,0,287013:0:0:0:0:
448,192,287013,128,0,287088:0:0:0:0:
192,192,287088,1,0,0:0:0:0:
64,192,287088,1,0,0:0:0:0:
320,192,287088,128,0,287688:0:0:0:0:
448,192,287238,1,0,0:0:0:0:
192,192,287388,1,0,0:0:0:0:
448,192,287538,1,0,0:0:0:0:
64,192,287688,128,0,288138:0:0:0:0:
192,192,287688,1,0,0:0:0:0:
192,192,287838,1,0,0:0:0:0:
320,192,287988,1,0,0:0:0:0:
192,192,288138,1,0,0:0:0:0:
320,192,288138,1,0,0:0:0:0:
448,192,288138,128,0,288888:0:0:0:0:
192,192,288288,1,0,0:0:0:0:
64,192,288438,1,0,0:0:0:0:
64,192,288588,1,0,0:0:0:0:
192,192,288588,1,0,0:0:0:0:
320,192,288588,1,0,0:0:0:0:
320,192,288738,1,0,0:0:0:0:
192,192,288888,1,0,0:0:0:0:
320,192,288888,1,0,0:0:0:0:
64,192,288888,128,0,289488:0:0:0:0:
192,192,289038,1,0,0:0:0:0:
192,192,289488,1,0,0:0:0:0:
320,192,289488,128,0,290313:0:0:0:0:
192,192,290088,1,0,0:0:0:0:
64,192,290088,1,0,0:0:0:0:
448,192,290088,1,0,0:0:0:0:
448,192,290388,128,0,290463:0:0:0:0:
320,192,290463,128,0,290538:0:0:0:0:
192,192,290538,128,0,290613:0:0:0:0:
64,192,290613,128,0,291288:0:0:0:0:
192,192,290988,1,0,0:0:0:0:
320,192,290988,1,0,0:0:0:0:
448,192,291288,128,0,291888:0:0:0:0:
192,192,291288,1,0,0:0:0:0:
64,192,291888,1,0,0:0:0:0:
192,192,291888,128,0,293088:0:0:0:0:
320,192,292488,1,0,0:0:0:0:
448,192,292488,1,0,0:0:0:0:
64,192,293088,1,0,0:0:0:0:
448,192,293088,1,0,0:0:0:0:
320,192,293088,128,0,293688:0:0:0:0:
192,192,293388,1,0,0:0:0:0:
64,192,293388,1,0,0:0:0:0:
64,192,293688,1,0,0:0:0:0:
192,192,293688,1,0,0:0:0:0:
448,192,293688,128,0,294288:0:0:0:0:
320,192,294288,1,0,0:0:0:0:
192,192,294325,1,0,0:0:0:0:
64,192,294363,1,0,0:0:0:0:
64,192,295038,1,0,0:0:0:0:
192,192,295113,1,0,0:0:0:0:
320,192,295225,1,0,0:0:0:0:
448,192,295338,1,0,0:0:0:0:
448,192,295488,1,0,0:0:0:0:
192,192,295900,1,0,0:0:0:0:
320,192,295900,1,0,0:0:0:0:
320,192,296388,1,0,0:0:0:0:
192,192,296688,1,0,0:0:0:0:
320,192,297175,1,0,0:0:0:0:
448,192,297175,1,0,0:0:0:0:
192,192,297588,1,0,0:0:0:0:
320,192,297888,1,0,0:0:0:0:
192,192,298338,1,0,0:0:0:0:
64,192,298338,1,0,0:0:0:0:
320,192,298750,1,0,0:0:0:0:
448,192,298750,1,0,0:0:0:0:
64,192,299088,1,0,0:0:0:0:
192,192,299125,1,0,0:0:0:0:
448,192,299163,1,0,0:0:0:0:
320,192,299163,1,0,0:0:0:0:
64,192,299838,1,0,0:0:0:0:
192,192,299913,1,0,0:0:0:0:
320,192,300025,1,0,0:0:0:0:
448,192,300138,1,0,0:0:0:0:
448,192,300288,1,0,0:0:0:0:
192,192,300775,1,0,0:0:0:0:
320,192,300775,1,0,0:0:0:0:
320,192,301263,1,0,0:0:0:0:
192,192,301563,1,0,0:0:0:0:
320,192,302050,1,0,0:0:0:0:
448,192,302050,1,0,0:0:0:0:
192,192,302538,1,0,0:0:0:0:
320,192,302838,1,0,0:0:0:0:
192,192,303288,1,0,0:0:0:0:
64,192,303288,1,0,0:0:0:0:
64,192,303775,1,0,0:0:0:0:
192,192,303813,1,0,0:0:0:0:
320,192,303850,1,0,0:0:0:0:
448,192,303850,1,0,0:0:0:0:
