osu file format v14

[General]
AudioFilename: audio.mp3
AudioLeadIn: 0
PreviewTime: 191366
Countdown: 0
SampleSet: Soft
StackLeniency: 0.3
Mode: 0
LetterboxInBreaks: 0
WidescreenStoryboard: 1

[Editor]
Bookmarks: 10925,57248,102425,136307,156072,192777,260542
DistanceSpacing: 0.2
BeatDivisor: 8
GridSize: 32
TimelineZoom: 4.899997

[Metadata]
Title:Try Again
TitleUnicode:Try Again
Artist:USAO
ArtistUnicode:USAO
Creator:JrSzZ
Version:Retry
Source:
Tags:Bright Colors 4 hardcore tano*c [TCPLUS-0027] edm UK techno dance happy
BeatmapID:1688458
BeatmapSetID:804339

[Difficulty]
HPDrainRate:6.5
CircleSize:3.8
OverallDifficulty:8.8
ApproachRate:9.3
SliderMultiplier:1.8
SliderTickRate:1

[Events]
//Background and Video events
0,0,"BG.png",0,0
//Break Periods
//Storyboard Layer 0 (Background)
//Storyboard Layer 1 (Fail)
//Storyboard Layer 2 (Pass)
//Storyboard Layer 3 (Foreground)
//Storyboard Sound Samples

[TimingPoints]
778,352.941176470588,4,2,1,60,1,0
778,-100,4,2,1,50,0,0
12072,-83.3333333333333,4,2,1,55,0,0
23366,-71.4285714285714,4,2,1,60,0,0
34660,-71.4285714285714,4,2,1,65,0,0
43836,-50,4,2,1,70,0,0
44101,-50,4,2,1,5,0,0
44189,-55.5555555555556,4,2,1,70,0,0
44454,-55.5555555555556,4,2,1,5,0,0
44542,-83.3333333333333,4,2,1,70,0,0
47013,-80,4,2,1,70,0,0
47719,-76.9230769230769,4,2,1,70,0,0
48777,-83.3333333333333,4,2,1,70,0,0
49836,-80,4,2,1,70,0,0
50542,-76.9230769230769,4,2,1,70,0,0
51248,-83.3333333333333,4,2,1,70,0,0
57248,-55.5555555555556,4,2,1,80,0,0
57513,-55.5555555555556,4,2,1,5,0,0
57601,-55.5555555555556,4,2,1,80,0,0
57866,-55.5555555555556,4,2,1,5,0,0
57954,-55.5555555555556,4,2,1,80,0,0
58219,-55.5555555555556,4,2,1,5,0,0
58307,-55.5555555555556,4,2,1,80,0,0
58572,-55.5555555555556,4,2,1,5,0,0
58660,-55.5555555555556,4,2,1,80,0,0
58925,-55.5555555555556,4,2,1,5,0,0
59013,-55.5555555555556,4,2,1,80,0,0
59277,-55.5555555555556,4,2,1,5,0,0
59365,-55.5555555555556,4,2,1,80,0,0
59630,-55.5555555555556,4,2,1,5,0,0
59718,-55.5555555555556,4,2,1,80,0,0
60072,-50,4,2,1,80,0,0
60336,-55.5555555555556,4,2,1,5,0,0
60425,-55.5555555555556,4,2,1,80,0,0
60513,-55.5555555555556,4,2,1,5,0,0
60601,-55.5555555555556,4,2,1,80,0,0
60689,-55.5555555555556,4,2,1,5,0,0
60777,-62.5,4,2,1,80,0,0
60866,-55.5555555555556,4,2,1,5,0,0
60954,-62.5,4,2,1,80,0,0
61042,-55.5555555555556,4,2,1,5,0,0
61130,-71.4285714285714,4,2,1,80,0,0
61219,-55.5555555555556,4,2,1,5,0,0
61307,-71.4285714285714,4,2,1,80,0,0
61395,-55.5555555555556,4,2,1,5,0,0
61483,-55.5555555555556,4,2,1,80,0,0
61748,-55.5555555555556,4,2,1,5,0,0
61836,-55.5555555555556,4,2,1,80,0,0
61925,-55.5555555555556,4,2,1,5,0,0
62013,-55.5555555555556,4,2,1,80,0,0
62101,-55.5555555555556,4,2,1,5,0,0
62189,-55.5555555555556,4,2,1,80,0,0
62454,-55.5555555555556,4,2,1,5,0,0
62542,-50,4,2,1,80,0,0
62807,-50,4,2,1,5,0,0
62895,-55.5555555555556,4,2,1,80,0,0
63160,-55.5555555555556,4,2,1,5,0,0
63248,-55.5555555555556,4,2,1,80,0,0
63513,-55.5555555555556,4,2,1,5,0,0
63601,-55.5555555555556,4,2,1,80,0,0
63866,-55.5555555555556,4,2,1,5,0,0
63954,-55.5555555555556,4,2,1,80,0,0
64219,-55.5555555555556,4,2,1,5,0,0
64307,-55.5555555555556,4,2,1,80,0,0
64572,-55.5555555555556,4,2,1,5,0,0
64660,-55.5555555555556,4,2,1,80,0,0
64925,-55.5555555555556,4,2,1,5,0,0
65013,-55.5555555555556,4,2,1,80,0,0
65277,-55.5555555555556,4,2,1,5,0,0
65365,-55.5555555555556,4,2,1,80,0,0
65719,-50,4,2,1,80,0,0
65983,-50,4,2,1,5,0,0
66072,-55.5555555555556,4,2,1,80,0,0
66160,-55.5555555555556,4,2,1,5,0,0
66248,-55.5555555555556,4,2,1,80,0,0
66336,-55.5555555555556,4,2,1,5,0,0
66424,-62.5,4,2,1,80,0,0
66513,-55.5555555555556,4,2,1,5,0,0
66601,-62.5,4,2,1,80,0,0
66689,-62.5,4,2,1,5,0,0
66777,-71.4285714285714,4,2,1,80,0,0
66866,-55.5555555555556,4,2,1,5,0,0
66954,-71.4285714285714,4,2,1,80,0,0
67042,-55.5555555555556,4,2,1,5,0,0
67130,-55.5555555555556,4,2,1,80,0,0
68542,-50,4,2,1,80,0,0
68807,-50,4,2,1,5,0,0
68895,-55.5555555555556,4,2,1,80,0,0
68983,-55.5555555555556,4,2,1,5,0,0
69072,-55.5555555555556,4,2,1,80,0,0
69160,-55.5555555555556,4,2,1,5,0,0
69248,-62.5,4,2,1,80,0,0
69336,-62.5,4,2,1,5,0,0
69425,-62.5,4,2,1,80,0,0
69513,-62.5,4,2,1,5,0,0
69601,-55.5555555555556,4,2,1,80,0,0
69866,-55.5555555555556,4,2,1,5,0,0
69954,-55.5555555555556,4,2,1,80,0,0
70219,-55.5555555555556,4,2,1,5,0,0
70307,-55.5555555555556,4,2,1,80,0,0
70572,-55.5555555555556,4,2,1,5,0,0
70660,-55.5555555555556,4,2,1,80,0,0
70925,-55.5555555555556,4,2,1,5,0,0
71013,-55.5555555555556,4,2,1,80,0,0
71277,-55.5555555555556,4,2,1,5,0,0
71366,-50,4,2,1,80,0,0
71630,-50,4,2,1,5,0,0
71719,-55.5555555555556,4,2,1,80,0,0
71807,-55.5555555555556,4,2,1,5,0,0
71895,-55.5555555555556,4,2,1,80,0,0
71983,-55.5555555555556,4,2,1,5,0,0
72071,-62.5,4,2,1,80,0,0
72160,-55.5555555555556,4,2,1,5,0,0
72248,-62.5,4,2,1,80,0,0
72336,-55.5555555555556,4,2,1,5,0,0
72424,-71.4285714285714,4,2,1,80,0,0
72513,-55.5555555555556,4,2,1,5,0,0
72601,-71.4285714285714,4,2,1,80,0,0
72689,-55.5555555555556,4,2,1,5,0,0
72777,-55.5555555555556,4,2,1,80,0,0
73042,-55.5555555555556,4,2,1,5,0,0
73130,-55.5555555555556,4,2,1,80,0,0
73748,-55.5555555555556,4,2,1,5,0,0
73836,-50,4,2,1,80,0,0
74100,-50,4,2,1,5,0,0
74189,-55.5555555555556,4,2,1,80,0,0
74454,-55.5555555555556,4,2,1,5,0,0
74542,-55.5555555555556,4,2,1,80,0,0
74630,-55.5555555555556,4,2,1,5,0,0
74719,-55.5555555555556,4,2,1,80,0,0
74807,-55.5555555555556,4,2,1,5,0,0
74895,-62.5,4,2,1,80,0,0
74983,-62.5,4,2,1,5,0,0
75072,-62.5,4,2,1,80,0,0
75160,-62.5,4,2,1,5,0,0
75248,-55.5555555555556,4,2,1,80,0,0
75513,-55.5555555555556,4,2,1,5,0,0
75601,-55.5555555555556,4,2,1,80,0,0
75866,-55.5555555555556,4,2,1,5,0,0
75954,-55.5555555555556,4,2,1,80,0,0
76219,-55.5555555555556,4,2,1,5,0,0
76307,-55.5555555555556,4,2,1,80,0,0
76572,-55.5555555555556,4,2,1,5,0,0
76660,-55.5555555555556,4,2,1,80,0,0
76925,-55.5555555555556,4,2,1,5,0,0
77013,-55.5555555555556,4,2,1,80,0,0
79925,-55.5555555555556,4,2,1,5,0,0
80013,-55.5555555555556,4,2,1,80,0,0
80102,-55.5555555555556,4,2,1,5,0,0
80189,-62.5,4,2,1,80,0,0
80278,-62.5,4,2,1,5,0,0
80366,-62.5,4,2,1,80,0,0
80455,-55.5555555555556,4,2,1,5,0,0
80542,-55.5555555555556,4,2,1,80,0,0
80807,-55.5555555555556,4,2,1,5,0,0
80894,-55.5555555555556,4,2,1,80,0,0
80983,-55.5555555555556,4,2,1,5,0,0
81070,-55.5555555555556,4,2,1,80,0,0
81160,-55.5555555555556,4,2,1,5,0,0
81248,-55.5555555555556,4,2,1,80,0,0
81513,-55.5555555555556,4,2,1,5,0,0
81601,-55.5555555555556,4,2,1,80,0,0
82219,-55.5555555555556,4,2,1,5,0,0
82307,-50,4,2,1,80,0,0
82571,-50,4,2,1,5,0,0
82660,-55.5555555555556,4,2,1,80,0,0
82925,-55.5555555555556,4,2,1,5,0,0
83013,-55.5555555555556,4,2,1,80,0,0
83101,-55.5555555555556,4,2,1,5,0,0
83189,-55.5555555555556,4,2,1,80,0,0
83277,-55.5555555555556,4,2,1,5,0,0
83365,-62.5,4,2,1,80,0,0
83454,-55.5555555555556,4,2,1,5,0,0
83542,-62.5,4,2,1,80,0,0
83630,-55.5555555555556,4,2,1,5,0,0
83718,-71.4285714285714,4,2,1,80,0,0
83807,-55.5555555555556,4,2,1,5,0,0
83895,-71.4285714285714,4,2,1,80,0,0
83983,-55.5555555555556,4,2,1,5,0,0
84071,-55.5555555555556,4,2,1,80,0,0
84336,-55.5555555555556,4,2,1,5,0,0
84425,-55.5555555555556,4,2,1,80,0,0
85042,-55.5555555555556,4,2,1,5,0,0
85130,-50,4,2,1,80,0,0
85395,-50,4,2,1,5,0,0
85483,-55.5555555555556,4,2,1,80,0,0
85748,-55.5555555555556,4,2,1,5,0,0
85836,-55.5555555555556,4,2,1,80,0,0
85924,-55.5555555555556,4,2,1,5,0,0
86013,-55.5555555555556,4,2,1,80,0,0
86101,-55.5555555555556,4,2,1,5,0,0
86189,-62.5,4,2,1,80,0,0
86277,-62.5,4,2,1,5,0,0
86366,-62.5,4,2,1,80,0,0
86454,-62.5,4,2,1,5,0,0
86542,-55.5555555555556,4,2,1,80,0,0
86807,-55.5555555555556,4,2,1,5,0,0
86895,-55.5555555555556,4,2,1,80,0,0
87160,-55.5555555555556,4,2,1,5,0,0
87248,-55.5555555555556,4,2,1,80,0,0
87513,-55.5555555555556,4,2,1,5,0,0
87601,-55.5555555555556,4,2,1,80,0,0
87866,-55.5555555555556,4,2,1,5,0,0
87954,-55.5555555555556,4,2,1,80,0,0
88219,-55.5555555555556,4,2,1,5,0,0
88307,-55.5555555555556,4,2,1,80,0,0
88572,-55.5555555555556,4,2,1,5,0,0
88660,-55.5555555555556,4,2,1,80,0,0
88925,-55.5555555555556,4,2,1,5,0,0
89013,-55.5555555555556,4,2,1,80,0,0
89278,-55.5555555555556,4,2,1,5,0,0
89366,-55.5555555555556,4,2,1,80,0,0
89631,-55.5555555555556,4,2,1,5,0,0
89719,-50,4,2,1,80,0,0
91395,-50,4,2,1,5,0,0
91483,-55.5555555555556,4,2,1,80,0,0
91748,-55.5555555555556,4,2,1,5,0,0
91836,-55.5555555555556,4,2,1,80,0,0
92101,-55.5555555555556,4,2,1,5,0,0
92189,-55.5555555555556,4,2,1,80,0,0
92454,-55.5555555555556,4,2,1,5,0,0
92542,-55.5555555555556,4,2,1,80,0,0
92807,-55.5555555555556,4,2,1,5,0,0
92895,-55.5555555555556,4,2,1,80,0,0
93160,-55.5555555555556,4,2,1,5,0,0
93248,-55.5555555555556,4,2,1,80,0,0
93513,-55.5555555555556,4,2,1,5,0,0
93601,-50,4,2,1,80,0,0
93865,-50,4,2,1,5,0,0
93954,-55.5555555555556,4,2,1,80,0,0
94219,-55.5555555555556,4,2,1,5,0,0
94307,-55.5555555555556,4,2,1,80,0,0
94572,-55.5555555555556,4,2,1,5,0,0
94660,-55.5555555555556,4,2,1,80,0,0
94925,-55.5555555555556,4,2,1,5,0,0
95013,-55.5555555555556,4,2,1,80,0,0
95277,-55.5555555555556,4,2,1,5,0,0
95366,-55.5555555555556,4,2,1,80,0,0
95630,-55.5555555555556,4,2,1,5,0,0
95718,-55.5555555555556,4,2,1,80,0,0
95983,-55.5555555555556,4,2,1,5,0,0
96071,-55.5555555555556,4,2,1,80,0,0
96336,-55.5555555555556,4,2,1,5,0,0
96425,-50,4,2,1,80,0,0
96689,-50,4,2,1,5,0,0
96777,-55.5555555555556,4,2,1,80,0,0
97042,-55.5555555555556,4,2,1,5,0,0
97130,-55.5555555555556,4,2,1,80,0,0
97395,-55.5555555555556,4,2,1,5,0,0
97483,-55.5555555555556,4,2,1,80,0,0
97748,-55.5555555555556,4,2,1,5,0,0
97836,-55.5555555555556,4,2,1,80,0,0
98101,-55.5555555555556,4,2,1,5,0,0
98189,-83.3333333333333,4,2,1,80,0,0
101013,-50,4,2,1,80,0,0
101719,-66.6666666666667,4,2,1,80,0,0
101895,-50,4,2,1,80,0,0
102425,-57.1428571428571,4,2,1,90,0,1
119366,-83.3333333333333,4,2,1,90,0,1
123601,-50,4,2,1,90,0,1
124307,-50,4,2,1,90,0,0
125013,-333.333333333333,4,2,1,90,0,0
125101,-333.333333333333,4,2,1,20,0,0
130748,-333.333333333333,4,2,1,20,0,0
132072,-333.333333333333,4,2,1,30,0,0
133483,-333.333333333333,4,2,1,40,0,0
134895,-111.111111111111,4,2,1,50,0,0
158895,-83.3333333333333,4,2,1,60,0,0
169483,-62.5,4,2,1,60,0,0
170189,-71.4285714285714,4,2,1,70,0,0
181483,-83.3333333333333,4,2,1,70,0,0
186425,-62.5,4,2,1,70,0,0
191366,-83.3333333333333,4,2,1,70,0,0
192777,-62.5,4,2,1,90,0,1
209719,-83.3333333333333,4,2,1,90,0,1
213954,-62.5,4,2,1,90,0,0
215366,-62.5,4,2,1,90,0,1
232307,-83.3333333333333,4,2,1,90,0,1
236542,-83.3333333333333,4,2,1,90,0,0
237954,-57.1428571428571,4,2,1,90,0,1
254895,-83.3333333333333,4,2,1,90,0,1
259836,-83.3333333333333,4,2,1,90,0,0
260542,-71.4285714285714,4,2,1,70,0,0
265483,-100,4,2,1,70,0,0
266189,-71.4285714285714,4,2,1,70,0,0
271130,-100,4,2,1,70,0,0
271836,-71.4285714285714,4,2,1,70,0,0
276777,-100,4,2,1,70,0,0
277483,-71.4285714285714,4,2,1,70,0,0
281013,-50,4,2,1,70,0,0
281277,-50,4,2,1,5,0,0
281366,-55.5555555555556,4,2,1,70,0,0
281630,-55.5555555555556,4,2,1,5,0,0
281719,-66.6666666666667,4,2,1,70,0,0
281983,-66.6666666666667,4,2,1,5,0,0
282072,-200,4,2,1,70,0,0
282425,-200,4,2,1,5,0,0
282601,-200,4,2,1,70,0,0
283130,-100,4,2,1,50,0,0
305719,-100,4,2,1,5,0,0

[Colours]
Combo1 : 255,0,0
Combo2 : 192,192,192
Combo3 : 0,0,255
Combo4 : 192,192,192

[HitObjects]
28,202,778,5,4,0:1:0:0:
39,66,954,1,0,0:0:0:0:
156,148,1130,6,0,P|198:161|240:148,1,90,10|0,0:0|0:0,0:0:0:0:
329,7,1483,2,0,P|315:49|328:91,1,90,4|0,0:0|0:0,0:0:0:0:
425,211,1836,2,0,P|438:168|425:126,1,90,10|0,0:0|0:0,0:0:0:0:
383,286,2189,2,0,P|425:299|467:286,1,90,4|0,0:0|0:0,0:0:0:0:
307,244,2542,2,0,P|293:286|306:328,1,90,10|0,0:0|0:0,0:0:0:0:
349,168,2895,2,0,P|306:154|264:167,1,90,4|0,0:0|0:0,0:0:0:0:
177,245,3248,5,10,0:0:0:0:
105,119,3425,1,0,0:0:0:0:
32,243,3601,1,4,0:0:0:0:
105,119,3777,1,0,0:0:0:0:
177,245,3954,6,0,L|298:228,1,90,10|0,0:0|0:0,0:0:0:0:
353,332,4307,2,0,L|258:343,1,90,4|0,0:0|0:0,0:0:0:0:
186,230,4660,2,0,L|307:213,1,90,10|0,0:0|0:0,0:0:0:0:
362,317,5013,2,0,L|267:328,1,90,4|0,0:0|0:0,0:0:0:0:
195,217,5366,2,0,L|316:200,1,90,10|0,0:0|0:0,0:0:0:0:
455,123,5719,2,0,L|439:215,1,90,4|0,0:0|0:0,0:0:0:0:
437,21,6072,2,0,L|420:128,1,90,10|0,0:0|0:0,0:0:0:0:
288,59,6425,5,4,0:0:0:0:
284,204,6601,1,0,0:0:0:0:
156,125,6777,6,0,P|113:114|70:126,1,90,10|0,0:0|0:0,0:0:0:0:
117,256,7130,2,0,P|160:267|203:255,1,90,4|0,0:0|0:0,0:0:0:0:
35,215,7483,2,0,P|24:257|35:300,1,90,10|0,0:0|0:0,0:0:0:0:
156,124,7836,2,0,P|167:80|155:37,1,90,4|0,0:0|0:0,0:0:0:0:
43,214,8189,2,0,P|32:256|43:299,1,90,10|0,0:0|0:0,0:0:0:0:
164,123,8542,2,0,P|175:79|163:36,1,90,4|0,0:0|0:0,0:0:0:0:
44,214,8895,5,10,0:0:0:0:
37,79,9072,1,0,0:0:0:0:
164,123,9248,1,4,0:0:0:0:
37,79,9425,1,0,0:0:0:0:
44,214,9601,6,0,L|52:309,1,90,10|0,0:0|0:0,0:0:0:0:
152,368,9954,2,0,L|144:278,1,90,4|0,0:0|0:0,0:0:0:0:
241,212,10307,2,0,L|248:301,1,90,10|0,0:0|0:0,0:0:0:0:
349,366,10660,2,0,L|341:276,1,90,4|0,0:0|0:0,0:0:0:0:
429,196,11013,2,0,L|436:285,1,90,10|0,0:0|0:0,0:0:0:0:
359,358,11366,2,0,L|351:268,1,90,4|0,0:0|0:0,0:0:0:0:
439,188,11719,2,0,L|446:277,1,90,10|0,0:0|0:0,0:0:0:0:
457,363,12072,5,12,0:1:0:0:
485,119,12248,1,0,0:0:0:0:
485,119,12336,1,0,0:0:0:0:
485,119,12425,2,0,P|433:106|383:127,1,107.999996704102,10|0,0:0|0:0,0:0:0:0:
309,236,12777,6,0,L|304:182,1,53.9999983520508,4|0,0:0|0:0,0:0:0:0:
240,63,12954,2,0,L|244:117,1,53.9999983520508
304,182,13130,2,0,P|250:205|197:190,1,107.999996704102,10|0,0:0|0:0,0:0:0:0:
27,62,13483,6,0,L|81:57,1,53.9999983520508,4|0,0:0|0:0,0:0:0:0:
203,195,13660,2,0,L|149:200,1,53.9999983520508,0|0,0:0|0:0,0:0:0:0:
70,153,13836,2,0,P|59:206|77:256,1,107.999996704102,10|0,0:0|0:0,0:0:0:0:
105,341,14189,6,0,L|42:345,2,53.9999983520508,4|0|0,0:0|0:0|0:0,0:0:0:0:
247,243,14542,1,10,0:0:0:0:
76,255,14719,1,0,0:0:0:0:
247,243,14895,5,4,0:0:0:0:
76,255,15072,1,0,0:0:0:0:
247,243,15248,2,0,B|316:237|316:237|345:259,1,107.999996704102,10|0,0:0|0:0,0:0:0:0:
423,348,15601,6,0,L|419:294,1,53.9999983520508,4|0,0:0|0:0,0:0:0:0:
475,92,15777,2,0,L|478:145,1,53.9999983520508
510,219,15954,2,0,P|458:224|413:194,1,107.999996704102,10|0,0:0|0:0,0:0:0:0:
178,35,16307,6,0,L|231:31,1,53.9999983520508,4|0,0:0|0:0,0:0:0:0:
361,107,16483,2,0,L|307:110,1,53.9999983520508,0|0,0:0|0:0,0:0:0:0:
221,123,16660,2,0,B|219:145|237:168|237:168|242:246,1,107.999996704102,10|0,0:0|0:0,0:0:0:0:
194,351,17013,6,0,L|191:297,1,53.9999983520508,4|0,0:0|0:0,0:0:0:0:
84,234,17189,2,0,L|137:230,1,53.9999983520508
240,226,17366,2,0,P|188:212|136:231,1,107.999996704102,10|0,0:0|0:0,0:0:0:0:
103,328,17719,5,4,0:0:0:0:
384,312,17895,1,0,0:0:0:0:
384,312,17983,1,0,0:0:0:0:
384,312,18072,2,0,L|256:321,1,107.999996704102,10|0,0:0|0:0,0:0:0:0:
473,334,18425,6,0,P|476:311|469:281,1,53.9999983520508,4|0,0:0|0:0,0:0:0:0:
510,159,18601,2,0,L|446:164,1,53.9999983520508
384,122,18777,2,0,P|371:173|396:220,1,107.999996704102,10|0,0:0|0:0,0:0:0:0:
321,7,19130,6,0,L|325:60,1,53.9999983520508,4|0,0:0|0:0,0:0:0:0:
231,140,19307,2,0,L|285:135,1,53.9999983520508
384,122,19483,2,0,P|336:146|284:135,1,107.999996704102,10|0,0:0|0:0,0:0:0:0:
104,92,19836,6,0,L|100:38,2,53.9999983520508,4|0|0,0:0|0:0|0:0,0:0:0:0:
193,228,20189,1,10,0:0:0:0:
30,237,20366,1,0,0:0:0:0:
193,228,20542,5,4,0:0:0:0:
30,237,20719,1,0,0:0:0:0:
193,228,20895,2,0,P|181:287|204:334,1,107.999996704102,10|0,0:0|0:0,0:0:0:0:
478,274,21248,6,0,P|480:247|470:223,1,53.9999983520508,4|0,0:0|0:0,0:0:0:0:
264,274,21425,2,0,L|327:269,1,53.9999983520508,0|0,0:0|0:0,0:0:0:0:
393,261,21601,2,0,L|401:369,1,107.999996704102,10|0,0:0|0:0,0:0:0:0:
438,133,21954,6,0,L|434:80,1,53.9999983520508,4|0,0:0|0:0,0:0:0:0:
394,262,22130,2,0,L|390:208,1,53.9999983520508,0|0,0:0|0:0,0:0:0:0:
438,133,22307,2,0,P|376:120|327:145,1,107.999996704102,10|0,0:0|0:0,0:0:0:0:
66,274,22836,6,0,L|59:194,1,53.9999983520508,0|0,0:0|0:0,0:0:0:0:
51,112,23013,2,0,L|65:273,1,161.999995056153
14,359,23366,6,0,P|79:369|140:339,1,125.999996154785,12|0,0:1|0:0,0:0:0:0:
183,145,23719,2,0,L|188:208,1,62.9999980773926,10|0,0:0|0:0,0:0:0:0:
197,291,23895,1,0,0:0:0:0:
183,145,24072,2,0,P|241:122|302:133,1,125.999996154785,4|0,0:0|0:0,0:0:0:0:
512,159,24425,2,0,P|454:182|393:171,1,125.999996154785,10|0,0:0|0:0,0:0:0:0:
302,133,24777,6,0,B|283:182|309:222|309:222|314:273,1,125.999996154785,4|0,0:0|0:0,0:0:0:0:
383,336,25130,2,0,P|330:363|255:347,1,125.999996154785,10|0,0:0|0:0,0:0:0:0:
166,226,25483,2,0,B|174:315|174:315|157:355,1,125.999996154785,4|0,0:0|0:0,0:0:0:0:
51,328,25836,2,0,B|42:238|42:238|60:199,1,125.999996154785,10|0,0:0|0:0,0:0:0:0:
152,80,26189,6,0,L|157:143,1,62.9999980773926,4|0,0:0|0:0,0:0:0:0:
166,226,26365,1,0,0:0:0:0:
377,69,26542,2,0,P|317:54|256:83,1,125.999996154785,10|0,0:0|0:0,0:0:0:0:
429,152,26895,2,0,P|471:107|477:40,1,125.999996154785,4|0,0:0|0:0,0:0:0:0:
331,155,27248,2,0,P|348:214|403:252,1,125.999996154785,10|0,0:0|0:0,0:0:0:0:
454,328,27601,6,0,B|408:356|358:336|358:336|326:339,1,125.999996154785,4|0,0:0|0:0,0:0:0:0:
134,248,27954,2,0,B|223:239|223:239|256:254,1,125.999996154785,10|0,0:0|0:0,0:0:0:0:
199,362,28307,2,0,B|109:370|109:370|76:355,1,125.999996154785,4|0,0:0|0:0,0:0:0:0:
123,122,28660,2,0,L|134:249,1,125.999996154785,10|0,0:0|0:0,0:0:0:0:
55,48,29013,6,0,P|113:26|175:38,1,125.999996154785,4|0,0:0|0:0,0:0:0:0:
271,215,29366,2,0,L|266:152,1,62.9999980773926,10|0,0:0|0:0,0:0:0:0:
257,69,29542,1,0,0:0:0:0:
390,204,29719,2,0,P|332:226|270:214,1,125.999996154785,4|0,0:0|0:0,0:0:0:0:
444,13,30072,2,0,P|466:71|454:133,1,125.999996154785,10|0,0:0|0:0,0:0:0:0:
400,329,30425,6,0,L|390:204,1,125.999996154785,4|0,0:0|0:0,0:0:0:0:
259,88,30777,2,0,L|269:213,1,125.999996154785,10|0,0:0|0:0,0:0:0:0:
184,328,31130,2,0,B|96:335|96:335|61:306,1,125.999996154785,4|0,0:0|0:0,0:0:0:0:
153,196,31483,2,0,B|240:188|240:188|275:217,1,125.999996154785,10|0,0:0|0:0,0:0:0:0:
56,208,31836,6,0,L|51:145,1,62.9999980773926,4|0,0:0|0:0,0:0:0:0:
42,62,32012,1,0,0:0:0:0:
256,40,32189,2,0,P|194:29|136:51,1,125.999996154785,10|0,0:0|0:0,0:0:0:0:
336,78,32542,2,0,P|397:88|455:66,1,125.999996154785,4|0,0:0|0:0,0:0:0:0:
256,40,32895,2,0,B|237:89|263:129|263:129|268:180,1,125.999996154785,10|0,0:0|0:0,0:0:0:0:
283,351,33248,6,0,B|370:343|370:343|399:308,1,125.999996154785,4|0,0:0|0:0,0:0:0:0:
485,201,33601,2,0,B|395:207|395:207|365:234,1,125.999996154785,10|0,0:0|0:0,0:0:0:0:
283,351,33954,2,0,P|296:286|263:226,1,125.999996154785,4|0,0:0|0:0,0:0:0:0:
94,252,34307,2,0,P|81:317|114:377,1,125.999996154785,10|0,0:0|0:0,0:0:0:0:
169,80,34660,5,12,0:1:0:0:
191,309,34836,1,0,0:0:0:0:
191,309,34924,1,0,0:0:0:0:
191,309,35013,2,0,L|180:181,1,125.999996154785,10|0,0:0|0:0,0:0:0:0:
107,84,35366,6,0,L|170:80,1,62.9999980773926,4|0,0:0|0:0,0:0:0:0:
352,62,35542,2,0,L|414:57,1,62.9999980773926
274,13,35719,2,0,P|259:77|291:138,1,125.999996154785,10|0,0:0|0:0,0:0:0:0:
400,268,36072,6,0,L|395:204,1,62.9999980773926,4|0,0:0|0:0,0:0:0:0:
283,130,36248,2,0,L|286:192,1,62.9999980773926
349,340,36425,2,0,P|408:355|466:331,1,125.999996154785,10|0,0:0|0:0,0:0:0:0:
140,334,36777,6,0,L|203:330,1,62.9999980773926,4|0,0:0|0:0,0:0:0:0:
349,340,36954,2,0,L|285:343,1,62.9999980773926,0|0,0:0|0:0,0:0:0:0:
139,333,37130,2,0,P|154:273|130:216,1,125.999996154785,10|0,0:0|0:0,0:0:0:0:
54,30,37483,6,0,P|38:89|63:147,1,125.999996154785,4|0,0:0|0:0,0:0:0:0:
123,336,37836,2,0,P|137:275|113:218,1,125.999996154785,10|0,0:0|0:0,0:0:0:0:
0,151,38189,6,0,L|63:147,1,62.9999980773926,4|0,0:0|0:0,0:0:0:0:
197,78,38366,2,0,L|133:81,1,62.9999980773926,0|0,0:0|0:0,0:0:0:0:
62,147,38542,2,0,P|36:89|52:29,1,125.999996154785,10|0,0:0|0:0,0:0:0:0:
192,15,38895,6,0,L|196:78,1,62.9999980773926,4|0,0:0|0:0,0:0:0:0:
347,195,39071,2,0,L|343:132,1,62.9999980773926,0|0,0:0|0:0,0:0:0:0:
395,53,39248,2,0,P|335:37|278:62,1,125.999996154785,10|0,0:0|0:0,0:0:0:0:
489,243,39601,6,0,L|426:246,1,62.9999980773926,4|0,0:0|0:0,0:0:0:0:
360,374,39777,2,0,L|356:311,1,62.9999980773926
347,195,39954,2,0,P|331:254|355:311,1,125.999996154785,10|0,0:0|0:0,0:0:0:0:
100,317,40307,5,4,0:0:0:0:
217,352,40483,1,0,0:0:0:0:
217,352,40572,1,0,0:0:0:0:
217,352,40660,2,0,B|236:303|211:262|211:262|208:211,1,125.999996154785,10|0,0:0|0:0,0:0:0:0:
138,21,41013,6,0,L|142:83,1,62.9999980773926,4|0,0:0|0:0,0:0:0:0:
95,228,41190,2,0,L|89:164,1,62.9999980773926,0|0,0:0|0:0,0:0:0:0:
26,91,41366,2,0,P|83:67|142:84,1,125.999996154785,10|0,0:0|0:0,0:0:0:0:
360,166,41719,6,0,L|296:170,1,62.9999980773926,4|0,0:0|0:0,0:0:0:0:
142,84,41896,2,0,L|204:78,1,62.9999980773926,0|0,0:0|0:0,0:0:0:0:
354,50,42072,2,0,P|336:108|359:166,1,125.999996154785,10|0,0:0|0:0,0:0:0:0:
433,367,42425,6,0,L|428:303,1,62.9999980773926,4|0,0:0|0:0,0:0:0:0:
360,166,42601,2,0,L|364:229,1,62.9999980773926,0|0,0:0|0:0,0:0:0:0:
428,304,42777,2,0,P|370:327|310:309,1,125.999996154785,10|0,0:0|0:0,0:0:0:0:
88,336,43130,6,0,L|52:344,6,31.4999990386963,4|0|0|0|0|0|0,0:0|0:0|0:0|0:0|0:0|0:0|0:0,0:0:0:0:
176,272,43483,2,0,L|211:280,6,31.4999990386963,10|0|0|0|0|0|0,0:0|0:0|0:0|0:0|0:0|0:0|0:0,0:0:0:0:
69,239,43836,6,0,P|0:134|115:140,1,270,4|0,0:0|0:0,0:0:0:0:
113,135,44189,6,0,P|238:132|249:24,1,242.999992584229,10|0,0:0|0:0,0:0:0:0:
249,15,44542,5,6,0:0:0:0:
249,15,44895,5,2,0:0:0:0:
232,230,45072,1,0,0:0:0:0:
439,121,45248,5,2,0:0:0:0:
134,92,45425,1,0,0:0:0:0:
220,320,45601,5,2,0:0:0:0:
249,15,45778,1,0,0:0:0:0:
350,336,45954,5,12,0:1:0:0:
350,336,46307,6,0,L|359:224,1,107.999996704102
162,336,46660,2,0,L|152:224,1,107.999996704102
361,343,47013,2,0,B|364:304|364:304|371:287|371:287|367:269|367:269|371:222,1,112.5
151,343,47366,2,0,B|147:304|147:304|140:287|140:287|144:269|144:269|140:222,1,112.5
372,350,47719,2,0,B|374:318|374:318|388:294|388:294|378:270|378:270|380:234,1,116.999994644165
140,350,48072,2,0,B|137:318|137:318|124:294|124:294|133:270|133:270|131:234,1,116.999994644165
256,96,48425,5,0,0:0:0:0:
256,288,48601,1,4,0:0:0:0:
256,288,48689,1,0,0:0:0:0:
256,288,48777,2,0,L|256:168,1,107.999996704102,4|0,0:0|0:0,0:0:0:0:
380,48,49130,6,0,P|396:98|383:150,1,107.999996704102
132,48,49483,2,0,P|115:98|128:150,1,107.999996704102
388,41,49836,2,0,B|408:63|412:88|412:88|408:118|390:145,1,112.5
124,41,50189,2,0,B|104:63|100:88|100:88|104:118|122:145,1,112.5
396,34,50542,2,0,B|425:83|425:83|401:137,1,116.999994644165
117,34,50895,2,0,B|87:83|87:83|111:137,1,116.999994644165
256,288,51248,5,4,0:0:0:0:
256,104,51425,1,4,0:0:0:0:
256,104,51513,1,0,0:0:0:0:
256,104,51601,5,4,0:0:0:0:
16,192,51777,1,2,0:0:0:0:
202,298,51954,5,4,0:0:0:0:
166,46,52130,1,2,0:0:0:0:
103,249,52307,5,4,0:0:0:0:
346,218,52483,1,2,0:0:0:0:
166,46,52660,5,4,0:0:0:0:
199,325,52836,1,2,0:0:0:0:
332,132,53013,5,4,0:0:0:0:
103,249,53189,1,2,0:0:0:0:
359,305,53366,5,4,0:0:0:0:
320,50,53542,1,2,0:0:0:0:
501,146,53719,5,4,0:0:0:0:
254,248,53895,1,2,0:0:0:0:
335,33,54072,5,4,0:0:0:0:
399,317,54248,1,2,0:0:0:0:
356,23,54425,5,6,0:0:0:0:
377,20,54513,1,0,0:0:0:0:
403,24,54601,1,6,0:0:0:0:
431,38,54689,1,0,0:0:0:0:
458,64,54777,1,6,0:0:0:0:
478,102,54866,1,0,0:0:0:0:
482,150,54954,1,6,0:0:0:0:
466,201,55042,1,0,0:0:0:0:
427,245,55130,6,0,L|480:239,3,53.9999983520508,6|0|6|0,0:0|0:0|0:0|0:0,0:0:0:0:
325,290,55483,2,0,L|271:284,3,53.9999983520508,6|0|6|0,0:0|0:0|0:0|0:0,0:0:0:0:
428,368,55836,5,12,0:1:0:0:
84,80,56189,6,0,L|64:29,2,53.9999983520508,4|0|4,0:0|0:0|0:0,0:0:0:0:
190,167,56542,2,0,L|243:176,2,53.9999983520508,12|0|4,0:0|0:0|0:0,0:0:0:0:
38,237,56895,2,0,L|57:217,6,26.9999991760254,4|0|4|0|0|0|0,0:0|0:0|0:0|0:0|0:0|0:0|0:0,0:0:0:0:
168,310,57248,6,0,B|219:319|219:319|241:331|241:331|266:327|266:327|348:341|348:341|333:314|339:283,1,242.999992584229,12|0,0:1|0:0,0:0:0:0:
509,281,57601,2,0,P|428:211|339:285,1,242.999992584229,8|0,0:0|0:0,0:0:0:0:
425,299,57954,2,0,B|403:55|403:55,1,242.999992584229,4|0,0:0|0:0,0:0:0:0:
384,51,58307,2,0,B|275:9|273:123|152:72,1,242.999992584229,8|0,0:0|0:0,0:3:0:0:
180,182,58660,5,6,0:0:0:0:
59,74,58836,2,0,P|66:113|91:144,1,80.9999975280763,2|0,0:0|0:0,0:0:0:0:
180,182,59013,1,10,2:0:0:0:
26,232,59189,2,0,P|63:245|103:238,1,80.9999975280763,2|0,2:0|2:0,2:0:0:0:
180,182,59366,1,6,0:0:0:0:
146,340,59542,2,0,P|176:313|190:276,1,80.9999975280763,2|0,0:0|0:0,0:0:0:0:
300,189,59719,6,0,P|419:203|445:312,1,242.999992584229,8|0,0:0|0:0,0:0:0:0:
438,328,60072,6,0,B|392:286|380:222|404:161|404:161|444:134|446:86,1,270,12|0,0:1|0:0,0:0:0:0:
337,73,60425,6,4,L|257:79,1,80.9999975280763,10|0,0:0|0:0,0:0:0:0:
33,128,60601,2,0,L|112:134,1,80.9999975280763,2|2,0:0|0:0,0:0:0:0:
305,162,60777,6,0,L|225:168,1,72,6|0,0:0|0:0,0:0:0:0:
65,217,60954,2,0,L|144:223,1,72,2|0,0:0|0:0,0:0:0:0:
277,251,61130,6,0,L|197:257,1,62.9999980773926,10|0,0:0|0:0,0:0:0:0:
93,306,61307,2,0,L|172:312,1,62.9999980773926,2|0,0:0|0:0,0:0:0:0:
386,369,61483,6,0,B|395:269|395:269|407:243|407:243|401:217|401:217|408:128,1,242.999992584229,4|0,0:0|0:0,3:0:0:0:
407,130,61836,6,0,B|446:142|446:142|484:132,1,80.9999975280763,10|0,0:0|0:0,0:0:0:0:
308,24,62013,2,0,B|269:12|269:12|230:21,1,80.9999975280763,2|0,0:0|0:0,0:0:0:0:
189,177,62189,2,0,P|75:159|111:50,1,242.999992584229,4|0,0:0|0:0,0:0:0:0:
120,54,62542,6,0,B|111:149|111:149|101:172|101:172|107:197|107:197|96:324,1,270,12|0,0:0|0:0,0:0:0:0:
25,367,62895,6,0,B|137:303|137:431|265:351,1,242.999992584229,12|0,0:1|0:0,0:0:0:0:
364,300,63248,2,0,P|259:261|256:358,1,242.999992584229,8|0,0:0|0:0,0:0:0:0:
465,343,63601,2,0,B|500:224|394:234|459:105,1,242.999992584229,4|0,0:0|0:0,0:0:0:0:
445,91,63954,2,0,B|405:134|353:153|292:130|292:130|263:97|222:94,1,242.999992584229,8|0,0:0|0:0,0:0:0:0:
207,210,64307,5,6,0:0:0:0:
116,73,64483,2,0,P|113:113|129:149,1,80.9999975280763,2|0,0:0|0:0,0:0:0:0:
207,210,64660,1,10,2:0:0:0:
44,217,64836,2,0,P|77:239|117:243,1,80.9999975280763,2|0,2:0|2:0,2:0:0:0:
207,210,65013,1,6,0:0:0:0:
131,353,65189,2,0,P|167:335|190:302,1,80.9999975280763,2|0,0:0|0:0,0:0:0:0:
326,220,65366,6,0,P|451:233|453:352,1,242.999992584229,8|0,0:0|0:0,0:0:0:0:
455,349,65719,6,0,B|445:237|445:237|451:212|451:212|441:189|441:189|431:80,1,270,12|0,0:1|0:0,0:0:0:0:
345,19,66072,6,0,L|339:99,1,80.9999975280763,10|0,0:0|0:0,0:0:0:0:
287,321,66248,2,0,L|281:242,1,80.9999975280763,2|0,0:0|0:0,0:0:0:0:
256,51,66424,6,0,L|250:131,1,72,6|0,0:0|0:0,0:0:0:0:
199,289,66601,2,0,L|193:210,1,72,2|0,0:0|0:0,0:0:0:0:
167,79,66777,6,0,L|161:159,1,62.9999980773926,10|0,0:0|0:0,0:0:0:0:
110,261,66954,2,0,L|104:182,1,62.9999980773926,2|0,0:0|0:0,0:0:0:0:
29,129,67130,5,8,0:1:0:0:
29,129,67483,5,4,0:0:0:0:
214,49,67660,1,2,0:0:0:0:
189,240,67836,5,4,0:0:0:0:
85,0,68013,1,2,0:0:0:0:
32,225,68189,5,4,0:0:0:0:
277,118,68366,1,2,0:0:0:0:
119,334,68542,6,0,B|247:270|247:402|380:322,1,270,12|0,0:1|0:0,0:0:0:0:
443,78,68895,6,0,P|403:89|363:84,1,80.9999975280763,10|0,0:0|0:0,0:0:0:0:
472,213,69072,2,0,P|432:207|393:219,1,80.9999975280763,2|0,0:0|0:0,0:0:0:0:
279,48,69248,6,0,P|271:83|278:120,1,72,6|0,0:0|0:0,0:0:0:0:
303,265,69425,2,0,P|309:228|303:191,1,72,2|0,0:0|0:0,0:0:0:0:
152,76,69601,6,0,P|49:57|84:159,1,242.999992584229,8|0,0:0|0:0,0:0:0:0:
88,330,69954,5,6,0:0:0:0:
71,155,70130,2,0,L|78:235,1,80.9999975280763,2|0,0:0|0:0,0:0:0:0:
179,352,70307,1,10,0:0:0:0:
162,177,70483,2,0,L|169:257,1,80.9999975280763,2|0,0:0|0:0,0:0:0:0:
269,370,70660,1,6,0:0:0:0:
252,195,70836,2,0,L|259:275,1,80.9999975280763,2|0,0:0|0:0,0:0:0:0:
422,383,71013,6,0,B|413:282|413:282|418:260|418:260|409:239|409:239|400:143,1,242.999992584229,8|0,0:0|0:0,0:0:0:0:
434,0,71366,2,0,P|452:105|307:102,1,270,12|0,0:1|0:0,0:0:0:0:
28,61,71720,6,0,L|108:67,1,80.9999975280763,10|0,0:0|0:0,0:0:0:0:
319,119,71895,2,0,L|240:125,1,80.9999975280763,2|0,0:0|0:0,0:0:0:0:
51,150,72072,6,0,L|131:156,1,72,6|0,0:0|0:0,0:0:0:0:
288,208,72248,2,0,L|209:214,1,72,2|0,0:0|0:0,0:0:0:0:
76,239,72425,6,0,L|156:245,1,62.9999980773926,10|0,0:0|0:0,0:0:0:0:
260,297,72601,2,0,L|181:303,1,62.9999980773926,2|0,0:0|0:0,0:0:0:0:
111,330,72777,6,0,B|202:335|202:335|233:346|233:346|266:342|266:342|362:349,1,242.999992584229,4|0,0:0|0:0,0:0:0:0:
378,349,73130,5,10,0:0:0:0:
346,101,73307,1,2,0:0:0:0:
487,36,73483,6,0,P|436:143|343:42,1,242.999992584229,4|0,0:0|0:0,0:0:0:0:
342,89,73836,6,0,P|226:23|160:126,1,270,8|0,0:0|0:0,0:0:0:0:
167,194,74189,6,0,P|133:84|11:92,1,242.999992584229,12|0,0:1|0:0,0:0:0:0:
115,334,74542,6,0,P|155:323|195:328,1,80.9999975280763,10|0,0:0|0:0,0:0:0:0:
88,199,74719,2,0,P|128:205|167:193,1,80.9999975280763,2|0,0:0|0:0,0:0:0:0:
280,364,74895,6,0,P|288:329|281:292,1,72,6|0,0:0|0:0,0:0:0:0:
257,147,75072,2,0,P|251:184|257:221,1,72,2|0,0:0|0:0,0:0:0:0:
383,316,75248,6,0,P|489:328|459:224,1,242.999992584229,8|0,0:0|0:0,0:0:0:0:
451,53,75601,5,6,0:0:0:0:
468,228,75777,2,0,L|460:147,1,80.9999975280763,2|0,0:0|0:0,0:0:0:0:
360,31,75954,1,10,0:0:0:0:
377,206,76130,2,0,L|369:125,1,80.9999975280763,2|0,0:0|0:0,0:0:0:0:
270,13,76307,1,6,0:0:0:0:
287,188,76483,2,0,L|279:107,1,80.9999975280763,2|0,0:0|0:0,0:0:0:0:
119,1,76660,6,8,B|127:101|127:101|122:124|122:124|131:144|131:144|140:240,1,242.999992584229
197,325,77013,6,0,L|191:388,6,40.4999987640381,4|0|0|0|0|0|0,0:0|0:0|0:0|0:0|0:0|0:0|0:0,0:0:0:0:
261,245,77366,2,0,L|255:181,6,40.4999987640381,8|0|0|0|0|0|0,0:0|0:0|0:0|0:0|0:0|0:0|0:0,0:0:0:0:
325,325,77719,2,0,L|319:388,6,40.4999987640381,4|0|0|0|0|0|0,0:0|0:0|0:0|0:0|0:0|0:0|0:0,0:0:0:0:
389,245,78072,2,0,L|383:181,6,40.4999987640381,8|0|0|0|0|0|0,0:0|0:0|0:0|0:0|0:0|0:0|0:0,0:0:0:0:
453,325,78425,5,8,0:1:0:0:
453,325,78777,5,4,0:0:0:0:
423,125,78954,1,2,0:0:0:0:
247,265,79130,5,4,0:0:0:0:
507,226,79307,1,2,0:0:0:0:
341,43,79483,5,4,0:0:0:0:
380,303,79660,1,2,0:0:0:0:
188,37,79836,6,0,P|196:76|188:115,1,80.9999975280763,12|0,0:1|0:0,0:0:0:0:
172,275,80013,2,0,P|163:232|180:180,1,80.9999975280763,2|0,0:0|0:0,0:0:0:0:
37,82,80189,6,0,P|72:86|107:79,1,72,2|0,0:0|0:0,0:0:0:0:
75,199,80366,2,0,P|40:192|5:197,1,72,2|0,0:0|0:0,0:0:0:0:
304,82,80542,1,10,0:0:0:0:
328,224,80719,6,0,P|287:220|248:230,1,80.9999975280763,2|0,0:0|0:0,0:0:0:0:
445,30,80895,2,0,P|453:69|445:108,1,80.9999975280763,2|0,0:0|0:0,0:0:0:0:
420,190,81072,2,0,P|411:229|419:269,1,80.9999975280763,2|0,0:0|0:0,0:0:0:0:
480,339,81248,6,0,B|362:399|366:281|241:344,1,242.999992584229,4|0,0:0|0:0,3:0:0:0:
228,356,81601,5,2,0:0:0:0:
161,135,81777,1,2,0:0:0:0:
16,142,81954,6,0,P|65:214|140:93,1,242.999992584229,8|0,0:0|0:0,0:0:0:0:
170,116,82307,6,0,P|286:50|352:153,1,270,4|0,0:0|0:0,0:0:0:0:
356,361,82660,6,0,P|433:294|320:288,1,242.999992584229,12|0,0:1|0:0,0:0:0:0:
45,320,83013,6,0,L|125:314,1,80.9999975280763,2|0,0:0|0:0,0:0:0:0:
339,260,83189,2,0,L|260:254,1,80.9999975280763,2|0,0:0|0:0,0:0:0:0:
74,231,83366,6,0,L|154:225,1,72,10|0,0:0|0:0,0:0:0:0:
307,171,83542,2,0,L|228:165,1,72,2|0,0:0|0:0,0:0:0:0:
100,142,83718,6,0,L|180:136,1,62.9999980773926,2|0,0:0|0:0,0:0:0:0:
279,82,83895,2,0,L|200:76,1,62.9999980773926,2|0,0:0|0:0,0:0:0:0:
128,53,84072,6,0,B|220:45|220:45|251:35|251:35|284:39|284:39|380:31,1,242.999992584229,4|0,0:0|0:0,0:0:0:0:
394,29,84425,5,2,0:0:0:0:
472,269,84601,1,2,0:0:0:0:
353,353,84777,6,0,P|350:263|482:315,1,242.999992584229,8|0,0:0|0:0,0:0:0:0:
482,289,85130,6,0,B|359:359|342:227|220:307,1,270,12|0,0:1|0:0,3:0:0:0:
115,343,85483,6,0,B|162:228|55:221|118:102,1,242.999992584229,12|0,0:1|0:0,3:0:0:0:
357,37,85836,6,0,L|262:45,1,80.9999975280763,2|0,0:0|0:0,0:0:0:0:
139,112,86013,2,0,L|233:120,1,80.9999975280763,2|0,0:0|0:0,0:0:0:0:
427,148,86189,6,0,L|332:156,1,72,10|0,0:0|0:0,0:0:0:0:
209,223,86366,2,0,L|303:231,1,72,2|0,0:0|0:0,0:0:0:0:
378,256,86542,6,0,P|416:352|298:333,1,242.999992584229,4|0,0:0|0:0,0:0:0:0:
20,327,86895,5,2,0:0:0:0:
199,312,87072,2,0,L|118:319,1,80.9999975280763,2|0,0:0|0:0,0:0:0:0:
30,238,87248,1,2,0:0:0:0:
209,223,87425,2,0,L|128:230,1,80.9999975280763,2|0,0:0|0:0,0:0:0:0:
43,148,87601,1,10,0:0:0:0:
222,134,87777,2,0,L|141:141,1,80.9999975280763,2|0,0:0|0:0,0:0:0:0:
53,58,87954,6,0,B|149:49|149:49|170:40|170:40|192:45|192:45|293:36,1,242.999992584229,4|0,0:0|0:0,0:0:0:0:
416,0,88307,6,0,P|295:29|343:126,1,242.999992584229,4|0,0:0|0:0,0:0:0:0:
339,125,88660,2,0,P|421:208|376:325,1,242.999992584229,4|0,0:0|0:0,0:0:0:0:
258,322,89013,2,0,B|353:313|353:313|386:318|386:318|419:308|419:308|544:296,1,242.999992584229,8|0,0:0|0:0,0:0:0:0:
512,284,89366,2,0,B|416:292|416:292|383:287|383:287|350:297|350:297|225:309,1,242.999992584229,4|0,0:0|0:0,0:0:0:0:
147,313,89719,1,8,0:1:0:0:
147,313,90072,5,4,0:0:0:0:
326,193,90248,1,2,0:0:0:0:
94,105,90425,5,4,0:0:0:0:
250,337,90601,1,2,0:0:0:0:
289,88,90777,5,4,0:0:0:0:
55,246,90953,1,2,0:0:0:0:
425,223,91130,6,0,P|468:323|369:276,1,270,12|0,0:1|0:0,0:0:0:0:
425,223,91483,2,0,B|417:159|417:159|407:136|407:136|413:111|413:111|406:31|406:31|465:71,1,242.999992584229,12|0,0:0|0:0,0:0:0:0:
458,75,91836,2,0,B|331:153|321:28|200:106,1,242.999992584229,4|0,0:0|0:0,0:0:0:0:
198,193,92189,2,0,P|234:106|105:148,1,242.999992584229,12|0,0:0|0:0,0:0:0:0:
198,193,92542,5,6,0:0:0:0:
36,202,92718,2,0,P|68:224|108:228,1,80.9999975280763,2|0,0:0|0:0,0:0:0:0:
198,193,92895,1,10,2:0:0:0:
124,337,93071,2,0,P|159:320|182:286,1,80.9999975280763,2|0,2:0|2:0,2:0:0:0:
198,193,93248,1,6,0:0:0:0:
285,328,93424,2,0,P|287:287|270:251,1,80.9999975280763,2|0,0:0|0:0,0:0:0:0:
381,60,93601,6,0,P|412:158|331:97,1,270,12|0,0:0|0:0,0:0:0:0:
383,115,93954,6,0,B|453:228|331:237|412:372,1,242.999992584229,12|0,0:1|0:0,0:0:0:0:
506,288,94307,2,0,B|410:297|410:297|389:306|389:306|367:301|367:301|266:310,1,242.999992584229,12|0,0:0|0:0,0:0:0:0:
158,340,94660,2,0,P|262:317|229:201,1,242.999992584229,4|0,0:0|0:0,0:0:0:0:
216,202,95013,2,0,P|191:95|297:68,1,242.999992584229,12|0,0:0|0:0,0:0:0:0:
487,224,95366,5,6,0:0:0:0:
471,54,95542,2,0,L|477:134,1,80.9999975280763,2|0,0:0|0:0,0:0:0:0:
401,262,95719,1,10,0:0:0:0:
385,92,95895,2,0,L|391:172,1,80.9999975280763,2|0,0:0|0:0,0:0:0:0:
316,295,96072,1,6,0:0:0:0:
300,125,96248,2,0,L|306:205,1,80.9999975280763,2|0,0:0|0:0,0:0:0:0:
129,353,96425,6,0,B|117:236|117:236|108:205|108:205|113:174|113:174|104:85,1,270,12|0,0:0|0:0,0:0:0:0:
36,29,96777,6,0,B|148:93|148:-35|276:45,1,242.999992584229,4|0,0:1|0:0,0:0:0:0:
300,125,97130,2,0,P|275:25|389:74,1,242.999992584229,12|0,0:0|0:0,0:0:0:0:
388,53,97483,2,0,B|397:156|397:156|407:179|407:179|401:204|401:204|408:292,1,242.999992584229,4|0,0:0|0:0,0:0:0:0:
464,347,97836,2,0,B|346:293|358:420|223:351,1,242.999992584229,8|0,0:0|0:0,0:0:0:0:
63,307,98189,6,0,L|56:226,3,53.9999983520508,4|0|0|0,0:0|0:0|0:0|0:0,0:0:0:0:
152,181,98542,2,0,L|157:235,3,53.9999983520508,8|0|0|0,0:0|0:0|0:0|0:0,0:0:0:0:
47,155,98895,2,0,L|42:101,3,53.9999983520508,4|0|0|0,0:0|0:0|0:0|0:0,0:0:0:0:
136,29,99248,2,0,L|141:83,3,53.9999983520508,8|0|0|0,0:0|0:0|0:0|0:0,0:0:0:0:
263,172,99601,5,4,0:0:0:0:
293,194,99689,1,0,0:0:0:0:
328,205,99777,1,0,0:0:0:0:
366,203,99865,1,0,0:0:0:0:
401,189,99953,1,8,0:0:0:0:
428,164,100042,1,0,0:0:0:0:
447,130,100130,1,0,0:0:0:0:
452,94,100218,1,0,0:0:0:0:
431,63,100307,5,4,0:0:0:0:
412,95,100395,1,0,0:0:0:0:
404,132,100483,1,0,0:0:0:0:
411,169,100571,1,0,0:0:0:0:
429,202,100659,1,8,0:0:0:0:
446,236,100748,1,0,0:0:0:0:
455,272,100836,1,0,0:0:0:0:
450,310,100924,1,0,0:0:0:0:
435,345,101013,6,0,L|487:337,6,45,4|0|0|0|0|0|0,0:0|0:0|0:0|0:0|0:0|0:0|0:0,0:0:0:0:
335,314,101366,2,0,L|283:306,6,45,4|0|0|0|0|0|0,0:0|0:0|0:0|0:0|0:0|0:0|0:0,0:0:0:0:
424,357,101719,5,2,0:0:0:0:
322,334,101895,2,0,L|270:326,4,45,2|0|0|0|0,0:0|0:0|0:0|0:0|0:0,0:0:0:0:
414,369,102248,1,2,0:0:0:0:
147,249,102425,6,0,L|89:254,4,39.3750003755093,12|0|0|0|0,0:1|0:0|0:1|0:0|0:1,0:0:0:0:
223,242,102777,1,14,0:0:0:0:
72,107,102954,1,0,0:0:0:0:
17,321,103130,5,4,0:0:0:0:
67,85,103306,1,0,0:0:0:0:
248,248,103483,1,14,0:0:0:0:
289,38,103660,6,0,L|299:-26,4,39.3750003755093,0|0|0|0|4,0:0|0:0|0:0|0:0|0:0,0:0:0:0:
276,116,104013,1,0,0:0:0:0:
505,63,104189,5,14,0:0:0:0:
286,131,104366,1,0,0:0:0:0:
504,225,104542,1,4,0:0:0:0:
296,144,104719,1,0,0:0:0:0:
417,346,104895,5,14,0:0:0:0:
394,99,105071,1,0,0:0:0:0:
417,346,105248,6,0,L|423:396,4,39.3750003755093,12|0|0|0|0,0:1|0:0|0:0|0:0|0:0,0:0:0:0:
407,267,105601,1,14,0:0:0:0:
192,344,105777,1,0,0:0:0:0:
188,128,105954,5,4,0:0:0:0:
287,307,106130,1,0,0:0:0:0:
187,110,106307,1,14,0:0:0:0:
91,313,106483,6,0,L|69:356,4,39.3750003755093,0|0|0|0|4,0:0|0:0|0:0|0:0|0:0,0:0:0:0:
123,241,106836,1,0,0:0:0:0:
325,364,107013,5,14,0:0:0:0:
132,227,107189,1,0,0:0:0:0:
366,192,107366,1,4,0:0:0:0:
142,212,107542,1,0,0:0:0:0:
314,53,107719,5,14,0:0:0:0:
31,62,107895,1,0,0:0:0:0:
334,131,108072,6,0,L|394:144,4,39.3750003755093,12|0|0|0|0,0:1|0:0|0:0|0:0|0:0,0:0:0:0:
257,110,108425,1,14,0:0:0:0:
461,164,108601,1,0,0:0:0:0:
311,317,108777,5,4,0:0:0:0:
250,93,108953,1,0,0:0:0:0:
474,152,109129,1,14,0:0:0:0:
311,317,109307,6,0,L|297:377,4,39.3750003755093,0|0|0|0|4,0:0|0:0|0:0|0:0|0:0,0:0:0:0:
331,240,109660,1,0,0:0:0:0:
103,300,109836,5,14,0:0:0:0:
289,153,110013,1,0,0:0:0:0:
207,309,110189,1,4,0:0:0:0:
239,74,110366,1,0,0:0:0:0:
251,232,110542,5,14,0:0:0:0:
12,87,110719,1,0,0:0:0:0:
318,66,110895,6,0,L|379:60,4,39.3750003755093,12|0|0|0|0,0:1|0:0|0:0|0:0|0:0,0:0:0:0:
239,74,111248,1,14,0:0:0:0:
436,53,111425,1,0,0:0:0:0:
216,65,111601,5,4,0:0:0:0:
368,245,111777,1,0,0:0:0:0:
449,38,111954,1,14,0:0:0:0:
281,185,112130,5,0,0:0:0:0:
281,185,112219,1,0,0:0:0:0:
281,185,112307,1,4,0:0:0:0:
308,156,112395,1,4,0:0:0:0:
344,141,112483,1,4,0:0:0:0:
383,140,112571,1,4,0:0:0:0:
419,155,112659,1,4,0:0:0:0:
235,256,112836,6,0,P|194:195|234:113,1,157.500001502037,4|4,0:0|0:0,0:0:0:0:
409,42,113189,1,4,0:0:0:0:
409,42,113277,1,0,0:0:0:0:
409,42,113366,2,0,B|438:73|438:73|449:190,1,157.500001502037,4|4,0:0|0:0,0:0:0:0:
471,323,113719,6,0,L|534:317,4,39.3750003755093,12|0|0|0|0,0:1|0:0|0:0|0:0|0:0,0:0:0:0:
391,331,114072,1,14,0:0:0:0:
450,188,114248,1,0,0:0:0:0:
262,238,114425,5,4,0:0:0:0:
471,323,114601,1,0,0:0:0:0:
438,107,114777,1,14,0:0:0:0:
262,238,114954,6,0,L|222:241,4,39.3750003755093,0|0|0|0|4,0:1|0:0|0:0|0:0|0:0,0:0:0:0:
340,230,115307,1,0,0:0:0:0:
105,253,115483,5,14,0:0:0:0:
275,330,115660,1,0,0:0:0:0:
150,152,115837,1,4,0:0:0:0:
61,348,116013,1,0,0:0:0:0:
39,66,116189,5,14,0:0:0:0:
262,238,116366,1,0,0:0:0:0:
197,38,116542,6,0,L|191:-18,4,39.3750003755093,12|0|0|0|0,0:1|0:0|0:0|0:0|0:0,0:0:0:0:
205,116,116895,1,14,0:0:0:0:
55,3,117072,1,0,0:0:0:0:
289,77,117248,5,4,0:0:0:0:
50,190,117425,1,0,0:0:0:0:
304,70,117601,1,14,0:0:0:0:
236,271,117777,6,0,L|217:322,4,39.3750003755093,0|0|0|0|4,0:0|0:0|0:0|0:0|0:0,0:0:0:0:
263,197,118130,1,0,0:0:0:0:
450,341,118307,5,14,0:0:0:0:
274,183,118483,1,0,0:0:0:0:
510,193,118660,1,4,0:0:0:0:
285,169,118836,1,0,0:0:0:0:
508,40,119013,5,14,0:0:0:0:
225,22,119189,1,0,0:0:0:0:
455,153,119366,5,12,0:1:0:0:
465,167,119454,1,0,0:0:0:0:
474,183,119542,1,0,0:0:0:0:
481,201,119630,1,0,0:0:0:0:
484,220,119718,1,14,0:0:0:0:
484,239,119807,1,0,0:0:0:0:
481,257,119895,1,0,0:0:0:0:
475,275,119983,1,0,0:0:0:0:
469,293,120072,6,0,P|442:302|415:301,3,53.9999983520508,4|0|0|0,0:0|0:0|0:0|0:0,0:0:0:0:
338,275,120425,2,0,P|311:274|284:282,3,53.9999983520508,14|0|0|0,0:0|0:0|0:0|0:0,0:0:0:0:
172,326,120777,5,12,0:1:0:0:
134,320,120865,1,0,0:0:0:0:
101,303,120953,1,0,0:0:0:0:
74,276,121041,1,0,0:0:0:0:
57,242,121129,1,14,0:0:0:0:
51,205,121218,1,0,0:0:0:0:
57,168,121306,1,0,0:0:0:0:
75,135,121394,1,0,0:0:0:0:
101,108,121483,6,0,B|130:95|160:103,3,53.9999983520508,4|0|0|0,0:0|0:0|0:0|0:0,0:0:0:0:
234,121,121836,2,0,B|257:127|286:114,3,53.9999983520508,14|0|0|0,0:0|0:0|0:0|0:0,0:0:0:0:
483,8,122189,5,12,0:1:0:0:
506,35,122277,1,0,0:0:0:0:
512,73,122365,1,0,0:0:0:0:
500,110,122453,1,0,0:0:0:0:
470,135,122541,1,14,0:0:0:0:
431,143,122630,1,0,0:0:0:0:
394,130,122718,1,0,0:0:0:0:
370,99,122806,1,0,0:0:0:0:
367,57,122895,5,4,0:0:0:0:
386,90,122983,1,0,0:0:0:0:
394,130,123071,1,0,0:0:0:0:
388,167,123159,1,0,0:0:0:0:
369,203,123247,1,14,0:0:0:0:
351,238,123336,1,0,0:0:0:0:
341,276,123424,1,0,0:0:0:0:
347,316,123512,1,0,0:0:0:0:
365,349,123601,6,0,L|420:331,6,45,4|0|0|0|2|0|0,0:0|0:0|0:0|0:0|0:0|0:0|0:0,0:0:0:0:
280,364,123954,2,0,L|225:346,6,45,4|0|0|0|2|0|0,0:0|0:0|0:0|0:0|0:0|0:0|0:0,0:0:0:0:
162,319,124307,5,2,2:0:0:0:
90,353,124483,2,0,L|42:373,4,45,2|0|0|0|0,0:0|0:0|0:1|0:0|0:1,0:0:0:0:
162,319,124836,1,2,0:0:0:0:
16,247,125013,6,0,B|83:241|116:172|116:172|115:255|148:320|225:362|310:375|380:306|412:260|409:194|398:149|372:97|323:75|323:75|248:115|256:192,1,863.999973632813,8|0,0:1|0:3,0:3:0:0:
256,192,130748,12,0,136130,0:0:0:0:
26,66,136307,5,2,0:0:0:0:
42,58,136483,2,0,P|81:51|121:59,1,80.9999975280763,0|0,0:0|0:0,0:0:0:0:
265,142,136836,2,0,P|225:150|185:143,1,80.9999975280763
38,216,137189,2,0,P|77:209|117:217,1,80.9999975280763
203,326,137542,1,0,0:0:0:0:
207,342,137719,6,0,P|162:335|128:308,1,80.9999975280763,2|0,0:0|0:0,0:0:0:0:
117,217,138072,2,0,P|145:181|185:165,1,80.9999975280763
270,201,138425,2,0,P|286:243|280:286,1,80.9999975280763
198,253,138777,1,0,0:0:0:0:
249,102,138954,1,0,0:0:0:0:
421,88,139130,6,0,B|346:122|346:51|250:101,1,161.999995056153,2|0,0:0|0:0,0:0:0:0:
482,26,139660,1,0,0:0:0:0:
501,119,139836,2,0,P|507:79|494:39,1,80.9999975280763
433,168,140189,2,0,P|427:208|440:248,1,80.9999975280763
502,331,140542,5,2,0:0:0:0:
405,340,140719,2,0,L|484:333,1,80.9999975280763
353,256,141072,2,0,P|312:248|273:263,1,80.9999975280763
161,346,141425,2,0,L|240:353,1,80.9999975280763
323,356,141777,1,0,0:0:0:0:
85,184,141954,6,0,B|110:205|120:246|108:280|108:280|80:300|75:337,1,161.999995056153,2|0,0:0|0:0,0:0:0:0:
161,346,142483,1,0,0:0:0:0:
32,243,142660,2,0,P|10:277|-1:316,1,80.9999975280763
52,111,143013,2,0,P|63:149|84:183,1,80.9999975280763
276,184,143366,5,2,0:0:0:0:
229,111,143542,2,0,P|190:100|151:111,1,80.9999975280763
276,184,143895,2,0,P|304:155|314:116,1,80.9999975280763
189,188,144248,2,0,P|199:226|227:255,1,80.9999975280763
334,326,144601,1,0,0:0:0:0:
172,330,144777,6,0,P|248:293|326:319,1,161.999995056153,2|0,0:0|0:0,0:0:0:0:
496,352,145307,2,0,L|415:359,1,80.9999975280763
500,264,145660,2,0,L|419:271,1,80.9999975280763
504,176,146013,1,0,0:0:0:0:
364,20,146189,6,0,P|400:2|440:4,1,80.9999975280763,2|0,0:0|0:0,0:0:0:0:
331,98,146542,2,0,P|297:76|279:40,1,80.9999975280763
416,88,146895,2,0,P|412:127|391:161,1,80.9999975280763
224,192,147248,2,0,L|319:183,1,80.9999975280763
280,280,147601,6,0,B|208:289|157:291|157:291|97:255,1,161.999995056153,8|0,0:1|0:0,0:0:0:0:
21,197,148130,1,0,0:0:0:0:
30,301,148307,2,0,L|22:206,1,80.9999975280763
117,351,148660,2,0,L|125:256,1,80.9999975280763
44,85,149013,5,2,0:0:0:0:
196,77,149189,2,0,P|128:120|44:83,1,161.999995056153
268,29,149719,2,0,B|292:69|276:107,1,80.9999975280763
245,260,150072,2,0,B|221:220|237:182,1,80.9999975280763
458,193,150425,6,0,P|392:235|318:212,1,161.999995056153,2|0,0:0|0:0,0:0:0:0:
373,45,150954,1,0,0:0:0:0:
381,143,151130,2,0,L|372:47,1,80.9999975280763
458,193,151483,2,0,L|449:289,1,80.9999975280763
500,349,151836,5,2,0:0:0:0:
328,344,152013,2,0,B|397:314|412:391|492:353,1,161.999995056153
266,282,152542,2,0,P|243:315|244:360,1,80.9999975280763
348,255,152895,2,0,P|329:218|290:196,1,80.9999975280763
131,262,153248,6,0,P|188:222|133:180,1,161.999995056153,2|0,0:0|0:0,0:0:0:0:
49,327,153777,1,0,0:0:0:0:
29,233,153953,2,0,P|25:278|36:312,1,80.9999975280763
43,54,154307,2,0,P|54:92|49:132,1,80.9999975280763
254,175,154660,5,2,0:0:0:0:
258,85,154836,2,0,B|232:53|232:53|196:36,1,80.9999975280763
254,175,155189,2,0,B|293:169|293:169|326:145,1,80.9999975280763
180,125,155542,2,0,B|164:161|164:161|168:201,1,80.9999975280763
184,318,155895,2,0,L|190:367,2,40.4999987640381
184,318,157660,5,14,0:3:0:0:
184,53,157836,1,14,0:3:0:0:
331,224,158189,5,0,0:0:0:0:
342,240,158366,2,0,L|358:203,1,40.4999987640381,2|0,0:0|0:0,0:0:0:0:
483,150,158542,2,0,L|442:153,1,40.4999987640381,2|0,0:0|0:0,0:0:0:0:
335,73,158719,2,0,L|359:105,1,40.4999987640381,2|0,0:0|0:0,0:0:0:0:
440,311,158895,6,0,P|342:269|244:307,1,215.999993408203,8|2,0:1|0:0,0:0:0:0:
175,369,159425,1,0,0:0:0:0:
150,210,159601,1,2,0:0:0:0:
181,384,159777,5,0,0:0:0:0:
156,225,159954,1,2,0:0:0:0:
37,280,160130,6,0,B|-2:173|84:173|49:66,1,215.999993408203,2|0,0:0|0:0,0:0:0:0:
258,80,160660,2,0,P|211:105|158:104,1,107.999996704102,2|0,0:0|0:0,0:0:0:0:
321,12,161013,2,0,P|346:59|344:113,1,107.999996704102,2|0,0:0|0:0,0:0:0:0:
256,220,161366,1,2,0:0:0:0:
344,112,161542,1,2,0:0:0:0:
478,235,161719,6,0,B|438:197|438:197|267:216,1,215.999993408203,2|2,0:0|0:0,0:0:0:0:
292,328,162248,1,0,0:0:0:0:
421,317,162425,2,0,L|309:326,1,107.999996704102,2|0,0:0|0:0,0:0:0:0:
62,332,162777,2,0,P|114:342|163:322,1,107.999996704102,2|0,0:0|0:0,0:0:0:0:
84,48,163130,6,0,B|53:151|140:148|105:255,1,215.999993408203,2|2,0:0|0:0,0:0:0:0:
177,83,163660,1,0,0:0:0:0:
20,212,163836,1,2,0:0:0:0:
189,73,164013,5,0,0:0:0:0:
244,215,164189,1,2,0:0:0:0:
201,63,164366,1,0,0:0:0:0:
364,44,164542,6,0,P|348:148|264:212,1,215.999993408203,2|2,0:0|0:0,0:0:0:0:
156,220,165072,1,0,0:0:0:0:
413,197,165248,2,0,P|440:241|437:295,1,107.999996704102,2|0,0:0|0:0,0:0:0:0:
278,343,165601,1,2,0:0:0:0:
501,353,165777,6,0,B|401:310|395:397|292:352,1,215.999993408203,2|0,0:0|0:0,0:0:0:0:
41,301,166307,2,0,B|92:264|143:286,1,107.999996704102,2|0,0:0|0:0,0:0:0:0:
204,330,166660,2,0,B|167:278|189:227,1,107.999996704102,2|0,0:0|0:0,0:0:0:0:
260,130,167013,1,2,0:0:0:0:
335,258,167189,1,0,0:0:0:0:
144,131,167366,6,0,P|179:47|316:29,1,215.999993408203,2|2,0:0|0:0,0:0:0:0:
260,130,167895,1,0,0:0:0:0:
376,102,168072,1,2,0:0:0:0:
349,253,168248,5,0,0:0:0:0:
385,114,168425,1,2,0:0:0:0:
414,320,168601,2,0,B|318:384|302:288|206:336,1,215.999993408203,2|2,0:0|0:0,0:0:0:0:
104,376,169130,2,0,P|117:324|101:273,1,107.999996704102,2|0,0:0|0:0,0:0:0:0:
16,88,169483,6,0,L|12:40,2,36,2|0|2,0:0|0:0|0:0,0:0:0:0:
72,160,169660,2,0,L|67:207,2,36,2|0|0,0:0|0:0|0:0,0:0:0:0:
107,78,169836,2,0,L|102:30,2,36,2|0|0,0:0|0:0|0:0,0:0:0:0:
162,149,170013,2,0,L|157:196,2,36,2|0|0,0:0|0:0|0:0,0:0:0:0:
239,55,170189,6,0,P|295:30|355:46,1,125.999996154785,12|0,0:1|0:0,0:0:0:0:
462,118,170454,1,0,0:0:0:0:
460,105,170542,2,0,L|451:4,1,62.9999980773926,14|0,0:0|0:0,0:0:0:0:
303,118,170719,2,8,L|307:180,1,62.9999980773926,0|0,0:0|0:0,0:0:0:0:
362,246,170895,6,0,B|341:221|341:221|247:230,1,125.999996154785,4|0,0:0|0:0,0:0:0:0:
299,355,171248,2,0,B|320:379|320:379|413:370,1,125.999996154785,14|0,0:0|0:0,0:0:0:0:
366,236,171601,6,0,B|345:211|345:211|251:222,1,125.999996154785,4|0,0:0|0:0,0:0:0:0:
164,354,171866,1,0,0:0:0:0:
162,342,171954,2,0,L|153:241,1,62.9999980773926,14|0,0:0|0:0,0:0:0:0:
88,150,172130,2,0,L|92:212,1,62.9999980773926
157,280,172307,6,0,P|100:304|40:288,1,125.999996154785,4|0,0:0|0:0,0:0:0:0:
184,197,172660,1,14,0:0:0:0:
1,210,172836,1,0,0:0:0:0:
24,82,173013,6,0,P|81:57|141:73,1,125.999996154785,4|0,0:0|0:0,0:0:0:0:
261,137,173277,1,0,0:0:0:0:
259,124,173365,2,0,L|250:23,1,62.9999980773926,14|0,0:0|0:0,0:0:0:0:
422,6,173542,2,0,L|426:68,1,62.9999980773926
376,176,173719,6,0,B|348:159|348:159|341:65,1,125.999996154785,4|0,0:0|0:0,0:0:0:0:
461,223,174072,2,0,B|488:239|488:239|495:333,1,125.999996154785,14|0,0:0|0:0,0:0:0:0:
376,292,174425,6,0,P|315:275|258:299,1,125.999996154785,4|0,0:0|0:0,0:0:0:0:
128,366,174689,1,0,0:0:0:0:
115,366,174777,2,0,L|14:374,1,62.9999980773926,14|0,0:0|0:0,0:0:0:0:
259,299,174954,2,0,L|195:303,1,62.9999980773926
115,366,175130,6,0,P|93:305|117:241,1,125.999996154785,4|0,0:0|0:0,0:0:0:0:
227,138,175483,2,0,P|167:162|102:140,1,125.999996154785,14|0,0:0|0:0,0:0:0:0:
43,80,175836,5,4,0:0:0:0:
287,57,176013,1,2,0:0:0:0:
287,57,176101,1,2,0:0:0:0:
287,57,176189,2,0,P|273:120|306:180,1,125.999996154785,14|0,0:0|0:0,0:0:0:0:
392,104,176542,5,4,0:0:0:0:
415,334,176719,1,2,0:0:0:0:
415,334,176807,1,2,0:0:0:0:
415,334,176895,2,0,P|429:271|396:211,1,125.999996154785,14|0,0:0|0:0,0:0:0:0:
102,313,177248,5,4,2:0:0:0:
332,291,177425,1,2,2:0:0:0:
332,291,177513,1,2,2:0:0:0:
332,291,177601,2,0,L|188:303,1,125.999996154785,14|0,2:0|2:0,2:0:0:0:
54,230,177954,5,4,2:0:0:0:
284,208,178131,1,2,2:0:0:0:
284,208,178219,1,2,2:0:0:0:
284,208,178307,2,0,L|140:220,1,125.999996154785,14|0,2:0|2:0,2:0:0:0:
6,147,178660,5,4,2:0:0:0:
217,55,178837,1,2,2:0:0:0:
217,55,178925,1,2,2:0:0:0:
217,55,179013,2,0,P|275:30|338:43,1,125.999996154785,14|0,2:0|2:0,2:0:0:0:
433,90,179366,5,4,0:0:0:0:
398,306,179542,1,2,2:0:0:0:
398,306,179630,1,2,2:0:0:0:
398,306,179718,2,0,P|373:248|386:184,1,125.999996154785,14|0,2:0|2:0,2:0:0:0:
479,238,180072,5,4,0:0:0:0:
222,276,180248,1,4,0:0:0:0:
222,276,180336,1,4,0:0:0:0:
222,276,180425,2,0,L|285:269,1,62.9999980773926,4|0,0:0|0:0,0:0:0:0:
69,296,180601,2,0,L|132:289,1,62.9999980773926,4|0,0:0|0:0,0:0:0:0:
110,29,180777,6,0,P|140:19|171:22,1,62.9999980773926,4|0,0:0|0:0,0:0:0:0:
190,193,180954,2,0,P|161:202|130:200,1,62.9999980773926,4|0,0:0|0:0,0:0:0:0:
232,72,181130,6,0,P|242:101|239:132,1,62.9999980773926,4|0,0:0|0:0,0:0:0:0:
68,151,181307,2,0,P|59:122|61:91,1,62.9999980773926,4|0,0:0|0:0,0:0:0:0:
368,47,181483,6,0,B|321:152|418:151|388:254,1,215.999993408203,8|0,0:1|0:0,0:0:0:0:
447,98,182013,1,0,0:0:0:0:
445,336,182189,2,0,P|393:353|336:337,1,107.999996704102
272,153,182542,1,0,0:0:0:0:
176,344,182719,1,0,0:0:0:0:
176,344,182807,1,2,0:0:0:0:
176,344,182895,6,0,P|85:274|93:351,1,215.999993408203,2|0,0:0|0:0,0:0:0:0:
272,153,183425,1,0,0:0:0:0:
52,79,183601,2,0,L|63:206,1,107.999996704102
73,305,183954,1,0,0:0:0:0:
193,74,184130,1,2,0:0:0:0:
193,74,184219,1,2,0:0:0:0:
193,74,184307,6,0,B|155:114|155:114|174:285,1,215.999993408203,2|0,0:0|0:0,0:0:0:0:
187,384,184836,1,0,0:0:0:0:
405,241,185013,2,0,P|353:229|302:246,1,107.999996704102
458,332,185366,1,0,0:0:0:0:
438,100,185542,1,2,0:0:0:0:
438,100,185630,1,2,0:0:0:0:
438,100,185719,6,0,B|456:320,1,215.999993408203,2|0,0:0|0:0,0:0:0:0:
295,134,186248,1,0,0:0:0:0:
223,190,186425,6,0,L|174:194,2,36,2|0|0,0:0|0:0|0:0,0:0:0:0:
295,134,186602,2,0,L|342:139,2,36,2|0|0,0:0|0:0|0:0,0:0:0:0:
213,99,186778,2,0,L|165:104,2,36,2|0|0,0:0|0:0|0:0,0:0:0:0:
284,44,186955,2,0,L|331:49,2,36,2|0|0,0:0|0:0|0:0,0:0:0:0:
256,192,187130,12,0,191277,0:0:0:0:
256,192,191366,5,0,0:0:0:0:
153,252,191719,5,0,0:0:0:0:
256,76,191895,1,0,0:0:0:0:
354,253,192072,1,0,0:0:0:0:
142,131,192248,6,0,L|96:104,1,53.9999983520508,14|0,0:0|0:0,0:0:0:0:
373,134,192425,2,0,L|420:106,1,53.9999983520508,14|0,0:0|0:0,0:0:0:0:
256,330,192601,2,0,L|256:384,1,53.9999983520508,14|0,0:0|0:0,0:0:0:0:
256,76,192777,6,0,L|256:268,1,144,12|0,0:1|0:0,0:0:0:0:
145,24,193130,1,14,0:0:0:0:
373,134,193307,1,0,0:0:0:0:
144,259,193483,6,0,P|79:287|11:268,1,144,4|0,0:0|0:0,0:0:0:0:
225,217,193836,2,0,P|235:251|231:286,1,72,14|0,0:0|0:0,0:0:0:0:
59,119,194013,6,0,B|95:91|95:91|199:82,1,144,0|4,0:0|0:0,0:0:0:0:
394,69,194366,1,0,0:0:0:0:
225,217,194542,5,14,0:0:0:0:
399,58,194719,1,0,0:0:0:0:
451,289,194895,5,4,0:0:0:0:
404,47,195072,1,0,0:0:0:0:
374,329,195248,6,0,P|364:295|369:260,1,72,14|0,0:0|0:0,0:0:0:0:
478,6,195425,2,0,P|488:40|484:75,1,72
296,184,195601,6,0,P|361:156|429:175,1,144,4|0,0:0|0:0,0:0:0:0:
350,36,195954,1,14,0:0:0:0:
484,240,196130,1,0,0:0:0:0:
342,27,196307,5,4,0:0:0:0:
285,264,196483,1,0,0:0:0:0:
102,86,196660,2,0,P|66:81|32:91,1,72,14|0,0:0|0:0,0:0:0:0:
184,148,196836,6,0,P|202:79|174:15,1,144,0|4,0:0|0:0,0:0:0:0:
75,183,197189,1,0,0:0:0:0:
299,83,197366,5,14,0:0:0:0:
70,194,197542,1,0,0:0:0:0:
308,250,197719,5,4,0:0:0:0:
64,206,197895,1,0,0:0:0:0:
246,333,198072,6,0,P|314:351|378:323,1,144,14|0,0:0|0:0,0:0:0:0:
473,144,198425,6,0,L|484:287,1,144,4|0,0:0|0:0,0:0:0:0:
463,45,198777,1,14,0:0:0:0:
326,213,198954,1,0,0:0:0:0:
215,27,199130,6,0,P|146:8|82:36,1,144,4|0,0:0|0:0,0:0:0:0:
234,180,199483,2,0,P|269:181|303:171,1,72,14|0,0:0|0:0,0:0:0:0:
154,110,199660,6,0,B|133:151|133:151|143:255,1,144,0|4,0:0|0:0,0:0:0:0:
300,371,200013,1,0,0:0:0:0:
73,326,200189,2,0,P|137:296|207:308,1,144,14|0,0:0|0:0,0:0:0:0:
378,337,200542,5,0,0:0:0:0:
364,107,200719,1,0,0:0:0:0:
452,298,200895,6,0,B|470:329|457:367,1,72,14|0,0:0|0:0,0:0:0:0:
350,102,201072,2,0,B|333:71|345:32,1,72
496,221,201248,6,0,P|422:258|352:233,1,144,4|0,0:0|0:0,0:0:0:0:
227,76,201601,1,14,0:0:0:0:
258,303,201777,1,0,0:0:0:0:
235,67,201954,5,4,0:0:0:0:
121,266,202130,1,0,0:0:0:0:
318,17,202307,6,0,B|336:48|323:86,1,72,14|0,0:0|0:0,0:0:0:0:
108,64,202483,6,0,P|175:39|243:57,1,144,0|4,0:0|0:0,0:0:0:0:
319,259,202836,1,0,0:0:0:0:
420,51,203013,5,14,0:0:0:0:
323,273,203189,1,0,0:0:0:0:
108,64,203366,5,14,0:0:0:0:
434,214,203542,1,14,0:0:0:0:
141,260,203719,5,14,0:0:0:0:
467,110,203895,1,14,0:0:0:0:
69,172,204072,6,0,P|136:147|204:165,1,144,12|0,0:1|0:0,0:0:0:0:
274,370,204425,1,14,0:0:0:0:
404,181,204601,1,0,0:0:0:0:
419,355,204777,6,0,L|407:212,1,144,4|0,0:0|0:0,0:0:0:0:
356,62,205130,2,0,P|390:53|426:56,1,72,14|0,0:0|0:0,0:0:0:0:
280,134,205307,6,0,P|255:67|273:-1,1,144,0|4,0:0|0:0,0:0:0:0:
444,62,205660,1,0,0:0:0:0:
282,237,205836,5,14,0:0:0:0:
461,68,206013,1,0,0:0:0:0:
460,312,206189,5,4,0:0:0:0:
476,72,206366,1,0,0:0:0:0:
327,314,206542,6,0,B|284:331|256:318,1,72,14|0,0:0|0:0,0:0:0:0:
200,115,206719,2,0,B|240:99|269:112,1,72
115,188,206895,6,0,P|90:121|107:53,1,144,4|0,0:0|0:0,0:0:0:0:
170,285,207248,2,0,L|26:295,1,144,14|0,0:0|0:0,0:0:0:0:
202,188,207601,1,4,0:0:0:0:
104,378,207777,1,0,0:0:0:0:
136,106,207954,6,0,B|149:78|131:36,1,72,14|0,0:0|0:0,0:0:0:0:
44,170,208130,6,0,B|80:200|80:200|199:190,1,144,0|4,0:0|0:0,0:0:0:0:
311,34,208483,1,0,0:0:0:0:
265,260,208660,5,14,0:0:0:0:
323,29,208836,1,0,0:0:0:0:
419,242,209013,5,4,0:0:0:0:
334,23,209189,1,0,0:0:0:0:
176,191,209366,6,0,B|140:195|140:195|106:184,1,72,14|0,0:0|0:0,0:0:0:0:
419,104,209542,2,0,B|453:93|453:93|489:97,1,72
262,286,209719,6,0,L|256:339,3,53.9999983520508,12|0|0|0,0:1|0:0|0:0|0:0,0:0:0:0:
165,353,210072,2,0,L|170:299,3,53.9999983520508,14|0|0|0,0:0|0:0|0:0|0:0,0:0:0:0:
22,157,210425,6,0,L|27:210,3,53.9999983520508,4|0|0|0,0:0|0:0|0:0|0:0,0:0:0:0:
120,222,210777,2,0,L|115:169,3,53.9999983520508,14|0|0|0,0:0|0:0|0:0|0:0,0:0:0:0:
223,60,211131,5,12,0:1:0:0:
254,30,211219,1,0,0:0:0:0:
295,19,211307,1,0,0:0:0:0:
337,26,211395,1,0,0:0:0:0:
371,52,211483,1,14,0:0:0:0:
390,90,211572,1,0,0:0:0:0:
390,133,211660,1,0,0:0:0:0:
371,171,211748,1,0,0:0:0:0:
337,197,211836,5,4,0:0:0:0:
303,223,211924,1,0,0:0:0:0:
284,261,212012,1,0,0:0:0:0:
284,304,212100,1,0,0:0:0:0:
303,342,212189,1,14,0:0:0:0:
337,368,212277,1,0,0:0:0:0:
379,375,212365,1,0,0:0:0:0:
420,364,212453,1,0,0:0:0:0:
452,335,212542,6,0,L|491:324,6,26.9999991760254,12|0|0|0|0|0|0,0:1|0:0|0:1|0:0|0:1|0:0|0:1,0:0:0:0:
175,285,212895,2,0,L|149:277,6,26.9999991760254,14|0|0|0|0|0|0,0:0|0:0|0:1|0:0|0:1|0:0|0:1,0:0:0:0:
483,192,213248,6,0,L|522:181,6,26.9999991760254,4|0|0|0|0|0|0,0:0|0:0|0:1|0:0|0:1|0:0|0:1,0:0:0:0:
206,142,213601,2,0,L|180:134,6,26.9999991760254,14|0|0|0|0|0|0,0:0|0:0|0:1|0:0|0:1|0:0|0:1,0:0:0:0:
383,244,213954,5,14,0:0:0:0:
79,51,214130,1,14,0:0:0:0:
382,142,214307,5,14,0:0:0:0:
78,335,214483,1,14,0:0:0:0:
62,347,214836,5,0,0:0:0:0:
104,209,215013,1,0,0:0:0:0:
202,314,215189,1,0,0:0:0:0:
18,132,215366,6,0,B|48:105|48:105|160:95,1,144,12|0,0:1|0:0,0:0:0:0:
202,314,215719,1,14,0:0:0:0:
275,111,215895,1,0,0:0:0:0:
354,319,216072,6,0,P|287:343|218:325,1,144,4|0,0:0|0:0,0:0:0:0:
275,111,216425,2,0,P|271:148|281:182,1,72,14|0,0:0|0:0,0:0:0:0:
448,346,216601,2,0,P|452:309|442:275,1,72
501,132,216777,6,0,P|429:110|364:140,1,144,4|0,0:0|0:0,0:0:0:0:
275,315,217130,1,14,0:0:0:0:
255,84,217307,2,0,L|268:243,1,144,0|4,0:0|0:0,0:0:0:0:
71,175,217660,1,0,0:0:0:0:
212,7,217836,6,0,P|246:-4|281:1,1,72,14|0,0:0|0:0,0:0:0:0:
111,252,218013,2,0,P|76:261|41:257,1,72
121,44,218189,6,0,B|148:74|148:74|158:186,1,144,4|0,0:0|0:0,0:0:0:0:
72,353,218542,1,14,0:0:0:0:
6,131,218719,1,0,0:0:0:0:
82,344,218895,5,4,0:0:0:0:
175,132,219072,1,0,0:0:0:0:
259,357,219248,6,0,P|264:321|255:286,1,72,14|0,0:0|0:0,0:0:0:0:
99,99,219425,2,0,P|93:136|102:171,1,72
319,216,219601,6,0,P|247:194|182:224,1,144,4|0,0:0|0:0,0:0:0:0:
362,345,219954,1,14,0:0:0:0:
488,196,220130,6,0,L|498:340,1,144,0|4,0:0|0:0,0:0:0:0:
319,194,220483,2,0,L|309:50,1,144,0|14,0:0|0:0,0:0:0:0:
281,317,220836,1,0,0:0:0:0:
281,317,220925,1,0,0:0:0:0:
281,317,221013,6,0,B|309:282|309:282|420:272,1,144,4|0,0:0|0:0,0:0:0:0:
467,87,221366,1,14,0:0:0:0:
499,314,221542,1,0,0:0:0:0:
237,231,221719,5,4,0:0:0:0:
485,212,221895,1,0,0:0:0:0:
212,30,222072,6,0,P|207:65|216:100,1,72,14|0,0:0|0:0,0:0:0:0:
331,257,222248,2,0,P|334:221|324:187,1,72
103,210,222425,6,0,B|137:238|137:238|248:229,1,144,4|0,0:0|0:0,0:0:0:0:
390,101,222777,1,14,0:0:0:0:
405,317,222954,6,0,P|342:348|274:330,1,144,0|4,0:0|0:0,0:0:0:0:
204,140,223307,1,0,0:0:0:0:
92,324,223483,1,14,0:0:0:0:
70,86,223660,1,0,0:0:0:0:
70,86,223748,1,0,0:0:0:0:
70,86,223836,6,0,L|84:245,1,144,4|0,0:0|0:0,0:0:0:0:
212,56,224189,1,14,0:0:0:0:
206,287,224366,1,0,0:0:0:0:
209,42,224542,5,4,0:0:0:0:
365,221,224719,1,0,0:0:0:0:
207,29,224895,5,14,0:0:0:0:
437,59,225072,1,0,0:0:0:0:
438,281,225248,6,0,P|375:312|307:293,1,144,14|0,0:0|0:0,0:0:0:0:
139,104,225601,2,0,P|202:73|270:92,1,144,14|0,0:0|0:0,0:0:0:0:
170,342,225954,5,14,0:0:0:0:
350,29,226130,1,14,0:0:0:0:
53,237,226307,5,14,0:0:0:0:
412,228,226483,1,14,0:0:0:0:
39,73,226660,6,0,L|51:216,1,144,12|0,0:1|0:0,0:0:0:0:
69,384,227013,1,14,0:0:0:0:
173,179,227189,1,0,0:0:0:0:
249,353,227366,6,0,P|316:373|379:342,1,144,4|0,0:0|0:0,0:0:0:0:
456,117,227719,1,14,0:0:0:0:
475,360,227895,1,0,0:0:0:0:
475,360,227983,1,0,0:0:0:0:
475,360,228072,6,0,L|463:217,1,144,4|0,0:0|0:0,0:0:0:0:
450,24,228425,1,14,0:0:0:0:
333,247,228601,1,0,0:0:0:0:
258,14,228777,5,4,0:0:0:0:
321,262,228953,1,0,0:0:0:0:
99,72,229130,6,0,P|63:67|30:80,1,72,14|0,0:0|0:0,0:0:0:0:
126,269,229307,2,0,P|161:273|194:260,1,72
166,37,229483,6,0,B|137:71|137:71|146:182,1,144,4|0,0:0|0:0,0:0:0:0:
271,331,229836,1,14,0:0:0:0:
232,107,230013,1,0,0:0:0:0:
347,223,230189,2,0,P|417:243|481:216,1,144,4|0,0:0|0:0,0:0:0:0:
503,35,230542,6,0,B|489:60|489:60|493:108,1,72,14|0,0:0|0:0,0:0:0:0:
470,285,230719,2,0,B|483:259|483:259|479:211,1,72
398,4,230895,6,0,L|410:147,1,144,4|0,0:0|0:0,0:0:0:0:
377,374,231248,1,14,0:0:0:0:
270,154,231425,1,0,0:0:0:0:
170,376,231601,5,4,0:0:0:0:
273,137,231778,1,0,0:0:0:0:
105,295,231954,6,0,B|71:304|71:304|36:296,1,72,14|0,0:0|0:0,0:0:0:0:
340,223,232130,2,0,B|374:212|374:212|410:216,1,72
68,195,232307,5,12,0:1:0:0:
60,178,232395,1,0,0:0:0:0:
54,160,232483,1,0,0:0:0:0:
53,141,232571,1,0,0:0:0:0:
53,122,232659,1,14,0:0:0:0:
59,104,232748,1,0,0:0:0:0:
65,86,232836,1,0,0:0:0:0:
75,69,232924,1,0,0:0:0:0:
85,53,233013,6,0,L|81:-4,3,53.9999983520508,4|0|0|0,0:0|0:0|0:0|0:0,0:0:0:0:
191,289,233366,2,0,L|184:342,3,53.9999983520508,14|0|0|0,0:0|0:0|0:0|0:0,0:0:0:0:
284,77,233719,5,12,0:1:0:0:
309,68,233807,1,0,0:0:0:0:
335,66,233895,1,0,0:0:0:0:
361,71,233983,1,0,0:0:0:0:
384,83,234071,1,14,0:0:0:0:
410,91,234160,1,0,0:0:0:0:
436,89,234248,1,0,0:0:0:0:
461,80,234336,1,0,0:0:0:0:
483,64,234425,6,0,L|489:-3,3,53.9999983520508,4|0|0|0,0:0|0:0|0:0|0:0,0:0:0:0:
377,292,234777,2,0,L|387:361,3,53.9999983520508,14|0|0|0,0:0|0:0|0:0|0:0,0:0:0:0:
307,63,235130,5,12,0:1:0:0:
271,35,235218,1,0,0:0:0:0:
229,28,235306,1,0,0:0:0:0:
188,39,235394,1,0,0:0:0:0:
155,68,235482,1,14,0:0:0:0:
140,106,235571,1,0,0:0:0:0:
143,150,235659,1,0,0:0:0:0:
165,186,235747,1,0,0:0:0:0:
200,211,235836,5,4,0:0:0:0:
222,247,235924,1,0,0:0:0:0:
225,291,236012,1,0,0:0:0:0:
210,329,236101,1,0,0:0:0:0:
177,358,236189,1,14,0:0:0:0:
136,369,236277,1,0,0:0:0:0:
94,362,236365,1,0,0:0:0:0:
58,334,236453,1,0,0:0:0:0:
47,291,236542,6,0,L|0:300,6,26.9999991760254,4|0|0|0|0|0|0,0:0|0:1|0:1|0:1|0:1|0:1|0:1,0:0:0:0:
351,205,236895,2,0,L|398:214,6,26.9999991760254,4|0|0|0|0|0|0,0:0|0:0|0:0|0:0|0:0|0:0|0:0,0:0:0:0:
75,65,237248,5,14,0:2:0:0:
354,330,237425,1,14,0:2:0:0:
63,187,237601,5,14,0:2:0:0:
431,73,237778,1,14,0:2:0:0:
107,295,237954,6,0,L|58:319,4,39.3750003755093,12|0|0|0|0,0:1|0:0|0:0|0:0|0:0,0:0:0:0:
176,256,238307,1,14,0:0:0:0:
0,148,238483,1,0,0:0:0:0:
214,14,238660,5,4,0:0:0:0:
88,199,238836,1,0,0:0:0:0:
312,216,239013,1,14,0:0:0:0:
103,74,239189,6,0,L|58:43,4,39.3750003755093,0|0|0|0|4,0:0|0:0|0:0|0:0|0:0,0:0:0:0:
169,116,239542,1,0,0:0:0:0:
0,242,239719,1,14,0:0:0:0:
181,107,239895,5,0,0:0:0:0:
140,356,240072,1,4,0:0:0:0:
194,97,240248,1,0,0:0:0:0:
389,257,240425,5,14,0:0:0:0:
163,238,240601,1,0,0:0:0:0:
352,90,240777,6,0,L|381:64,4,39.3750003755093,4|0|0|0|0,0:0|0:0|0:0|0:0|0:0,0:0:0:0:
296,146,241130,1,14,0:0:0:0:
506,214,241307,1,0,0:0:0:0:
441,15,241483,5,4,0:0:0:0:
512,231,241660,1,0,0:0:0:0:
273,136,241836,6,0,P|261:98|266:59,1,78.7500007510185,14|0,0:0|0:0,0:0:0:0:
411,269,242013,2,0,P|423:307|418:345,1,78.7500007510185
206,224,242189,6,0,P|274:188|350:203,1,157.500001502037,4|0,0:0|0:0,0:0:0:0:
294,315,242542,1,14,0:0:0:0:
93,205,242719,6,0,L|104:364,1,157.500001502037,0|4,0:0|0:0,0:0:0:0:
17,122,243072,2,0,B|52:154|52:154|163:147,1,157.500001502037,0|14,0:0|0:0,0:0:0:0:
285,9,243425,1,0,0:0:0:0:
303,232,243601,6,0,L|306:270,4,39.3750003755093,4|0|0|0|0,0:0|0:0|0:0|0:0|0:0,0:0:0:0:
293,153,243954,1,14,0:0:0:0:
495,222,244130,1,0,0:0:0:0:
280,145,244307,5,4,0:0:0:0:
364,370,244483,1,0,0:0:0:0:
268,137,244660,1,14,0:0:0:0:
149,347,244836,6,0,L|133:383,4,39.3750003755093,0|0|0|0|4,0:0|0:0|0:0|0:0|0:0,0:0:0:0:
183,270,245189,1,0,0:0:0:0:
0,222,245366,1,14,0:0:0:0:
156,15,245542,5,0,0:0:0:0:
89,246,245719,1,4,0:0:0:0:
162,0,245895,1,0,0:0:0:0:
362,186,246072,5,14,0:0:0:0:
122,125,246248,1,0,0:0:0:0:
387,59,246425,6,0,L|435:47,4,39.3750003755093,4|0|0|0|0,0:0|0:0|0:0|0:0|0:0,0:0:0:0:
311,79,246777,1,14,0:0:0:0:
506,22,246954,1,0,0:0:0:0:
398,265,247130,5,4,0:0:0:0:
279,9,247307,1,0,0:0:0:0:
409,271,247483,1,14,0:0:0:0:
164,188,247660,6,0,L|120:171,4,39.3750003755093,0|0|0|0|4,0:0|0:0|0:0|0:0|0:0,0:0:0:0:
237,216,248013,1,0,0:0:0:0:
18,273,248189,1,14,0:0:0:0:
250,209,248366,5,0,0:0:0:0:
37,75,248542,1,0,0:0:0:0:
164,336,248719,5,2,0:0:0:0:
164,336,248807,1,2,0:0:0:0:
164,336,248895,1,14,0:0:0:0:
180,67,249072,1,2,0:0:0:0:
379,267,249248,6,0,L|417:298,4,39.3750003755093,12|0|0|0|0,0:1|0:0|0:0|0:0|0:0,0:0:0:0:
314,221,249601,1,14,0:0:0:0:
491,63,249777,1,0,0:0:0:0:
307,231,249954,5,4,0:0:0:0:
230,0,250130,1,0,0:0:0:0:
299,241,250307,1,14,0:0:0:0:
53,187,250483,6,0,L|-3:171,4,39.3750003755093,0|0|0|0|4,0:0|0:0|0:0|0:0|0:0,0:0:0:0:
128,208,250836,1,0,0:0:0:0:
25,384,251013,1,14,0:0:0:0:
291,251,251189,5,0,0:0:0:0:
71,95,251366,1,4,0:0:0:0:
184,307,251542,1,0,0:0:0:0:
219,48,251719,5,14,0:0:0:0:
76,293,251895,1,0,0:0:0:0:
352,323,252072,6,0,L|409:330,4,39.3750003755093,4|0|0|0|0,0:0|0:0|0:0|0:0|0:0,0:0:0:0:
273,314,252425,1,14,0:0:0:0:
494,339,252601,1,0,0:0:0:0:
395,122,252777,5,0,0:0:0:0:
264,323,252954,1,0,0:0:0:0:
356,46,253130,6,0,P|391:36|438:47,1,78.7500007510185,14|0,0:0|0:0,0:0:0:0:
227,189,253307,2,0,P|191:198|144:187,1,78.7500007510185
238,25,253483,6,0,L|251:181,1,157.500001502037,4|0,0:0|0:0,0:0:0:0:
264,323,253836,1,14,0:0:0:0:
428,276,254013,6,0,B|398:310|398:310|287:320,1,157.500001502037,0|4,0:0|0:0,0:0:0:0:
463,193,254366,2,0,L|476:349,1,157.500001502037,0|14,0:0|0:0,0:0:0:0:
454,109,254719,1,0,0:0:0:0:
454,109,254807,1,0,0:0:0:0:
454,109,254895,6,0,L|449:51,3,53.9999983520508,12|0|0|0,0:1|0:0|0:0|0:0,0:0:0:0:
321,0,255248,2,0,L|326:53,3,53.9999983520508,14|0|0|0,0:0|0:0|0:0|0:0,0:0:0:0:
228,212,255601,6,0,L|223:158,3,53.9999983520508,4|0|0|0,0:0|0:0|0:0|0:0,0:0:0:0:
87,10,255954,2,0,L|93:64,3,53.9999983520508,14|0|0|0,0:0|0:0|0:0|0:0,0:0:0:0:
46,207,256307,5,12,0:1:0:0:
36,242,256395,1,0,0:0:0:0:
45,280,256483,1,0,0:0:0:0:
65,311,256571,1,0,0:0:0:0:
97,332,256659,1,14,0:0:0:0:
134,340,256748,1,0,0:0:0:0:
171,334,256836,1,0,0:0:0:0:
203,315,256924,1,0,0:0:0:0:
227,285,257013,5,4,0:0:0:0:
258,265,257101,1,0,0:0:0:0:
294,253,257189,1,0,0:0:0:0:
331,251,257277,1,0,0:0:0:0:
368,259,257365,1,14,0:0:0:0:
402,276,257454,1,0,0:0:0:0:
428,303,257542,1,0,0:0:0:0:
449,334,257630,1,0,0:0:0:0:
469,373,257719,5,12,0:1:0:0:
463,330,257807,1,0,0:0:0:0:
468,287,257895,1,0,0:0:0:0:
483,246,257983,1,0,0:0:0:0:
494,203,258072,1,14,0:0:0:0:
500,160,258160,1,0,0:0:0:0:
496,117,258248,1,0,0:0:0:0:
481,76,258336,1,0,0:0:0:0:
455,40,258425,5,4,0:0:0:0:
430,83,258513,1,0,0:0:0:0:
393,118,258601,1,0,0:0:0:0:
349,140,258689,1,0,0:0:0:0:
299,149,258777,1,14,0:0:0:0:
249,143,258866,1,0,0:0:0:0:
204,122,258954,1,0,0:0:0:0:
166,89,259042,1,0,0:0:0:0:
144,46,259130,6,0,L|139:-2,6,26.9999991760254,4|0|0|0|0|0|0,0:0|0:0|0:0|0:0|0:0|0:0|0:0,0:0:0:0:
121,319,259483,2,0,L|116:367,6,26.9999991760254,4|0|0|0|0|0|0,0:0|0:0|0:0|0:0|0:0|0:0|0:0,0:0:0:0:
497,221,260013,5,14,0:2:0:0:
21,139,260190,1,14,0:2:0:0:
396,246,260542,6,0,L|386:118,1,125.999996154785,12|0,0:1|0:0,0:0:0:0:
489,61,260807,1,0,0:0:0:0:
490,73,260895,2,0,L|494:152,1,62.9999980773926,14|0,0:0|0:0,0:0:0:0:
322,63,261072,2,0,L|317:1,1,62.9999980773926
387,121,261248,6,0,P|334:149|258:124,1,125.999996154785,4|0,0:0|0:0,0:0:0:0:
141,29,261601,2,0,B|169:54|169:54|176:142,1,125.999996154785,14|0,0:0|0:0,0:0:0:0:
2,248,261954,6,0,B|25:219|25:219|113:212,1,125.999996154785,4|0,0:0|0:0,0:0:0:0:
204,320,262219,1,0,0:0:0:0:
203,308,262307,2,0,L|199:229,1,62.9999980773926,14|0,0:0|0:0,0:0:0:0:
337,185,262483,2,0,L|340:247,1,62.9999980773926
408,307,262660,6,0,P|352:335|292:321,1,125.999996154785,4|0,0:0|0:0,0:0:0:0:
467,241,263013,2,0,P|495:296|481:355,1,125.999996154785,14|0,0:0|0:0,0:0:0:0:
456,152,263366,6,0,L|448:27,1,125.999996154785,4|0,0:0|0:0,0:0:0:0:
280,75,263630,1,0,0:0:0:0:
280,86,263719,2,0,L|285:165,1,62.9999980773926,14|0,0:0|0:0,0:0:0:0:
374,221,263895,2,0,L|368:140,1,62.9999980773926
331,2,264072,6,0,P|270:-11|214:13,1,125.999996154785,4|0,0:0|0:0,0:0:0:0:
133,146,264425,2,0,B|127:56|127:56|103:20,1,125.999996154785,14|0,0:0|0:0,0:0:0:0:
1,84,264777,6,0,B|6:174|6:174|30:210,1,125.999996154785,4|0,0:0|0:0,0:0:0:0:
179,290,265042,1,0,0:0:0:0:
178,279,265131,2,0,L|172:199,1,62.9999980773926,14|0,0:0|0:0,0:0:0:0:
26,204,265307,2,0,L|31:283,1,62.9999980773926
143,369,265483,6,0,P|188:374|245:347,1,90,4|0,0:0|0:0,0:0:0:0:
310,198,265836,2,0,L|316:287,1,90,14|0,0:0|0:0,0:0:0:0:
455,353,266189,6,0,L|446:227,1,125.999996154785,4|0,0:0|0:0,0:0:0:0:
509,58,266454,1,0,0:0:0:0:
510,70,266542,2,0,L|514:149,1,62.9999980773926,14|0,0:0|0:0,0:0:0:0:
340,63,266719,2,0,L|335:1,1,62.9999980773926
405,121,266895,6,0,P|352:149|276:124,1,125.999996154785,4|0,0:0|0:0,0:0:0:0:
76,113,267248,2,0,P|128:85|205:111,1,125.999996154785,14|0,0:0|0:0,0:0:0:0:
150,295,267601,6,0,L|142:170,1,125.999996154785,4|0,0:0|0:0,0:0:0:0:
240,205,267866,1,0,0:0:0:0:
240,220,267954,2,0,L|243:282,1,62.9999980773926,14|0,0:0|0:0,0:0:0:0:
60,349,268130,2,0,L|56:286,1,62.9999980773926
309,347,268307,6,0,P|256:375|180:350,1,125.999996154785,4|0,0:0|0:0,0:0:0:0:
334,258,268660,2,0,P|387:230|463:255,1,125.999996154785,14|0,0:0|0:0,0:0:0:0:
461,387,269013,6,0,L|450:227,1,125.999996154785,4|0,0:0|0:0,0:0:0:0:
512,92,269277,1,0,0:0:0:0:
499,93,269365,2,0,L|420:97,1,62.9999980773926,14|0,0:0|0:0,0:0:0:0:
294,95,269542,2,0,L|297:157,1,62.9999980773926
393,164,269719,6,0,B|387:74|387:74|363:37,1,125.999996154785,4|0,0:0|0:0,0:0:0:0:
198,88,270072,2,0,B|205:179|205:179|228:215,1,125.999996154785,14|0,0:0|0:0,0:0:0:0:
369,301,270425,6,0,L|224:311,1,125.999996154785
83,370,270689,1,0,2:0:0:0:
98,369,270777,2,0,L|176:365,1,62.9999980773926,14|0,2:0|2:0,2:0:0:0:
204,208,270954,2,0,L|141:210,1,62.9999980773926
56,173,271130,6,0,P|48:222|76:276,1,90,4|0,0:0|0:0,0:0:0:0:
94,93,271483,2,0,P|45:85|-9:113,1,90,14|0,0:0|0:0,0:0:0:0:
334,25,271836,6,0,L|460:16,1,125.999996154785,12|0,0:1|0:0,0:0:0:0:
512,103,272101,1,0,2:0:0:0:
498,104,272189,2,0,L|420:108,1,62.9999980773926,14|0,2:0|2:0,2:0:0:0:
276,153,272366,2,0,L|272:75,1,62.9999980773926,0|0,2:0|2:0,2:0:0:0:
334,25,272542,6,0,B|353:54|353:54|359:144,1,125.999996154785,4|0,0:0|0:0,0:0:0:0:
214,218,272895,2,0,B|195:187|195:187|188:97,1,125.999996154785,14|0,0:0|0:0,0:0:0:0:
97,12,273248,6,0,L|104:137,1,125.999996154785,4|0,0:0|0:0,0:0:0:0:
24,227,273513,1,0,2:0:0:0:
23,212,273601,2,0,L|18:134,1,62.9999980773926,14|0,2:0|2:0,2:0:0:0:
188,97,273777,2,0,L|192:159,1,62.9999980773926
258,218,273954,6,0,P|203:246|143:232,1,125.999996154785,4|0,0:0|0:0,0:0:0:0:
19,342,274307,2,0,P|70:313|130:327,1,125.999996154785,14|0,0:0|0:0,0:0:0:0:
328,359,274660,6,0,P|272:387|212:373,1,125.999996154785,4|0,0:0|0:0,0:0:0:0:
258,218,274925,1,0,2:0:0:0:
259,233,275013,2,0,L|263:311,1,62.9999980773926,14|0,2:0|2:0,2:0:0:0:
435,356,275189,2,0,L|431:293,1,62.9999980773926,0|0,2:0|2:0,2:0:0:0:
476,211,275366,6,4,B|452:245|452:245|361:251,1,125.999996154785,4|0,0:0|0:0,0:0:0:0:
352,46,275719,2,0,B|386:71|386:71|392:161,1,125.999996154785,14|0,0:0|0:0,0:0:0:0:
275,100,276072,6,0,L|146:109,1,125.999996154785,4|0,0:0|0:0,3:0:0:0:
86,193,276336,1,0,2:0:0:0:
101,192,276424,2,0,L|179:187,1,62.9999980773926,14|0,2:0|2:0,2:0:0:0:
174,28,276601,2,0,L|111:31,1,62.9999980773926,0|0,2:0|2:0,2:0:0:0:
5,152,276777,6,0,P|-5:199|10:244,1,90,4|0,0:0|0:0,0:0:0:0:
183,295,277130,2,0,P|136:285|91:300,1,90,14|0,0:0|0:0,0:0:0:0:
288,350,277483,6,0,P|357:365|408:339,1,125.999996154785,4|0,0:0|0:0,0:0:0:0:
498,272,277748,1,0,0:0:0:0:
499,285,277836,2,0,L|504:363,1,62.9999980773926,14|0,0:0|0:0,0:0:0:0:
341,277,278013,2,0,L|337:213,1,62.9999980773926
443,140,278189,6,0,B|418:174|418:174|328:180,1,125.999996154785,4|0,0:0|0:0,0:0:0:0:
180,82,278542,2,0,B|204:49|204:49|295:43,1,125.999996154785,14|0,0:0|0:0,0:0:0:0:
238,220,278895,5,4,0:0:0:0:
240,241,278983,1,0,0:0:0:0:
238,263,279072,1,0,0:0:0:0:
230,284,279160,1,0,0:0:0:0:
219,303,279248,1,14,0:0:0:0:
203,318,279336,1,0,0:0:0:0:
184,330,279425,1,0,0:0:0:0:
163,337,279513,1,0,0:0:0:0:
141,338,279601,6,0,L|75:343,3,62.9999980773926,4|0|0|0,0:0|0:0|0:0|0:0,0:0:0:0:
82,247,279954,2,0,L|144:241,3,62.9999980773926,14|0|0|0,0:0|0:0|0:0|0:0,0:0:0:0:
8,164,280307,5,4,0:0:0:0:
5,138,280395,1,0,0:0:0:0:
8,112,280483,1,0,0:0:0:0:
17,87,280572,1,0,0:0:0:0:
30,64,280660,1,14,0:0:0:0:
50,46,280748,1,0,0:0:0:0:
72,31,280836,1,0,0:0:0:0:
97,23,280925,1,0,0:0:0:0:
124,20,281013,6,0,P|217:88|111:122,1,270,4|0,0:0|0:0,0:0:0:0:
114,115,281366,6,0,B|232:58|232:168|354:100,1,242.999992584229,14|8,0:0|0:0,0:0:0:0:
437,35,281719,6,0,P|371:94|431:201,1,202.500007724762,4|0,0:0|0:0,0:0:0:0:
468,267,282072,6,0,L|365:290,1,90,14|0,0:0|0:0,0:0:0:0:
374,308,282601,5,8,0:1:0:0:
76,212,282777,1,8,0:1:0:0:
57,223,283130,5,4,0:0:0:0:
72,62,283307,1,0,0:0:0:0:
203,155,283483,6,0,P|245:168|287:155,1,90,10|0,0:0|0:0,0:0:0:0:
437,84,283836,2,0,P|395:71|353:84,1,90,4|0,0:0|0:0,0:0:0:0:
509,126,284189,2,0,P|522:84|509:42,1,90,10|0,0:0|0:0,0:0:0:0:
396,156,284542,2,0,P|383:198|396:240,1,90,4|0,0:0|0:0,0:0:0:0:
511,313,284895,2,0,P|469:300|427:313,1,90,14|0,0:0|0:0,0:0:0:0:
263,356,285248,2,0,P|305:369|347:355,1,90,4|0,0:0|0:0,0:0:0:0:
209,218,285601,5,14,0:0:0:0:
117,333,285777,1,0,0:0:0:0:
209,218,285954,1,4,0:0:0:0:
263,356,286130,1,0,0:0:0:0:
64,241,286307,6,0,L|55:145,1,90,14|0,0:0|0:0,0:0:0:0:
3,72,286660,2,0,P|44:55|89:61,1,90,4|0,0:0|0:0,0:0:0:0:
256,109,287013,2,0,P|215:126|171:120,1,90,14|0,0:0|0:0,0:0:0:0:
354,29,287366,2,0,L|361:118,1,90,4|0,0:0|0:0,0:0:0:0:
462,223,287719,2,0,L|454:133,1,90,14|0,0:0|0:0,0:0:0:0:
428,300,288072,2,0,P|471:307|512:288,1,90,4|0,0:0|0:0,0:0:0:0:
325,259,288425,2,0,P|281:251|240:270,1,90,14|0,0:0|0:0,0:0:0:0:
169,365,288777,5,4,0:0:0:0:
115,227,288954,1,0,0:0:0:0:
23,342,289130,6,0,P|30:298|11:257,1,90,14|0,0:0|0:0,0:0:0:0:
24,68,289483,2,0,P|16:111|35:152,1,90,4|0,0:0|0:0,0:0:0:0:
189,93,289836,2,0,L|100:101,1,90,14|0,0:0|0:0,0:0:0:0:
221,213,290189,2,0,L|310:205,1,90,4|0,0:0|0:0,0:0:0:0:
407,43,290542,2,0,L|317:50,1,90,14|0,0:0|0:0,0:0:0:0:
386,239,290895,2,0,P|394:195|376:154,1,90,4|0,0:0|0:0,0:0:0:0:
294,354,291248,5,14,0:0:0:0:
386,239,291424,1,0,0:0:0:0:
294,354,291601,1,4,0:0:0:0:
240,216,291777,1,0,0:0:0:0:
125,327,291954,6,0,P|84:344|40:336,1,90,14|0,0:0|0:0,0:0:0:0:
67,170,292307,2,0,L|75:260,1,90,4|0,0:0|0:0,0:0:0:0:
15,103,292660,2,0,P|55:85|99:92,1,90,14|0,0:0|0:0,0:0:0:0:
263,174,293013,2,0,P|222:192|178:185,1,90,4|0,0:0|0:0,0:0:0:0:
387,23,293366,2,0,P|427:5|471:13,1,90,14|0,0:0|0:0,0:0:0:0:
352,99,293719,2,0,P|316:72|301:30,1,90,4|0,0:0|0:0,0:0:0:0:
436,89,294072,2,0,P|431:133|402:166,1,90,14|0,0:0|0:0,0:0:0:0:
263,174,294425,5,0,0:0:0:0:
379,279,294601,1,0,0:0:0:0:
230,327,294777,6,0,L|138:335,1,90,14|0,0:0|0:0,0:0:0:0:
29,249,295130,2,0,L|118:241,1,90,4|0,0:0|0:0,0:0:0:0:
214,138,295483,2,0,L|122:146,1,90,14|0,0:0|0:0,0:0:0:0:
13,60,295836,2,0,L|102:52,1,90,4|0,0:0|0:0,0:0:0:0:
283,89,296189,2,0,P|300:129|291:172,1,90,14|0,0:0|0:0,0:0:0:0:
233,21,296542,2,0,P|273:3|317:13,1,90,4|0,2:0|2:0,2:0:0:0:
395,140,296895,5,14,0:0:0:0:
465,10,297071,1,0,0:0:0:0:
395,140,297248,1,4,0:0:0:0:
317,13,297424,1,0,0:0:0:0:
482,94,297601,6,0,P|499:134|489:178,1,90,14|0,2:0|2:0,2:0:0:0:
418,292,297954,2,0,P|458:274|502:284,1,90,4|0,2:0|2:0,2:0:0:0:
343,346,298307,2,0,P|302:363|258:353,1,90,14|0,2:0|2:0,2:0:0:0:
161,214,298660,2,0,L|169:309,1,90,4|0,0:0|0:0,0:0:0:0:
66,346,299013,2,0,L|58:256,1,90,14|0,0:0|0:0,0:0:0:0:
141,37,299366,2,0,L|149:132,1,90,4|0,0:0|0:0,0:0:0:0:
46,169,299719,2,0,L|38:79,1,90,14|0,0:0|0:0,0:0:0:0:
258,0,300072,5,4,0:0:0:0:
148,126,300248,1,0,0:0:0:0:
313,159,300425,6,0,P|356:168|397:152,1,90,14|0,2:0|2:0,2:0:0:0:
477,89,300777,2,0,L|469:0,1,90,4|0,2:0|2:0,2:0:0:0:
485,194,301130,2,0,L|492:283,1,90,14|0,2:0|2:0,2:0:0:0:
391,354,301483,2,0,L|383:264,1,90,4|0,2:0|2:0,2:0:0:0:
271,213,301836,2,0,L|278:302,1,90,14|0,2:0|2:0,2:0:0:0:
177,372,302189,2,0,L|169:282,1,90,4|0,2:0|2:0,2:0:0:0:
56,231,302542,2,0,L|63:320,1,90,14|0,2:0|2:0,2:0:0:0:
115,96,302895,5,4,0:0:0:0:
56,231,303071,1,0,0:0:0:0:
115,96,303248,1,14,0:0:0:0:
203,215,303424,1,0,0:0:0:0:
40,58,303601,6,0,P|30:101|46:142,1,90,4|0,0:0|2:3,2:3:0:0:
204,88,303954,2,0,L|114:95,1,90,14|0,2:0|2:0,2:0:0:0:
278,125,304307,2,0,P|287:81|271:40,1,90,4|0,0:0|2:3,2:3:0:0:
205,172,304660,1,14,0:0:0:0:
413,87,304836,1,0,0:0:0:0:
294,231,305013,2,0,P|356:207|421:220,1,135,4|0,0:0|2:3,2:3:0:0:
356,363,305366,6,0,P|339:291|407:320,1,180,14|0,0:0|0:0,0:0:0:0:
