osu file format v14

[General]
AudioFilename: audio.ogg
AudioLeadIn: 0
PreviewTime: 191366
Countdown: 0
SampleSet: Normal
StackLeniency: 0.7
Mode: 1
LetterboxInBreaks: 0
WidescreenStoryboard: 1

[Editor]
DistanceSpacing: 0.1
BeatDivisor: 4
GridSize: 32
TimelineZoom: 1.5

[Metadata]
Title:Try Again
TitleUnicode:Try Again
Artist:USAO
ArtistUnicode:USAO
Creator:Cynplytholowazy
Version:Oni
Source:
Tags:featured artist fa osu! WACCA bright colors 4 tanoc four hardcore tano*c tcplus-0027 edm uk techno dance happy electronic instrumental
BeatmapID:3859767
BeatmapSetID:1875585

[Difficulty]
HPDrainRate:6
CircleSize:10
OverallDifficulty:4.5
ApproachRate:10
SliderMultiplier:1.4
SliderTickRate:1

[Events]
//Background and Video events
0,0,"101635316_p0.jpg",0,40
//Break Periods
2,125208,135107
2,156072,157205
//Storyboard Layer 0 (Background)
//Storyboard Layer 1 (Fail)
//Storyboard Layer 2 (Pass)
//Storyboard Layer 3 (Foreground)
//Storyboard Layer 4 (Overlay)
//Storyboard Sound Samples

[TimingPoints]
773,352.941176470588,4,1,0,90,1,0
773,-125,4,1,0,90,0,0
12067,-111.111111111111,4,1,0,100,0,0
22655,-100,4,1,0,100,0,0
102420,-90.9090909090909,4,1,0,100,0,1
113008,-90.9090909090909,4,1,0,100,0,0
113714,-90.9090909090909,4,1,0,100,0,1
124302,-90.9090909090909,4,1,0,100,0,0
125008,-90.9090909090909,4,1,0,100,0,0
125361,-90.9090909090909,4,1,0,80,0,0
126420,-111.111111111111,4,1,0,80,0,0
134890,-111.111111111111,4,1,0,90,0,0
155890,-111.111111111111,4,1,0,60,0,0
157478,-100,4,1,0,90,0,0
158184,-111.111111111111,4,1,0,90,0,0
170008,-100,4,1,0,100,0,0
192772,-90.9090909090909,4,1,0,100,0,1
214655,-90.9090909090909,4,1,0,100,0,0
215361,-90.9090909090909,4,1,0,100,0,1
237243,-90.9090909090909,4,1,0,100,0,0
237949,-90.9090909090909,4,1,0,100,0,1
260537,-100,4,1,0,100,0,0
282949,-111.111111111111,4,1,0,90,0,0

[HitObjects]
256,192,773,5,4,0:0:0:0:
256,192,949,1,2,0:0:0:0:
256,192,1125,1,2,0:0:0:0:
256,192,1478,1,0,0:0:0:0:
256,192,1831,1,2,0:0:0:0:
256,192,2184,1,0,0:0:0:0:
256,192,2537,1,2,0:0:0:0:
256,192,2890,1,0,0:0:0:0:
256,192,3243,1,2,0:0:0:0:
256,192,3420,1,2,0:0:0:0:
256,192,3596,1,0,0:0:0:0:
256,192,3772,1,2,0:0:0:0:
256,192,3949,1,2,0:0:0:0:
256,192,4302,1,0,0:0:0:0:
256,192,4655,1,2,0:0:0:0:
256,192,5008,1,0,0:0:0:0:
256,192,5361,1,2,0:0:0:0:
256,192,5714,1,0,0:0:0:0:
256,192,6067,1,2,0:0:0:0:
256,192,6420,1,0,0:0:0:0:
256,192,6596,1,2,0:0:0:0:
256,192,6772,1,2,0:0:0:0:
256,192,7125,1,0,0:0:0:0:
256,192,7478,1,2,0:0:0:0:
256,192,7831,1,0,0:0:0:0:
256,192,8184,1,2,0:0:0:0:
256,192,8537,1,0,0:0:0:0:
256,192,8890,1,2,0:0:0:0:
256,192,9067,1,2,0:0:0:0:
256,192,9243,1,0,0:0:0:0:
256,192,9420,1,2,0:0:0:0:
256,192,9596,1,2,0:0:0:0:
256,192,9949,1,0,0:0:0:0:
256,192,10302,1,2,0:0:0:0:
256,192,10655,1,0,0:0:0:0:
256,192,11008,1,2,0:0:0:0:
256,192,11361,1,0,0:0:0:0:
256,192,11714,1,2,0:0:0:0:
256,192,12067,1,4,0:0:0:0:
256,192,12243,1,2,0:0:0:0:
256,192,12420,1,2,0:0:0:0:
256,192,12772,1,0,0:0:0:0:
256,192,12949,1,0,0:0:0:0:
256,192,13125,1,2,0:0:0:0:
256,192,13478,1,0,0:0:0:0:
256,192,13655,1,2,0:0:0:0:
256,192,13831,1,2,0:0:0:0:
256,192,14184,1,0,0:0:0:0:
256,192,14361,1,0,0:0:0:0:
256,192,14537,1,2,0:0:0:0:
256,192,14714,1,2,0:0:0:0:
256,192,14890,1,0,0:0:0:0:
256,192,15067,1,2,0:0:0:0:
256,192,15243,1,2,0:0:0:0:
256,192,15596,1,0,0:0:0:0:
256,192,15772,1,0,0:0:0:0:
256,192,15949,1,2,0:0:0:0:
256,192,16302,1,0,0:0:0:0:
256,192,16478,1,2,0:0:0:0:
256,192,16655,1,2,0:0:0:0:
256,192,17008,1,0,0:0:0:0:
256,192,17184,1,0,0:0:0:0:
256,192,17361,1,2,0:0:0:0:
256,192,17537,1,2,0:0:0:0:
256,192,17714,1,0,0:0:0:0:
256,192,17890,1,2,0:0:0:0:
256,192,18067,1,2,0:0:0:0:
256,192,18420,1,0,0:0:0:0:
256,192,18596,1,0,0:0:0:0:
256,192,18772,1,2,0:0:0:0:
256,192,19125,1,0,0:0:0:0:
256,192,19302,1,0,0:0:0:0:
256,192,19478,1,2,0:0:0:0:
256,192,19655,1,2,0:0:0:0:
256,192,19831,1,0,0:0:0:0:
256,192,20184,1,2,0:0:0:0:
256,192,20361,1,2,0:0:0:0:
256,192,20537,1,0,0:0:0:0:
256,192,20714,1,2,0:0:0:0:
256,192,20890,1,2,0:0:0:0:
256,192,21243,1,0,0:0:0:0:
256,192,21420,1,0,0:0:0:0:
256,192,21596,1,2,0:0:0:0:
256,192,21949,1,0,0:0:0:0:
256,192,22125,1,0,0:0:0:0:
256,192,22302,1,2,0:0:0:0:
256,192,22831,1,2,0:0:0:0:
256,192,23008,1,2,0:0:0:0:
256,192,23361,1,4,0:0:0:0:
256,192,23714,1,0,0:0:0:0:
256,192,23890,1,2,0:0:0:0:
256,192,23978,1,2,0:0:0:0:
256,192,24067,1,2,0:0:0:0:
256,192,24243,1,0,0:0:0:0:
256,192,24331,1,0,0:0:0:0:
256,192,24420,1,2,0:0:0:0:
256,192,24772,1,0,0:0:0:0:
256,192,24949,1,2,0:0:0:0:
256,192,25037,1,2,0:0:0:0:
256,192,25125,1,0,0:0:0:0:
256,192,25302,1,2,0:0:0:0:
256,192,25390,1,2,0:0:0:0:
256,192,25478,1,2,0:0:0:0:
256,192,25655,1,0,0:0:0:0:
256,192,25831,1,2,0:0:0:0:
256,192,26184,1,0,0:0:0:0:
256,192,26537,1,2,0:0:0:0:
256,192,26714,1,0,0:0:0:0:
256,192,26802,1,0,0:0:0:0:
256,192,26890,1,0,0:0:0:0:
256,192,27067,1,2,0:0:0:0:
256,192,27155,1,2,0:0:0:0:
256,192,27243,1,0,0:0:0:0:
256,192,27596,1,2,0:0:0:0:
256,192,27772,1,0,0:0:0:0:
256,192,27861,1,0,0:0:0:0:
256,192,27949,1,2,0:0:0:0:
256,192,28125,1,0,0:0:0:0:
256,192,28214,1,0,0:0:0:0:
256,192,28302,1,0,0:0:0:0:
256,192,28478,1,2,0:0:0:0:
256,192,28655,1,0,0:0:0:0:
256,192,29008,1,2,0:0:0:0:
256,192,29361,1,0,0:0:0:0:
256,192,29537,1,2,0:0:0:0:
256,192,29625,1,2,0:0:0:0:
256,192,29714,1,2,0:0:0:0:
256,192,29890,1,0,0:0:0:0:
256,192,29978,1,0,0:0:0:0:
256,192,30067,1,2,0:0:0:0:
256,192,30420,1,0,0:0:0:0:
256,192,30596,1,2,0:0:0:0:
256,192,30684,1,2,0:0:0:0:
256,192,30772,1,0,0:0:0:0:
256,192,30949,1,2,0:0:0:0:
256,192,31037,1,2,0:0:0:0:
256,192,31125,1,2,0:0:0:0:
256,192,31302,1,0,0:0:0:0:
256,192,31478,1,2,0:0:0:0:
256,192,31831,1,0,0:0:0:0:
256,192,32184,1,2,0:0:0:0:
256,192,32361,1,0,0:0:0:0:
256,192,32449,1,0,0:0:0:0:
256,192,32537,1,0,0:0:0:0:
256,192,32714,1,2,0:0:0:0:
256,192,32802,1,2,0:0:0:0:
256,192,32890,1,0,0:0:0:0:
256,192,33243,1,2,0:0:0:0:
256,192,33420,1,0,0:0:0:0:
256,192,33508,1,0,0:0:0:0:
256,192,33596,1,2,0:0:0:0:
256,192,33772,1,0,0:0:0:0:
256,192,33861,1,0,0:0:0:0:
256,192,33949,1,0,0:0:0:0:
256,192,34125,1,2,0:0:0:0:
256,192,34302,1,0,0:0:0:0:
256,192,34655,1,4,0:0:0:0:
256,192,35008,1,0,0:0:0:0:
256,192,35184,1,2,0:0:0:0:
256,192,35272,1,2,0:0:0:0:
256,192,35361,1,2,0:0:0:0:
256,192,35537,1,0,0:0:0:0:
256,192,35625,1,0,0:0:0:0:
256,192,35714,1,2,0:0:0:0:
256,192,35890,1,0,0:0:0:0:
256,192,35978,1,0,0:0:0:0:
256,192,36067,1,0,0:0:0:0:
256,192,36243,1,2,0:0:0:0:
256,192,36331,1,2,0:0:0:0:
256,192,36420,1,0,0:0:0:0:
256,192,36596,1,2,0:0:0:0:
256,192,36684,1,2,0:0:0:0:
256,192,36772,1,2,0:0:0:0:
256,192,36949,1,0,0:0:0:0:
256,192,37125,1,2,0:0:0:0:
256,192,37302,1,2,0:0:0:0:
256,192,37478,1,0,0:0:0:0:
256,192,37831,1,2,0:0:0:0:
256,192,38008,1,0,0:0:0:0:
256,192,38096,1,0,0:0:0:0:
256,192,38184,1,0,0:0:0:0:
256,192,38361,1,2,0:0:0:0:
256,192,38449,1,2,0:0:0:0:
256,192,38537,1,0,0:0:0:0:
256,192,38714,1,2,0:0:0:0:
256,192,38802,1,2,0:0:0:0:
256,192,38890,1,2,0:0:0:0:
256,192,39067,1,0,0:0:0:0:
256,192,39243,1,2,0:0:0:0:
256,192,39420,1,0,0:0:0:0:
256,192,39508,1,0,0:0:0:0:
256,192,39596,1,0,0:0:0:0:
256,192,39772,1,2,0:0:0:0:
256,192,39949,1,0,0:0:0:0:
256,192,40302,1,2,0:0:0:0:
256,192,40655,1,0,0:0:0:0:
256,192,40831,1,2,0:0:0:0:
256,192,40920,1,2,0:0:0:0:
256,192,41008,1,2,0:0:0:0:
256,192,41184,1,0,0:0:0:0:
256,192,41272,1,0,0:0:0:0:
256,192,41361,1,2,0:0:0:0:
256,192,41537,1,0,0:0:0:0:
256,192,41625,1,0,0:0:0:0:
256,192,41714,1,0,0:0:0:0:
256,192,41890,1,2,0:0:0:0:
256,192,41978,1,2,0:0:0:0:
256,192,42067,1,0,0:0:0:0:
256,192,42243,1,2,0:0:0:0:
256,192,42331,1,2,0:0:0:0:
256,192,42420,1,2,0:0:0:0:
256,192,42596,1,0,0:0:0:0:
256,192,42772,1,2,0:0:0:0:
256,192,43125,1,2,0:0:0:0:
256,192,43302,1,0,0:0:0:0:
256,192,43390,1,0,0:0:0:0:
256,192,43478,1,2,0:0:0:0:
256,192,43655,1,0,0:0:0:0:
256,192,43743,1,0,0:0:0:0:
256,192,43831,1,0,0:0:0:0:
256,192,44008,1,2,0:0:0:0:
256,192,44096,1,2,0:0:0:0:
256,192,44184,1,0,0:0:0:0:
256,192,44537,1,2,0:0:0:0:
256,192,44890,1,2,0:0:0:0:
256,192,45596,1,6,0:0:0:0:
256,192,45949,1,4,0:0:0:0:
256,192,46302,1,2,0:0:0:0:
256,192,46655,1,2,0:0:0:0:
256,192,47008,1,2,0:0:0:0:
256,192,47361,1,2,0:0:0:0:
256,192,47714,1,2,0:0:0:0:
256,192,48067,1,2,0:0:0:0:
256,192,48420,1,2,0:0:0:0:
256,192,48772,1,0,0:0:0:0:
256,192,49125,1,2,0:0:0:0:
256,192,49478,1,2,0:0:0:0:
256,192,49831,1,2,0:0:0:0:
256,192,50184,1,2,0:0:0:0:
256,192,50537,1,2,0:0:0:0:
256,192,50890,1,2,0:0:0:0:
256,192,51243,1,2,0:0:0:0:
256,192,51596,1,0,0:0:0:0:
256,192,51772,1,2,0:0:0:0:
256,192,51949,1,2,0:0:0:0:
256,192,52125,1,2,0:0:0:0:
256,192,52302,1,0,0:0:0:0:
256,192,52478,1,0,0:0:0:0:
256,192,52655,1,2,0:0:0:0:
256,192,52831,1,2,0:0:0:0:
256,192,53008,1,0,0:0:0:0:
256,192,53184,1,2,0:0:0:0:
256,192,53361,1,2,0:0:0:0:
256,192,53537,1,2,0:0:0:0:
256,192,53714,1,0,0:0:0:0:
256,192,53890,1,0,0:0:0:0:
256,192,54067,1,2,0:0:0:0:
256,192,54243,1,2,0:0:0:0:
256,192,54420,1,0,0:0:0:0:
256,192,54596,1,2,0:0:0:0:
256,192,54684,1,0,0:0:0:0:
256,192,54772,1,2,0:0:0:0:
256,192,54861,1,2,0:0:0:0:
256,192,54949,1,0,0:0:0:0:
256,192,55125,1,2,0:0:0:0:
256,192,55302,1,0,0:0:0:0:
256,192,55390,1,0,0:0:0:0:
256,192,55478,1,2,0:0:0:0:
256,192,55655,1,2,0:0:0:0:
256,192,55831,1,4,0:0:0:0:
256,192,57243,1,4,0:0:0:0:
256,192,57596,1,2,0:0:0:0:
256,192,57949,1,2,0:0:0:0:
256,192,58302,1,2,0:0:0:0:
256,192,58655,1,0,0:0:0:0:
256,192,58831,1,2,0:0:0:0:
256,192,58920,1,2,0:0:0:0:
256,192,59008,1,0,0:0:0:0:
256,192,59184,1,2,0:0:0:0:
256,192,59272,1,2,0:0:0:0:
256,192,59361,1,2,0:0:0:0:
256,192,59537,1,0,0:0:0:0:
256,192,59714,1,2,0:0:0:0:
256,192,60067,1,0,0:0:0:0:
256,192,60243,1,2,0:0:0:0:
256,192,60420,1,0,0:0:0:0:
256,192,60508,1,0,0:0:0:0:
256,192,60596,1,2,0:0:0:0:
256,192,60772,1,0,0:0:0:0:
256,192,60949,1,2,0:0:0:0:
256,192,61037,1,2,0:0:0:0:
256,192,61125,1,0,0:0:0:0:
256,192,61302,1,2,0:0:0:0:
256,192,61478,1,0,0:0:0:0:
256,192,61831,1,2,0:0:0:0:
256,192,62008,1,2,0:0:0:0:
256,192,62184,1,0,0:0:0:0:
256,192,62361,1,2,0:0:0:0:
256,192,62537,1,2,0:0:0:0:
256,192,62890,1,0,0:0:0:0:
256,192,63243,1,2,0:0:0:0:
256,192,63596,1,2,0:0:0:0:
256,192,63949,1,2,0:0:0:0:
256,192,64302,1,0,0:0:0:0:
256,192,64478,1,2,0:0:0:0:
256,192,64567,1,2,0:0:0:0:
256,192,64655,1,0,0:0:0:0:
256,192,64831,1,2,0:0:0:0:
256,192,64920,1,2,0:0:0:0:
256,192,65008,1,2,0:0:0:0:
256,192,65184,1,0,0:0:0:0:
256,192,65361,1,2,0:0:0:0:
256,192,65714,1,0,0:0:0:0:
256,192,65890,1,2,0:0:0:0:
256,192,66067,1,0,0:0:0:0:
256,192,66243,1,2,0:0:0:0:
256,192,66420,1,0,0:0:0:0:
256,192,66596,1,2,0:0:0:0:
256,192,66684,1,2,0:0:0:0:
256,192,66772,1,0,0:0:0:0:
256,192,66949,1,2,0:0:0:0:
256,192,67125,1,0,0:0:0:0:
256,192,67478,1,0,0:0:0:0:
256,192,68184,1,6,0:0:0:0:
256,192,68537,1,4,0:0:0:0:
256,192,68890,1,0,0:0:0:0:
256,192,69067,1,2,0:0:0:0:
256,192,69243,1,0,0:0:0:0:
256,192,69420,1,2,0:0:0:0:
256,192,69596,1,0,0:0:0:0:
256,192,69949,1,0,0:0:0:0:
256,192,70125,1,2,0:0:0:0:
256,192,70302,1,0,0:0:0:0:
256,192,70478,1,2,0:0:0:0:
256,192,70567,1,2,0:0:0:0:
256,192,70655,1,0,0:0:0:0:
256,192,70831,1,2,0:0:0:0:
256,192,71008,1,0,0:0:0:0:
256,192,71361,1,0,0:0:0:0:
256,192,71714,1,0,0:0:0:0:
256,192,71890,1,2,0:0:0:0:
256,192,72067,1,0,0:0:0:0:
256,192,72243,1,2,0:0:0:0:
256,192,72331,1,2,0:0:0:0:
256,192,72420,1,0,0:0:0:0:
256,192,72596,1,2,0:0:0:0:
256,192,72772,1,0,0:0:0:0:
256,192,73125,1,2,0:0:0:0:
256,192,73478,1,0,0:0:0:0:
256,192,73831,1,2,0:0:0:0:
256,192,74184,1,4,0:0:0:0:
256,192,74537,1,0,0:0:0:0:
256,192,74714,1,2,0:0:0:0:
256,192,74890,1,0,0:0:0:0:
256,192,75067,1,2,0:0:0:0:
256,192,75243,1,0,0:0:0:0:
256,192,75596,1,0,0:0:0:0:
256,192,75772,1,2,0:0:0:0:
256,192,75949,1,0,0:0:0:0:
256,192,76125,1,2,0:0:0:0:
256,192,76214,1,2,0:0:0:0:
256,192,76302,1,0,0:0:0:0:
256,192,76478,1,2,0:0:0:0:
256,192,76655,1,0,0:0:0:0:
256,192,77008,1,2,0:0:0:0:
256,192,77184,1,0,0:0:0:0:
256,192,77272,1,0,0:0:0:0:
256,192,77361,1,2,0:0:0:0:
256,192,77537,1,0,0:0:0:0:
256,192,77625,1,0,0:0:0:0:
256,192,77714,1,0,0:0:0:0:
256,192,77890,1,2,0:0:0:0:
256,192,77978,1,2,0:0:0:0:
256,192,78067,1,0,0:0:0:0:
256,192,78155,1,0,0:0:0:0:
256,192,78243,1,2,0:0:0:0:
256,192,78420,1,0,0:0:0:0:
256,192,78772,1,0,0:0:0:0:
256,192,79831,1,4,0:0:0:0:
256,192,80184,1,2,0:0:0:0:
256,192,80361,1,2,0:0:0:0:
256,192,80537,1,0,0:0:0:0:
256,192,80714,1,2,0:0:0:0:
256,192,80890,1,2,0:0:0:0:
256,192,81067,1,2,0:0:0:0:
256,192,81243,1,0,0:0:0:0:
256,192,81596,1,2,0:0:0:0:
256,192,81772,1,2,0:0:0:0:
256,192,81949,1,0,0:0:0:0:
256,192,82125,1,0,0:0:0:0:
256,192,82302,1,2,0:0:0:0:
256,192,82655,1,0,0:0:0:0:
256,192,83008,1,2,0:0:0:0:
256,192,83184,1,2,0:0:0:0:
256,192,83361,1,0,0:0:0:0:
256,192,83537,1,2,0:0:0:0:
256,192,83714,1,2,0:0:0:0:
256,192,83890,1,2,0:0:0:0:
256,192,84067,1,0,0:0:0:0:
256,192,84420,1,2,0:0:0:0:
256,192,84596,1,2,0:0:0:0:
256,192,84772,1,0,0:0:0:0:
256,192,85125,1,0,0:0:0:0:
256,192,85478,1,6,0:0:0:0:
256,192,85831,1,2,0:0:0:0:
256,192,86008,1,2,0:0:0:0:
256,192,86184,1,0,0:0:0:0:
256,192,86361,1,2,0:0:0:0:
256,192,86537,1,0,0:0:0:0:
256,192,86890,1,0,0:0:0:0:
256,192,87067,1,2,0:0:0:0:
256,192,87243,1,2,0:0:0:0:
256,192,87420,1,2,0:0:0:0:
256,192,87596,1,0,0:0:0:0:
256,192,87772,1,2,0:0:0:0:
256,192,87949,1,2,0:0:0:0:
256,192,88302,1,0,0:0:0:0:
256,192,88655,1,2,0:0:0:0:
256,192,89008,1,0,0:0:0:0:
256,192,89361,1,2,0:0:0:0:
256,192,89714,1,0,0:0:0:0:
256,192,90067,1,0,0:0:0:0:
256,192,90772,1,6,0:0:0:0:
256,192,91125,1,4,0:0:0:0:
256,192,91478,1,2,0:0:0:0:
256,192,91655,1,0,0:0:0:0:
256,192,91743,1,0,0:0:0:0:
256,192,91831,1,2,0:0:0:0:
256,192,92008,1,0,0:0:0:0:
256,192,92184,1,2,0:0:0:0:
256,192,92361,1,2,0:0:0:0:
256,192,92714,1,0,0:0:0:0:
256,192,92890,1,2,0:0:0:0:
256,192,93067,1,0,0:0:0:0:
256,192,93155,1,0,0:0:0:0:
256,192,93243,1,2,0:0:0:0:
256,192,93420,1,2,0:0:0:0:
256,192,93596,1,0,0:0:0:0:
256,192,93772,1,0,0:0:0:0:
256,192,93949,1,2,0:0:0:0:
256,192,94302,1,2,0:0:0:0:
256,192,94478,1,0,0:0:0:0:
256,192,94567,1,0,0:0:0:0:
256,192,94655,1,2,0:0:0:0:
256,192,94831,1,0,0:0:0:0:
256,192,95008,1,2,0:0:0:0:
256,192,95184,1,2,0:0:0:0:
256,192,95537,1,0,0:0:0:0:
256,192,95714,1,2,0:0:0:0:
256,192,95890,1,0,0:0:0:0:
256,192,95978,1,0,0:0:0:0:
256,192,96067,1,2,0:0:0:0:
256,192,96243,1,0,0:0:0:0:
256,192,96420,1,2,0:0:0:0:
256,192,96596,1,2,0:0:0:0:
256,192,96772,1,0,0:0:0:0:
256,192,97125,1,2,0:0:0:0:
256,192,97302,1,0,0:0:0:0:
256,192,97390,1,0,0:0:0:0:
256,192,97478,1,2,0:0:0:0:
256,192,97655,1,0,0:0:0:0:
256,192,97831,1,2,0:0:0:0:
256,192,98008,1,2,0:0:0:0:
256,192,98361,1,0,0:0:0:0:
256,192,98537,1,2,0:0:0:0:
256,192,98714,1,0,0:0:0:0:
256,192,98802,1,0,0:0:0:0:
256,192,98890,1,2,0:0:0:0:
256,192,99067,1,0,0:0:0:0:
256,192,99243,1,2,0:0:0:0:
256,192,99420,1,2,0:0:0:0:
256,192,99596,1,0,0:0:0:0:
256,192,99772,1,2,0:0:0:0:
256,192,99861,1,2,0:0:0:0:
256,192,99949,1,2,0:0:0:0:
256,192,100125,1,0,0:0:0:0:
256,192,100214,1,0,0:0:0:0:
256,192,100302,1,2,0:0:0:0:
256,192,100478,1,0,0:0:0:0:
256,192,100655,1,2,0:0:0:0:
256,192,100831,1,2,0:0:0:0:
256,192,101008,1,0,0:0:0:0:
256,192,101361,1,2,0:0:0:0:
256,192,101537,1,0,0:0:0:0:
256,192,101714,1,2,0:0:0:0:
256,192,102420,1,6,0:0:0:0:
256,192,102772,1,2,0:0:0:0:
256,192,102949,1,0,0:0:0:0:
256,192,103037,1,0,0:0:0:0:
256,192,103125,1,2,0:0:0:0:
256,192,103302,1,0,0:0:0:0:
256,192,103390,1,0,0:0:0:0:
256,192,103478,1,0,0:0:0:0:
256,192,103655,1,2,0:0:0:0:
256,192,103743,1,2,0:0:0:0:
256,192,103831,1,0,0:0:0:0:
256,192,104008,1,2,0:0:0:0:
256,192,104096,1,2,0:0:0:0:
256,192,104184,1,2,0:0:0:0:
256,192,104361,1,0,0:0:0:0:
256,192,104449,1,0,0:0:0:0:
256,192,104537,1,2,0:0:0:0:
256,192,104714,1,0,0:0:0:0:
256,192,104890,1,2,0:0:0:0:
256,192,105243,1,2,0:0:0:0:
256,192,105596,1,2,0:0:0:0:
256,192,105772,1,0,0:0:0:0:
256,192,105861,1,0,0:0:0:0:
256,192,105949,1,2,0:0:0:0:
256,192,106125,1,0,0:0:0:0:
256,192,106214,1,0,0:0:0:0:
256,192,106302,1,0,0:0:0:0:
256,192,106478,1,2,0:0:0:0:
256,192,106567,1,2,0:0:0:0:
256,192,106655,1,0,0:0:0:0:
256,192,106831,1,2,0:0:0:0:
256,192,106920,1,2,0:0:0:0:
256,192,107008,1,2,0:0:0:0:
256,192,107184,1,0,0:0:0:0:
256,192,107272,1,0,0:0:0:0:
256,192,107361,1,2,0:0:0:0:
256,192,107537,1,0,0:0:0:0:
256,192,107714,1,2,0:0:0:0:
256,192,107890,1,0,0:0:0:0:
256,192,108067,1,2,0:0:0:0:
256,192,108420,1,2,0:0:0:0:
256,192,108596,1,0,0:0:0:0:
256,192,108684,1,0,0:0:0:0:
256,192,108772,1,2,0:0:0:0:
256,192,108949,1,0,0:0:0:0:
256,192,109037,1,0,0:0:0:0:
256,192,109125,1,0,0:0:0:0:
256,192,109302,1,2,0:0:0:0:
256,192,109390,1,2,0:0:0:0:
256,192,109478,1,0,0:0:0:0:
256,192,109655,1,2,0:0:0:0:
256,192,109743,1,2,0:0:0:0:
256,192,109831,1,2,0:0:0:0:
256,192,110008,1,0,0:0:0:0:
256,192,110096,1,0,0:0:0:0:
256,192,110184,1,2,0:0:0:0:
256,192,110361,1,0,0:0:0:0:
256,192,110537,1,2,0:0:0:0:
256,192,110890,1,2,0:0:0:0:
256,192,111243,1,2,0:0:0:0:
256,192,111420,1,0,0:0:0:0:
256,192,111508,1,0,0:0:0:0:
256,192,111596,1,2,0:0:0:0:
256,192,111772,1,0,0:0:0:0:
256,192,111861,1,0,0:0:0:0:
256,192,111949,1,0,0:0:0:0:
256,192,112125,1,2,0:0:0:0:
256,192,112302,1,0,0:0:0:0:
256,192,112478,1,2,0:0:0:0:
256,192,112567,1,0,0:0:0:0:
256,192,112655,1,2,0:0:0:0:
256,192,112743,1,2,0:0:0:0:
256,192,112831,1,0,0:0:0:0:
256,192,113008,1,2,0:0:0:0:
256,192,113714,1,6,0:0:0:0:
256,192,114067,1,2,0:0:0:0:
256,192,114243,1,0,0:0:0:0:
256,192,114331,1,0,0:0:0:0:
256,192,114420,1,2,0:0:0:0:
256,192,114596,1,0,0:0:0:0:
256,192,114684,1,0,0:0:0:0:
256,192,114772,1,0,0:0:0:0:
256,192,114949,1,2,0:0:0:0:
256,192,115037,1,2,0:0:0:0:
256,192,115125,1,0,0:0:0:0:
256,192,115302,1,2,0:0:0:0:
256,192,115390,1,2,0:0:0:0:
256,192,115478,1,2,0:0:0:0:
256,192,115655,1,0,0:0:0:0:
256,192,115743,1,0,0:0:0:0:
256,192,115831,1,2,0:0:0:0:
256,192,116008,1,0,0:0:0:0:
256,192,116184,1,2,0:0:0:0:
256,192,116537,1,2,0:0:0:0:
256,192,116890,1,2,0:0:0:0:
256,192,117067,1,0,0:0:0:0:
256,192,117155,1,0,0:0:0:0:
256,192,117243,1,2,0:0:0:0:
256,192,117420,1,0,0:0:0:0:
256,192,117508,1,0,0:0:0:0:
256,192,117596,1,0,0:0:0:0:
256,192,117772,1,2,0:0:0:0:
256,192,117861,1,2,0:0:0:0:
256,192,117949,1,0,0:0:0:0:
256,192,118125,1,2,0:0:0:0:
256,192,118214,1,2,0:0:0:0:
256,192,118302,1,2,0:0:0:0:
256,192,118478,1,0,0:0:0:0:
256,192,118567,1,0,0:0:0:0:
256,192,118655,1,2,0:0:0:0:
256,192,118831,1,0,0:0:0:0:
256,192,119008,1,2,0:0:0:0:
256,192,119184,1,0,0:0:0:0:
256,192,119361,1,2,0:0:0:0:
256,192,119714,1,2,0:0:0:0:
256,192,119890,1,0,0:0:0:0:
256,192,119978,1,0,0:0:0:0:
256,192,120067,1,2,0:0:0:0:
256,192,120243,1,0,0:0:0:0:
256,192,120331,1,0,0:0:0:0:
256,192,120420,1,0,0:0:0:0:
256,192,120596,1,2,0:0:0:0:
256,192,120684,1,2,0:0:0:0:
256,192,120772,1,0,0:0:0:0:
256,192,120949,1,2,0:0:0:0:
256,192,121037,1,2,0:0:0:0:
256,192,121125,1,2,0:0:0:0:
256,192,121302,1,0,0:0:0:0:
256,192,121390,1,0,0:0:0:0:
256,192,121478,1,2,0:0:0:0:
256,192,121655,1,0,0:0:0:0:
256,192,121831,1,2,0:0:0:0:
256,192,122184,1,2,0:0:0:0:
256,192,122272,1,2,0:0:0:0:
256,192,122361,1,0,0:0:0:0:
256,192,122449,1,0,0:0:0:0:
256,192,122537,1,2,0:0:0:0:
256,192,122714,1,0,0:0:0:0:
256,192,122890,1,2,0:0:0:0:
256,192,123067,1,0,0:0:0:0:
256,192,123155,1,0,0:0:0:0:
256,192,123243,1,2,0:0:0:0:
256,192,123420,1,0,0:0:0:0:
256,192,123596,1,2,0:0:0:0:
256,192,123772,1,0,0:0:0:0:
256,192,123949,1,2,0:0:0:0:
256,192,124125,1,0,0:0:0:0:
256,192,124214,1,0,0:0:0:0:
256,192,124302,1,2,0:0:0:0:
256,192,125008,1,4,0:0:0:0:
256,192,136302,5,4,0:0:0:0:
256,192,137714,1,2,0:0:0:0:
256,192,138243,1,2,0:0:0:0:
256,192,139125,1,0,0:0:0:0:
256,192,140537,1,2,0:0:0:0:
256,192,141067,1,2,0:0:0:0:
256,192,141949,1,2,0:0:0:0:
256,192,143361,1,2,0:0:0:0:
256,192,143890,1,2,0:0:0:0:
256,192,144772,1,0,0:0:0:0:
256,192,146184,1,2,0:0:0:0:
256,192,146537,1,0,0:0:0:0:
256,192,146890,1,2,0:0:0:0:
256,192,147596,1,2,0:0:0:0:
256,192,149008,1,2,0:0:0:0:
256,192,149537,1,2,0:0:0:0:
256,192,150420,1,0,0:0:0:0:
256,192,151831,1,2,0:0:0:0:
256,192,152361,1,2,0:0:0:0:
256,192,153243,1,2,0:0:0:0:
256,192,154655,1,2,0:0:0:0:
256,192,155184,1,2,0:0:0:0:
256,192,157655,5,2,0:0:0:0:
256,192,157831,1,2,0:0:0:0:
256,192,158184,1,0,0:0:0:0:
256,192,158890,1,6,0:0:0:0:
256,192,159243,1,2,0:0:0:0:
256,192,159596,1,2,0:0:0:0:
256,192,159949,1,0,0:0:0:0:
256,192,160125,1,2,0:0:0:0:
256,192,160655,1,2,0:0:0:0:
256,192,161008,1,2,0:0:0:0:
256,192,161184,1,0,0:0:0:0:
256,192,161361,1,2,0:0:0:0:
256,192,161714,1,2,0:0:0:0:
256,192,162067,1,2,0:0:0:0:
256,192,162420,1,2,0:0:0:0:
256,192,162772,1,0,0:0:0:0:
256,192,162949,1,2,0:0:0:0:
256,192,163302,1,2,0:0:0:0:
256,192,163478,1,2,0:0:0:0:
256,192,163831,1,2,0:0:0:0:
256,192,164184,1,0,0:0:0:0:
256,192,164537,1,2,0:0:0:0:
256,192,164890,1,2,0:0:0:0:
256,192,165243,1,2,0:0:0:0:
256,192,165596,1,0,0:0:0:0:
256,192,165772,1,2,0:0:0:0:
256,192,166302,1,2,0:0:0:0:
256,192,166655,1,2,0:0:0:0:
256,192,166831,1,0,0:0:0:0:
256,192,167008,1,2,0:0:0:0:
256,192,167361,1,2,0:0:0:0:
256,192,167714,1,2,0:0:0:0:
256,192,168067,1,2,0:0:0:0:
256,192,168420,1,0,0:0:0:0:
256,192,168596,1,2,0:0:0:0:
256,192,168949,1,2,0:0:0:0:
256,192,169125,1,2,0:0:0:0:
256,192,170184,1,6,0:0:0:0:
256,192,170537,1,2,0:0:0:0:
256,192,170714,1,0,0:0:0:0:
256,192,170890,1,2,0:0:0:0:
256,192,171067,1,0,0:0:0:0:
256,192,171243,1,2,0:0:0:0:
256,192,171420,1,2,0:0:0:0:
256,192,171772,1,0,0:0:0:0:
256,192,171949,1,2,0:0:0:0:
256,192,172125,1,0,0:0:0:0:
256,192,172302,1,2,0:0:0:0:
256,192,172478,1,0,0:0:0:0:
256,192,172655,1,2,0:0:0:0:
256,192,172831,1,2,0:0:0:0:
256,192,173008,1,2,0:0:0:0:
256,192,173361,1,2,0:0:0:0:
256,192,173537,1,0,0:0:0:0:
256,192,173714,1,2,0:0:0:0:
256,192,173890,1,0,0:0:0:0:
256,192,174067,1,2,0:0:0:0:
256,192,174243,1,2,0:0:0:0:
256,192,174596,1,0,0:0:0:0:
256,192,174772,1,2,0:0:0:0:
256,192,174949,1,0,0:0:0:0:
256,192,175125,1,2,0:0:0:0:
256,192,175302,1,2,0:0:0:0:
256,192,175478,1,0,0:0:0:0:
256,192,175655,1,0,0:0:0:0:
256,192,175831,1,2,0:0:0:0:
256,192,176184,1,2,0:0:0:0:
256,192,176361,1,0,0:0:0:0:
256,192,176537,1,2,0:0:0:0:
256,192,176714,1,0,0:0:0:0:
256,192,176890,1,2,0:0:0:0:
256,192,177067,1,2,0:0:0:0:
256,192,177420,1,0,0:0:0:0:
256,192,177596,1,2,0:0:0:0:
256,192,177772,1,0,0:0:0:0:
256,192,177949,1,2,0:0:0:0:
256,192,178125,1,0,0:0:0:0:
256,192,178302,1,2,0:0:0:0:
256,192,178478,1,2,0:0:0:0:
256,192,178655,1,2,0:0:0:0:
256,192,179008,1,2,0:0:0:0:
256,192,179184,1,0,0:0:0:0:
256,192,179361,1,2,0:0:0:0:
256,192,179537,1,0,0:0:0:0:
256,192,179714,1,2,0:0:0:0:
256,192,179890,1,2,0:0:0:0:
256,192,180067,1,0,0:0:0:0:
256,192,180420,1,2,0:0:0:0:
256,192,180596,1,0,0:0:0:0:
256,192,180772,1,2,0:0:0:0:
256,192,180949,1,0,0:0:0:0:
256,192,181125,1,6,0:0:0:0:
256,192,181478,1,4,0:0:0:0:
256,192,181831,1,2,0:0:0:0:
256,192,182184,1,0,0:0:0:0:
256,192,182537,1,2,0:0:0:0:
256,192,182890,1,0,0:0:0:0:
256,192,183243,1,2,0:0:0:0:
256,192,183596,1,0,0:0:0:0:
256,192,183949,1,2,0:0:0:0:
256,192,184125,1,0,0:0:0:0:
256,192,184302,1,2,0:0:0:0:
256,192,184655,1,0,0:0:0:0:
256,192,185008,1,2,0:0:0:0:
256,192,185184,1,0,0:0:0:0:
256,192,185361,1,2,0:0:0:0:
256,192,185537,1,2,0:0:0:0:
256,192,185714,1,0,0:0:0:0:
256,192,186067,1,2,0:0:0:0:
256,192,186420,1,2,0:0:0:0:
256,192,186596,1,0,0:0:0:0:
256,192,186772,1,2,0:0:0:0:
256,192,187125,1,2,0:0:0:0:
256,192,187302,1,0,0:0:0:0:
256,192,187478,1,2,0:0:0:0:
256,192,187655,1,0,0:0:0:0:
256,192,187831,1,2,0:0:0:0:
256,192,188008,1,0,0:0:0:0:
256,192,188184,1,2,0:0:0:0:
256,192,188361,1,0,0:0:0:0:
256,192,188537,1,2,0:0:0:0:
256,192,188714,1,0,0:0:0:0:
256,192,188890,1,2,0:0:0:0:
256,192,189067,1,0,0:0:0:0:
256,192,189243,1,2,0:0:0:0:
256,192,189420,1,0,0:0:0:0:
256,192,189596,1,2,0:0:0:0:
256,192,189772,1,0,0:0:0:0:
256,192,189949,1,2,0:0:0:0:
256,192,190125,1,0,0:0:0:0:
256,192,190214,1,0,0:0:0:0:
256,192,190302,1,2,0:0:0:0:
256,192,190390,1,2,0:0:0:0:
256,192,190478,1,0,0:0:0:0:
256,192,190655,1,2,0:0:0:0:
256,192,190743,1,2,0:0:0:0:
256,192,190831,1,0,0:0:0:0:
256,192,190920,1,0,0:0:0:0:
256,192,191008,1,2,0:0:0:0:
256,192,191184,1,0,0:0:0:0:
256,192,191361,1,2,0:0:0:0:
256,192,192772,1,6,0:0:0:0:
256,192,193125,1,2,0:0:0:0:
256,192,193302,1,0,0:0:0:0:
256,192,193390,1,0,0:0:0:0:
256,192,193478,1,2,0:0:0:0:
256,192,193655,1,0,0:0:0:0:
256,192,193743,1,0,0:0:0:0:
256,192,193831,1,0,0:0:0:0:
256,192,194008,1,2,0:0:0:0:
256,192,194096,1,2,0:0:0:0:
256,192,194184,1,0,0:0:0:0:
256,192,194361,1,2,0:0:0:0:
256,192,194449,1,0,0:0:0:0:
256,192,194537,1,2,0:0:0:0:
256,192,194714,1,0,0:0:0:0:
256,192,194802,1,0,0:0:0:0:
256,192,194890,1,2,0:0:0:0:
256,192,195067,1,0,0:0:0:0:
256,192,195243,1,2,0:0:0:0:
256,192,195596,1,2,0:0:0:0:
256,192,195949,1,2,0:0:0:0:
256,192,196125,1,0,0:0:0:0:
256,192,196214,1,0,0:0:0:0:
256,192,196302,1,2,0:0:0:0:
256,192,196478,1,0,0:0:0:0:
256,192,196567,1,0,0:0:0:0:
256,192,196655,1,0,0:0:0:0:
256,192,196831,1,2,0:0:0:0:
256,192,196920,1,2,0:0:0:0:
256,192,197008,1,0,0:0:0:0:
256,192,197184,1,2,0:0:0:0:
256,192,197272,1,0,0:0:0:0:
256,192,197361,1,2,0:0:0:0:
256,192,197537,1,0,0:0:0:0:
256,192,197625,1,0,0:0:0:0:
256,192,197714,1,2,0:0:0:0:
256,192,197890,1,0,0:0:0:0:
256,192,198067,1,2,0:0:0:0:
256,192,198243,1,0,0:0:0:0:
256,192,198420,1,2,0:0:0:0:
256,192,198772,1,2,0:0:0:0:
256,192,198949,1,0,0:0:0:0:
256,192,199037,1,0,0:0:0:0:
256,192,199125,1,2,0:0:0:0:
256,192,199302,1,0,0:0:0:0:
256,192,199390,1,0,0:0:0:0:
256,192,199478,1,0,0:0:0:0:
256,192,199655,1,2,0:0:0:0:
256,192,199743,1,2,0:0:0:0:
256,192,199831,1,0,0:0:0:0:
256,192,200008,1,2,0:0:0:0:
256,192,200096,1,0,0:0:0:0:
256,192,200184,1,2,0:0:0:0:
256,192,200361,1,0,0:0:0:0:
256,192,200449,1,0,0:0:0:0:
256,192,200537,1,2,0:0:0:0:
256,192,200714,1,0,0:0:0:0:
256,192,200890,1,2,0:0:0:0:
256,192,201243,1,2,0:0:0:0:
256,192,201596,1,2,0:0:0:0:
256,192,201772,1,0,0:0:0:0:
256,192,201861,1,0,0:0:0:0:
256,192,201949,1,2,0:0:0:0:
256,192,202125,1,0,0:0:0:0:
256,192,202214,1,0,0:0:0:0:
256,192,202302,1,0,0:0:0:0:
256,192,202478,1,2,0:0:0:0:
256,192,202655,1,0,0:0:0:0:
256,192,202831,1,2,0:0:0:0:
256,192,202920,1,0,0:0:0:0:
256,192,203008,1,2,0:0:0:0:
256,192,203184,1,0,0:0:0:0:
256,192,203361,1,2,0:0:0:0:
256,192,203537,1,2,0:0:0:0:
256,192,203714,1,0,0:0:0:0:
256,192,203890,1,0,0:0:0:0:
256,192,204067,1,6,0:0:0:0:
256,192,204420,1,2,0:0:0:0:
256,192,204596,1,0,0:0:0:0:
256,192,204684,1,0,0:0:0:0:
256,192,204772,1,2,0:0:0:0:
256,192,204949,1,0,0:0:0:0:
256,192,205037,1,0,0:0:0:0:
256,192,205125,1,0,0:0:0:0:
256,192,205302,1,2,0:0:0:0:
256,192,205390,1,2,0:0:0:0:
256,192,205478,1,0,0:0:0:0:
256,192,205655,1,2,0:0:0:0:
256,192,205743,1,0,0:0:0:0:
256,192,205831,1,2,0:0:0:0:
256,192,206008,1,0,0:0:0:0:
256,192,206096,1,0,0:0:0:0:
256,192,206184,1,2,0:0:0:0:
256,192,206361,1,0,0:0:0:0:
256,192,206537,1,2,0:0:0:0:
256,192,206890,1,2,0:0:0:0:
256,192,207243,1,2,0:0:0:0:
256,192,207420,1,0,0:0:0:0:
256,192,207508,1,0,0:0:0:0:
256,192,207596,1,2,0:0:0:0:
256,192,207772,1,0,0:0:0:0:
256,192,207861,1,0,0:0:0:0:
256,192,207949,1,0,0:0:0:0:
256,192,208125,1,2,0:0:0:0:
256,192,208214,1,2,0:0:0:0:
256,192,208302,1,0,0:0:0:0:
256,192,208478,1,2,0:0:0:0:
256,192,208567,1,0,0:0:0:0:
256,192,208655,1,2,0:0:0:0:
256,192,208831,1,0,0:0:0:0:
256,192,208920,1,0,0:0:0:0:
256,192,209008,1,2,0:0:0:0:
256,192,209184,1,0,0:0:0:0:
256,192,209361,1,2,0:0:0:0:
256,192,209537,1,0,0:0:0:0:
256,192,209714,1,2,0:0:0:0:
256,192,210067,1,2,0:0:0:0:
256,192,210243,1,0,0:0:0:0:
256,192,210331,1,0,0:0:0:0:
256,192,210420,1,2,0:0:0:0:
256,192,210596,1,0,0:0:0:0:
256,192,210684,1,0,0:0:0:0:
256,192,210772,1,0,0:0:0:0:
256,192,210949,1,2,0:0:0:0:
256,192,211037,1,2,0:0:0:0:
256,192,211125,1,0,0:0:0:0:
256,192,211302,1,2,0:0:0:0:
256,192,211390,1,0,0:0:0:0:
256,192,211478,1,2,0:0:0:0:
256,192,211655,1,0,0:0:0:0:
256,192,211743,1,0,0:0:0:0:
256,192,211831,1,2,0:0:0:0:
256,192,212008,1,0,0:0:0:0:
256,192,212184,1,2,0:0:0:0:
256,192,212537,1,2,0:0:0:0:
256,192,212625,1,2,0:0:0:0:
256,192,212714,1,0,0:0:0:0:
256,192,212802,1,0,0:0:0:0:
256,192,212890,1,2,0:0:0:0:
256,192,213067,1,0,0:0:0:0:
256,192,213243,1,2,0:0:0:0:
256,192,213420,1,0,0:0:0:0:
256,192,213508,1,0,0:0:0:0:
256,192,213596,1,2,0:0:0:0:
256,192,213772,1,0,0:0:0:0:
256,192,213949,1,2,0:0:0:0:
256,192,214302,1,2,0:0:0:0:
256,192,215361,1,6,0:0:0:0:
256,192,215714,1,2,0:0:0:0:
256,192,215890,1,0,0:0:0:0:
256,192,215978,1,0,0:0:0:0:
256,192,216067,1,2,0:0:0:0:
256,192,216243,1,0,0:0:0:0:
256,192,216331,1,0,0:0:0:0:
256,192,216420,1,0,0:0:0:0:
256,192,216596,1,2,0:0:0:0:
256,192,216684,1,2,0:0:0:0:
256,192,216772,1,0,0:0:0:0:
256,192,216949,1,2,0:0:0:0:
256,192,217037,1,0,0:0:0:0:
256,192,217125,1,2,0:0:0:0:
256,192,217302,1,0,0:0:0:0:
256,192,217390,1,0,0:0:0:0:
256,192,217478,1,2,0:0:0:0:
256,192,217655,1,0,0:0:0:0:
256,192,217831,1,2,0:0:0:0:
256,192,218184,1,2,0:0:0:0:
256,192,218537,1,2,0:0:0:0:
256,192,218714,1,0,0:0:0:0:
256,192,218802,1,0,0:0:0:0:
256,192,218890,1,2,0:0:0:0:
256,192,219067,1,0,0:0:0:0:
256,192,219155,1,0,0:0:0:0:
256,192,219243,1,0,0:0:0:0:
256,192,219420,1,2,0:0:0:0:
256,192,219508,1,2,0:0:0:0:
256,192,219596,1,0,0:0:0:0:
256,192,219772,1,2,0:0:0:0:
256,192,219861,1,0,0:0:0:0:
256,192,219949,1,2,0:0:0:0:
256,192,220125,1,0,0:0:0:0:
256,192,220214,1,0,0:0:0:0:
256,192,220302,1,2,0:0:0:0:
256,192,220478,1,0,0:0:0:0:
256,192,220655,1,2,0:0:0:0:
256,192,220831,1,0,0:0:0:0:
256,192,221008,1,2,0:0:0:0:
256,192,221361,1,2,0:0:0:0:
256,192,221537,1,0,0:0:0:0:
256,192,221625,1,0,0:0:0:0:
256,192,221714,1,2,0:0:0:0:
256,192,221890,1,0,0:0:0:0:
256,192,221978,1,0,0:0:0:0:
256,192,222067,1,0,0:0:0:0:
256,192,222243,1,2,0:0:0:0:
256,192,222331,1,2,0:0:0:0:
256,192,222420,1,0,0:0:0:0:
256,192,222596,1,2,0:0:0:0:
256,192,222684,1,0,0:0:0:0:
256,192,222772,1,2,0:0:0:0:
256,192,222949,1,0,0:0:0:0:
256,192,223037,1,0,0:0:0:0:
256,192,223125,1,2,0:0:0:0:
256,192,223302,1,0,0:0:0:0:
256,192,223478,1,2,0:0:0:0:
256,192,223831,1,2,0:0:0:0:
256,192,224184,1,2,0:0:0:0:
256,192,224361,1,0,0:0:0:0:
256,192,224449,1,0,0:0:0:0:
256,192,224537,1,2,0:0:0:0:
256,192,224714,1,0,0:0:0:0:
256,192,224802,1,0,0:0:0:0:
256,192,224890,1,0,0:0:0:0:
256,192,225067,1,2,0:0:0:0:
256,192,225243,1,0,0:0:0:0:
256,192,225420,1,2,0:0:0:0:
256,192,225508,1,0,0:0:0:0:
256,192,225596,1,2,0:0:0:0:
256,192,225772,1,0,0:0:0:0:
256,192,225949,1,2,0:0:0:0:
256,192,226125,1,2,0:0:0:0:
256,192,226302,1,0,0:0:0:0:
256,192,226478,1,0,0:0:0:0:
256,192,226655,1,6,0:0:0:0:
256,192,227008,1,2,0:0:0:0:
256,192,227184,1,0,0:0:0:0:
256,192,227272,1,0,0:0:0:0:
256,192,227361,1,2,0:0:0:0:
256,192,227537,1,0,0:0:0:0:
256,192,227625,1,0,0:0:0:0:
256,192,227714,1,0,0:0:0:0:
256,192,227890,1,2,0:0:0:0:
256,192,227978,1,2,0:0:0:0:
256,192,228067,1,0,0:0:0:0:
256,192,228243,1,2,0:0:0:0:
256,192,228331,1,0,0:0:0:0:
256,192,228420,1,2,0:0:0:0:
256,192,228596,1,0,0:0:0:0:
256,192,228684,1,0,0:0:0:0:
256,192,228772,1,2,0:0:0:0:
256,192,228949,1,0,0:0:0:0:
256,192,229125,1,2,0:0:0:0:
256,192,229478,1,2,0:0:0:0:
256,192,229831,1,2,0:0:0:0:
256,192,230008,1,0,0:0:0:0:
256,192,230096,1,0,0:0:0:0:
256,192,230184,1,2,0:0:0:0:
256,192,230361,1,0,0:0:0:0:
256,192,230449,1,0,0:0:0:0:
256,192,230537,1,0,0:0:0:0:
256,192,230714,1,2,0:0:0:0:
256,192,230802,1,2,0:0:0:0:
256,192,230890,1,0,0:0:0:0:
256,192,231067,1,2,0:0:0:0:
256,192,231155,1,0,0:0:0:0:
256,192,231243,1,2,0:0:0:0:
256,192,231420,1,0,0:0:0:0:
256,192,231508,1,0,0:0:0:0:
256,192,231596,1,2,0:0:0:0:
256,192,231772,1,0,0:0:0:0:
256,192,231949,1,2,0:0:0:0:
256,192,232125,1,0,0:0:0:0:
256,192,232302,1,2,0:0:0:0:
256,192,232655,1,2,0:0:0:0:
256,192,232831,1,0,0:0:0:0:
256,192,232920,1,0,0:0:0:0:
256,192,233008,1,2,0:0:0:0:
256,192,233184,1,0,0:0:0:0:
256,192,233272,1,0,0:0:0:0:
256,192,233361,1,0,0:0:0:0:
256,192,233537,1,2,0:0:0:0:
256,192,233625,1,2,0:0:0:0:
256,192,233714,1,0,0:0:0:0:
256,192,233890,1,2,0:0:0:0:
256,192,233978,1,0,0:0:0:0:
256,192,234067,1,2,0:0:0:0:
256,192,234243,1,0,0:0:0:0:
256,192,234331,1,0,0:0:0:0:
256,192,234420,1,2,0:0:0:0:
256,192,234596,1,0,0:0:0:0:
256,192,234772,1,2,0:0:0:0:
256,192,235125,1,2,0:0:0:0:
256,192,235214,1,2,0:0:0:0:
256,192,235302,1,0,0:0:0:0:
256,192,235390,1,0,0:0:0:0:
256,192,235478,1,2,0:0:0:0:
256,192,235655,1,0,0:0:0:0:
256,192,235831,1,2,0:0:0:0:
256,192,236008,1,0,0:0:0:0:
256,192,236096,1,0,0:0:0:0:
256,192,236184,1,2,0:0:0:0:
256,192,236361,1,0,0:0:0:0:
256,192,236537,1,2,0:0:0:0:
256,192,236890,1,2,0:0:0:0:
256,192,237949,1,6,0:0:0:0:
256,192,238302,1,2,0:0:0:0:
256,192,238478,1,0,0:0:0:0:
256,192,238567,1,0,0:0:0:0:
256,192,238655,1,2,0:0:0:0:
256,192,238831,1,0,0:0:0:0:
256,192,238920,1,0,0:0:0:0:
256,192,239008,1,0,0:0:0:0:
256,192,239184,1,2,0:0:0:0:
256,192,239272,1,2,0:0:0:0:
256,192,239361,1,0,0:0:0:0:
256,192,239537,1,2,0:0:0:0:
256,192,239625,1,2,0:0:0:0:
256,192,239714,1,2,0:0:0:0:
256,192,239890,1,0,0:0:0:0:
256,192,239978,1,0,0:0:0:0:
256,192,240067,1,2,0:0:0:0:
256,192,240243,1,0,0:0:0:0:
256,192,240420,1,2,0:0:0:0:
256,192,240772,1,2,0:0:0:0:
256,192,241125,1,2,0:0:0:0:
256,192,241302,1,0,0:0:0:0:
256,192,241390,1,0,0:0:0:0:
256,192,241478,1,2,0:0:0:0:
256,192,241655,1,0,0:0:0:0:
256,192,241743,1,0,0:0:0:0:
256,192,241831,1,0,0:0:0:0:
256,192,242008,1,2,0:0:0:0:
256,192,242096,1,2,0:0:0:0:
256,192,242184,1,0,0:0:0:0:
256,192,242361,1,2,0:0:0:0:
256,192,242449,1,2,0:0:0:0:
256,192,242537,1,2,0:0:0:0:
256,192,242714,1,0,0:0:0:0:
256,192,242802,1,0,0:0:0:0:
256,192,242890,1,2,0:0:0:0:
256,192,243067,1,2,0:0:0:0:
256,192,243243,1,0,0:0:0:0:
256,192,243596,1,2,0:0:0:0:
256,192,243949,1,2,0:0:0:0:
256,192,244125,1,0,0:0:0:0:
256,192,244214,1,0,0:0:0:0:
256,192,244302,1,2,0:0:0:0:
256,192,244478,1,0,0:0:0:0:
256,192,244567,1,0,0:0:0:0:
256,192,244655,1,0,0:0:0:0:
256,192,244831,1,2,0:0:0:0:
256,192,244920,1,2,0:0:0:0:
256,192,245008,1,0,0:0:0:0:
256,192,245184,1,2,0:0:0:0:
256,192,245272,1,2,0:0:0:0:
256,192,245361,1,2,0:0:0:0:
256,192,245537,1,0,0:0:0:0:
256,192,245625,1,0,0:0:0:0:
256,192,245714,1,2,0:0:0:0:
256,192,245890,1,0,0:0:0:0:
256,192,246067,1,2,0:0:0:0:
256,192,246420,1,2,0:0:0:0:
256,192,246772,1,2,0:0:0:0:
256,192,246949,1,0,0:0:0:0:
256,192,247037,1,0,0:0:0:0:
256,192,247125,1,2,0:0:0:0:
256,192,247302,1,0,0:0:0:0:
256,192,247390,1,0,0:0:0:0:
256,192,247478,1,0,0:0:0:0:
256,192,247655,1,2,0:0:0:0:
256,192,247831,1,0,0:0:0:0:
256,192,248008,1,2,0:0:0:0:
256,192,248096,1,0,0:0:0:0:
256,192,248184,1,2,0:0:0:0:
256,192,248272,1,2,0:0:0:0:
256,192,248361,1,0,0:0:0:0:
256,192,248537,1,2,0:0:0:0:
256,192,248714,1,0,0:0:0:0:
256,192,248890,1,2,0:0:0:0:
256,192,249067,1,0,0:0:0:0:
256,192,249243,1,6,0:0:0:0:
256,192,249596,1,2,0:0:0:0:
256,192,249772,1,0,0:0:0:0:
256,192,249861,1,0,0:0:0:0:
256,192,249949,1,2,0:0:0:0:
256,192,250125,1,0,0:0:0:0:
256,192,250214,1,0,0:0:0:0:
256,192,250302,1,0,0:0:0:0:
256,192,250478,1,2,0:0:0:0:
256,192,250567,1,2,0:0:0:0:
256,192,250655,1,0,0:0:0:0:
256,192,250831,1,2,0:0:0:0:
256,192,250920,1,2,0:0:0:0:
256,192,251008,1,2,0:0:0:0:
256,192,251184,1,0,0:0:0:0:
256,192,251272,1,0,0:0:0:0:
256,192,251361,1,2,0:0:0:0:
256,192,251537,1,0,0:0:0:0:
256,192,251714,1,2,0:0:0:0:
256,192,252067,1,2,0:0:0:0:
256,192,252420,1,2,0:0:0:0:
256,192,252596,1,0,0:0:0:0:
256,192,252684,1,0,0:0:0:0:
256,192,252772,1,2,0:0:0:0:
256,192,252949,1,0,0:0:0:0:
256,192,253037,1,0,0:0:0:0:
256,192,253125,1,0,0:0:0:0:
256,192,253302,1,2,0:0:0:0:
256,192,253390,1,2,0:0:0:0:
256,192,253478,1,0,0:0:0:0:
256,192,253655,1,2,0:0:0:0:
256,192,253743,1,2,0:0:0:0:
256,192,253831,1,2,0:0:0:0:
256,192,254008,1,0,0:0:0:0:
256,192,254096,1,0,0:0:0:0:
256,192,254184,1,2,0:0:0:0:
256,192,254361,1,0,0:0:0:0:
256,192,254537,1,2,0:0:0:0:
256,192,254714,1,0,0:0:0:0:
256,192,254890,1,2,0:0:0:0:
256,192,255243,1,2,0:0:0:0:
256,192,255420,1,0,0:0:0:0:
256,192,255508,1,0,0:0:0:0:
256,192,255596,1,2,0:0:0:0:
256,192,255772,1,0,0:0:0:0:
256,192,255861,1,0,0:0:0:0:
256,192,255949,1,0,0:0:0:0:
256,192,256125,1,2,0:0:0:0:
256,192,256214,1,2,0:0:0:0:
256,192,256302,1,0,0:0:0:0:
256,192,256478,1,2,0:0:0:0:
256,192,256567,1,2,0:0:0:0:
256,192,256655,1,2,0:0:0:0:
256,192,256831,1,0,0:0:0:0:
256,192,256920,1,0,0:0:0:0:
256,192,257008,1,2,0:0:0:0:
256,192,257184,1,0,0:0:0:0:
256,192,257361,1,2,0:0:0:0:
256,192,257714,1,2,0:0:0:0:
256,192,257802,1,2,0:0:0:0:
256,192,257890,1,0,0:0:0:0:
256,192,257978,1,0,0:0:0:0:
256,192,258067,1,2,0:0:0:0:
256,192,258243,1,0,0:0:0:0:
256,192,258420,1,2,0:0:0:0:
256,192,258596,1,0,0:0:0:0:
256,192,258684,1,0,0:0:0:0:
256,192,258772,1,2,0:0:0:0:
256,192,258949,1,0,0:0:0:0:
256,192,259125,1,2,0:0:0:0:
256,192,259390,1,0,0:0:0:0:
256,192,259478,1,2,0:0:0:0:
256,192,259655,1,0,0:0:0:0:
256,192,260008,1,2,0:0:0:0:
256,192,260184,1,2,0:0:0:0:
256,192,260537,1,4,0:0:0:0:
256,192,260890,1,0,0:0:0:0:
256,192,261067,1,2,0:0:0:0:
256,192,261155,1,2,0:0:0:0:
256,192,261243,1,2,0:0:0:0:
256,192,261420,1,0,0:0:0:0:
256,192,261508,1,0,0:0:0:0:
256,192,261596,1,2,0:0:0:0:
256,192,261772,1,0,0:0:0:0:
256,192,261861,1,0,0:0:0:0:
256,192,261949,1,0,0:0:0:0:
256,192,262125,1,2,0:0:0:0:
256,192,262214,1,2,0:0:0:0:
256,192,262302,1,0,0:0:0:0:
256,192,262478,1,2,0:0:0:0:
256,192,262567,1,2,0:0:0:0:
256,192,262655,1,2,0:0:0:0:
256,192,262831,1,0,0:0:0:0:
256,192,263008,1,2,0:0:0:0:
256,192,263184,1,2,0:0:0:0:
256,192,263361,1,0,0:0:0:0:
256,192,263714,1,2,0:0:0:0:
256,192,263890,1,0,0:0:0:0:
256,192,263978,1,0,0:0:0:0:
256,192,264067,1,0,0:0:0:0:
256,192,264243,1,2,0:0:0:0:
256,192,264331,1,2,0:0:0:0:
256,192,264420,1,0,0:0:0:0:
256,192,264596,1,2,0:0:0:0:
256,192,264684,1,2,0:0:0:0:
256,192,264772,1,2,0:0:0:0:
256,192,264949,1,0,0:0:0:0:
256,192,265125,1,2,0:0:0:0:
256,192,265302,1,0,0:0:0:0:
256,192,265390,1,0,0:0:0:0:
256,192,265478,1,0,0:0:0:0:
256,192,265655,1,2,0:0:0:0:
256,192,265831,1,0,0:0:0:0:
256,192,266184,1,2,0:0:0:0:
256,192,266537,1,0,0:0:0:0:
256,192,266714,1,2,0:0:0:0:
256,192,266802,1,2,0:0:0:0:
256,192,266890,1,2,0:0:0:0:
256,192,267067,1,0,0:0:0:0:
256,192,267155,1,0,0:0:0:0:
256,192,267243,1,2,0:0:0:0:
256,192,267420,1,0,0:0:0:0:
256,192,267508,1,0,0:0:0:0:
256,192,267596,1,0,0:0:0:0:
256,192,267772,1,2,0:0:0:0:
256,192,267861,1,2,0:0:0:0:
256,192,267949,1,0,0:0:0:0:
256,192,268125,1,2,0:0:0:0:
256,192,268214,1,2,0:0:0:0:
256,192,268302,1,2,0:0:0:0:
256,192,268478,1,0,0:0:0:0:
256,192,268655,1,2,0:0:0:0:
256,192,268831,1,2,0:0:0:0:
256,192,269008,1,0,0:0:0:0:
256,192,269361,1,2,0:0:0:0:
256,192,269537,1,0,0:0:0:0:
256,192,269625,1,0,0:0:0:0:
256,192,269714,1,0,0:0:0:0:
256,192,269890,1,2,0:0:0:0:
256,192,269978,1,2,0:0:0:0:
256,192,270067,1,0,0:0:0:0:
256,192,270243,1,2,0:0:0:0:
256,192,270331,1,2,0:0:0:0:
256,192,270420,1,2,0:0:0:0:
256,192,270596,1,0,0:0:0:0:
256,192,270772,1,2,0:0:0:0:
256,192,270949,1,0,0:0:0:0:
256,192,271037,1,0,0:0:0:0:
256,192,271125,1,0,0:0:0:0:
256,192,271302,1,2,0:0:0:0:
256,192,271478,1,0,0:0:0:0:
256,192,271831,1,4,0:0:0:0:
256,192,272184,1,0,0:0:0:0:
256,192,272361,1,2,0:0:0:0:
256,192,272449,1,2,0:0:0:0:
256,192,272537,1,2,0:0:0:0:
256,192,272714,1,0,0:0:0:0:
256,192,272802,1,0,0:0:0:0:
256,192,272890,1,2,0:0:0:0:
256,192,273067,1,0,0:0:0:0:
256,192,273155,1,0,0:0:0:0:
256,192,273243,1,0,0:0:0:0:
256,192,273420,1,2,0:0:0:0:
256,192,273508,1,2,0:0:0:0:
256,192,273596,1,0,0:0:0:0:
256,192,273772,1,2,0:0:0:0:
256,192,273861,1,2,0:0:0:0:
256,192,273949,1,2,0:0:0:0:
256,192,274125,1,0,0:0:0:0:
256,192,274302,1,2,0:0:0:0:
256,192,274478,1,2,0:0:0:0:
256,192,274655,1,0,0:0:0:0:
256,192,275008,1,2,0:0:0:0:
256,192,275184,1,0,0:0:0:0:
256,192,275272,1,0,0:0:0:0:
256,192,275361,1,0,0:0:0:0:
256,192,275537,1,2,0:0:0:0:
256,192,275625,1,2,0:0:0:0:
256,192,275714,1,0,0:0:0:0:
256,192,275890,1,2,0:0:0:0:
256,192,275978,1,2,0:0:0:0:
256,192,276067,1,2,0:0:0:0:
256,192,276243,1,0,0:0:0:0:
256,192,276420,1,2,0:0:0:0:
256,192,276596,1,0,0:0:0:0:
256,192,276684,1,0,0:0:0:0:
256,192,276772,1,0,0:0:0:0:
256,192,276949,1,2,0:0:0:0:
256,192,277125,1,0,0:0:0:0:
256,192,277478,1,2,0:0:0:0:
256,192,277831,1,0,0:0:0:0:
256,192,278008,1,2,0:0:0:0:
256,192,278096,1,2,0:0:0:0:
256,192,278184,1,2,0:0:0:0:
256,192,278361,1,0,0:0:0:0:
256,192,278449,1,0,0:0:0:0:
256,192,278537,1,2,0:0:0:0:
256,192,278714,1,0,0:0:0:0:
256,192,278802,1,0,0:0:0:0:
256,192,278890,1,0,0:0:0:0:
256,192,279067,1,2,0:0:0:0:
256,192,279155,1,2,0:0:0:0:
256,192,279243,1,0,0:0:0:0:
256,192,279420,1,2,0:0:0:0:
256,192,279508,1,2,0:0:0:0:
256,192,279596,1,2,0:0:0:0:
256,192,279772,1,0,0:0:0:0:
256,192,279949,1,2,0:0:0:0:
256,192,280125,1,2,0:0:0:0:
256,192,280302,1,0,0:0:0:0:
256,192,280655,1,2,0:0:0:0:
256,192,280831,1,0,0:0:0:0:
256,192,280920,1,0,0:0:0:0:
256,192,281008,1,0,0:0:0:0:
256,192,281184,1,2,0:0:0:0:
256,192,281272,1,2,0:0:0:0:
256,192,281361,1,0,0:0:0:0:
256,192,281537,1,2,0:0:0:0:
256,192,281625,1,2,0:0:0:0:
256,192,281714,1,2,0:0:0:0:
256,192,281890,1,0,0:0:0:0:
256,192,282067,1,2,0:0:0:0:
256,192,282420,1,0,0:0:0:0:
256,192,282596,1,2,0:0:0:0:
256,192,282772,1,2,0:0:0:0:
256,192,283125,1,0,0:0:0:0:
256,192,283302,1,2,0:0:0:0:
256,192,283478,1,2,0:0:0:0:
256,192,283831,1,0,0:0:0:0:
256,192,284184,1,2,0:0:0:0:
256,192,284537,1,0,0:0:0:0:
256,192,284890,1,2,0:0:0:0:
256,192,285243,1,0,0:0:0:0:
256,192,285596,1,2,0:0:0:0:
256,192,285772,1,2,0:0:0:0:
256,192,285949,1,0,0:0:0:0:
256,192,286125,1,2,0:0:0:0:
256,192,286302,1,2,0:0:0:0:
256,192,286655,1,0,0:0:0:0:
256,192,287008,1,2,0:0:0:0:
256,192,287361,1,0,0:0:0:0:
256,192,287714,1,2,0:0:0:0:
256,192,288067,1,0,0:0:0:0:
256,192,288420,1,2,0:0:0:0:
256,192,288772,1,0,0:0:0:0:
256,192,288949,1,2,0:0:0:0:
256,192,289125,1,2,0:0:0:0:
256,192,289478,1,0,0:0:0:0:
256,192,289831,1,2,0:0:0:0:
256,192,290184,1,0,0:0:0:0:
256,192,290537,1,2,0:0:0:0:
256,192,290890,1,0,0:0:0:0:
256,192,291243,1,2,0:0:0:0:
256,192,291420,1,2,0:0:0:0:
256,192,291596,1,0,0:0:0:0:
256,192,291772,1,2,0:0:0:0:
256,192,291949,1,2,0:0:0:0:
256,192,292302,1,0,0:0:0:0:
256,192,292655,1,2,0:0:0:0:
256,192,293008,1,0,0:0:0:0:
256,192,293361,1,2,0:0:0:0:
256,192,293714,1,0,0:0:0:0:
256,192,294067,1,2,0:0:0:0:
256,192,294420,1,0,0:0:0:0:
256,192,294596,1,2,0:0:0:0:
256,192,294772,1,2,0:0:0:0:
256,192,295125,1,0,0:0:0:0:
256,192,295478,1,2,0:0:0:0:
256,192,295831,1,0,0:0:0:0:
256,192,296184,1,2,0:0:0:0:
256,192,296537,1,0,0:0:0:0:
256,192,296890,1,2,0:0:0:0:
256,192,297067,1,2,0:0:0:0:
256,192,297243,1,0,0:0:0:0:
256,192,297420,1,2,0:0:0:0:
256,192,297596,1,2,0:0:0:0:
256,192,297949,1,0,0:0:0:0:
256,192,298302,1,2,0:0:0:0:
256,192,298655,1,0,0:0:0:0:
256,192,299008,1,2,0:0:0:0:
256,192,299361,1,0,0:0:0:0:
256,192,299714,1,2,0:0:0:0:
256,192,300067,1,0,0:0:0:0:
256,192,300243,1,2,0:0:0:0:
256,192,300420,1,2,0:0:0:0:
256,192,300772,1,0,0:0:0:0:
256,192,301125,1,2,0:0:0:0:
256,192,301478,1,0,0:0:0:0:
256,192,301831,1,2,0:0:0:0:
256,192,302184,1,0,0:0:0:0:
256,192,302537,1,2,0:0:0:0:
256,192,302714,1,2,0:0:0:0:
256,192,302890,1,0,0:0:0:0:
256,192,303067,1,2,0:0:0:0:
256,192,303243,1,2,0:0:0:0:
256,192,303596,1,0,0:0:0:0:
256,192,303949,1,2,0:0:0:0:
256,192,304302,1,0,0:0:0:0:
256,192,304655,1,2,0:0:0:0:
256,192,305008,1,0,0:0:0:0:
256,192,305361,1,2,0:0:0:0:
