osu file format v14

[General]
AudioFilename: audio.mp3
AudioLeadIn: 0
PreviewTime: 159812
Countdown: 0
SampleSet: None
StackLeniency: 0.3
Mode: 0
LetterboxInBreaks: 0
WidescreenStoryboard: 0

[Editor]
Bookmarks: 546,11580,22615,25373,33649,44684,55718,66752,77787,88821,99856,110890,122987,135787,146587,148587,160243,171277,182312,191320,193346,204381,215415,226450,237484,248519,259553
DistanceSpacing: 0.7
BeatDivisor: 8
GridSize: 32
TimelineZoom: 1.94

[Metadata]
Title:The Storm Broke
TitleUnicode:The Storm Broke
Artist:USAO
ArtistUnicode:USAO
Creator:C00L
Version:Extreme
Source:
Tags:dubstep drumstep dnb drum and bass beatmania DeRandom Otaku Shyotamaze _DT3 turtle cool Mir Miryle
BeatmapID:1451639
BeatmapSetID:685771

[Difficulty]
HPDrainRate:6
CircleSize:4
OverallDifficulty:8.4
ApproachRate:9.4
SliderMultiplier:1.9
SliderTickRate:1

[Events]
//Background and Video events
0,0,"Shelter_saves_from_storms.jpg",0,0
//Break Periods
2,77986,82764
//Storyboard Layer 0 (Background)
//Storyboard Layer 1 (Fail)
//Storyboard Layer 2 (Pass)
//Storyboard Layer 3 (Foreground)
//Storyboard Sound Samples

[TimingPoints]
546.087901401536,344.827586206897,4,1,0,25,1,0
11580,-100,4,1,0,55,0,0
13649,-125,4,1,0,55,0,0
14339,-100,4,1,0,55,0,0
15028,-125,4,1,0,55,0,0
15718,-100,4,1,0,55,0,0
19166,-125,4,1,0,55,0,0
19856,-100,4,1,0,55,0,0
20546,-125,4,1,0,55,0,0
21235,-100,4,1,0,55,0,0
24684,-125,4,1,0,55,0,0
25373,-100,4,1,0,55,0,0
26063,-125,4,1,0,55,0,0
26752,-100,4,1,0,55,0,0
30201,-125,4,1,0,55,0,0
30890,-100,4,1,0,55,0,0
31580,-125,4,1,0,55,0,0
32269,-100,4,1,0,55,0,0
33649,-111.111111111111,4,1,0,40,0,0
34684,-142.857142857143,4,1,0,40,0,0
35028,-111.111111111111,4,1,0,40,0,0
38821,-90.9090909090908,4,1,0,40,0,0
39166,-125,4,1,0,40,0,0
41580,-83.3333333333333,4,1,0,40,0,0
41925,-100,4,1,0,40,0,0
44684,-66.6666666666667,4,1,0,80,0,1
44942,-66.6666666666667,4,1,0,10,0,1
45028,-76.9230769230769,4,1,0,80,0,1
45287,-76.9230769230769,4,1,0,10,0,1
45373,-83.3333333333333,4,1,0,80,0,1
45718,-71.4285714285714,4,1,0,80,0,1
46752,-90.9090909090909,4,1,0,80,0,1
47097,-66.6666666666667,4,1,0,80,0,1
47442,-90.9090909090909,4,1,0,80,0,1
47787,-66.6666666666667,4,1,0,80,0,1
48132,-90.9090909090909,4,1,0,80,0,1
48477,-66.6666666666667,4,1,0,80,0,1
48821,-90.9090909090909,4,1,0,80,0,1
48994,-76.9230769230769,4,1,0,80,0,1
49339,-100,4,1,0,80,0,1
49684,-125,4,1,0,80,0,1
49856,-100,4,1,0,80,0,1
50201,-66.6666666666667,4,1,0,80,0,1
50459,-66.6666666666667,4,1,0,10,0,1
50546,-76.9230769230769,4,1,0,80,0,1
50804,-76.9230769230769,4,1,0,10,0,1
50890,-83.3333333333333,4,1,0,80,0,1
51235,-71.4285714285714,4,1,0,80,0,1
52270,-83.3333333333333,4,1,0,80,0,1
52615,-83.3333333333333,4,1,0,80,0,1
52873,-83.3333333333333,4,1,0,10,0,1
52959,-125,4,1,0,30,0,1
53304,-100,4,1,0,80,0,1
53563,-100,4,1,0,10,0,1
53649,-90.9090909090909,4,1,0,80,0,1
53821,-76.9230769230769,4,1,0,80,0,1
53994,-71.4285714285714,4,1,0,80,0,1
54252,-71.4285714285714,4,1,0,10,0,1
54339,-66.6666666666667,4,1,0,80,0,1
54597,-66.6666666666667,4,1,0,10,0,1
54684,-83.3333333333333,4,1,0,80,0,1
55201,-100,4,1,0,80,0,0
55718,-66.6666666666667,4,1,0,80,0,1
55977,-66.6666666666667,4,1,0,10,0,1
56063,-76.9230769230769,4,1,0,80,0,1
56321,-76.9230769230769,4,1,0,10,0,1
56408,-83.3333333333333,4,1,0,80,0,1
56752,-71.4285714285714,4,1,0,80,0,1
57787,-90.9090909090909,4,1,0,80,0,1
58132,-76.9230769230769,4,1,0,80,0,1
58477,-90.9090909090909,4,1,0,80,0,1
58649,-76.9230769230769,4,1,0,80,0,1
59166,-90.9090909090909,4,1,0,80,0,1
59339,-76.9230769230769,4,1,0,80,0,1
59856,-90.9090909090909,4,1,0,80,0,1
60028,-76.9230769230769,4,1,0,80,0,1
60373,-100,4,1,0,80,0,1
60718,-125,4,1,0,80,0,1
60890,-100,4,1,0,80,0,1
61235,-66.6666666666667,4,1,0,80,0,1
61494,-66.6666666666667,4,1,0,10,0,1
61580,-76.9230769230769,4,1,0,80,0,1
61925,-83.3333333333333,4,1,0,80,0,1
62270,-71.4285714285714,4,1,0,80,0,1
63304,-90.9090909090909,4,1,0,80,0,1
63649,-76.9230769230769,4,1,0,80,0,1
63994,-100,4,1,0,70,0,0
64166,-83.3333333333333,4,1,0,70,0,0
64425,-83.3333333333333,4,1,0,10,0,0
64511,-90.9090909090909,4,1,0,70,0,0
65373,-100,4,1,0,70,0,0
66063,-125,4,1,0,70,0,0
66752,-83.3333333333333,4,1,0,30,0,1
67442,-71.4285714285714,4,1,0,80,0,1
68132,-83.3333333333333,4,1,0,80,0,1
68304,-66.6666666666667,4,1,0,80,0,1
68563,-66.6666666666667,4,1,0,10,0,1
68649,-66.6666666666667,4,1,0,80,0,1
68821,-58.8235294117647,4,1,0,80,0,1
69080,-58.8235294117647,4,1,0,10,0,1
69166,-83.3333333333333,4,1,0,80,0,1
69511,-76.9230769230769,4,1,0,80,0,1
70201,-71.4285714285714,4,1,0,80,0,1
70459,-71.4285714285714,4,1,0,10,0,1
70546,-62.5,4,1,0,80,0,1
70804,-62.5,4,1,0,80,0,1
70890,-83.3333333333333,4,1,0,80,0,1
71235,-90.9090909090909,4,1,0,80,0,1
72270,-66.6666666666667,4,1,0,80,0,1
72615,-76.9230769230769,4,1,0,80,0,1
72959,-71.4285714285714,4,1,0,80,0,1
73218,-71.4285714285714,4,1,0,10,0,1
73304,-90.9090909090909,4,1,0,80,0,1
73649,-58.8235294117647,4,1,0,80,0,1
73994,-76.9230769230769,4,1,0,80,0,1
74511,-83.3333333333333,4,1,0,80,0,1
75028,-71.4285714285714,4,1,0,80,0,1
75718,-66.6666666666667,4,1,0,80,0,1
75977,-66.6666666666667,4,1,0,10,0,1
76063,-83.3333333333333,4,1,0,80,0,1
76408,-62.5,4,1,0,80,0,1
76666,-62.5,4,1,0,10,0,1
76752,-71.4285714285714,4,1,0,80,0,1
77097,-111.111111111111,4,1,0,35,0,0
77787,-100,4,1,0,30,0,0
83304,-100,4,1,0,30,0,0
86063,-100,4,1,0,40,0,0
87442,-100,4,1,0,45,0,0
88304,-100,4,1,0,20,0,0
88477,-100,4,1,0,40,0,0
88821,-100,4,1,0,55,0,0
90890,-125,4,1,0,55,0,0
91580,-100,4,1,0,55,0,0
92184,-100,4,1,0,10,0,0
92269,-125,4,1,0,55,0,0
92959,-100,4,1,0,55,0,0
96407,-125,4,1,0,55,0,0
97097,-100,4,1,0,55,0,0
97787,-125,4,1,0,55,0,0
98476,-100,4,1,0,55,0,0
101925,-125,4,1,0,55,0,0
102614,-100,4,1,0,55,0,0
103304,-125,4,1,0,55,0,0
103993,-100,4,1,0,55,0,0
107442,-125,4,1,0,55,0,0
108131,-100,4,1,0,55,0,0
108821,-125,4,1,0,55,0,0
109511,-100,4,1,0,55,0,0
110890,355.029585798817,4,1,0,50,1,0
112310,361.44578313253,4,1,0,50,1,0
113755,364.741641337386,4,1,0,50,1,0
113755,-71.4285714285714,4,1,0,50,0,0
114028,-71.4285714285714,4,1,0,10,0,0
114119,-100,4,1,0,50,0,0
115213,375,4,1,0,50,1,0
116713,380.228136882129,4,1,0,50,1,0
117283,-76.9230769230769,4,1,0,50,0,0
118233,388.60103626943,4,1,0,50,1,0
118815,-71.4285714285714,4,1,0,50,0,0
119787,400,4,1,0,50,1,0
121387,-100,4,1,0,30,0,0
122987,-66.6666666666667,4,1,0,75,0,1
123387,-76.9230769230769,4,1,0,75,0,1
123787,-71.4285714285714,4,1,0,75,0,1
124087,-71.4285714285714,4,1,0,10,0,1
124187,-76.9230769230769,4,1,0,75,0,1
125387,-83.3333333333333,4,1,0,75,0,1
125787,-71.4285714285714,4,1,0,75,0,1
126187,-62.5,4,1,0,75,0,1
126587,-76.9230769230769,4,1,0,75,0,1
127787,-76.9230769230769,4,1,0,75,0,1
128587,-83.3333333333333,4,1,0,75,0,1
128987,-71.4285714285714,4,1,0,75,0,1
129387,-66.6666666666667,4,1,0,75,0,1
129687,-66.6666666666667,4,1,0,10,0,1
129787,-76.9230769230769,4,1,0,75,0,1
130187,-71.4285714285714,4,1,0,75,0,1
130487,-71.4285714285714,4,1,0,10,0,1
130587,-76.9230769230769,4,1,0,75,0,1
131787,-83.3333333333333,4,1,0,75,0,1
132187,-71.4285714285714,4,1,0,75,0,1
132587,-66.6666666666667,4,1,0,75,0,1
132887,-66.6666666666667,4,1,0,10,0,1
132987,-76.9230769230769,4,1,0,75,0,1
133387,-71.4285714285714,4,1,0,75,0,1
133787,-76.9230769230769,4,1,0,75,0,1
134087,-76.9230769230769,4,1,0,10,0,1
134187,-66.6666666666667,4,1,0,75,0,1
134487,-66.6666666666667,4,1,0,10,0,1
134587,-76.9230769230769,4,1,0,75,0,1
135187,-100,4,1,0,75,0,0
135787,-66.6666666666667,4,1,0,75,0,1
136087,-66.6666666666667,4,1,0,10,0,1
136187,-76.9230769230769,4,1,0,75,0,1
136487,-76.9230769230769,4,1,0,10,0,1
136587,-83.3333333333333,4,1,0,75,0,1
137387,-90.9090909090909,4,1,0,75,0,1
138187,-76.9230769230769,4,1,0,75,0,1
138587,-71.4285714285714,4,1,0,75,0,1
138987,-76.9230769230769,4,1,0,75,0,1
139387,-83.3333333333333,4,1,0,75,0,1
139987,-76.9230769230769,4,1,0,75,0,1
140587,-76.9230769230769,4,1,0,75,0,1
140787,-90.9090909090909,4,1,0,80,0,1
140987,-76.9230769230769,4,1,0,80,0,1
141387,-100,4,1,0,80,0,1
141787,-125,4,1,0,80,0,1
142187,-66.6666666666667,4,1,0,75,0,1
142487,-66.6666666666667,4,1,0,10,0,1
142587,-76.9230769230769,4,1,0,75,0,1
142887,-76.9230769230769,4,1,0,10,0,1
142987,-90.9090909090909,4,1,0,75,0,1
143387,-76.9230769230769,4,1,0,75,0,1
143687,-76.9230769230769,4,1,0,10,0,1
143787,-71.4285714285714,4,1,0,75,0,1
144187,-83.3333333333333,4,1,0,75,0,1
144787,-76.9230769230769,4,1,0,75,0,1
145387,-125,4,1,0,60,0,0
146987,-90.9090909090909,4,1,0,60,0,0
148587,382.165605095541,4,1,0,25,1,0
148587,-166.666666666667,4,1,0,25,0,0
151645,375,4,1,0,35,1,0
151645,-166.666666666667,4,1,0,35,0,0
153145,366.748166259169,4,1,0,35,1,0
153145,-166.666666666667,4,1,0,35,0,0
154611,358.637178720861,4,1,0,45,1,0
154611,-166.666666666667,4,1,0,45,0,0
155328,-166.666666666667,4,1,0,45,0,0
156045,355.029585798817,4,1,0,45,1,0
156045,-125,4,1,0,45,0,0
157464,350.058343057176,4,1,0,45,1,0
157465,-100,4,1,0,45,0,0
158864,344.827586206897,4,1,0,45,1,0
158864,-125,4,1,0,45,0,0
159553,-100,4,1,0,45,0,0
160243,-100,4,1,0,55,0,0
162312,-125,4,1,0,55,0,0
163002,-100,4,1,0,55,0,0
163691,-125,4,1,0,55,0,0
164381,-100,4,1,0,55,0,0
167829,-125,4,1,0,55,0,0
168519,-100,4,1,0,55,0,0
169208,-125,4,1,0,55,0,0
169898,-100,4,1,0,55,0,0
173346,-125,4,1,0,55,0,0
174036,-100,4,1,0,55,0,0
174725,-125,4,1,0,55,0,0
175415,-100,4,1,0,55,0,0
178864,-125,4,1,0,55,0,0
179553,-100,4,1,0,55,0,0
180243,-125,4,1,0,55,0,0
180933,-100,4,1,0,55,0,0
182312,-83.3333333333333,4,1,0,45,0,0
186450,-100,4,1,0,45,0,0
186795,-90.9090909090909,4,1,0,45,0,0
187829,-76.9230769230769,4,1,0,45,0,0
189208,-66.6666666666667,4,1,0,45,0,0
190588,-62.5,4,1,0,45,0,0
191277,-62.5,4,1,0,45,0,0
191967,-90.9090909090909,4,1,0,45,0,0
193346,-62.5,4,1,0,80,0,1
193605,-62.5,4,1,0,10,0,1
193691,-71.4285714285714,4,1,0,80,0,1
194036,-90.9090909090909,4,1,0,80,0,1
194381,-76.9230769230769,4,1,0,80,0,1
194726,-90.9090909090909,4,1,0,80,0,1
194898,-76.9230769230769,4,1,0,80,0,1
195415,-90.9090909090909,4,1,0,80,0,1
195760,-76.9230769230769,4,1,0,80,0,1
196105,-62.5,4,1,0,80,0,1
196364,-62.5,4,1,0,10,0,1
196450,-76.9230769230769,4,1,0,80,0,1
196795,-90.9090909090909,4,1,0,80,0,1
197139,-76.9230769230769,4,1,0,80,0,1
197484,-90.9090909090909,4,1,0,80,0,1
197657,-76.9230769230769,4,1,0,80,0,1
198174,-90.9090909090909,4,1,0,80,0,1
198519,-55.5555555555556,4,1,0,80,0,1
198864,-62.5,4,1,0,80,0,1
199122,-62.5,4,1,0,10,0,1
199208,-76.9230769230769,4,1,0,80,0,1
199553,-90.9090909090909,4,1,0,80,0,1
199898,-76.9230769230769,4,1,0,80,0,1
200243,-90.9090909090909,4,1,0,80,0,1
200415,-76.9230769230769,4,1,0,80,0,1
200932,-90.9090909090909,4,1,0,80,0,1
201277,-76.9230769230769,4,1,0,80,0,1
201622,-90.9090909090909,4,1,0,80,0,1
201795,-71.4285714285714,4,1,0,80,0,1
202139,-76.9230769230769,4,1,0,80,0,1
202657,-66.6666666666667,4,1,0,80,0,1
204036,-100,4,1,0,80,0,0
204381,-100,4,1,0,80,0,1
209898,-100,4,1,0,80,0,0
214726,-100,4,1,0,80,0,0
215415,-100,4,1,0,80,0,1
226105,-100,4,1,0,80,0,0
226450,-100,4,1,0,80,0,1
234726,-100,4,1,0,60,0,0
237484,-100,4,1,0,55,0,0

[HitObjects]
30,337,11235,5,0,0:0:0:0:
30,337,11408,1,0,0:0:0:0:
30,337,11580,6,0,B|75:362|124:340|124:340|173:311|222:338,1,190
287,368,12097,1,0,0:0:0:0:
77,267,12270,1,0,0:0:0:0:
262,276,12442,2,0,P|227:258|168:249,1,95
30,337,12787,1,0,0:0:0:0:
123,170,12959,6,0,B|172:158|172:158|220:169|220:169|266:159|266:159|311:175,1,190
261,252,13477,1,0,0:0:0:0:
225,50,13649,6,0,L|309:80,1,76
448,173,13994,2,0,L|376:198,1,76
173,236,14339,6,0,B|120:263|52:262|52:262|89:273|104:312,1,190
100,302,14856,1,0,0:0:0:0:
2,130,15028,6,0,L|80:118,1,76
100,302,15373,2,0,L|178:313,1,76
306,173,15718,6,0,B|285:128|285:128|244:100,2,95
320,262,16235,1,0,0:0:0:0:
166,68,16408,6,0,B|161:122|161:122|180:166|180:166|172:236|172:236|194:280|194:280|184:362,1,285
457,347,17097,6,0,B|418:321|364:345|364:345|320:367|261:340,1,190
186,342,17615,1,0,0:0:0:0:
306,173,17787,1,0,0:0:0:0:
274,345,17959,2,0,P|269:297|247:246,1,95
154,116,18304,1,0,0:0:0:0:
352,99,18477,6,0,B|307:85|307:85|261:96|261:96|212:84|212:84|164:99,1,190
217,174,18994,1,0,0:0:0:0:
41,56,19166,6,0,L|52:134,1,76
217,174,19511,2,0,L|206:249,1,76
41,379,19856,6,0,B|77:360|114:378|114:378|131:363|131:363|178:393|236:380,1,190
218,383,20373,1,0,0:0:0:0:
411,348,20546,6,0,L|393:274,1,76
205,249,20891,2,0,L|216:171,1,76
346,21,21235,6,0,B|361:94|342:150|342:150|315:127|312:90,1,190
434,19,21752,1,0,0:0:0:0:
234,100,21925,2,0,P|189:106|131:94,1,95
3,22,22270,5,0,0:0:0:0:
3,22,22442,1,0,0:0:0:0:
3,22,22615,6,0,B|26:68|6:114|6:114|-16:164|9:213,1,190
47,290,23132,1,0,0:0:0:0:
145,94,23304,1,0,0:0:0:0:
133,274,23477,2,0,P|157:228|159:171,1,95
100,21,23821,1,0,0:0:0:0:
100,21,23908,1,0,0:0:0:0:
100,21,23994,6,0,B|145:7|145:7|190:21|190:21|237:10|237:10|298:35,1,190
230,94,24511,1,0,0:0:0:0:
410,4,24684,6,0,L|420:85,1,76
230,94,25028,2,0,L|220:175,1,76
411,213,25373,6,0,B|428:269|403:332|403:332|432:301|473:294,1,190
460,297,25890,1,0,0:0:0:0:
267,233,26063,6,0,L|181:246,1,76
55,269,26408,1,0,0:0:0:0:
192,363,26580,1,0,0:0:0:0:
192,363,26666,1,0,0:0:0:0:
192,363,26752,1,0,0:0:0:0:
109,201,26925,6,0,L|115:147,2,47.5
92,359,27270,1,0,0:0:0:0:
267,233,27442,2,0,B|297:179|274:114|274:114|233:128|239:179,1,190
238,164,27959,1,0,0:0:0:0:
450,2,28132,6,0,B|473:44|453:97|453:97|435:150|457:198,1,190
484,269,28649,1,0,0:0:0:0:
364,103,28821,1,0,0:0:0:0:
376,225,28994,1,0,0:0:0:0:
284,86,29166,1,0,0:0:0:0:
284,86,29252,1,0,0:0:0:0:
284,86,29339,1,0,0:0:0:0:
356,301,29511,6,0,B|312:282|312:282|268:296|268:296|223:281|223:281|175:299,1,190
229,369,30028,1,0,0:0:0:0:
18,337,30201,6,0,L|36:257,1,76
221,203,30546,2,0,L|203:123,1,76
42,18,30890,6,0,B|10:73|39:143|39:143|73:109|64:74,1,190
65,90,31408,1,0,0:0:0:0:
267,0,31580,6,0,L|248:86,1,76
221,203,31925,1,0,0:0:0:0:
374,139,32097,1,0,0:0:0:0:
374,139,32184,1,0,0:0:0:0:
374,139,32270,1,0,0:0:0:0:
283,305,32442,6,0,L|280:371,2,47.5
288,152,32787,1,0,0:0:0:0:
462,248,32959,2,0,B|418:237|418:237|353:247|353:247,1,95
508,182,33304,5,0,0:0:0:0:
509,321,33477,1,0,0:0:0:0:
275,139,33649,6,0,L|269:240,2,85.4999973907472
285,0,34166,1,0,0:0:0:0:
197,106,34339,1,0,0:0:0:0:
328,70,34511,1,0,0:0:0:0:
168,34,34684,5,0,0:0:0:0:
181,184,34856,1,0,0:0:0:0:
78,11,35028,6,0,B|65:57|95:95,1,85.4999973907472
181,184,35373,2,0,B|194:230|164:268,2,85.4999973907472
69,188,35890,5,0,0:0:0:0:
197,106,36063,1,0,0:0:0:0:
152,285,36235,1,0,0:0:0:0:
285,0,36408,6,0,L|288:105,1,85.4999973907472
289,220,36752,1,0,0:0:0:0:
197,106,36925,5,0,0:0:0:0:
325,151,37097,1,0,0:0:0:0:
210,226,37270,1,0,0:0:0:0:
398,115,37442,2,8,P|406:154|387:205,1,85.4999973907472
253,296,37787,6,0,B|221:264|221:264|209:223,2,85.4999973907472
370,383,38304,1,0,0:0:0:0:
186,363,38477,5,0,0:0:0:0:
354,293,38649,1,0,0:0:0:0:
168,378,38821,6,0,L|179:323,1,52.2500015945435
372,306,38994,2,0,L|361:254,1,52.2500015945435
241,151,39166,6,0,L|242:105,3,38
161,192,39511,2,0,P|143:176|129:158,3,38
315,189,39856,2,0,P|329:177|346:155,3,38
241,309,40201,5,0,0:0:0:0:
241,290,40287,1,0,0:0:0:0:
241,271,40373,1,0,0:0:0:0:
241,252,40459,1,0,0:0:0:0:
242,232,40546,5,0,0:0:0:0:
217,260,40632,1,0,0:0:0:0:
183,278,40718,1,0,0:0:0:0:
145,280,40804,1,0,0:0:0:0:
108,270,40890,1,0,0:0:0:0:
70,272,40976,1,0,0:0:0:0:
36,290,41062,5,0,0:0:0:0:
14,321,41148,1,0,0:0:0:0:
15,359,41235,1,0,0:0:0:0:
49,344,41321,1,0,0:0:0:0:
69,311,41408,1,0,0:0:0:0:
70,272,41494,1,0,0:0:0:0:
59,233,41580,2,0,P|47:196|52:156,1,56.9999982604981
242,232,41752,2,0,P|253:195|248:155,1,56.9999982604981
151,70,41925,6,0,L|151:31,6,23.75
154,185,42270,1,0,0:0:0:0:
157,300,42442,1,0,0:0:0:0:
258,127,42615,6,0,L|258:88,6,23.75
261,242,42960,1,0,0:0:0:0:
264,357,43132,1,0,0:0:0:0:
154,185,43304,5,0,0:0:0:0:
368,299,43649,1,0,0:0:0:0:
154,185,43994,5,0,0:0:0:0:
261,242,44166,1,0,0:0:0:0:
368,299,44339,1,0,0:0:0:0:
66,41,44684,6,0,B|106:35|131:56|131:56|169:40|169:40|216:49|216:49|218:82|175:93,1,213.750008153916
79,134,45028,2,0,B|84:158|84:158|70:192|70:192|80:233|80:233|68:271|68:271|75:326,1,185.249991519928
142,371,45373,5,0,0:0:0:0:
325,297,45546,1,0,0:0:0:0:
159,164,45718,6,0,B|160:204|160:204|176:250,1,66.4999979705811
372,161,45890,2,0,B|371:201|371:201|355:247,1,66.4999979705811
254,379,46063,1,0,0:0:0:0:
258,177,46235,6,0,P|272:217|264:251,1,66.4999979705811
156,347,46408,2,0,P|113:347|84:328,1,66.4999979705811
46,189,46580,2,0,P|61:149|88:128,1,66.4999979705811
248,77,46752,5,0,0:0:0:0:
168,229,46925,1,0,0:0:0:0:
266,66,47097,2,0,B|299:57|299:57|327:62|327:62|355:52|355:52|386:57|386:57|416:48,1,142.500005435944
257,263,47442,5,0,0:0:0:0:
340,96,47615,1,0,0:0:0:0:
245,282,47787,2,0,B|278:273|278:273|306:278|306:278|334:268|334:268|365:273|365:273|395:264,1,142.500005435944
168,128,48132,5,0,0:0:0:0:
85,295,48305,1,0,0:0:0:0:
181,108,48477,2,0,B|214:99|214:99|242:104|242:104|270:94|270:94|301:99|301:99|331:90,1,142.500005435944
46,189,48821,5,0,0:0:0:0:
46,189,48994,2,0,L|121:181,1,61.7499971733095
172,339,49166,2,0,L|233:345,1,61.7499971733095
303,193,49339,6,0,L|367:185,1,47.5
410,307,49511,2,0,L|467:313,2,47.5
93,275,49856,5,0,0:0:0:0:
93,275,50201,6,0,B|116:214|209:209|209:209|200:262|151:263,1,213.750008153916
117,148,50546,2,0,B|172:126|229:132|229:132|185:122|170:81,1,185.249991519928
145,5,50890,1,0,0:0:0:0:
49,188,51063,1,0,0:0:0:0:
241,59,51235,6,0,B|276:55|276:55|324:69,1,66.4999979705811
268,268,51408,2,0,B|303:271|303:271|351:257,1,66.4999979705811
468,145,51580,1,0,0:0:0:0:
245,159,51752,6,0,L|316:173,1,66.4999979705811
480,225,51925,2,0,L|409:239,1,66.4999979705811
251,285,52097,2,0,L|322:299,1,66.4999979705811
483,329,52270,5,0,0:0:0:0:
383,130,52442,1,0,0:0:0:0:
383,130,52528,1,0,0:0:0:0:
383,130,52615,6,0,B|379:74|321:41|321:41|309:76|337:101,1,170.999994781494
311,195,52959,6,0,L|316:227,6,19
251,285,53304,2,0,B|234:281|234:281|216:286|216:286|200:283|200:283|184:288|184:288|169:283|169:283|153:287|153:287|136:283|136:283|118:287|118:287|99:282,1,142.5
76,350,53649,6,0,L|87:292,1,52.2500015945435
214,213,53821,2,0,L|202:150,1,61.7499971733095
63,88,53994,2,0,P|25:127|100:108,1,199.499993911743
132,24,54339,6,0,B|176:45|222:23|222:23|242:33|242:33|296:8|358:36,1,213.750008153916
430,71,54684,6,0,P|449:102|451:133,1,56.9999982604981
399,253,54856,2,0,P|363:260|333:251,1,56.9999982604981
294,110,55028,1,0,0:0:0:0:
481,240,55201,5,0,0:0:0:0:
477,282,55287,1,0,0:0:0:0:
453,317,55373,1,0,0:0:0:0:
414,336,55459,1,0,0:0:0:0:
370,335,55546,1,0,0:0:0:0:
294,110,55718,6,0,B|284:154|238:163|238:163|243:207|243:207|185:206|149:248,1,213.750008153916
217,351,56063,2,0,P|263:347|202:321,1,185.249991519928
121,384,56408,5,0,0:0:0:0:
65,190,56580,1,0,0:0:0:0:
284,222,56752,6,0,P|318:207|347:167,1,66.4999979705811
363,64,56925,2,0,P|337:37|289:23,1,66.4999979705811
159,102,57097,1,0,0:0:0:0:
46,279,57270,6,0,L|63:189,1,66.4999979705811
262,144,57442,2,0,L|245:54,1,66.4999979705811
36,66,57615,2,0,L|48:0,1,66.4999979705811
183,238,57787,5,0,0:0:0:0:
29,145,57959,1,0,0:0:0:0:
201,256,58132,2,0,P|201:301|189:335,1,61.7499971733095
7,162,58304,2,0,P|7:207|19:241,1,61.7499971733095
76,375,58477,5,0,0:0:0:0:
276,308,58649,1,0,0:0:0:0:
52,377,58821,2,0,P|57:335|74:304,1,61.7499971733095
302,303,58994,2,0,P|297:261|280:230,1,61.7499971733095
24,120,59166,5,0,0:0:0:0:
171,223,59338,1,0,0:0:0:0:
0,134,59511,2,0,P|-3:164|0:195,1,61.7499971733095
186,241,59684,2,0,P|185:271|177:301,1,61.7499971733095
34,384,59856,1,0,0:0:0:0:
0,196,60028,6,0,L|73:212,1,61.7499971733095
154,378,60201,2,0,L|214:364,1,61.7499971733095
271,219,60373,6,0,L|331:232,1,47.5
391,347,60546,2,0,L|439:336,2,47.5
491,48,60890,5,0,0:0:0:0:
491,48,61235,6,0,B|467:118|486:175|486:175|473:136|427:111,1,213.750008153916
350,70,61580,2,0,B|300:54|229:84|229:84|263:112|307:104,1,185.249991519928
359,172,61925,5,0,0:0:0:0:
153,136,62097,1,0,0:0:0:0:
316,300,62270,6,0,L|304:223,1,66.4999979705811
84,257,62442,2,0,L|94:191,1,66.4999979705811
285,106,62615,1,0,0:0:0:0:
81,64,62787,6,0,L|159:54,1,66.4999979705811
350,114,62959,2,0,L|272:104,1,66.4999979705811
94,191,63132,2,0,L|172:181,1,66.4999979705811
316,300,63304,5,0,0:0:0:0:
229,157,63477,1,0,0:0:0:0:
193,362,63649,2,0,P|234:360|255:348,1,61.7499971733095
346,216,63821,2,0,P|330:178|311:162,1,61.7499971733095
164,101,63994,5,0,0:0:0:0:
194,268,64166,2,0,B|154:283|154:283|120:269|120:269|86:306|28:302,1,170.999994781494
37,302,64511,1,0,0:0:0:0:
164,101,64684,1,0,0:0:0:0:
264,219,64856,1,0,0:0:0:0:
264,219,64942,1,0,0:0:0:0:
264,219,65028,6,0,L|276:158,1,52.2500015945435
459,164,65201,2,0,L|448:112,1,52.2500015945435
355,34,65373,6,0,L|348:100,1,47.5
164,101,65546,2,0,L|171:167,1,47.5
356,214,65718,2,0,L|349:280,1,47.5
194,268,65891,2,0,L|201:334,1,47.5
381,384,66063,5,0,0:0:0:0:
264,219,66235,1,0,0:0:0:0:
436,307,66408,5,0,0:0:0:0:
291,328,66580,1,0,0:0:0:0:
465,105,66752,6,0,L|470:62,14,28.4999991302491
452,217,67442,5,0,0:0:0:0:
269,64,67615,1,0,0:0:0:0:
452,217,67787,6,0,P|421:180|395:161,1,66.4999979705811
276,145,67959,2,0,P|231:161|205:179,1,66.4999979705811
317,324,68132,6,0,L|312:355,2,28.4999991302491
339,239,68304,2,0,B|284:226|244:273|244:273|172:284|133:224,1,213.750008153916
105,155,68649,1,0,0:0:0:0:
27,364,68821,6,0,B|43:342|20:297|20:297|45:255|23:200|23:200|43:235|80:247,1,242.250004620552
105,155,69166,2,0,B|87:128|87:128|56:107,2,56.9999982604981
328,384,69511,6,0,L|315:318,1,61.7499971733095
134,302,69684,2,0,L|147:236,1,61.7499971733095
341,211,69856,6,0,P|344:179|328:145,1,61.7499971733095
105,155,70028,2,0,P|102:123|118:89,1,61.7499971733095
274,39,70201,6,0,B|315:11|280:-38|227:-22|227:42|242:96|279:133,1,199.499993911743
333,151,70546,2,0,B|365:145|383:102|383:102|352:60|366:18|366:18|410:31|416:83,1,228
466,151,70890,5,0,0:0:0:0:
254,196,71063,1,0,0:0:0:0:
455,311,71235,2,0,L|427:261,1,52.2500015945435
193,311,71408,2,0,L|221:261,1,52.2500015945435
333,151,71580,6,0,L|332:118,2,26.1250007972718
335,254,71752,1,0,0:0:0:0:
206,30,71925,5,0,0:0:0:0:
231,92,72011,1,0,0:0:0:0:
179,136,72097,1,0,0:0:0:0:
121,100,72184,1,0,0:0:0:0:
138,35,72270,6,0,B|112:66|120:101|120:101|96:126|96:126|122:182|76:245,1,213.750008153916
34,322,72615,1,0,0:0:0:0:
231,216,72787,1,0,0:0:0:0:
34,322,72959,6,0,B|82:341|125:303|125:303|182:283|227:331,1,199.499993911743
306,367,73304,6,0,L|300:331,2,26.1250007972718
377,225,73477,2,0,L|381:250,2,26.1250007972718
501,377,73649,6,0,B|491:346|508:316|508:316|488:273|488:273|516:238|494:191|494:191|480:219|445:244,1,242.250004620552
377,225,73994,6,0,P|344:238|291:226,1,61.7499971733095
211,121,74166,2,0,P|216:85|253:46,1,61.7499971733095
374,20,74339,2,0,P|405:36|430:85,1,61.7499971733095
467,225,74511,5,0,0:0:0:0:
309,62,74684,1,0,0:0:0:0:
186,244,74856,1,0,0:0:0:0:
456,132,75028,6,0,L|371:146,1,66.4999979705811
355,312,75201,2,0,L|287:299,1,66.4999979705811
147,174,75373,1,0,0:0:0:0:
377,225,75546,1,0,0:0:0:0:
166,326,75718,6,0,B|123:369|44:327|44:327|74:277|130:276,1,213.750008153916
186,244,76063,1,0,0:0:0:0:
250,380,76235,1,0,0:0:0:0:
40,178,76408,6,0,B|94:147|147:175|147:175|176:150|176:150|216:169|263:147,1,228
338,117,76752,2,0,P|345:162|339:187,1,66.4999979705811
186,244,76925,2,0,P|179:289|185:314,1,66.4999979705811
334,377,77097,6,0,B|353:326|336:271|336:271|359:332|423:346|423:346|450:289|409:236,1,341.999989562989
256,192,83304,12,0,88304,0:0:0:0:
460,347,88477,5,0,0:0:0:0:
460,347,88649,1,0,0:0:0:0:
460,347,88821,6,0,L|450:250,1,95
239,280,89166,2,0,L|249:183,1,95
435,80,89511,1,0,0:0:0:0:
348,194,89684,1,0,0:0:0:0:
328,73,89856,1,0,0:0:0:0:
442,177,90028,1,0,0:0:0:0:
245,102,90201,6,0,P|199:116|168:158,1,95
146,291,90546,1,0,0:0:0:0:
89,163,90718,1,0,0:0:0:0:
34,324,90890,5,0,0:0:0:0:
146,291,91063,1,0,0:0:0:0:
34,324,91235,1,0,0:0:0:0:
89,163,91408,1,0,0:0:0:0:
222,330,91580,6,0,B|245:255|184:217|184:217|227:215|227:215|263:243|263:243|324:219|384:261,1,332.5
449,308,92270,5,0,0:0:0:0:
441,191,92442,1,0,0:0:0:0:
449,308,92615,2,0,L|460:264,1,38
369,167,92787,2,0,L|358:123,1,38
451,15,92959,6,0,L|340:31,1,95
216,48,93304,1,0,0:0:0:0:
369,167,93477,2,0,L|321:130,1,47.5
216,48,93649,5,0,0:0:0:0:
165,165,93821,1,0,0:0:0:0:
216,48,93994,1,0,0:0:0:0:
267,165,94166,1,0,0:0:0:0:
26,28,94339,6,0,L|26:142,1,95
28,265,94684,1,0,0:0:0:0:
149,181,94856,1,0,0:0:0:0:
60,352,95028,2,0,L|167:345,1,95
259,262,95373,2,0,L|314:257,1,47.5
429,329,95546,1,0,0:0:0:0:
387,121,95718,6,0,P|415:165|423:213,1,95
434,353,96063,1,0,0:0:0:0:
329,256,96235,1,0,0:0:0:0:
482,132,96408,6,0,L|467:48,1,76
315,181,96752,2,0,L|330:265,1,76
122,178,97097,5,0,0:0:0:0:
253,120,97270,1,0,0:0:0:0:
175,256,97442,2,0,L|114:166,1,95
0,21,97787,6,0,L|6:72,1,38
17,178,97959,1,0,0:0:0:0:
109,81,98132,2,0,L|120:166,1,76
145,360,98477,6,0,P|193:362|250:338,1,95
342,242,98821,2,0,L|334:183,2,47.5
362,384,99166,2,0,L|348:281,1,95
315,30,99511,1,0,0:0:0:0:
315,30,99684,1,0,0:0:0:0:
315,30,99856,6,0,L|329:142,1,95
118,156,100201,2,0,L|104:268,1,95
283,363,100546,1,0,0:0:0:0:
240,231,100718,1,0,0:0:0:0:
137,350,100890,1,0,0:0:0:0:
324,280,101063,1,0,0:0:0:0:
324,280,101149,1,0,0:0:0:0:
324,280,101235,6,0,P|340:237|329:183,1,95
276,62,101580,1,0,0:0:0:0:
417,135,101752,1,0,0:0:0:0:
233,139,101925,6,0,L|196:137,2,38
390,151,102270,1,0,0:0:0:0:
240,231,102442,1,0,0:0:0:0:
240,231,102528,1,0,0:0:0:0:
240,231,102615,6,0,L|128:244,1,95
276,62,102959,2,0,L|388:75,1,95
472,239,103304,1,0,0:0:0:0:
325,222,103477,1,0,0:0:0:0:
411,312,103649,1,0,0:0:0:0:
390,151,103821,1,0,0:0:0:0:
390,151,103908,1,0,0:0:0:0:
390,151,103994,6,0,L|288:141,1,95
198,131,104252,1,0,0:0:0:0:
198,131,104339,2,0,L|194:80,2,47.5
210,340,104684,5,0,0:0:0:0:
249,226,104856,1,0,0:0:0:0:
210,340,105028,1,0,0:0:0:0:
127,193,105200,1,0,0:0:0:0:
366,331,105373,6,0,L|375:227,1,95
198,131,105718,2,0,L|189:27,1,95
395,6,106063,1,0,0:0:0:0:
310,127,106235,1,0,0:0:0:0:
455,142,106408,1,0,0:0:0:0:
302,32,106580,1,0,0:0:0:0:
302,32,106666,1,0,0:0:0:0:
302,32,106752,6,0,L|311:146,1,95
354,265,107097,1,0,0:0:0:0:
435,152,107270,1,0,0:0:0:0:
252,223,107442,5,0,0:0:0:0:
447,241,107615,1,0,0:0:0:0:
262,286,107787,2,0,L|255:248,1,38
436,300,107959,2,0,L|442:262,1,38
331,136,108132,6,0,B|226:145,1,95
86,161,108477,1,0,0:0:0:0:
156,32,108649,1,0,0:0:0:0:
169,198,108821,6,0,L|173:235,2,38
157,58,109166,1,0,0:0:0:0:
265,192,109339,1,0,0:0:0:0:
265,192,109425,1,0,0:0:0:0:
265,192,109511,6,0,L|275:288,1,95
236,365,109770,1,0,0:0:0:0:
236,365,109856,2,0,L|176:360,2,47.5
487,379,110201,1,0,0:0:0:0:
368,303,110373,1,0,0:0:0:0:
485,209,110546,5,0,0:0:0:0:
403,375,110718,1,0,0:0:0:0:
388,137,110890,5,0,0:0:0:0:
368,303,111067,1,0,0:0:0:0:
233,180,111245,2,0,B|274:210|274:210|338:217,2,95
327,69,111777,1,0,0:0:0:0:
156,139,111955,5,0,0:0:0:0:
370,147,112132,1,0,0:0:0:0:
174,47,112310,6,0,P|172:99|146:151,1,95
273,208,112671,2,0,P|275:260|301:312,1,95
159,349,113032,1,0,0:0:0:0:
195,213,113213,1,0,0:0:0:0:
39,232,113394,5,0,0:0:0:0:
206,289,113575,1,0,0:0:0:0:
27,146,113755,6,0,B|79:135|112:186|112:186|131:133|192:127,1,199.499993911743
279,139,114119,1,0,0:0:0:0:
229,286,114302,1,0,0:0:0:0:
185,127,114484,6,0,L|291:141,1,95
229,286,114849,2,0,L|323:273,1,95
429,166,115213,6,0,B|449:115|449:115|448:61,2,95
323,273,115775,1,0,0:0:0:0:
477,306,115963,2,0,L|401:246,1,95
289,158,116338,1,0,0:0:0:0:
349,298,116525,1,0,0:0:0:0:
349,298,116619,1,0,0:0:0:0:
349,298,116713,5,0,0:0:0:0:
302,331,116808,1,0,0:0:0:0:
245,339,116903,1,0,0:0:0:0:
191,319,116998,1,0,0:0:0:0:
165,267,117093,1,0,0:0:0:0:
111,247,117188,1,0,0:0:0:0:
54,255,117283,5,0,0:0:0:0:
252,238,117473,1,0,0:0:0:0:
94,348,117663,1,0,0:0:0:0:
184,117,117853,2,0,L|165:186,1,61.7499971733095
283,313,118043,2,0,L|265:248,1,61.7499971733095
283,104,118233,5,0,0:0:0:0:
344,111,118330,1,0,0:0:0:0:
393,148,118427,1,0,0:0:0:0:
410,207,118524,1,0,0:0:0:0:
392,266,118621,1,0,0:0:0:0:
345,306,118718,1,0,0:0:0:0:
283,313,118815,6,0,L|263:243,1,66.4999979705811
166,182,119010,2,0,L|184:118,1,66.4999979705811
280,22,119204,1,0,0:0:0:0:
246,178,119398,1,0,0:0:0:0:
422,70,119593,1,0,0:0:0:0:
201,42,119787,6,0,L|191:7,6,23.75
246,179,120187,1,0,0:0:0:0:
291,316,120387,1,0,0:0:0:0:
80,110,120587,6,0,L|70:75,6,23.75
125,247,120987,1,0,0:0:0:0:
170,384,121187,1,0,0:0:0:0:
246,179,121387,5,0,0:0:0:0:
4,315,121787,1,0,0:0:0:0:
246,179,122187,5,0,0:0:0:0:
125,247,122387,1,0,0:0:0:0:
4,315,122587,1,0,0:0:0:0:
413,368,122987,6,0,B|398:322|398:322|406:273|406:273|389:228|389:228|376:268|337:293,1,213.750008153916
269,301,123387,1,0,0:0:0:0:
493,320,123587,1,0,0:0:0:0:
269,301,123787,6,0,B|240:247|250:171|250:171|270:207|315:212,1,199.499993911743
390,228,124187,6,0,P|410:196|412:167,1,61.7499971733095
380,38,124387,2,0,P|348:18|319:16,1,61.7499971733095
250,171,124587,6,0,L|170:194,1,61.7499971733095
76,56,124787,2,0,L|16:38,1,61.7499971733095
112,213,124987,6,0,L|120:295,1,61.7499971733095
237,82,125187,2,0,L|242:20,1,61.7499971733095
22,213,125387,1,0,0:0:0:0:
250,171,125587,1,0,0:0:0:0:
3,201,125787,6,0,P|6:238|28:273,1,66.4999979705811
265,157,125987,2,0,P|268:193|256:236,1,66.4999979705811
183,373,126187,6,0,B|221:360|221:360|258:368|258:368|291:357|291:357|337:368,1,152
415,382,126487,1,0,0:0:0:0:
309,282,126587,2,0,L|376:299,2,61.7499971733095
106,192,126987,6,0,L|166:177,1,61.7499971733095
309,282,127187,2,0,L|371:298,1,61.7499971733095
452,157,127387,2,0,L|527:139,2,61.7499971733095
217,289,127787,6,0,P|228:261|224:208,1,61.7499971733095
368,149,127987,2,0,P|356:121|360:68,1,61.7499971733095
213,0,128187,6,0,P|184:32|178:53,1,61.7499971733095
181,194,128387,2,0,P|212:223|233:229,1,61.7499971733095
355,89,128587,5,0,0:0:0:0:
118,123,128787,1,0,0:0:0:0:
375,80,128987,6,0,P|386:123|380:155,1,66.4999979705811
97,119,129187,2,0,P|97:164|111:192,1,66.4999979705811
275,291,129387,6,0,B|305:318|345:314|345:314|377:343|425:346|425:346|397:351|374:371,1,213.750008153916
281,381,129787,1,0,0:0:0:0:
437,215,129987,1,0,0:0:0:0:
281,381,130187,6,0,B|212:366|196:293|196:293|192:336|149:365,1,199.499993911743
67,369,130587,6,0,P|68:323|83:295,1,61.7499971733095
106,174,130787,2,0,P|151:166|181:176,1,61.7499971733095
296,287,130987,6,0,P|325:279|350:262,1,61.7499971733095
334,124,131188,2,0,P|332:93|319:65,1,61.7499971733095
138,19,131387,6,0,L|152:94,1,61.7499971733095
255,169,131587,2,0,L|241:244,1,61.7499971733095
137,318,131787,6,0,L|144:366,2,28.4999991302491
122,209,131987,1,0,0:0:0:0:
304,367,132187,6,0,P|351:352|373:323,1,66.4999979705811
426,194,132387,2,0,P|420:145|394:118,1,66.4999979705811
154,135,132587,6,0,B|214:170|198:238|198:238|216:181|274:160,1,213.750008153916
327,114,132987,1,0,0:0:0:0:
235,316,133187,1,0,0:0:0:0:
327,114,133387,6,0,B|347:76|328:32|328:32|361:52|378:84,1,132.999995941162
410,131,133687,1,0,0:0:0:0:
255,72,133787,6,0,B|225:58|225:58|193:64|193:64|169:48|169:48|133:53|133:53|104:36|104:36|61:43,1,185.249991519928
27,116,134187,2,0,P|-5:149|63:124,1,213.750008153916
83,39,134587,6,0,P|120:58|132:76,1,61.7499971733095
179,191,134787,2,0,P|165:230|151:245,1,61.7499971733095
36,326,134987,1,0,0:0:0:0:
201,113,135187,5,0,0:0:0:0:
252,107,135287,1,0,0:0:0:0:
303,100,135387,1,0,0:0:0:0:
354,93,135487,1,0,0:0:0:0:
405,85,135587,1,0,0:0:0:0:
476,338,135787,6,0,B|455:286|455:286|457:239|457:239|430:189|430:189|430:216|419:245,1,213.750008153916
349,305,136187,2,0,B|309:251|337:195|337:195|319:236|283:252,1,185.249991519928
200,284,136587,6,0,L|219:220,1,56.9999982604981
252,107,136787,1,0,0:0:0:0:
110,306,136987,6,0,L|107:235,1,56.9999982604981
249,163,137187,2,0,L|252:92,1,56.9999982604981
78,29,137387,6,0,L|76:3,2,26.1250007972718
169,138,137587,2,0,L|171:165,2,26.1250007972718
227,29,137787,5,0,0:0:0:0:
34,148,137987,1,0,0:0:0:0:
227,29,138187,5,0,0:0:0:0:
207,233,138387,1,0,0:0:0:0:
394,107,138587,2,0,L|309:119,1,66.4999979705811
169,138,138787,1,0,0:0:0:0:
251,329,138987,5,0,0:0:0:0:
293,292,139087,1,0,0:0:0:0:
308,238,139187,1,0,0:0:0:0:
294,183,139287,1,0,0:0:0:0:
258,146,139387,6,0,L|246:103,2,28.4999991302491
187,246,139587,2,0,L|179:273,2,28.4999991302491
143,128,139787,1,0,0:0:0:0:
251,329,139987,5,0,0:0:0:0:
86,225,140187,1,0,0:0:0:0:
258,146,140387,1,0,0:0:0:0:
115,347,140587,5,0,0:0:0:0:
17,204,140787,6,0,L|77:212,1,52.2500015945435
199,335,140987,2,0,L|262:325,1,61.7499971733095
319,212,141187,6,0,L|383:223,1,61.7499971733095
454,311,141387,2,0,L|509:305,2,47.5
115,347,141787,1,0,0:0:0:0:
115,347,142187,6,0,B|109:294|109:294|83:255|83:255|77:190|77:190|110:232,1,213.750008153916
203,219,142587,2,0,B|131:129|131:129|203:157,1,185.249991519928
289,203,142987,5,0,0:0:0:0:
194,308,143187,1,0,0:0:0:0:
390,246,143387,6,0,B|401:197|401:197|385:151|385:151|397:107|397:107|383:56,1,185.249991519928
291,63,143787,6,0,B|302:101|302:101|291:141|291:141|308:201,1,132.999995941162
328,369,144187,6,0,L|319:297,1,56.9999982604981
203,219,144387,2,0,L|212:147,1,56.9999982604981
301,41,144587,1,0,0:0:0:0:
103,93,144787,6,0,P|103:137|119:171,1,61.7499971733095
310,130,144987,2,0,P|310:174|294:208,1,61.7499971733095
191,313,145187,1,0,0:0:0:0:
103,93,145387,5,0,0:0:0:0:
54,318,145587,1,0,0:0:0:0:
207,116,145787,5,0,0:0:0:0:
196,339,145987,1,0,0:0:0:0:
313,115,146187,6,0,L|315:166,1,38
323,344,146387,1,0,0:0:0:0:
417,93,146587,6,0,L|427:136,1,38
467,324,146787,1,0,0:0:0:0:
236,233,146987,5,0,0:0:0:0:
189,227,147087,1,0,0:0:0:0:
142,224,147187,1,0,0:0:0:0:
95,218,147287,1,0,0:0:0:0:
48,214,147387,5,0,0:0:0:0:
50,240,147487,1,0,0:0:0:0:
51,266,147587,1,0,0:0:0:0:
52,292,147687,1,0,0:0:0:0:
54,318,147787,2,0,L|56:350,4,26.1250007972718
41,136,148187,5,0,0:0:0:0:
55,344,148387,1,0,0:0:0:0:
236,233,148587,6,0,B|267:178|232:114|232:114|258:79|250:34|250:34|275:75|322:87|322:87|316:163|377:204|377:204|402:323|340:317|340:317|280:308|308:215|369:249|369:249|401:267|416:319,1,797.999975646973
233,328,151645,6,0,B|165:324|142:253|142:253|106:303|44:306|44:306|0:263|11:211,1,341.999989562989
106,127,153145,6,0,B|157:94|213:126|213:126|248:98|248:98|305:146|388:150|378:59|309:83,1,341.999989562989
106,127,154611,6,0,B|112:182|112:182|133:245,1,113.999996520996
130,237,155148,1,0,0:0:0:0:
264,302,155328,6,0,L|278:235,1,56.9999982604981
199,189,155686,2,0,L|185:122,1,56.9999982604981
273,40,156045,5,0,0:0:0:0:
347,146,156222,2,0,L|370:234,1,76
398,337,156577,5,0,0:0:0:0:
275,246,156755,1,0,0:0:0:0:
398,337,156932,1,0,0:0:0:0:
431,177,157110,1,0,0:0:0:0:
308,329,157287,1,0,0:0:0:0:
465,264,157464,6,0,L|360:239,1,95
372,241,157814,1,0,0:0:0:0:
197,214,157989,2,0,P|191:261|213:310,2,95
306,123,158514,1,0,0:0:0:0:
302,305,158689,1,0,0:0:0:0:
197,214,158864,6,0,L|211:134,1,76
408,157,159208,2,0,L|394:77,1,76
251,0,159553,1,0,0:0:0:0:
306,123,159726,1,0,0:0:0:0:
75,50,159898,5,0,0:0:0:0:
75,50,160070,1,0,0:0:0:0:
75,50,160243,6,0,L|49:156,1,95
246,180,160588,2,0,L|272:286,1,95
94,358,160932,1,0,0:0:0:0:
124,219,161105,1,0,0:0:0:0:
35,273,161277,1,0,0:0:0:0:
202,304,161450,2,0,L|146:294,1,47.5
16,253,161622,6,0,B|7:208|7:208|22:166|22:166|7:112|7:112|24:54,1,190
19,70,162139,1,0,0:0:0:0:
124,219,162312,6,0,L|211:201,1,76
234,32,162657,2,0,L|321:50,1,76
420,205,163001,1,0,0:0:0:0:
310,231,163174,2,0,B|308:181|308:181|327:130,2,95
394,354,163691,6,0,L|311:335,1,76
198,203,164036,2,0,L|123:219,1,76
9,372,164381,1,0,0:0:0:0:
26,208,164553,6,0,L|20:267,1,47.5
9,372,164726,1,0,0:0:0:0:
128,320,164898,1,0,0:0:0:0:
25,124,165070,6,0,B|81:130|103:179|103:179|118:134|171:115,1,190
164,117,165588,1,0,0:0:0:0:
373,53,165760,6,0,L|356:158,1,95
198,203,166105,2,0,L|213:296,1,95
368,377,166450,1,0,0:0:0:0:
318,251,166622,1,0,0:0:0:0:
413,284,166795,1,0,0:0:0:0:
261,355,166967,2,0,L|316:329,1,47.5
436,273,167139,6,0,B|445:228|445:228|430:186|430:186|445:132|445:132|428:74,1,190
432,90,167657,1,0,0:0:0:0:
337,242,167829,6,0,L|256:230,1,76
262,56,168174,2,0,L|186:67,1,76
70,217,168519,1,0,0:0:0:0:
166,263,168691,2,0,B|179:220|179:220|168:171,2,95
39,384,169208,6,0,L|114:372,1,76
254,258,169553,2,0,L|329:270,1,76
475,376,169898,1,0,0:0:0:0:
439,228,170070,6,0,L|453:288,1,47.5
475,376,170243,1,0,0:0:0:0:
346,287,170415,1,0,0:0:0:0:
491,158,170588,6,0,B|443:144|443:144|382:154,1,95
238,274,170932,5,0,0:0:0:0:
238,274,171105,1,0,0:0:0:0:
238,274,171277,6,0,L|220:179,1,95
18,205,171622,2,0,L|36:110,1,95
207,13,171967,1,0,0:0:0:0:
149,157,172139,1,0,0:0:0:0:
67,24,172312,1,0,0:0:0:0:
231,102,172484,1,0,0:0:0:0:
231,102,172570,1,0,0:0:0:0:
231,102,172657,6,0,L|329:145,1,95
446,193,173001,1,0,0:0:0:0:
305,257,173174,1,0,0:0:0:0:
449,292,173346,6,0,L|493:303,2,38
305,257,173691,1,0,0:0:0:0:
446,193,173864,1,0,0:0:0:0:
446,193,173950,1,0,0:0:0:0:
446,193,174036,6,0,L|431:86,1,95
305,257,174381,2,0,L|290:364,1,95
164,193,174726,6,0,L|157:140,2,38
181,342,175070,1,0,0:0:0:0:
32,275,175243,1,0,0:0:0:0:
32,275,175329,1,0,0:0:0:0:
32,275,175415,6,0,L|138:273,1,95
219,267,175674,1,0,0:0:0:0:
219,267,175760,2,0,P|226:244|240:219,1,47.5
164,193,175932,2,0,P|160:172|143:146,1,47.5
243,121,176105,5,0,0:0:0:0:
325,230,176277,1,0,0:0:0:0:
243,121,176450,5,0,0:0:0:0:
126,273,176622,1,0,0:0:0:0:
346,322,176795,6,0,L|324:226,1,95
142,190,177139,2,0,L|164:94,1,95
322,21,177484,1,0,0:0:0:0:
243,121,177657,1,0,0:0:0:0:
382,150,177829,1,0,0:0:0:0:
220,28,178001,1,0,0:0:0:0:
220,28,178088,1,0,0:0:0:0:
220,28,178174,6,0,L|243:126,1,95
281,253,178519,1,0,0:0:0:0:
317,98,178691,1,0,0:0:0:0:
209,205,178864,6,0,L|174:240,2,38
317,98,179208,1,0,0:0:0:0:
375,245,179381,1,0,0:0:0:0:
375,245,179467,1,0,0:0:0:0:
375,245,179553,6,0,L|279:252,1,95
147,112,179898,2,0,L|242:120,1,95
393,132,180243,6,0,L|441:136,2,38
242,120,180588,1,0,0:0:0:0:
372,36,180760,1,0,0:0:0:0:
372,36,180846,1,0,0:0:0:0:
372,36,180932,2,0,L|379:118,1,76
358,211,181191,1,0,0:0:0:0:
358,211,181277,6,0,P|330:209|300:218,1,47.5
284,139,181450,2,0,P|258:130|232:112,1,47.5
207,229,181622,5,0,0:0:0:0:
306,135,181795,1,0,0:0:0:0:
207,229,181967,1,0,0:0:0:0:
183,64,182139,1,0,0:0:0:0:
8,247,182312,6,0,B|70:247|70:247|137:220,1,113.999996520996,0|0,0:0|0:0,0:3:0:0:
284,139,182657,1,0,0:0:0:0:
199,251,182829,1,0,0:0:0:0:
383,316,183001,2,0,L|282:241,1,113.999996520996
150,145,183346,5,0,0:0:0:0:
350,197,183519,1,0,0:0:0:0:
188,356,183691,2,0,P|175:304|207:243,1,113.999996520996
350,197,184036,2,0,P|363:145|331:84,1,113.999996520996
210,84,184381,5,0,0:0:0:0:
283,252,184553,1,0,0:0:0:0:
150,145,184726,5,0,0:0:0:0:
350,197,184898,1,0,0:0:0:0:
179,343,185070,6,0,B|179:278|179:278|215:221,1,113.999996520996
299,110,185415,1,0,0:0:0:0:
283,252,185588,1,0,0:0:0:0:
460,169,185760,6,0,L|342:198,1,113.999996520996
206,237,186105,5,0,0:0:0:0:
299,110,186277,1,0,0:0:0:0:
310,290,186450,6,0,L|279:247,1,47.5
206,151,186622,1,0,0:0:0:0:
99,290,186795,2,0,L|132:246,1,52.2500015945435
206,151,186967,1,0,0:0:0:0:
207,318,187139,5,0,0:0:0:0:
120,174,187312,1,0,0:0:0:0:
279,206,187484,1,0,0:0:0:0:
207,318,187657,6,0,L|191:339,1,26.1250007972718
257,327,187743,2,0,L|252:353,1,26.1250007972718
310,322,187829,5,0,0:0:0:0:
355,302,187915,1,0,0:0:0:0:
386,263,188001,1,0,0:0:0:0:
399,215,188088,1,0,0:0:0:0:
389,166,188174,1,0,0:0:0:0:
353,131,188260,1,0,0:0:0:0:
343,82,188346,1,0,0:0:0:0:
356,34,188433,1,0,0:0:0:0:
387,0,188519,5,0,0:0:0:0:
415,39,188605,1,0,0:0:0:0:
392,82,188691,1,0,0:0:0:0:
343,82,188777,1,0,0:0:0:0:
301,54,188864,1,0,0:0:0:0:
255,35,188950,1,0,0:0:0:0:
205,38,189036,2,0,P|156:52|138:70,1,61.7499971733095
74,172,189208,5,0,0:0:0:0:
88,227,189295,1,0,0:0:0:0:
131,263,189381,1,0,0:0:0:0:
186,275,189467,1,0,0:0:0:0:
242,265,189553,1,0,0:0:0:0:
290,235,189639,1,0,0:0:0:0:
346,225,189725,1,0,0:0:0:0:
401,237,189811,1,0,0:0:0:0:
444,273,189897,5,0,0:0:0:0:
458,328,189984,1,0,0:0:0:0:
425,374,190070,1,0,0:0:0:0:
367,373,190157,1,0,0:0:0:0:
336,324,190243,1,0,0:0:0:0:
353,269,190329,1,0,0:0:0:0:
401,237,190415,2,0,P|430:207|440:176,1,71.2500027179719
458,17,190588,5,0,0:0:0:0:
297,15,190760,6,0,L|335:15,2,38
338,124,190932,2,0,L|367:99,2,38
439,179,191105,2,0,L|445:142,2,38
458,17,191277,5,0,0:0:0:0:
236,19,191450,6,0,L|290:16,2,38
294,165,191622,2,0,L|332:130,2,38
431,241,191795,2,0,L|438:189,2,38
458,17,191967,5,0,0:0:0:0:
294,165,192312,1,0,0:0:0:0:
130,313,192657,1,0,0:0:0:0:
163,184,192829,5,0,0:0:0:0:
198,221,192915,1,0,0:0:0:0:
234,260,193002,1,0,0:0:0:0:
270,297,193088,1,0,0:0:0:0:
307,336,193174,1,0,0:0:0:0:
206,76,193346,6,0,B|243:79|264:119|264:119|321:98|367:144|350:186|301:182|284:154,1,228
163,184,193691,6,0,P|134:169|109:141,1,66.4999979705811
237,4,193864,2,0,P|269:15|301:44,1,66.4999979705811
296,190,194036,1,0,0:0:0:0:
81,67,194208,1,0,0:0:0:0:
280,273,194381,6,0,L|285:186,1,61.7499971733095
85,151,194553,2,0,L|80:62,1,61.7499971733095
291,30,194726,1,0,0:0:0:0:
152,232,194898,6,0,P|171:264|207:280,1,61.7499971733095
355,346,195070,2,0,P|378:317|381:277,1,61.7499971733095
370,117,195243,2,0,P|334:104|297:115,1,61.7499971733095
221,198,195415,1,0,0:0:0:0:
442,193,195588,1,0,0:0:0:0:
249,377,195760,6,0,L|266:296,1,61.7499971733095
459,277,195932,2,0,L|442:196,1,61.7499971733095
239,84,196105,6,0,B|231:114|231:114|241:145|241:145|231:177|231:177|242:213|242:213|188:179|131:220,1,228
55,280,196450,6,0,P|34:248|31:218,1,61.7499971733095
92,67,196622,2,0,P|128:58|157:65,1,61.7499971733095
242,212,196795,1,0,0:0:0:0:
21,136,196967,1,0,0:0:0:0:
139,365,197139,6,0,L|150:285,1,61.7499971733095
333,237,197312,2,0,L|322:157,1,61.7499971733095
151,63,197484,1,0,0:0:0:0:
10,239,197657,6,0,P|34:269|76:283,1,61.7499971733095
224,287,197829,2,0,P|243:254|243:209,1,61.7499971733095
210,65,198001,2,0,P|172:57|130:73,1,61.7499971733095
77,202,198174,5,0,0:0:0:0:
289,95,198346,1,0,0:0:0:0:
289,95,198432,1,0,0:0:0:0:
289,95,198519,6,0,B|272:139|228:146|228:146|174:158|158:223,1,170.999994781494
434,271,198864,6,0,B|394:297|351:271|351:271|319:293|319:293|261:254|197:303,1,228
130,351,199208,2,0,P|99:322|90:290,1,61.7499971733095
122,134,199381,2,0,P|159:114|193:117,1,61.7499971733095
291,250,199553,1,0,0:0:0:0:
41,213,199726,1,0,0:0:0:0:
230,347,199898,6,0,L|221:268,1,61.7499971733095
41,213,200070,2,0,L|50:134,1,61.7499971733095
226,54,200243,1,0,0:0:0:0:
163,278,200415,6,0,P|191:288|227:283,1,61.7499971733095
370,193,200588,2,0,P|369:162|353:130,1,61.7499971733095
217,30,200760,2,0,P|188:40|164:66,1,61.7499971733095
197,209,200932,1,0,0:0:0:0:
322,46,201105,1,0,0:0:0:0:
129,198,201277,6,0,L|212:188,1,61.7499971733095
312,23,201450,2,0,L|373:30,1,61.7499971733095
499,193,201622,5,0,0:0:0:0:
370,193,201795,2,0,B|436:176|436:176|514:196,1,132.999995941162
452,338,202139,6,0,L|439:277,1,61.7499971733095
275,218,202312,2,0,L|290:156,1,61.7499971733095
400,35,202484,1,0,0:0:0:0:
440,278,202657,6,0,P|406:300|371:302,1,71.2500027179719
265,345,202829,2,0,P|232:320|218:288,1,71.2500027179719
263,120,203001,6,0,P|246:88|217:68,1,71.2500027179719
106,110,203173,2,0,P|70:114|42:134,1,71.2500027179719
51,309,203346,6,0,L|40:343,2,35.625001358986
144,234,203519,2,0,L|133:197,2,35.625001358986
180,347,203691,5,0,0:0:0:0:
106,110,203864,1,0,0:0:0:0:
319,231,204036,6,0,L|267:232,1,47.5
144,234,204208,1,0,0:0:0:0:
