osu file format v14

[General]
AudioFilename: audio.mp3
AudioLeadIn: 0
PreviewTime: 83206
Countdown: 0
SampleSet: Normal
StackLeniency: 0.7
Mode: 1
LetterboxInBreaks: 0
WidescreenStoryboard: 1

[Editor]
Bookmarks: 14548,20948,27348,33748,40148,54548,59348
DistanceSpacing: 0.9
BeatDivisor: 2
GridSize: 32
TimelineZoom: 0.8999997

[Metadata]
Title:The Commanders
TitleUnicode:The Commanders
Artist:USAO
ArtistUnicode:USAO
Creator:Yales
Version:Kantan
Source:beatmania IIDX 24 SINOBUZ
Tags:HARDSTYLE Konami BEMANI original soundtrack ost Pony Canyon
BeatmapID:1618837
BeatmapSetID:761565

[Difficulty]
HPDrainRate:7
CircleSize:2
OverallDifficulty:3
ApproachRate:5
SliderMultiplier:1.4
SliderTickRate:1

[Events]
//Background and Video events
0,0,"bg.jpg",0,50
//Break Periods
2,35606,39006
//Storyboard Layer 0 (Background)
//Storyboard Layer 1 (Fail)
//Storyboard Layer 2 (Pass)
//Storyboard Layer 3 (Foreground)
//Storyboard Sound Samples

[TimingPoints]
1806,400,4,1,0,100,1,0
2206,-100,4,1,0,70,0,0
8206,-100,4,1,0,75,0,0
14606,-100,4,1,0,80,0,0
33806,-100,4,1,0,100,0,0
35406,-100,4,1,0,80,0,0
40206,-100,4,1,0,70,0,0
54606,-100,4,1,0,60,0,0
59406,-100,4,1,0,85,0,0
76206,-100,4,1,0,75,0,0
76606,-100,4,1,0,65,0,0
77006,-100,4,1,0,55,0,0
79406,-100,4,1,0,65,0,0
79806,-100,4,1,0,75,0,0
81806,-100,4,1,0,80,0,0
82606,-100,4,1,0,85,0,0
83406,-100,4,1,0,90,0,0
85006,-100,4,1,0,90,0,1
100206,-100,4,1,0,90,0,0
101406,-100,4,1,0,90,0,1
106606,-100,4,1,0,90,0,0
107406,-100,4,1,0,90,0,1
109006,-100,4,1,0,90,0,0
110606,-100,4,1,0,90,0,1
123406,-100,4,1,0,100,0,0

[HitObjects]
256,192,1806,5,4,0:0:0:0:
256,192,2206,1,8,0:0:0:0:
256,192,2806,1,8,0:0:0:0:
256,192,3406,1,0,0:0:0:0:
256,192,3806,1,8,0:0:0:0:
256,192,5006,1,0,0:0:0:0:
256,192,5406,1,8,0:0:0:0:
256,192,6606,1,0,0:0:0:0:
256,192,7006,1,8,0:0:0:0:
256,192,8206,1,8,0:0:0:0:
256,192,8606,1,0,0:0:0:0:
256,192,9006,1,0,0:0:0:0:
256,192,9406,1,8,0:0:0:0:
256,192,10206,1,0,0:0:0:0:
256,192,11006,1,0,0:0:0:0:
256,192,11806,1,8,0:0:0:0:
256,192,12206,1,8,0:0:0:0:
256,192,12606,1,8,0:0:0:0:
256,192,13006,5,0,0:0:0:0:
256,192,14606,5,4,0:0:0:0:
256,192,15406,1,0,0:0:0:0:
256,192,15806,1,0,0:0:0:0:
256,192,16206,1,8,0:0:0:0:
256,192,17006,1,0,0:0:0:0:
256,192,17806,1,8,0:0:0:0:
256,192,18206,1,0,0:0:0:0:
256,192,18606,1,0,0:0:0:0:
256,192,19006,1,0,0:0:0:0:
256,192,19406,1,8,0:0:0:0:
256,192,20606,1,0,0:0:0:0:
256,192,21006,1,12,0:0:0:0:
256,192,21806,1,0,0:0:0:0:
256,192,22206,1,0,0:0:0:0:
256,192,22606,1,8,0:0:0:0:
256,192,23006,1,8,0:0:0:0:
256,192,23406,1,0,0:0:0:0:
256,192,24206,1,8,0:0:0:0:
256,192,24606,1,0,0:0:0:0:
256,192,25006,1,0,0:0:0:0:
256,192,25406,1,0,0:0:0:0:
256,192,25806,1,8,0:0:0:0:
256,192,27406,1,12,0:0:0:0:
256,192,28206,1,0,0:0:0:0:
256,192,28606,1,0,0:0:0:0:
256,192,29006,1,8,0:0:0:0:
256,192,29806,1,8,0:0:0:0:
256,192,30606,1,0,0:0:0:0:
256,192,31006,1,8,0:0:0:0:
256,192,31406,1,8,0:0:0:0:
256,192,31806,1,0,0:0:0:0:
256,192,32206,1,8,0:0:0:0:
256,192,33006,1,0,0:0:0:0:
256,192,33406,1,8,0:0:0:0:
256,192,33806,1,4,0:0:0:0:
256,192,35406,1,4,0:0:0:0:
256,192,40206,5,0,0:0:0:0:
256,192,41806,1,0,0:0:0:0:
256,192,42206,1,8,0:0:0:0:
256,192,43006,1,8,0:0:0:0:
256,192,43406,1,0,0:0:0:0:
256,192,44606,1,0,0:0:0:0:
256,192,45006,1,8,0:0:0:0:
256,192,46206,1,8,0:0:0:0:
256,192,46606,1,0,0:0:0:0:
256,192,48206,1,0,0:0:0:0:
256,192,48606,1,8,0:0:0:0:
256,192,49406,1,8,0:0:0:0:
256,192,49806,1,0,0:0:0:0:
256,192,50606,1,8,0:0:0:0:
256,192,51406,1,0,0:0:0:0:
256,192,52206,1,8,0:0:0:0:
256,192,53006,1,4,0:0:0:0:
256,192,54606,1,0,0:0:0:0:
256,192,55406,1,0,0:0:0:0:
256,192,56206,1,8,0:0:0:0:
256,192,56606,1,8,0:0:0:0:
256,192,57006,1,0,0:0:0:0:
256,192,57806,1,8,0:0:0:0:
256,192,58206,1,8,0:0:0:0:
256,192,58606,1,0,0:0:0:0:
256,192,59406,1,12,0:0:0:0:
256,192,60206,1,0,0:0:0:0:
256,192,60606,1,8,0:0:0:0:
256,192,61406,1,8,0:0:0:0:
256,192,62206,1,0,0:0:0:0:
256,192,62606,1,8,0:0:0:0:
256,192,63806,1,0,0:0:0:0:
256,192,64606,1,0,0:0:0:0:
256,192,65406,1,0,0:0:0:0:
256,192,65806,1,8,0:0:0:0:
256,192,66206,1,0,0:0:0:0:
256,192,66606,1,0,0:0:0:0:
256,192,67006,1,8,0:0:0:0:
256,192,67806,1,8,0:0:0:0:
256,192,68606,1,0,0:0:0:0:
256,192,69006,1,8,0:0:0:0:
256,192,70206,1,8,0:0:0:0:
256,192,71006,1,0,0:0:0:0:
256,192,71406,1,8,0:0:0:0:
256,192,71806,1,0,0:0:0:0:
256,192,72206,1,12,0:0:0:0:
256,192,73406,1,0,0:0:0:0:
256,192,73806,1,0,0:0:0:0:
256,192,74206,1,0,0:0:0:0:
256,192,74606,1,0,0:0:0:0:
256,192,75406,1,8,0:0:0:0:
256,192,76206,1,0,0:0:0:0:
256,192,76606,1,0,0:0:0:0:
256,192,77006,1,0,0:0:0:0:
256,192,77406,1,0,0:0:0:0:
256,192,78606,1,8,0:0:0:0:
256,192,79406,1,8,0:0:0:0:
256,192,80206,1,0,0:0:0:0:
256,192,80606,1,8,0:0:0:0:
256,192,81006,1,8,0:0:0:0:
256,192,81806,1,8,0:0:0:0:
256,192,82606,1,8,0:0:0:0:
256,192,83406,1,0,0:0:0:0:
256,192,84606,1,0,0:0:0:0:
256,192,85006,1,12,0:0:0:0:
256,192,85806,1,0,0:0:0:0:
256,192,86206,1,8,0:0:0:0:
256,192,87006,1,8,0:0:0:0:
256,192,87406,1,0,0:0:0:0:
256,192,87806,1,0,0:0:0:0:
256,192,88206,1,8,0:0:0:0:
256,192,89006,1,8,0:0:0:0:
256,192,90206,1,0,0:0:0:0:
256,192,90606,1,8,0:0:0:0:
256,192,91006,1,8,0:0:0:0:
256,192,91406,1,0,0:0:0:0:
256,192,92206,1,0,0:0:0:0:
256,192,92606,1,8,0:0:0:0:
256,192,93406,1,8,0:0:0:0:
256,192,93806,1,0,0:0:0:0:
256,192,94206,1,0,0:0:0:0:
256,192,94606,1,8,0:0:0:0:
256,192,95006,1,0,0:0:0:0:
256,192,95806,1,8,0:0:0:0:
256,192,96606,1,0,0:0:0:0:
256,192,97006,1,8,0:0:0:0:
256,192,97406,1,8,0:0:0:0:
256,192,97806,1,4,0:0:0:0:
256,192,98606,1,0,0:0:0:0:
256,192,99006,1,8,0:0:0:0:
256,192,99806,1,8,0:0:0:0:
256,192,101006,1,4,0:0:0:0:
256,192,101406,1,8,0:0:0:0:
256,192,102206,1,0,0:0:0:0:
256,192,103006,1,8,0:0:0:0:
256,192,103406,1,0,0:0:0:0:
256,192,103806,1,0,0:0:0:0:
251,200,104206,1,8,0:0:0:0:
256,192,105006,1,0,0:0:0:0:
256,192,105406,1,8,0:0:0:0:
256,192,106206,1,8,0:0:0:0:
256,192,106606,1,0,0:0:0:0:
256,192,107406,1,12,0:0:0:0:
256,192,108206,1,0,0:0:0:0:
256,192,108606,1,8,0:0:0:0:
256,192,109006,1,0,0:0:0:0:
256,192,110206,1,0,0:0:0:0:
256,192,110606,1,12,0:0:0:0:
256,192,111406,1,8,0:0:0:0:
256,192,111806,1,8,0:0:0:0:
256,192,112206,1,0,0:0:0:0:
256,192,112606,1,0,0:0:0:0:
256,192,113006,1,8,0:0:0:0:
256,192,113406,1,0,0:0:0:0:
256,192,113806,1,8,0:0:0:0:
256,192,114606,1,8,0:0:0:0:
256,192,115806,1,0,0:0:0:0:
256,192,116206,1,0,0:0:0:0:
256,192,116606,1,8,0:0:0:0:
256,192,117406,1,8,0:0:0:0:
256,192,117806,1,8,0:0:0:0:
256,192,118206,1,0,0:0:0:0:
256,192,118606,1,0,0:0:0:0:
256,192,119006,1,8,0:0:0:0:
256,192,119406,1,0,0:0:0:0:
256,192,120206,1,8,0:0:0:0:
256,192,121006,1,8,0:0:0:0:
256,192,121806,1,0,0:0:0:0:
256,192,122206,1,0,0:0:0:0:
256,192,122606,1,8,0:0:0:0:
256,192,123006,1,8,0:0:0:0:
256,192,123406,1,4,0:0:0:0:
