osu file format v14

[General]
AudioFilename: audio.mp3
AudioLeadIn: 0
PreviewTime: 84806
Countdown: 0
SampleSet: Soft
StackLeniency: 0.7
Mode: 2
LetterboxInBreaks: 0
WidescreenStoryboard: 0

[Editor]
Bookmarks: 1806,14606,27406,40206,54606,59406,72206,85006,97806,110606,123406
DistanceSpacing: 1.5
BeatDivisor: 4
GridSize: 32
TimelineZoom: 1.4

[Metadata]
Title:The Commanders
TitleUnicode:The Commanders
Artist:USAO
ArtistUnicode:USAO
Creator:Bastian
Version:Beginner
Source:beatmania IIDX 24 SINOBUZ
Tags:HARDSTYLE Konami BEMANI original soundtrack ost seija
BeatmapID:1976037
BeatmapSetID:946357

[Difficulty]
HPDrainRate:3
CircleSize:2.5
OverallDifficulty:6
ApproachRate:6
SliderMultiplier:1
SliderTickRate:1

[Events]
//Background and Video events
0,0,"Konachan.com - 266398 blue_eyes brown_hair building city gun long_hair original rain sky tagme_(artist) water weapon.jpg",0,0
//Break Periods
//Storyboard Layer 0 (Background)
//Storyboard Layer 1 (Fail)
//Storyboard Layer 2 (Pass)
//Storyboard Layer 3 (Foreground)
//Storyboard Sound Samples

[TimingPoints]
1006,400,4,2,1,75,1,0
1806,400,4,2,1,75,1,0
67406,-100,4,2,3,75,0,0
67806,-100,4,2,2,75,0,0
71806,-100,4,2,3,75,0,0
72206,-100,4,2,2,75,0,0
85006,-100,4,2,2,85,0,1
123406,-100,4,2,2,85,0,0

[Colours]
Combo1 : 255,255,81
Combo2 : 70,70,70
Combo3 : 0,99,198
Combo4 : 129,65,65

[HitObjects]
387,285,1006,6,0,L|273:285,1,100,2|10,0:0|0:0,0:0:0:0:
137,285,1806,5,6,0:0:0:0:
287,285,2406,2,0,L|406:285,1,100,0|0,0:0|0:0,0:0:0:0:
236,285,3406,2,0,P|191:204|251:111,1,200,0|0,0:0|0:0,0:0:0:0:
339,117,4606,1,0,0:0:0:0:
238,117,5006,5,0,0:0:0:0:
138,117,5406,2,0,L|26:117,2,100,0|0|0,0:0|0:0|0:0,0:0:0:0:
238,117,6606,2,0,P|275:154|237:281,1,200,0|0,0:0|0:0,0:0:0:0:
137,280,7806,1,0,0:0:0:0:
317,280,8206,6,0,L|435:280,1,100,6|2,0:0|0:0,0:0:0:0:
244,223,9006,2,0,P|226:161|244:113,1,100,2|0,0:0|0:0,0:0:0:0:
300,128,9606,1,2,0:0:0:0:
365,128,9806,6,0,L|468:128,2,100,2|10|2,0:0|0:0|0:0,0:0:0:0:
215,128,11006,1,2,0:0:0:0:
256,192,11406,12,2,13006,0:0:0:0:
379,296,13806,6,0,L|379:194,1,100,10|10,0:0|0:0,0:0:0:0:
279,196,14606,6,0,L|172:196,2,100,6|10|2,0:0|0:0|0:0,0:0:0:0:
179,196,15806,2,0,L|62:196,1,100,2|2,0:0|0:0,0:0:0:0:
179,196,16606,5,10,0:0:0:0:
279,196,17006,2,0,P|331:106|256:44,1,200,2|2,0:0|0:0,0:0:0:0:
374,46,18206,6,0,L|442:46,2,50,10|2|2,0:0|0:0|0:0,0:0:0:0:
224,46,19006,1,2,0:0:0:0:
74,45,19406,1,2,0:0:0:0:
174,46,19806,2,0,P|232:119|178:195,1,200,10|2,0:0|0:0,0:0:0:0:
277,195,21006,6,0,L|385:195,1,100,6|10,0:0|0:0,0:0:0:0:
227,195,21806,1,2,0:0:0:0:
152,195,22006,1,0,0:0:0:0:
227,195,22206,1,2,0:0:0:0:
377,195,22606,6,0,L|377:90,1,100,2|10,0:0|0:0,0:0:0:0:
227,95,23406,1,2,0:0:0:0:
377,95,23806,1,2,0:0:0:0:
302,95,24006,1,0,0:0:0:0:
227,95,24206,1,2,0:0:0:0:
76,95,24606,5,10,0:0:0:0:
177,95,25006,1,2,0:0:0:0:
277,95,25406,1,2,0:0:0:0:
177,95,25806,2,0,L|65:95,1,100,2|10,0:0|0:0,0:0:0:0:
177,95,26606,2,0,P|235:168|181:244,1,200,2|6,0:0|0:0,0:0:0:0:
81,244,27806,6,0,L|195:244,1,100,10|2,0:0|0:0,0:0:0:0:
281,244,28606,2,0,L|350:244,2,50,2|0|2,0:0|0:0|0:0,0:0:0:0:
131,244,29406,1,10,0:0:0:0:
281,244,29806,6,0,L|396:244,1,100,2|2,0:0|0:0,0:0:0:0:
256,192,30606,12,2,32206,0:0:0:0:
172,255,33006,6,0,P|118:179|177:106,1,200,2|2,0:0|0:0,0:0:0:0:
311,105,35406,1,0,0:0:0:0:
256,192,36606,12,0,39806,0:0:0:0:
339,276,40206,6,0,L|456:276,1,100,6|0,0:0|0:0,0:0:0:0:
239,276,41406,1,2,0:0:0:0:
88,276,41806,1,2,0:0:0:0:
163,276,42006,1,2,0:0:0:0:
238,276,42206,1,0,0:0:0:0:
438,276,43006,5,2,0:0:0:0:
288,276,43406,2,0,L|225:276,2,50,2|2|0,0:0|0:0|0:0,0:0:0:0:
62,276,44606,1,2,0:0:0:0:
212,276,45006,2,0,P|265:200|207:127,1,200,2|0,0:0|0:0,0:0:0:0:
356,126,46206,1,2,0:0:0:0:
206,126,46606,6,0,L|146:126,2,50,2|0|0,0:0|0:0|0:0,0:0:0:0:
403,127,47806,1,0,0:0:0:0:
253,127,48206,1,2,0:0:0:0:
178,127,48406,1,0,0:0:0:0:
253,127,48606,1,0,0:0:0:0:
99,127,49406,6,0,L|215:127,1,100,2|2,0:0|0:0,0:0:0:0:
123,127,50006,1,0,0:0:0:0:
48,127,50206,1,0,0:0:0:0:
198,127,50606,2,0,L|312:127,1,100,2|2,0:0|0:0,0:0:0:0:
148,127,51406,5,2,0:0:0:0:
298,127,51806,1,0,0:0:0:0:
448,127,52206,2,0,P|506:199|453:276,1,200,2|2,0:0|0:0,0:0:0:0:
155,276,54606,6,0,L|36:276,1,100,0|0,0:0|0:0,0:0:0:0:
205,276,55406,2,0,L|316:276,1,100,0|0,0:0|0:0,0:0:0:0:
155,276,56206,2,0,L|155:170,1,100,2|2,0:0|0:0,0:0:0:0:
305,176,57006,5,2,0:0:0:0:
155,176,57406,1,2,0:0:0:0:
305,176,57806,2,0,L|423:176,1,100,2|2,0:0|0:0,0:0:0:0:
255,176,58606,2,0,L|205:176,2,50,2|0|10,0:0|0:0|0:0,0:0:0:0:
105,176,59406,6,0,L|-4:176,2,100,6|0|0,0:0|0:0|0:0,0:0:0:0:
305,176,60606,2,0,P|363:249|310:326,1,200,0|0,0:0|0:0,0:0:0:0:
61,330,62206,1,0,0:0:0:0:
211,330,62606,6,0,L|311:330,1,100,0|0,0:0|0:0,0:0:0:0:
160,330,63406,2,0,L|89:330,2,50,0|0|0,0:0|0:0|0:0,0:0:0:0:
235,330,64006,1,0,0:0:0:0:
86,331,64606,5,0,0:0:0:0:
235,330,65006,2,0,L|356:330,1,100,0|0,0:0|0:0,0:0:0:0:
186,331,65806,6,0,L|86:331,2,100,6|2|2,0:0|0:0|0:0,0:0:0:0:
336,331,67006,2,0,P|389:254|331:180,1,200,2|2,0:0|0:0,0:0:0:0:
180,180,68206,2,0,L|290:180,1,100,2|2,0:0|0:0,0:0:0:0:
130,180,69006,5,2,0:0:0:0:
279,180,69406,2,0,L|210:180,1,50,2|0,0:0|0:0,0:0:0:0:
379,180,70006,2,0,L|451:180,2,50,0|2|0,0:0|0:0|0:0,0:0:0:0:
304,180,70606,6,0,L|204:180,1,100,2|2,0:0|0:0,0:0:0:0:
54,180,71406,2,0,P|-4:253|47:331,1,200,2|6,0:0|0:0,0:0:0:0:
197,331,72606,6,0,L|319:331,2,100,2|2|2,0:0|0:0|0:0,0:0:0:0:
47,331,73806,1,2,0:0:0:0:
196,314,74206,2,0,L|196:214,1,100,2|2,0:0|0:0,0:0:0:0:
346,214,75006,1,2,0:0:0:0:
195,214,75406,6,0,L|79:214,1,100,2|2,0:0|0:0,0:0:0:0:
245,214,76206,1,2,0:0:0:0:
95,214,76606,1,2,0:0:0:0:
245,214,77006,6,0,L|359:214,1,100,2|2,0:0|0:0,0:0:0:0:
195,214,77806,2,0,L|95:214,1,100,2|2,0:0|0:0,0:0:0:0:
245,214,78606,6,0,L|368:214,1,100,6|2,0:0|0:0,0:0:0:0:
270,214,79206,1,0,0:0:0:0:
195,214,79406,1,2,0:0:0:0:
344,214,79806,2,0,L|344:111,1,100,2|2,0:0|0:0,0:0:0:0:
194,114,80606,1,2,0:0:0:0:
119,114,80806,1,0,0:0:0:0:
194,114,81006,1,2,0:0:0:0:
297,231,81806,5,2,0:0:0:0:
397,231,82206,2,0,L|505:231,2,100,10|2|10,0:0|0:0|0:0,0:0:0:0:
297,231,83406,5,2,0:0:0:0:
197,231,83806,1,10,0:0:0:0:
47,231,84206,2,0,L|-16:231,2,50,2|2|10,0:0|0:0|0:0,0:0:0:0:
197,231,85006,5,6,0:0:0:0:
347,231,85406,1,10,0:0:0:0:
297,231,85806,2,0,L|193:231,1,100,2|10,0:0|0:0,0:0:0:0:
97,231,86606,2,0,L|197:231,1,100,2|10,0:0|0:0,0:0:0:0:
97,231,87406,2,0,L|-16:231,1,100,2|10,0:0|0:0,0:0:0:0:
177,231,88206,5,2,0:0:0:0:
35,231,88606,1,10,0:0:0:0:
197,131,89006,1,2,0:0:0:0:
297,131,89406,2,0,L|186:131,1,100,10|2,0:0|0:0,0:0:0:0:
297,131,90206,5,10,0:0:0:0:
397,131,90606,2,0,P|455:204|402:281,1,200,2|6,0:0|0:0,0:0:0:0:
301,281,91806,6,0,L|183:281,2,100,10|2|10,0:0|0:0|0:0,0:0:0:0:
201,281,93006,2,0,L|90:281,1,100,2|10,0:0|0:0,0:0:0:0:
201,281,93806,2,0,L|314:281,1,100,2|10,0:0|0:0,0:0:0:0:
401,281,94606,5,2,0:0:0:0:
301,281,95006,1,10,0:0:0:0:
200,281,95406,1,2,0:0:0:0:
100,281,95806,2,0,L|209:281,2,100,10|2|10,0:0|0:0|0:0,0:0:0:0:
200,281,97006,2,0,P|253:204|195:130,1,200,2|6,0:0|0:0,0:0:0:0:
295,130,98206,6,0,L|366:130,2,50,10|0|2,0:0|0:0|0:0,0:0:0:0:
195,130,99006,2,0,L|89:130,2,100,10|2|0,0:0|0:0|0:0,0:0:0:0:
295,130,100206,2,0,L|512:130,1,200,2|2,0:0|0:0,0:0:0:0:
395,130,101406,5,10,0:0:0:0:
295,130,101806,2,0,L|188:130,2,100,2|10|2,0:0|0:0|0:0,0:0:0:0:
195,130,103006,2,0,L|76:130,1,100,10|2,0:0|0:0,0:0:0:0:
195,130,103806,2,0,L|295:130,1,100,10|6,0:0|0:0,0:0:0:0:
195,130,104606,5,10,0:0:0:0:
145,130,104806,1,2,0:0:0:0:
195,130,105006,1,2,0:0:0:0:
295,130,105406,2,0,L|295:240,1,100,10|2,0:0|0:0,0:0:0:0:
395,230,106206,1,0,0:0:0:0:
295,230,106606,2,0,P|242:152|299:79,1,200,2|2,0:0|0:0,0:0:0:0:
399,79,107806,6,0,L|291:79,1,100,10|2,0:0|0:0,0:0:0:0:
199,79,108606,2,0,L|310:79,2,100,10|2|10,0:0|0:0|0:0,0:0:0:0:
99,79,109806,2,0,P|41:152|94:229,1,200,2|6,0:0|0:0,0:0:0:0:
244,229,111006,6,0,L|311:229,2,50,10|2|2,0:0|0:0|0:0,0:0:0:0:
394,229,111806,1,10,0:0:0:0:
294,229,112206,2,0,L|194:229,2,100,2|10|2,0:0|0:0|0:0,0:0:0:0:
394,229,113406,2,0,L|285:229,1,100,0|2,0:0|0:0,0:0:0:0:
394,229,114206,6,0,L|457:229,2,50,10|2|2,0:0|0:0|0:0,0:0:0:0:
294,229,115006,1,0,0:0:0:0:
194,229,115406,1,2,0:0:0:0:
294,229,115806,2,0,L|414:229,2,100,10|2|10,0:0|0:0|0:0,0:0:0:0:
194,229,117006,5,6,0:0:0:0:
94,229,117406,2,0,L|29:229,2,50,10|0|2,0:0|0:0|0:0,0:0:0:0:
194,229,118206,2,0,L|304:229,1,100,10|2,0:0|0:0,0:0:0:0:
194,229,119006,5,10,0:0:0:0:
94,229,119406,2,0,P|40:152|98:78,1,200,2|2,0:0|0:0,0:0:0:0:
198,78,120606,5,10,0:0:0:0:
298,78,121006,1,2,0:0:0:0:
398,78,121406,2,0,L|289:78,1,100,10|2,0:0|0:0,0:0:0:0:
198,78,122206,1,10,0:0:0:0:
97,78,122606,6,0,L|0:78,2,75,2|10|2,0:0|0:0|0:0,0:0:0:0:
197,78,123406,1,6,0:0:0:0:
