osu file format v14

[General]
AudioFilename: audio.mp3
AudioLeadIn: 0
PreviewTime: 84806
Countdown: 0
SampleSet: Soft
StackLeniency: 0.7
Mode: 2
LetterboxInBreaks: 0
WidescreenStoryboard: 1

[Editor]
Bookmarks: 1806,14606,27406,40206,54606,59406,72206,85006,97806,110606,123406
DistanceSpacing: 1.7
BeatDivisor: 4
GridSize: 32
TimelineZoom: 1.4

[Metadata]
Title:The Commanders
TitleUnicode:The Commanders
Artist:USAO
ArtistUnicode:USAO
Creator:Bastian
Version:Advanced
Source:beatmania IIDX 24 SINOBUZ
Tags:HARDSTYLE Konami BEMANI original soundtrack ost seija
BeatmapID:1976035
BeatmapSetID:946357

[Difficulty]
HPDrainRate:4
CircleSize:3
OverallDifficulty:7
ApproachRate:7
SliderMultiplier:1.4
SliderTickRate:2

[Events]
//Background and Video events
0,0,"Konachan.com - 266398 blue_eyes brown_hair building city gun long_hair original rain sky tagme_(artist) water weapon.jpg",0,0
//Break Periods
//Storyboard Layer 0 (Background)
//Storyboard Layer 1 (Fail)
//Storyboard Layer 2 (Pass)
//Storyboard Layer 3 (Foreground)
//Storyboard Sound Samples

[TimingPoints]
1006,400,4,2,1,75,1,0
1806,400,4,2,1,75,1,0
67406,-100,4,2,3,75,0,0
67606,-100,4,2,2,75,0,0
69806,-100,4,2,3,75,0,0
70006,-100,4,2,2,75,0,0
70606,-100,4,2,3,75,0,0
70806,-100,4,2,2,75,0,0
77006,-100,4,2,3,75,0,0
77206,-100,4,2,2,75,0,0
85006,-100,4,2,2,85,0,1
123406,-100,4,2,2,85,0,0

[Colours]
Combo1 : 255,255,81
Combo2 : 192,192,192
Combo3 : 0,99,198
Combo4 : 129,65,65

[HitObjects]
126,284,1006,5,0,0:0:0:0:
7,284,1206,1,0,0:0:0:0:
126,284,1406,1,0,0:0:0:0:
261,282,1806,6,0,L|409:282,1,140,6|0,0:0|0:0,0:0:0:0:
219,282,2406,2,0,L|64:282,2,140,0|0|0,0:0|0:0|0:0,0:0:0:0:
317,282,3406,1,0,0:0:0:0:
121,282,3806,6,0,L|221:282,1,70,0|0,0:0|0:0,0:0:0:0:
289,282,4206,2,0,L|444:282,1,140,0|0,0:0|0:0,0:0:0:0:
331,282,4806,1,0,0:0:0:0:
149,286,5006,2,0,P|110:235|175:183,1,140,0|0,0:0|0:0,0:0:0:0:
249,179,5606,1,0,0:0:0:0:
347,179,5806,6,0,L|402:179,2,35,0|0|0,0:0|0:0|0:0,0:0:0:0:
249,179,6206,2,0,L|150:179,1,70,0|0,0:0|0:0,0:0:0:0:
361,179,6606,6,0,P|400:128|335:76,1,140,0|0,0:0|0:0,0:0:0:0:
261,76,7206,1,0,0:0:0:0:
163,76,7406,2,0,L|93:76,2,70,0|0|0,0:0|0:0|0:0,0:0:0:0:
261,76,8006,1,0,0:0:0:0:
442,77,8206,6,0,L|544:77,1,70,6|0,0:0|0:0,0:0:0:0:
414,77,8606,2,0,L|344:77,1,70,2|0,0:0|0:0,0:0:0:0:
246,77,9006,2,0,L|414:77,1,140,2|0,0:0|0:0,0:0:0:0:
81,278,9806,5,2,0:0:0:0:
179,278,10006,2,0,L|268:278,2,70,2|10|0,0:0|0:0|0:0,0:0:0:0:
277,278,10606,2,0,L|450:278,1,140,2|2,0:0|0:0,0:0:0:0:
221,278,11406,6,0,L|81:278,1,140,2|2,0:0|0:0,0:0:0:0:
179,278,12006,1,0,0:0:0:0:
277,278,12206,2,0,L|450:278,1,140,2|10,0:0|0:0,0:0:0:0:
220,278,13006,6,0,P|181:225|221:175,1,140,2|10,0:0|0:0,0:0:0:0:
320,175,13606,2,0,L|388:175,2,35,2|0|10,0:0|0:0|0:0,0:0:0:0:
222,175,14006,1,2,0:0:0:0:
124,175,14206,1,10,0:0:0:0:
422,170,14606,6,0,L|279:170,1,140,6|10,0:0|0:0,0:0:0:0:
184,170,15206,2,0,P|145:119|210:67,1,140,0|0,0:0|0:0,0:0:0:0:
283,67,15806,1,2,0:0:0:0:
185,67,16006,1,0,0:0:0:0:
367,67,16206,6,0,L|510:67,1,140,2|10,0:0|0:0,0:0:0:0:
409,67,16806,1,0,0:0:0:0:
311,67,17006,1,2,0:0:0:0:
213,67,17206,2,0,L|151:67,2,35,0|0|2,0:0|0:0|0:0,0:0:0:0:
311,67,17606,1,0,0:0:0:0:
129,67,17806,6,0,P|88:117|127:169,1,140,2|10,0:0|0:0,0:0:0:0:
225,169,18406,1,2,0:0:0:0:
323,169,18606,1,2,0:0:0:0:
225,169,18806,1,2,0:0:0:0:
370,170,19006,6,0,L|440:170,1,70,2|2,0:0|0:0,0:0:0:0:
342,170,19406,1,0,0:0:0:0:
70,169,19806,2,0,L|-12:169,2,70,10|0|2,0:0|0:0|0:0,0:0:0:0:
168,169,20406,1,0,0:0:0:0:
349,169,20606,2,0,L|447:169,1,70,2|0,0:0|0:0,0:0:0:0:
321,169,21006,1,6,0:0:0:0:
152,271,21406,6,0,L|248:271,1,70,10|0,0:0|0:0,0:0:0:0:
124,271,21806,2,0,L|54:271,2,70,2|0|2,0:0|0:0|0:0,0:0:0:0:
222,271,22406,1,0,0:0:0:0:
403,271,22606,6,0,P|443:219|403:168,1,140,2|10,0:0|0:0,0:0:0:0:
305,168,23206,1,0,0:0:0:0:
207,168,23406,2,0,L|51:168,1,140,2|2,0:0|0:0,0:0:0:0:
165,168,24006,1,0,0:0:0:0:
263,168,24206,1,2,0:0:0:0:
431,168,24606,5,10,0:0:0:0:
333,168,24806,2,0,L|245:168,1,70,0|2,0:0|0:0,0:0:0:0:
361,168,25206,2,0,L|431:168,2,70,0|2|0,0:0|0:0|0:0,0:0:0:0:
179,168,25806,6,0,P|138:116|178:65,1,140,2|10,0:0|0:0,0:0:0:0:
375,65,26606,2,0,L|213:65,1,140,2|2,0:0|0:0,0:0:0:0:
277,65,27106,1,2,0:0:0:0:
319,65,27206,1,2,0:0:0:0:
137,65,27406,6,0,P|98:117|139:167,1,140,6|10,0:0|0:0,0:0:0:0:
335,167,28206,1,2,0:0:0:0:
237,167,28406,1,0,0:0:0:0:
335,167,28606,2,0,L|418:167,1,70,2|0,0:0|0:0,0:0:0:0:
223,167,29006,6,0,L|60:167,1,140,2|10,0:0|0:0,0:0:0:0:
279,167,29806,2,0,P|319:116|281:64,1,140,2|2,0:0|0:0,0:0:0:0:
239,64,30306,1,0,0:0:0:0:
197,64,30406,1,0,0:0:0:0:
15,64,30606,6,0,L|176:64,1,140,2|10,0:0|0:0,0:0:0:0:
351,64,31406,2,0,P|389:116|348:166,1,140,2|2,0:0|0:0,0:0:0:0:
152,166,32206,6,0,P|54:250|162:307,1,280,2|2,0:0|0:0,0:0:0:0:
343,312,33406,1,10,0:0:0:0:
40,312,33806,1,2,0:0:0:0:
306,312,35406,1,0,0:0:0:0:
256,192,36606,12,0,39806,0:0:0:0:
139,297,40206,6,0,L|69:297,2,70,6|0|0,0:0|0:0|0:0,0:0:0:0:
335,297,41006,2,0,L|185:297,1,140,0|2,0:0|0:0,0:0:0:0:
391,297,41806,6,0,L|461:297,2,70,2|2|0,0:0|0:0|0:0,0:0:0:0:
195,297,42606,1,0,0:0:0:0:
391,297,43006,2,0,L|454:297,2,35,2|0|2,0:0|0:0|0:0,0:0:0:0:
209,297,43406,6,0,L|122:297,2,70,2|2|0,0:0|0:0|0:0,0:0:0:0:
405,297,44206,2,0,P|445:246|407:194,1,140,0|2,0:0|0:0,0:0:0:0:
307,193,44806,1,2,0:0:0:0:
124,193,45006,6,0,L|37:193,2,70,2|0|0,0:0|0:0|0:0,0:0:0:0:
320,193,45806,2,0,L|374:193,2,35,0|0|0,0:0|0:0|0:0,0:0:0:0:
222,193,46206,2,0,L|147:193,1,70,2|2,0:0|0:0,0:0:0:0:
334,193,46606,6,0,L|424:193,2,70,2|0|0,0:0|0:0|0:0,0:0:0:0:
138,193,47406,2,0,L|300:193,1,140,0|0,0:0|0:0,0:0:0:0:
82,193,48206,6,0,L|12:193,2,70,2|0|0,0:0|0:0|0:0,0:0:0:0:
278,193,49006,2,0,P|318:142|280:90,1,140,0|2,0:0|0:0,0:0:0:0:
96,89,49606,2,0,L|34:89,2,35,2|0|2,0:0|0:0|0:0,0:0:0:0:
194,89,50006,5,0,0:0:0:0:
292,89,50206,1,0,0:0:0:0:
96,89,50606,2,0,L|17:89,2,70,2|2|2,0:0|0:0|0:0,0:0:0:0:
194,89,51206,1,0,0:0:0:0:
334,89,51406,5,0,0:0:0:0:
364,116,51506,1,0,0:0:0:0:
363,157,51606,1,0,0:0:0:0:
342,178,51706,1,0,0:0:0:0:
302,189,51806,1,2,0:0:0:0:
192,190,52006,1,0,0:0:0:0:
75,193,52206,6,0,P|35:244|75:296,1,140,2|2,0:0|0:0,0:0:0:0:
263,308,52806,2,0,L|328:308,2,35,2|0|2,0:0|0:0|0:0,0:0:0:0:
188,192,54606,6,0,L|40:192,1,140,0|0,0:0|0:0,0:0:0:0:
244,192,55406,2,0,P|283:140|243:89,1,140,0|0,0:0|0:0,0:0:0:0:
47,89,56206,6,0,L|187:89,1,140,2|2,0:0|0:0,0:0:0:0:
383,89,57006,2,0,L|235:89,1,140,2|2,0:0|0:0,0:0:0:0:
46,89,57806,6,0,P|5:140|45:191,1,140,2|2,0:0|0:0,0:0:0:0:
143,191,58406,1,0,0:0:0:0:
325,191,58606,2,0,L|411:191,2,70,2|0|10,0:0|0:0|0:0,0:0:0:0:
143,191,59406,6,0,L|298:191,1,140,6|0,0:0|0:0,0:0:0:0:
87,188,60206,2,0,L|17:188,2,70,0|0|0,0:0|0:0|0:0,0:0:0:0:
269,188,60806,2,0,L|479:188,1,210,0|0,0:0|0:0,0:0:0:0:
381,188,61606,1,0,0:0:0:0:
185,188,62006,6,0,L|284:188,1,70,0|0,0:0|0:0,0:0:0:0:
451,188,62606,2,0,P|490:136|450:85,1,140,0|0,0:0|0:0,0:0:0:0:
352,85,63206,1,0,0:0:0:0:
254,85,63406,2,0,L|174:85,1,70,0|0,0:0|0:0,0:0:0:0:
86,85,63806,1,0,0:0:0:0:
268,85,64006,2,0,L|417:85,1,140,0|0,0:0|0:0,0:0:0:0:
310,85,64606,6,0,L|233:85,1,70,0|0,0:0|0:0,0:0:0:0:
44,85,65206,2,0,L|0:85,2,35,0|0|0,0:0|0:0|0:0,0:0:0:0:
142,85,65606,1,0,0:0:0:0:
240,85,65806,6,0,P|280:136|240:187,1,140,6|2,0:0|0:0,0:0:0:0:
141,187,66406,1,0,0:0:0:0:
239,187,66606,2,0,L|329:187,2,70,2|0|2,0:0|0:0|0:0,0:0:0:0:
337,187,67206,6,0,L|497:187,1,140,0|0,0:0|0:0,0:0:0:0:
379,187,67806,1,2,0:0:0:0:
281,187,68006,1,0,0:0:0:0:
84,187,68406,2,0,L|22:187,2,35,0|0|2,0:0|0:0|0:0,0:0:0:0:
182,187,68806,1,0,0:0:0:0:
364,187,69006,6,0,P|404:136|364:84,1,140,2|2,0:0|0:0,0:0:0:0:
266,84,69606,2,0,L|113:84,1,140,0|0,0:0|0:0,0:0:0:0:
224,84,70206,1,2,0:0:0:0:
406,84,70406,2,0,P|445:135|405:186,1,140,0|0,0:0|0:0,0:0:0:0:
307,186,71006,6,0,L|241:186,2,35,2|0|0,0:0|0:0|0:0,0:0:0:0:
209,186,71406,2,0,L|76:186,2,105,2|0|0,0:0|0:0|0:0,0:0:0:0:
391,186,72206,6,0,L|248:186,1,140,6|2,0:0|0:0,0:0:0:0:
55,186,73006,2,0,P|16:135|81:83,1,140,2|2,0:0|0:0,0:0:0:0:
252,83,73806,6,0,L|392:83,1,140,2|2,0:0|0:0,0:0:0:0:
196,83,74606,2,0,L|196:227,1,140,2|2,0:0|0:0,0:0:0:0:
392,223,75406,6,0,L|252:222,1,140,2|2,0:0|0:0,0:0:0:0:
448,222,76206,2,0,P|486:169|446:119,1,140,2|2,0:0|0:0,0:0:0:0:
346,118,76806,6,0,P|305:168|344:220,1,140
161,220,77406,2,0,L|114:220,2,35,2|0|0,0:0|0:0|0:0,0:0:0:0:
259,220,77806,2,0,L|344:220,1,70,2|0,0:0|0:0,0:0:0:0:
287,220,78106,1,0,0:0:0:0:
245,220,78206,1,2,0:0:0:0:
147,220,78406,1,0,0:0:0:0:
329,220,78606,5,6,0:0:0:0:
135,221,79006,2,0,L|42:221,2,70,2|0|2,0:0|0:0|0:0,0:0:0:0:
331,221,79806,2,0,L|188:221,1,140,2|2,0:0|0:0,0:0:0:0:
387,221,80606,6,0,L|457:221,2,70,2|0|2,0:0|0:0|0:0,0:0:0:0:
191,221,81406,2,0,L|331:221,1,140,2|2,0:0|0:0,0:0:0:0:
135,221,82206,6,0,L|-8:221,2,140,10|2|10,0:0|0:0|0:0,0:0:0:0:
331,221,83406,2,0,L|168:221,1,140,2|10,0:0|0:0,0:0:0:0:
289,221,84006,1,2,0:0:0:0:
107,221,84206,2,0,L|26:221,2,70,2|2|10,0:0|0:0|0:0,0:0:0:0:
402,221,85006,6,0,L|244:221,1,140,6|10,0:0|0:0,0:0:0:0:
66,221,85806,1,2,0:0:0:0:
164,221,86006,2,0,L|249:221,1,70,0|10,0:0|0:0,0:0:0:0:
96,222,86406,6,0,P|57:169|99:118,1,140
237,117,87006,1,10,0:0:0:0:
335,117,87206,1,0,0:0:0:0:
139,117,87606,2,0,L|308:117,1,140,0|0,0:0|0:0,0:0:0:0:
97,117,88206,6,0,L|10:117,2,70,2|0|10,0:0|0:0|0:0,0:0:0:0:
293,117,89006,2,0,L|375:117,2,70,2|0|10,0:0|0:0|0:0,0:0:0:0:
391,117,89606,2,0,P|429:64|387:13,1,140,0|0,0:0|0:0,0:0:0:0:
205,13,90206,5,10,0:0:0:0:
163,13,90306,1,0,0:0:0:0:
121,13,90406,2,0,P|79:63|117:116,1,140,0|0,0:0|0:0,0:0:0:0:
159,116,90906,1,0,0:0:0:0:
201,116,91006,1,10,0:0:0:0:
299,116,91206,1,0,0:0:0:0:
110,116,91406,6,0,P|68:166|106:219,1,140,6|10,0:0|0:0,0:0:0:0:
301,218,92206,1,2,0:0:0:0:
203,218,92406,1,0,0:0:0:0:
301,218,92606,1,10,0:0:0:0:
469,218,92806,6,0,P|506:164|464:115,1,140,0|0,0:0|0:0,0:0:0:0:
366,115,93406,2,0,L|452:115,1,70,10|0,0:0|0:0,0:0:0:0:
338,115,93806,2,0,L|268:115,2,70,2|0|10,0:0|0:0|0:0,0:0:0:0:
133,218,94606,6,0,L|278:218,1,140,2|10,0:0|0:0,0:0:0:0:
175,222,95206,2,0,P|137:168|179:119,1,140,0|0,0:0|0:0,0:0:0:0:
277,119,95806,1,10,0:0:0:0:
375,119,96006,6,0,P|416:168|379:221,1,140,0|0,0:0|0:0,0:0:0:0:
195,221,96606,1,10,0:0:0:0:
393,221,97006,1,2,0:0:0:0:
295,221,97206,2,0,L|231:221,2,35,2|2|10,0:0|0:0|0:0,0:0:0:0:
393,221,97606,1,2,0:0:0:0:
210,221,97806,6,0,L|64:221,1,140,6|10,0:0|0:0,0:0:0:0:
168,221,98406,1,0,0:0:0:0:
266,221,98606,6,0,L|120:221,1,140,2|10,0:0|0:0,0:0:0:0:
266,221,99206,1,0,0:0:0:0:
420,221,99606,2,0,L|519:221,2,70,0|0|2,0:0|0:0|0:0,0:0:0:0:
322,221,100206,2,0,P|258:135|336:101,1,210,2|2,0:0|0:0,0:0:0:0:
141,98,101006,5,2,0:0:0:0:
337,98,101406,2,0,L|417:98,2,70,10|0|2,0:0|0:0|0:0,0:0:0:0:
239,98,102006,2,0,L|154:98,1,70,0|10,0:0|0:0,0:0:0:0:
267,98,102406,6,0,P|308:147|271:200,1,140,0|0,0:0|0:0,0:0:0:0:
171,200,103006,5,10,0:0:0:0:
129,200,103106,1,0,0:0:0:0:
87,200,103206,2,0,P|45:250|83:303,1,140,0|0,0:0|0:0,0:0:0:0:
125,303,103706,1,0,0:0:0:0:
167,303,103806,1,10,0:0:0:0:
265,303,104006,1,0,0:0:0:0:
447,303,104206,5,6,0:0:0:0:
250,303,104606,1,10,0:0:0:0:
152,303,104806,2,0,L|64:303,1,70,2|2,0:0|0:0,0:0:0:0:
180,303,105206,2,0,L|250:303,1,70,0|10,0:0|0:0,0:0:0:0:
68,303,105606,6,0,P|29:250|70:200,1,140,0|0,0:0|0:0,0:0:0:0:
168,200,106206,1,0,0:0:0:0:
266,200,106406,1,2,0:0:0:0:
168,200,106606,1,2,0:0:0:0:
364,200,107006,2,0,L|423:200,2,35,2|2|2,0:0|0:0|0:0,0:0:0:0:
182,200,107406,6,0,L|335:200,1,140,2|10,0:0|0:0,0:0:0:0:
139,200,108006,2,0,P|100:147|141:97,1,140,0|0,0:0|0:0,0:0:0:0:
239,97,108606,1,10,0:0:0:0:
393,97,108806,6,0,P|434:147|395:199,1,140
239,199,109406,1,10,0:0:0:0:
437,199,109806,2,0,L|494:199,2,35,2|2|2,0:0|0:0|0:0,0:0:0:0:
339,199,110206,2,0,L|239:199,1,70,10|0,0:0|0:0,0:0:0:0:
171,199,110606,1,6,0:0:0:0:
395,199,111006,6,0,L|472:199,2,70,10|2|2,0:0|0:0|0:0,0:0:0:0:
297,199,111606,1,0,0:0:0:0:
199,199,111806,1,10,0:0:0:0:
3,199,112206,5,2,0:0:0:0:
45,199,112306,1,2,0:0:0:0:
87,199,112406,1,0,0:0:0:0:
185,199,112606,2,0,L|103:199,1,70,10|0,0:0|0:0,0:0:0:0:
297,199,113006,2,0,L|429:199,2,105,2|2|2,0:0|0:0|0:0,0:0:0:0:
395,199,113806,1,2,0:0:0:0:
199,199,114206,6,0,L|110:199,2,70,10|2|2,0:0|0:0|0:0,0:0:0:0:
297,199,114806,1,0,0:0:0:0:
199,199,115006,1,0,0:0:0:0:
395,199,115406,6,0,L|313:199,1,70,2|0,0:0|0:0,0:0:0:0:
367,199,115706,1,0,0:0:0:0:
409,199,115806,1,10,0:0:0:0:
227,199,116006,2,0,P|188:146|229:96,1,140,0|0,0:0|0:0,0:0:0:0:
270,96,116506,1,2,0:0:0:0:
312,96,116606,1,10,0:0:0:0:
445,96,116806,1,0,0:0:0:0:
248,96,117006,1,0,0:0:0:0:
116,96,117406,6,0,L|31:96,2,70,10|0|2,0:0|0:0|0:0,0:0:0:0:
214,96,118006,1,0,0:0:0:0:
312,96,118206,1,10,0:0:0:0:
116,96,118606,6,0,L|57:96,2,35,2|0|0,0:0|0:0|0:0,0:0:0:0:
214,96,119006,1,10,0:0:0:0:
312,96,119206,1,2,0:0:0:0:
410,96,119406,2,0,P|480:156|411:219,1,210,2|2,0:0|0:0,0:0:0:0:
229,219,120206,6,0,L|76:219,1,140,2|10,0:0|0:0,0:0:0:0:
271,219,120806,2,0,P|310:166|269:116,1,140,2|0,0:0|0:0,0:0:0:0:
170,116,121406,1,10,0:0:0:0:
72,112,121606,2,0,P|31:162|70:214,1,140,0|0,0:0|0:0,0:0:0:0:
168,214,122206,1,10,0:0:0:0:
364,214,122606,6,0,L|483:214,2,105,2|10|2,0:0|0:0|0:0,0:0:0:0:
182,214,123406,1,6,0:0:0:0:
