osu file format v14

[General]
AudioFilename: audio.mp3
AudioLeadIn: 0
PreviewTime: 159289
Countdown: 0
SampleSet: Normal
StackLeniency: 0.7
Mode: 1
LetterboxInBreaks: 0
WidescreenStoryboard: 0

[Editor]
Bookmarks: 70,9435,18801,28167,37533,46899,56265,65630,74996,84362,93728,103094,112460,121826,131191,140557,149923,159289,168655,178021,187387,196752,206118,215484,224850,236557,245923,255289,264655,274021,283387,292752,302118,311484
DistanceSpacing: 1.8
BeatDivisor: 1
GridSize: 32
TimelineZoom: 4.199998

[Metadata]
Title:TAPIOCA
TitleUnicode:TAPIOCA
Artist:USAO
ArtistUnicode:USAO
Creator:doulph
Version:TO THE DARK SIDE
Source:
Tags:electronic instrumental hardcore syndrome 13 tano*c game super tanoc tcdr-0016 hardstyle hardtek turkish featured artist fa
BeatmapID:3536338
BeatmapSetID:1730359

[Difficulty]
HPDrainRate:5
CircleSize:5
OverallDifficulty:7
ApproachRate:5
SliderMultiplier:1.4
SliderTickRate:1

[Events]
//Background and Video events
0,0,"bg.jpg",0,0
//Break Periods
//Storyboard Layer 0 (Background)
//Storyboard Layer 1 (Fail)
//Storyboard Layer 2 (Pass)
//Storyboard Layer 3 (Foreground)
//Storyboard Layer 4 (Overlay)
//Storyboard Sound Samples

[TimingPoints]
70,292.682926829268,4,1,0,70,1,0
70,-125,4,1,0,70,0,0
216,-146.666705777788,4,1,0,70,0,0
289,-147.300135810725,4,1,0,70,0,0
362,-147.939279801998,4,1,0,70,0,0
655,-150.551847798104,4,1,0,70,0,0
948,-153.258349131715,4,1,0,70,0,0
1240,-156.06418607845,4,1,0,70,0,0
1533,-158.974424194636,4,1,0,70,0,0
1826,-161.995263258502,4,1,0,70,0,0
2118,-165.133130329672,4,1,0,70,0,0
2411,-168.394960275629,4,1,0,70,0,0
2557,-170.074679791897,4,1,0,70,0,0
2704,-171.788542047822,4,1,0,70,0,0
2996,-175.321407971163,4,1,0,70,0,0
3289,-179.002633128733,4,1,0,70,0,0
3509,-181.866789851106,4,1,0,70,0,0
3582,-182.841763252828,4,1,0,70,0,0
3874,-186.849180946615,4,1,0,70,0,0
4167,-191.036564398426,4,1,0,70,0,0
4313,-193.201248080063,4,1,0,70,0,0
4460,-195.415551169562,4,1,0,70,0,0
4606,-197.681199529519,4,1,0,70,0,0
4752,-200,4,1,0,70,0,0
9435,-181.818181818182,4,1,0,80,0,0
9582,-195.121951219512,4,1,0,80,0,0
9655,-192.771084337349,4,1,0,80,0,0
9728,-190.47619047619,4,1,0,80,0,0
9874,-186.046511627907,4,1,0,80,0,0
10021,-181.818181818182,4,1,0,80,0,0
10167,-177.777777777778,4,1,0,80,0,0
10313,-173.913043478261,4,1,0,80,0,0
10460,-170.212765957447,4,1,0,80,0,0
10606,-166.666666666667,4,1,0,80,0,0
10752,-163.265306122449,4,1,0,80,0,0
10899,-160,4,1,0,80,0,0
11045,-156.862745098039,4,1,0,80,0,0
11191,-153.846153846154,4,1,0,80,0,0
11338,-150.943396226415,4,1,0,80,0,0
11484,-148.148148148148,4,1,0,80,0,0
11557,-146.788990825688,4,1,0,80,0,0
11630,-145.454545454545,4,1,0,80,0,0
11704,-144.144144144144,4,1,0,80,0,0
11777,-142.857142857143,4,1,0,80,0,0
11923,-140.350877192982,4,1,0,80,0,0
12069,-137.931034482759,4,1,0,80,0,0
12216,-135.593220338983,4,1,0,80,0,0
12362,-133.333333333333,4,1,0,80,0,0
12509,-131.147540983607,4,1,0,80,0,0
12655,-129.032258064516,4,1,0,80,0,0
12801,-126.984126984127,4,1,0,80,0,0
12874,-125.984251968504,4,1,0,80,0,0
12948,-125,4,1,0,80,0,0
13094,-123.076923076923,4,1,0,80,0,0
13240,-121.212121212121,4,1,0,80,0,0
13387,-119.402985074627,4,1,0,80,0,0
13533,-117.647058823529,4,1,0,80,0,0
13679,-115.942028985507,4,1,0,80,0,0
13826,-114.285714285714,4,1,0,80,0,0
13899,-113.475177304965,4,1,0,80,0,0
13972,-112.676056338028,4,1,0,80,0,0
14045,-111.888111888112,4,1,0,80,0,0
14118,-111.111111111111,4,1,0,80,0,0
14265,-109.58904109589,4,1,0,80,0,0
14338,-108.843537414966,4,1,0,80,0,0
14411,-108.108108108108,4,1,0,80,0,0
14557,-106.666666666667,4,1,0,80,0,0
14704,-105.263157894737,4,1,0,80,0,0
14850,-103.896103896104,4,1,0,80,0,0
14923,-103.225806451613,4,1,0,80,0,0
14996,-102.564102564103,4,1,0,80,0,0
15143,-101.26582278481,4,1,0,60,0,0
15289,-100,4,1,0,80,0,0
15435,-98.7654320987654,4,1,0,80,0,0
15509,-98.159509202454,4,1,0,80,0,0
15582,-97.5609756097561,4,1,0,80,0,0
15728,-96.3855421686747,4,1,0,80,0,0
15874,-95.2380952380952,4,1,0,80,0,0
15948,-94.6745562130178,4,1,0,80,0,0
16021,-94.1176470588235,4,1,0,80,0,0
16094,-93.5672514619883,4,1,0,80,0,0
16167,-93.0232558139535,4,1,0,80,0,0
16313,-91.9540229885058,4,1,0,80,0,0
16460,-90.9090909090909,4,1,0,80,0,0
16606,-89.8876404494382,4,1,0,80,0,0
16752,-83.3333333333333,4,1,0,80,0,0
16899,-87.9120879120879,4,1,0,80,0,0
17045,-76.9230769230769,4,1,0,80,0,0
17191,-86.0215053763441,4,1,0,80,0,0
17338,-85.1063829787234,4,1,0,80,0,0
17411,-84.6560846560847,4,1,0,80,0,0
17484,-84.2105263157895,4,1,0,80,0,0
17533,-83.91606044306,4,1,0,80,0,0
17582,-83.6237166895378,4,1,0,80,0,0
17630,-72.7272727272727,4,1,0,80,0,0
18801,-200,4,1,0,90,0,0
22899,-133.333333333333,4,1,0,90,0,0
23191,-100,4,1,0,90,0,0
23484,-200,4,1,0,90,0,0
27874,-100,4,1,0,90,0,0
28167,-80,4,1,0,90,0,1
28313,-100,4,1,0,90,0,1
29338,-86.9565217391304,4,1,0,90,0,1
30655,-100,4,1,0,90,0,1
32265,-95.2380952380952,4,1,0,90,0,0
32557,-86.9565217391304,4,1,0,90,0,0
32850,-80,4,1,0,90,0,1
32996,-100,4,1,0,90,0,1
33435,-86.9565217391304,4,1,0,90,0,1
35777,-100,4,1,0,90,0,1
36509,-98.1688563230069,4,1,0,90,0,1
36582,-97.2782517930814,4,1,0,90,0,1
36655,-96.4035684744906,4,1,0,90,0,1
36801,-94.7006465213138,4,1,0,90,0,1
36948,-93.0569294377221,4,1,0,90,0,1
37021,-92.2561991553022,4,1,0,90,0,1
37094,-91.4692151209589,4,1,0,90,0,1
37143,-90.9519209955233,4,1,0,90,0,1
37191,-90.4405267618041,4,1,0,90,0,1
37240,-89.9347703110934,4,1,0,90,0,1
37533,-80,4,1,0,90,0,0
37679,-133.333333333333,4,1,0,80,0,0
42216,-121.212121212121,4,1,0,80,0,0
42362,-130.882514619577,4,1,0,80,0,0
42435,-129.690584204206,4,1,0,80,0,0
42509,-128.520167384666,4,1,0,80,0,0
42655,-126.241426629114,4,1,0,80,0,0
42801,-124.042238863178,4,1,0,80,0,0
42948,-121.918361027089,4,1,0,80,0,0
43021,-120.883464713512,4,1,0,80,0,0
43094,-119.865989823377,4,1,0,80,0,0
43240,-117.881573813316,4,1,0,80,0,0
43387,-115.961658437254,4,1,0,80,0,0
43533,-114.103409638087,4,1,0,80,0,0
43606,-113.196441103892,4,1,0,80,0,0
43679,-112.303777225243,4,1,0,80,0,0
43826,-110.560030779913,4,1,0,80,0,0
43972,-108.869488346066,4,1,0,80,0,0
44045,-108.043515606346,4,1,0,80,0,0
44118,-107.229981502828,4,1,0,80,0,0
44191,-106.428607158175,4,1,0,80,0,0
44265,-105.639121969874,4,1,0,80,0,0
44411,-104.094776211845,4,1,0,80,0,0
44557,-102.594933656986,4,1,0,80,0,0
44704,-101.137595676166,4,1,0,80,0,0
44777,-100.424393486876,4,1,0,80,0,0
44850,-99.721179581889,4,1,0,80,0,0
44996,-98.3438889107431,4,1,0,80,0,0
45143,-97.0041246153787,4,1,0,80,0,0
45216,-96.3478388216274,4,1,0,80,0,0
45289,-95.7003736142586,4,1,0,80,0,0
45362,-95.0614619882485,4,1,0,80,0,0
45435,-94.4311139188629,4,1,0,80,0,0
45582,-93.19516838969,4,1,0,80,0,0
45728,-91.9911578099113,4,1,0,80,0,0
45801,-91.4007438192532,4,1,0,80,0,0
45874,-90.8178602403949,4,1,0,80,0,0
45948,-90.2423639167713,4,1,0,80,0,0
46021,-89.6740348831996,4,1,0,80,0,0
46094,-89.112898913892,4,1,0,80,0,0
46167,-88.5587418990891,4,1,0,80,0,0
46240,-88.0114344455632,4,1,0,80,0,0
46313,-87.4708503391245,4,1,0,80,0,0
46460,-86.4093626272594,4,1,0,80,0,0
46606,-85.3733290305175,4,1,0,80,0,0
46752,-84.3617736556741,4,1,0,80,0,0
46801,-84.0299415487727,4,1,0,80,0,0
46850,-83.7007096983175,4,1,0,80,0,0
46899,-72.7272727272727,4,1,0,80,0,0
47338,-100,4,1,0,80,0,0
47484,-101.751861804691,4,1,0,80,0,0
47777,-105.446301470976,4,1,0,80,0,0
48069,-109.419126682182,4,1,0,80,0,0
48216,-111.520017843203,4,1,0,80,0,0
48362,-113.703034961409,4,1,0,80,0,0
48655,-118.336193124667,4,1,0,80,0,0
49240,-128.835430774146,4,1,0,80,0,0
49679,-138.019747865525,4,1,0,80,0,0
49826,-141.379324970275,4,1,0,80,0,0
50118,-148.61402559728,4,1,0,80,0,0
50411,-156.629091347652,4,1,0,80,0,0
50557,-160.969940473316,4,1,0,80,0,0
50704,-165.558254155098,4,1,0,80,0,0
50996,-175.566729402511,4,1,0,80,0,0
51289,-186.863147037004,4,1,0,80,0,0
51582,-199.713610682282,4,1,0,80,0,0
55972,-100,4,1,0,80,0,0
56265,-80,4,1,0,80,0,0
56557,-133.333333333333,4,1,0,80,0,0
56704,-131.708576335657,4,1,0,80,0,0
56777,-130.910956985278,4,1,0,80,0,0
56850,-130.122940153857,4,1,0,80,0,0
57069,-127.814801465269,4,1,0,80,0,0
57143,-127.063511425551,4,1,0,80,0,0
57289,-125.586962063946,4,1,0,80,0,0
57435,-124.144489288193,4,1,0,80,0,0
57728,-121.356719582242,4,1,0,80,0,0
57874,-120.009264715236,4,1,0,80,0,0
58021,-118.691403537716,4,1,0,80,0,0
58167,-117.402171705372,4,1,0,80,0,0
58240,-116.768001830922,4,1,0,80,0,0
58313,-116.140646322697,4,1,0,80,0,0
58460,-114.905811706144,4,1,0,80,0,0
58606,-113.697088217571,4,1,0,80,0,0
58826,-111.930943085354,4,1,0,80,0,0
58899,-111.354358520947,4,1,0,80,0,0
59045,-110.218828462029,4,1,0,80,0,0
59118,-109.659704006527,4,1,0,80,0,0
59191,-109.106223637209,4,1,0,80,0,0
59338,-108.015856727768,4,1,0,80,0,0
59484,-106.947067618353,4,1,0,80,0,0
59630,-105.899109917981,4,1,0,80,0,0
59923,-103.863838662068,4,1,0,80,0,0
60069,-102.875260660192,4,1,0,80,0,0
60216,-101.905323839833,4,1,0,80,0,0
60362,-100.953505862875,4,1,0,80,0,0
60435,-100.484233521339,4,1,0,80,0,0
60509,-100.019303725619,4,1,0,80,0,0
60582,-99.5586564758426,4,1,0,80,0,0
60655,-99.1022328724089,4,1,0,80,0,0
60801,-98.2018263575666,4,1,0,80,0,0
60948,-97.3175393454812,4,1,0,80,0,0
61094,-96.449128871468,4,1,0,80,0,0
61167,-96.0207097466782,4,1,0,80,0,0
61240,-95.5960797959597,4,1,0,80,0,0
61387,-94.7579880983967,4,1,0,80,0,0
61460,-94.344428867131,4,1,0,80,0,0
61533,-93.9344638032937,4,1,0,80,0,0
61679,-93.1251303751825,4,1,0,80,0,0
61826,-92.329624144566,4,1,0,80,0,0
61899,-91.9369459649794,4,1,0,80,0,0
61972,-91.5475937630455,4,1,0,80,0,0
62045,-91.161442356341,4,1,0,80,0,0
62118,-90.7786172782573,4,1,0,80,0,0
62265,-90.0225326399198,4,1,0,80,0,0
62338,-89.6491937399761,4,1,0,80,0,0
62411,-89.2789386519773,4,1,0,80,0,0
62557,-88.547528328568,4,1,0,80,0,0
62630,-88.1862988474933,4,1,0,80,0,0
62704,-87.8280046619105,4,1,0,80,0,0
62777,-87.4726101389502,4,1,0,80,0,0
62850,-87.1200802201699,4,1,0,80,0,0
62923,-86.7703804100248,4,1,0,80,0,0
62996,-86.4234767646162,4,1,0,80,0,0
63143,-85.737924885004,4,1,0,80,0,0
63289,-85.0630912948134,4,1,0,80,0,0
63362,-84.7296784339244,4,1,0,80,0,0
63435,-84.3988690551547,4,1,0,80,0,0
63509,-84.0706327828388,4,1,0,80,0,0
63582,-83.7449397120179,4,1,0,80,0,0
63655,-83.4217603993567,4,1,0,80,0,0
63728,-83.1010658542706,4,1,0,80,0,0
63801,-82.7828275302571,4,1,0,80,0,0
63874,-82.4670173164243,4,1,0,80,0,0
63948,-82.1536075292138,4,1,0,80,0,0
64021,-81.8425709043113,4,1,0,80,0,0
64094,-81.5338805887398,4,1,0,80,0,0
64167,-81.2275101331319,4,1,0,80,0,0
64240,-80.9234334841746,4,1,0,80,0,0
64313,-80.6216249772244,4,1,0,80,0,0
64387,-80.3220593290859,4,1,0,80,0,0
64460,-80.0247116309516,4,1,0,80,0,0
65338,-72.7272727272727,4,1,0,80,0,0
65630,-66.6666666666667,4,1,0,90,0,1
65777,-100,4,1,0,90,0,1
69728,-80,4,1,0,90,0,0
70021,-72.7272727272727,4,1,0,90,0,0
70313,-66.6666666666667,4,1,0,90,0,1
70460,-100,4,1,0,90,0,1
74704,-80,4,1,0,90,0,0
74996,-66.6666666666667,4,1,0,90,0,1
75143,-100,4,1,0,90,0,1
76167,-86.9565217391304,4,1,0,90,0,1
77484,-100,4,1,0,90,0,1
79094,-80,4,1,0,90,0,0
79387,-72.7272727272727,4,1,0,90,0,0
79679,-66.6666666666667,4,1,0,90,0,1
79826,-100,4,1,0,90,0,1
80265,-86.9565217391304,4,1,0,90,0,1
82606,-100,4,1,0,90,0,1
84069,-80,4,1,0,90,0,0
84362,-66.6666666666667,4,1,0,90,0,1
84509,-100,4,1,0,90,0,1
85240,-95.2380952380952,4,1,0,90,0,1
85277,-92.0187534219474,4,1,0,90,0,1
85387,-83.5464463936759,4,1,0,90,0,1
85423,-81.058757061231,4,1,0,90,0,1
85533,-74.0740740740741,4,1,0,90,0,1
85569,-74.9414519906323,4,1,0,90,0,1
85679,-77.6699029126214,4,1,0,90,0,1
85716,-78.6240786240786,4,1,0,90,0,1
85826,-81.6326530612245,4,1,0,90,0,1
85862,-82.687338501292,4,1,0,90,0,1
85972,-86.0215053763441,4,1,0,90,0,1
86009,-87.1934604904632,4,1,0,90,0,1
86118,-90.9090909090909,4,1,0,90,0,1
86265,-80,4,1,0,90,0,1
86338,-83.3333333333333,4,1,0,90,0,1
86411,-86.9565217391304,4,1,0,90,0,1
86484,-90.9090909090909,4,1,0,90,0,1
86557,-95.2380952380952,4,1,0,90,0,1
86704,-99.8706674856061,4,1,0,90,0,1
87582,-95.2380952380952,4,1,0,90,0,1
87618,-93.0232558139535,4,1,0,90,0,1
87728,-86.9565217391304,4,1,0,90,0,1
87765,-85.1063829787234,4,1,0,90,0,1
87874,-80,4,1,0,90,0,1
87911,-80.5982323195688,4,1,0,90,0,1
88021,-82.4479114707306,4,1,0,90,0,1
88057,-83.0835288565712,4,1,0,90,0,1
88167,-85.0504306528556,4,1,0,90,0,1
88204,-85.7268998152585,4,1,0,90,0,1
88313,-87.8225282349428,4,1,0,90,0,1
88350,-88.5440785704736,4,1,0,90,0,1
88460,-83.3333333333333,4,1,0,90,0,1
88533,-85.1063829787234,4,1,0,90,0,1
88606,-86.9565217391304,4,1,0,90,0,1
88679,-88.8888888888889,4,1,0,90,0,1
88752,-90.9090909090909,4,1,0,90,0,1
88899,-95.2380952380952,4,1,0,90,0,1
89045,-80,4,1,0,90,0,1
89191,-99.8706674856061,4,1,0,90,0,1
89923,-95.2380952380952,4,1,0,90,0,1
89960,-92.0187534219474,4,1,0,90,0,1
90069,-83.5464463936759,4,1,0,90,0,1
90106,-81.058757061231,4,1,0,90,0,1
90216,-74.0740740740741,4,1,0,90,0,1
90252,-74.9414519906323,4,1,0,90,0,1
90362,-77.6699029126214,4,1,0,90,0,1
90399,-78.6240786240786,4,1,0,90,0,1
90509,-81.6326530612245,4,1,0,90,0,1
90545,-82.687338501292,4,1,0,90,0,1
90655,-86.0215053763441,4,1,0,90,0,1
90691,-87.1934604904632,4,1,0,90,0,1
90801,-90.9090909090909,4,1,0,90,0,1
90948,-80,4,1,0,90,0,1
91021,-83.3333333333333,4,1,0,90,0,1
91094,-86.9565217391304,4,1,0,90,0,1
91167,-90.9090909090909,4,1,0,90,0,1
91240,-95.2380952380952,4,1,0,90,0,1
91387,-99.8706674856061,4,1,0,90,0,1
92265,-95.2380952380952,4,1,0,90,0,1
92301,-93.0232558139535,4,1,0,90,0,1
92411,-86.9565217391304,4,1,0,90,0,1
92448,-85.1063829787234,4,1,0,90,0,1
92557,-80,4,1,0,90,0,1
92594,-80.5982323195688,4,1,0,90,0,1
92704,-82.4479114707306,4,1,0,90,0,1
92740,-83.0835288565712,4,1,0,90,0,1
92850,-85.0504306528556,4,1,0,90,0,1
92887,-85.7268998152585,4,1,0,90,0,1
92996,-87.8225282349428,4,1,0,90,0,1
93033,-88.5440785704736,4,1,0,90,0,1
93143,-80,4,1,0,90,0,1
93216,-82.0512820512821,4,1,0,90,0,1
93289,-84.2105263157895,4,1,0,90,0,1
93362,-86.4864864864865,4,1,0,90,0,1
93435,-88.8888888888889,4,1,0,90,0,1
93509,-91.4285714285714,4,1,0,90,0,1
93582,-94.1176470588235,4,1,0,90,0,1
93655,-96.969696969697,4,1,0,90,0,1
93728,-100,4,1,0,80,0,0
93874,-111.111111111111,4,1,0,80,0,0
94021,-125,4,1,0,80,0,0
94313,-142.857142857143,4,1,0,80,0,0
94606,-166.666666666667,4,1,0,80,0,0
94899,-173.913043478261,4,1,0,80,0,0
96362,-200,4,1,0,80,0,0
98996,-173.913043478261,4,1,0,80,0,0
101338,-200,4,1,0,80,0,0
101923,-100,4,1,0,80,0,0
102216,-111.111111111111,4,1,0,80,0,0
102509,-125,4,1,0,80,0,0
102801,-142.857142857143,4,1,0,80,0,0
103094,-166.666666666667,4,1,0,80,0,0
103387,-80,4,1,0,90,0,1
103533,-100,4,1,0,90,0,1
103606,-99.7647547083976,4,1,0,90,0,1
103679,-99.5305145628072,4,1,0,90,0,1
103826,-99.0654168573676,4,1,0,90,0,1
103972,-98.6046456592756,4,1,0,90,0,1
104118,-98.1481408779155,4,1,0,90,0,1
104265,-85.2514919011083,4,1,0,90,0,1
104338,-84.9910844352428,4,1,0,90,0,1
104411,-84.7322629953872,4,1,0,90,0,1
104484,-84.4750844962033,4,1,0,90,0,1
104557,-84.2193915148963,4,1,0,90,0,1
104630,-83.9652417485258,4,1,0,90,0,1
104704,-83.7126913462842,4,1,0,90,0,1
104777,-83.4615859704412,4,1,0,90,0,1
104850,-83.2119825254837,4,1,0,90,0,1
104923,-82.9638675763931,4,1,0,90,0,1
104996,-82.7172278479128,4,1,0,90,0,1
105069,-82.4721182386265,4,1,0,90,0,1
105143,-82.2283893514236,4,1,0,90,0,1
105216,-81.986096797705,4,1,0,90,0,1
105289,-81.7452947408347,4,1,0,90,0,1
105362,-81.5058366329613,4,1,0,90,0,1
105435,-81.2677773262901,4,1,0,90,0,1
105582,-93.8052864907255,4,1,0,90,0,1
105728,-93.3920457994593,4,1,0,90,0,1
105874,-92.9824300400196,4,1,0,90,0,1
105948,-92.7790096768507,4,1,0,90,0,1
106021,-92.5763917240409,4,1,0,90,0,1
106167,-92.173884189045,4,1,0,90,0,1
106313,-91.774861580565,4,1,0,90,0,1
106460,-91.3792788347314,4,1,0,90,0,1
106533,-91.1828051113433,4,1,0,90,0,1
106606,-90.987091661306,4,1,0,90,0,1
106752,-90.5982565271514,4,1,0,90,0,1
106899,-90.2127306401225,4,1,0,90,0,1
107045,-89.8304719333673,4,1,0,90,0,1
107118,-89.6405949984134,4,1,0,90,0,1
107191,-89.4514390500257,4,1,0,90,0,1
107338,-89.075591328313,4,1,0,90,0,1
107484,-88.7029674690737,4,1,0,90,0,1
107557,-88.5177438243383,4,1,0,90,0,1
107630,-88.3333701389042,4,1,0,90,0,1
107704,-88.1496852174741,4,1,0,90,0,1
107777,-80,4,1,0,90,0,1
107923,-87.6033390888727,4,1,0,90,0,1
107996,-87.4226746442771,4,1,0,90,0,1
108069,-87.2428299480207,4,1,0,90,0,1
108216,-86.8852758129638,4,1,0,90,0,1
108362,-75.6143667296786,4,1,0,90,0,1
108435,-75.4230857997939,4,1,0,90,0,1
108509,-75.2327701909709,4,1,0,90,0,1
108582,-75.0434126141973,4,1,0,90,0,1
108655,-74.8549498209844,4,1,0,90,0,1
108728,-74.6674870134573,4,1,0,90,0,1
108801,-74.4809608043944,4,1,0,90,0,1
108874,-74.2953641921605,4,1,0,90,0,1
108948,-74.1106902447357,4,1,0,90,0,1
109021,-73.9268774469796,4,1,0,90,0,1
109094,-73.744028577286,4,1,0,90,0,1
109167,-73.5620819834691,4,1,0,90,0,1
109240,-73.3810310034856,4,1,0,90,0,1
109313,-73.2008690407173,4,1,0,90,0,1
109387,-73.0215895631702,4,1,0,90,0,1
109460,-72.8431330414266,4,1,0,90,0,1
109533,-72.6655994512294,4,1,0,90,0,1
109606,-72.4889291282989,4,1,0,90,0,1
109679,-72.3131157913767,4,1,0,90,0,1
109752,-72.1381532199947,4,1,0,90,0,1
109826,-71.9640352537416,4,1,0,90,0,1
109899,-71.7907042524506,4,1,0,90,0,1
109972,-71.6182574991477,4,1,0,90,0,1
110045,-71.4466372211259,4,1,0,90,0,1
110118,-71.2758374910905,4,1,0,90,0,1
110265,-82.1705515533932,4,1,0,90,0,1
110338,-82.0115800351009,4,1,0,90,0,1
110411,-81.8532894381427,4,1,0,90,0,1
110484,-81.695541955971,4,1,0,90,0,1
110557,-81.5384678106514,4,1,0,90,0,1
110630,-81.381930281728,4,1,0,90,0,1
110704,-81.226058619222,4,1,0,90,0,1
110777,-81.0707171758854,4,1,0,90,0,1
110850,-80.9160342404291,4,1,0,90,0,1
110923,-80.7618752261333,4,1,0,90,0,1
110996,-80.608367470977,4,1,0,90,0,1
111069,-80.4553774362894,4,1,0,90,0,1
111143,-80.3030315197429,4,1,0,90,0,1
111216,-80.1511972184329,4,1,0,90,0,1
111289,-80,4,1,0,90,0,1
111435,-82.0403769919403,4,1,0,90,0,1
111509,-83.1000990553181,4,1,0,90,0,1
111582,-84.1875564056628,4,1,0,90,0,1
111655,-85.3038523219709,4,1,0,90,0,1
111728,-86.4501493858581,4,1,0,90,0,1
111801,-87.6276735203191,4,1,0,90,0,1
111874,-88.8377183631117,4,1,0,90,0,1
111948,-90.0816500075669,4,1,0,90,0,1
112021,-91.3609121473469,4,1,0,90,0,1
112069,-92.2341603970496,4,1,0,90,0,1
112118,-93.1242631542678,4,1,0,90,0,1
112167,-94.0316247160245,4,1,0,90,0,1
112240,-95.426494402759,4,1,0,90,0,1
112313,-96.8632765165641,4,1,0,90,0,1
112387,-98.3439856260431,4,1,0,90,0,1
112460,-100,4,1,0,90,0,0
112752,-133.333333333333,4,1,0,80,0,0
113045,-136.359421617877,4,1,0,80,0,0
113338,-139.525863211634,4,1,0,80,0,0
113630,-142.8430626124,4,1,0,80,0,0
113923,-146.321620775329,4,1,0,80,0,0
114216,-149.974054488573,4,1,0,80,0,0
114509,-153.813261471778,4,1,0,80,0,0
114655,-155.807652337037,4,1,0,80,0,0
114801,-157.854442418646,4,1,0,80,0,0
115094,-162.113440501125,4,1,0,80,0,0
115387,-166.608908911577,4,1,0,80,0,0
115679,-171.360810468089,4,1,0,80,0,0
115972,-176.391419615784,4,1,0,80,0,0
116265,-181.72665766514,4,1,0,80,0,0
116557,-187.394356431562,4,1,0,80,0,0
116704,-190.36306042885,4,1,0,80,0,0
116777,-191.882966740925,4,1,0,80,0,0
116850,-193.427339020097,4,1,0,80,0,0
116996,-196.591496631405,4,1,0,80,0,0
117143,-133.333333333333,4,1,0,80,0,0
117435,-200,4,1,0,80,0,0
120655,-50,4,1,0,80,0,0
121826,-100,4,1,0,80,0,0
122045,-133.333333333333,4,1,0,80,0,0
122118,-132.927108091007,4,1,0,80,0,0
122265,-132.122213047069,4,1,0,80,0,0
122557,-130.540974853892,4,1,0,80,0,0
122704,-129.76463290883,4,1,0,80,0,0
122996,-128.238996452909,4,1,0,80,0,0
123143,-127.489714767261,4,1,0,80,0,0
123216,-127.118267022089,4,1,0,80,0,0
123289,-126.748977452624,4,1,0,80,0,0
123435,-126.016798039179,4,1,0,80,0,0
123728,-124.577681659175,4,1,0,80,0,0
123874,-123.870302838116,4,1,0,80,0,0
124021,-123.171063668355,4,1,0,80,0,0
124094,-122.824320689388,4,1,0,80,0,0
124167,-122.479524485494,4,1,0,80,0,0
124387,-121.456801459425,4,1,0,80,0,0
124460,-121.119629858411,4,1,0,80,0,0
124606,-120.450871702959,4,1,0,80,0,0
124899,-119.135410498927,4,1,0,80,0,0
125045,-118.488325937687,4,1,0,80,0,0
125191,-117.848232688978,4,1,0,80,0,0
125265,-117.530910629496,4,1,0,80,0,0
125338,-117.215155450739,4,1,0,80,0,0
125484,-116.588707684129,4,1,0,80,0,0
125557,-116.277988111738,4,1,0,80,0,0
125630,-115.969054817413,4,1,0,80,0,0
125777,-115.35582079704,4,1,0,80,0,0
125923,-114.749038116188,4,1,0,80,0,0
125996,-114.448034297787,4,1,0,80,0,0
126069,-114.148735802751,4,1,0,80,0,0
126216,-113.554552742683,4,1,0,80,0,0
126362,-112.966523500426,4,1,0,80,0,0
126509,-100,4,1,0,80,0,0
126655,-111.808672998765,4,1,0,80,0,0
126728,-111.522878360881,4,1,0,80,0,0
126801,-111.238541039791,4,1,0,80,0,0
126948,-110.674316475421,4,1,0,80,0,0
127094,-110.115665495036,4,1,0,80,0,0
127240,-109.56262599702,4,1,0,80,0,0
127313,-109.28830363788,4,1,0,80,0,0
127387,-109.015232698465,4,1,0,80,0,0
127679,-107.936459964748,4,1,0,80,0,0
127826,-107.405155877103,4,1,0,80,0,0
127899,-107.141403080958,4,1,0,80,0,0
127972,-106.878942496991,4,1,0,80,0,0
128118,-106.35786016494,4,1,0,80,0,0
128265,-105.841946221707,4,1,0,80,0,0
128338,-105.585805888943,4,1,0,80,0,0
128411,-105.330902296108,4,1,0,80,0,0
128484,-105.077226507622,4,1,0,80,0,0
128557,-104.824879556213,4,1,0,80,0,0
128704,-104.323586728371,4,1,0,80,0,0
128850,-103.827065639471,4,1,0,80,0,0
128996,-103.335355261785,4,1,0,80,0,0
129069,-103.091189311506,4,1,0,80,0,0
129143,-102.848174496327,4,1,0,80,0,0
129289,-102.365565861493,4,1,0,80,0,0
129435,-101.887569105244,4,1,0,80,0,0
129509,-101.650189171002,4,1,0,80,0,0
129582,-101.413912771865,4,1,0,80,0,0
129655,-101.178732230485,4,1,0,80,0,0
129728,-100.944639940564,4,1,0,80,0,0
129801,-100.711628366034,4,1,0,80,0,0
129874,-100.479791002035,4,1,0,80,0,0
129923,-100.325757735367,4,1,0,80,0,0
129972,-100.172196004932,4,1,0,80,0,0
130021,-90.9090909090909,4,1,0,80,0,0
130313,-100,4,1,0,80,0,0
131191,-80,4,1,0,80,0,0
131338,-133.333333333333,4,1,0,80,0,0
131411,-132.530727249113,4,1,0,80,0,0
131484,-131.737725996069,4,1,0,80,0,0
131630,-130.179856489726,4,1,0,80,0,0
131777,-128.658401650945,4,1,0,80,0,0
131923,-127.172099458756,4,1,0,80,0,0
132069,-125.719745543235,4,1,0,80,0,0
132216,-124.30018993069,4,1,0,80,0,0
132362,-122.912334006893,4,1,0,80,0,0
132509,-121.555127681506,4,1,0,80,0,0
132655,-120.227566738322,4,1,0,80,0,0
132801,-118.928690357262,4,1,0,80,0,0
132948,-117.657578795281,4,1,0,80,0,0
133094,-116.413351214424,4,1,0,80,0,0
133240,-115.195163646249,4,1,0,80,0,0
133313,-114.595580736024,4,1,0,80,0,0
133387,-114.002207082729,4,1,0,80,0,0
133460,-113.414946729,4,1,0,80,0,0
133533,-112.833705684562,4,1,0,80,0,0
133679,-111.688915098554,4,1,0,80,0,0
133826,-110.567120876399,4,1,0,80,0,0
133972,-109.467636987801,4,1,0,80,0,0
134118,-108.389686938067,4,1,0,80,0,0
134265,-107.332874664182,4,1,0,80,0,0
134411,-106.296471488629,4,1,0,80,0,0
134557,-105.279891856495,4,1,0,80,0,0
134630,-104.778858979181,4,1,0,80,0,0
134704,-104.282572400783,4,1,0,80,0,0
134850,-103.303970901337,4,1,0,80,0,0
134996,-102.343565301847,4,1,0,80,0,0
135143,-101.400852781172,4,1,0,80,0,0
135289,-90.9090909090909,4,1,0,80,0,0
135435,-99.5665866483199,4,1,0,80,0,0
135582,-83.3333333333333,4,1,0,80,0,0
135728,-97.7975024473825,4,1,0,80,0,0
135874,-76.9230769230769,4,1,0,80,0,0
136021,-96.0901864053526,4,1,0,80,0,0
136094,-95.6726312174055,4,1,0,80,0,0
136167,-95.2586892594875,4,1,0,80,0,0
136313,-94.4414590449891,4,1,0,80,0,0
136460,-93.6381316945412,4,1,0,80,0,0
136606,-92.8483554235046,4,1,0,80,0,0
136679,-92.4584422416734,4,1,0,80,0,0
136752,-92.0717902162674,4,1,0,80,0,0
136899,-91.3081073381586,4,1,0,80,0,0
137045,-90.5569888714516,4,1,0,80,0,0
137191,-89.8181272740827,4,1,0,80,0,0
137265,-89.4531994278573,4,1,0,80,0,0
137338,-89.0912249597976,4,1,0,80,0,0
137484,-88.3759938985214,4,1,0,80,0,0
137630,-87.6721552358249,4,1,0,80,0,0
137704,-87.3244233313394,4,1,0,80,0,0
137777,-86.9794389304312,4,1,0,80,0,0
137850,-86.6371695983241,4,1,0,80,0,0
137923,-86.2975834087718,4,1,0,80,0,0
138069,-85.6263352356651,4,1,0,80,0,0
138216,-84.9654488002454,4,1,0,80,0,0
138289,-84.6388165462115,4,1,0,80,0,0
138362,-84.314686016325,4,1,0,80,0,0
138435,-83.993028578628,4,1,0,80,0,0
138509,-83.6738160364215,4,1,0,80,0,0
138582,-83.3570206200262,4,1,0,80,0,0
138655,-83.0426149787286,4,1,0,80,0,0
138728,-82.7305721729102,4,1,0,80,0,0
138801,-82.4208656663521,4,1,0,80,0,0
138874,-82.1134693187128,4,1,0,80,0,0
138948,-81.808357378173,4,1,0,80,0,0
139021,-81.5055044742447,4,1,0,80,0,0
139094,-81.2048856107379,4,1,0,80,0,0
139167,-80.9064761588841,4,1,0,80,0,0
139240,-80.6102518506099,4,1,0,80,0,0
139313,-80.3161887719574,4,1,0,80,0,0
139387,-66.6666666666667,4,1,0,80,0,0
139679,-80,4,1,0,80,0,0
139752,-81.3559101407701,4,1,0,80,0,0
139826,-82.7586435196258,4,1,0,80,0,0
139899,-84.2105263157895,4,1,0,80,0,0
139972,-85.7142612244968,4,1,0,80,0,0
140045,-87.2727526611644,4,1,0,80,0,0
140118,-88.8888888888889,4,1,0,80,0,0
140191,-90.5660103951667,4,1,0,80,0,0
140265,-92.3077207100679,4,1,0,80,0,0
140338,-94.1176470588235,4,1,0,80,0,0
140411,-95.9999692800098,4,1,0,80,0,0
140484,-97.959215660152,4,1,0,80,0,0
140557,-66.6666666666667,4,1,0,90,0,1
140704,-100,4,1,0,90,0,1
145240,-80,4,1,0,90,0,1
145387,-100,4,1,0,90,0,1
149923,-80,4,1,0,90,0,1
150069,-100,4,1,0,90,0,1
150143,-99.773414575499,4,1,0,90,0,1
150216,-99.5478536487275,4,1,0,90,0,1
150362,-99.099777620099,4,1,0,90,0,1
150435,-98.8772488394283,4,1,0,90,0,1
150509,-98.6557171974673,4,1,0,90,0,1
150582,-98.4351760070165,4,1,0,90,0,1
150655,-98.2156186405387,4,1,0,90,0,1
150801,-97.7794291636925,4,1,0,90,0,1
150948,-97.3470969148758,4,1,0,90,0,1
151094,-84.4238075137189,4,1,0,90,0,1
151167,-84.2204554642232,4,1,0,90,0,1
151240,-84.0180806909647,4,1,0,90,0,1
151313,-83.81667616589,4,1,0,90,0,1
151387,-83.6162349281737,4,1,0,90,0,1
151460,-83.4166804999329,4,1,0,90,0,1
151533,-83.2181455502009,4,1,0,90,0,1
151606,-83.0205533984048,4,1,0,90,0,1
151679,-82.8238973447487,4,1,0,90,0,1
151752,-82.6281707527674,4,1,0,90,0,1
151826,-82.4333670485805,4,1,0,90,0,1
151899,-82.2394797201555,4,1,0,90,0,1
151972,-82.046502316583,4,1,0,90,0,1
152045,-81.8544284473606,4,1,0,90,0,1
152118,-81.663251781688,4,1,0,90,0,1
152191,-81.472899669383,4,1,0,90,0,1
152265,-81.2834989620097,4,1,0,90,0,1
152411,-93.2251424480177,4,1,0,90,0,1
152484,-93.0281884713887,4,1,0,90,0,1
152557,-92.8320649378861,4,1,0,90,0,1
152704,-92.4422882794272,4,1,0,90,0,1
152777,-92.2486248036257,4,1,0,90,0,1
152850,-92.055771068344,4,1,0,90,0,1
152923,-91.863722005679,4,1,0,90,0,1
152996,-91.6724725899307,4,1,0,90,0,1
153143,-91.292352804775,4,1,0,90,0,1
153289,-90.9153723348159,4,1,0,90,0,1
153362,-90.7280472148758,4,1,0,90,0,1
153435,-90.541492449745,4,1,0,90,0,1
153582,-90.1706750537417,4,1,0,90,0,1
153655,-89.9864030544985,4,1,0,90,0,1
153728,-89.8028826725338,4,1,0,90,0,1
153801,-89.6201093186094,4,1,0,90,0,1
153874,-89.4380784407723,4,1,0,90,0,1
154021,-89.076226089714,4,1,0,90,0,1
154094,-88.8963956956365,4,1,0,90,0,1
154167,-88.7172899352009,4,1,0,90,0,1
154240,-88.5389044373043,4,1,0,90,0,1
154313,-88.3612348659295,4,1,0,90,0,1
154387,-88.1842769197938,4,1,0,90,0,1
154460,-88.0080263320015,4,1,0,90,0,1
154533,-87.8324788697014,4,1,0,90,0,1
154606,-80,4,1,0,90,0,1
154752,-87.3100134108181,4,1,0,90,0,1
154826,-87.1372367910841,4,1,0,90,0,1
154899,-86.9651426315304,4,1,0,90,0,1
155045,-86.6229855824703,4,1,0,90,0,1
155191,-75.6143667296786,4,1,0,90,0,1
155265,-75.4399279397808,4,1,0,90,0,1
155338,-75.266292141597,4,1,0,90,0,1
155411,-75.0933974130325,4,1,0,90,0,1
155484,-74.9213513114608,4,1,0,90,0,1
155557,-74.7500917557376,4,1,0,90,0,1
155630,-74.5796133643684,4,1,0,90,0,1
155704,-74.4099108048399,4,1,0,90,0,1
155777,-74.2409787930644,4,1,0,90,0,1
155850,-74.0727572250567,4,1,0,90,0,1
155923,-73.9053508952155,4,1,0,90,0,1
155996,-73.7386995442948,4,1,0,90,0,1
156069,-73.5727980765128,4,1,0,90,0,1
156143,-73.4076414418435,4,1,0,90,0,1
156216,-73.2432246355051,4,1,0,90,0,1
156289,-73.079489291297,4,1,0,90,0,1
156362,-72.9165375436314,4,1,0,90,0,1
156435,-72.7543108748051,4,1,0,90,0,1
156509,-72.5928044560367,4,1,0,90,0,1
156582,-72.4320135013273,4,1,0,90,0,1
156655,-72.2719332669877,4,1,0,90,0,1
156728,-72.1125070489976,4,1,0,90,0,1
156801,-71.9538344198362,4,1,0,90,0,1
156874,-71.7958585276967,4,1,0,90,0,1
156948,-71.6385747935376,4,1,0,90,0,1
157021,-71.4819786783554,4,1,0,90,0,1
157094,-71.3260656827474,4,1,0,90,0,1
157167,-71.1707806936447,4,1,0,90,0,1
157240,-71.0162208149964,4,1,0,90,0,1
157313,-70.8623307896119,4,1,0,90,0,1
157387,-70.7091062722513,4,1,0,90,0,1
157533,-81.1923584999874,4,1,0,90,0,1
157606,-81.0429251957592,4,1,0,90,0,1
157679,-80.8940409404741,4,1,0,90,0,1
157752,-80.7457027137016,4,1,0,90,0,1
157826,-80.5979075171251,4,1,0,90,0,1
157972,-80.3039343306547,4,1,0,90,0,1
158045,-80.1577504528913,4,1,0,90,0,1
158118,-74.0740740740741,4,1,0,90,0,0
158265,-80,4,1,0,90,0,0
158411,-71.4285714285714,4,1,0,90,0,0
158557,-80,4,1,0,90,0,0
159289,-68.9655172413793,4,1,0,90,0,0
159582,-66.6666666666667,4,1,0,90,0,1
159728,-100,4,1,0,90,0,1
163387,-80,4,1,0,90,0,0
163533,-95.2380952380952,4,1,0,90,0,0
163679,-72.7272727272727,4,1,0,90,0,0
163826,-93.0232558139535,4,1,0,90,0,0
163972,-66.6666666666667,4,1,0,90,0,1
164118,-100,4,1,0,90,0,1
168655,-80,4,1,0,90,0,1
168801,-100,4,1,0,90,0,1
168874,-99.773414575499,4,1,0,90,0,1
168948,-99.5478536487275,4,1,0,90,0,1
169094,-99.099777620099,4,1,0,90,0,1
169240,-98.6557171974673,4,1,0,90,0,1
169313,-98.4351760070165,4,1,0,90,0,1
169387,-98.2156186405387,4,1,0,90,0,1
169460,-97.9970385294956,4,1,0,90,0,1
169533,-97.7794291636925,4,1,0,90,0,1
169679,-97.3470969148758,4,1,0,90,0,1
169826,-96.918570955055,4,1,0,90,0,1
169972,-96.4938012382085,4,1,0,90,0,1
170045,-96.2828095708964,4,1,0,90,0,1
170118,-96.0727385918427,4,1,0,90,0,1
170191,-95.8635822878611,4,1,0,90,0,1
170265,-95.6553346980161,4,1,0,90,0,1
170411,-95.241542074856,4,1,0,90,0,1
170484,-95.0359853758626,4,1,0,90,0,1
170557,-94.8313140585526,4,1,0,90,0,1
170630,-94.6275224148944,4,1,0,90,0,1
170704,-94.4246047858167,4,1,0,90,0,1
170777,-94.2225555606855,4,1,0,90,0,1
170850,-94.0213691767865,4,1,0,90,0,1
170996,-93.6215629183714,4,1,0,90,0,1
171143,-93.2251424480177,4,1,0,90,0,1
171216,-93.0281884713887,4,1,0,90,0,1
171289,-92.8320649378861,4,1,0,90,0,1
171362,-92.6367666062984,4,1,0,90,0,1
171435,-92.4422882794272,4,1,0,90,0,1
171582,-92.055771068344,4,1,0,90,0,1
171728,-91.6724725899307,4,1,0,90,0,1
171801,-91.4820178371638,4,1,0,90,0,1
171874,-91.292352804775,4,1,0,90,0,1
171948,-91.1034725910648,4,1,0,90,0,1
172021,-90.9153723348159,4,1,0,90,0,1
172094,-90.7280472148758,4,1,0,90,0,1
172167,-90.541492449745,4,1,0,90,0,1
172313,-90.1706750537417,4,1,0,90,0,1
172387,-89.9864030544985,4,1,0,90,0,1
172460,-89.8028826725338,4,1,0,90,0,1
172533,-89.6201093186094,4,1,0,90,0,1
172606,-89.4380784407723,4,1,0,90,0,1
172752,-80,4,1,0,90,0,0
172899,-88.7172899352009,4,1,0,90,0,0
173045,-72.7272727272727,4,1,0,90,0,0
173191,-88.0080263320015,4,1,0,90,0,0
173338,-66.6666666666667,4,1,0,90,0,1
173484,-87.3100134108181,4,1,0,90,0,1
173557,-87.1372367910841,4,1,0,90,0,1
173630,-86.9651426315304,4,1,0,90,0,1
173777,-86.6229855824703,4,1,0,90,0,1
173850,-86.4529147167932,4,1,0,90,0,1
173923,-86.2835103583354,4,1,0,90,0,1
173996,-86.1147685966996,4,1,0,90,0,1
174069,-85.9466855520184,4,1,0,90,0,1
174216,-85.6124069500152,4,1,0,90,0,1
174362,-85.2807912692937,4,1,0,90,0,1
174435,-85.1159449401975,4,1,0,90,0,1
174509,-84.9517346719461,4,1,0,90,0,1
174655,-84.6252076491033,4,1,0,90,0,1
174728,-84.4628836304175,4,1,0,90,0,1
174801,-84.301181143849,4,1,0,90,0,1
174874,-84.140096626487,4,1,0,90,0,1
174948,-83.9796265426008,4,1,0,90,0,1
175094,-83.6605156666865,4,1,0,90,0,1
175167,-83.5018679367857,4,1,0,90,0,1
175240,-83.3438207641128,4,1,0,90,0,1
175313,-83.1863707450171,4,1,0,90,0,1
175387,-83.0295145015199,4,1,0,90,0,1
175460,-82.8732486810723,4,1,0,90,0,1
175533,-82.7175699563169,4,1,0,90,0,1
175679,-82.4079606089948,4,1,0,90,0,1
175826,-82.1006603356111,4,1,0,90,0,1
175899,-81.947868044265,4,1,0,90,0,1
175972,-81.7956434004412,4,1,0,90,0,1
176118,-81.4928844487944,4,1,0,90,0,1
176191,-81.3423438959078,4,1,0,90,0,1
176265,-81.1923584999874,4,1,0,90,0,1
176338,-81.0429251957592,4,1,0,90,0,1
176411,-80.8940409404741,4,1,0,90,0,1
176484,-80.7457027137016,4,1,0,90,0,1
176557,-80.5979075171251,4,1,0,90,0,1
176704,-80.3039343306547,4,1,0,90,0,1
176850,-80.0120978291918,4,1,0,90,0,1
176923,-81.3559101407701,4,1,0,90,0,1
176996,-82.7586435196258,4,1,0,90,0,1
177045,-83.7209613845438,4,1,0,90,0,1
177094,-84.7058504636798,4,1,0,90,0,1
177143,-85.7142612244968,4,1,0,90,0,1
177216,-87.2727526611644,4,1,0,90,0,1
177289,-88.8888888888889,4,1,0,90,0,1
177362,-90.5660103951667,4,1,0,90,0,1
177435,-92.3077207100679,4,1,0,90,0,1
177484,-93.5065323663511,4,1,0,90,0,1
177533,-94.7368022160833,4,1,0,90,0,1
177582,-95.9999692800098,4,1,0,90,0,1
177655,-97.959215660152,4,1,0,90,0,1
177728,-100,4,1,0,90,0,1
178021,-66.6666666666667,4,1,0,90,0,0
178167,-80.8080808080808,4,1,0,80,0,0
178313,-81.6326530612245,4,1,0,80,0,0
178606,-83.3333333333333,4,1,0,80,0,0
178899,-85.1063829787234,4,1,0,80,0,0
179045,-86.0215053763441,4,1,0,80,0,0
179191,-86.9565217391304,4,1,0,80,0,0
179484,-88.8888888888889,4,1,0,80,0,0
179777,-90.9090909090909,4,1,0,80,0,0
179923,-91.9540229885058,4,1,0,80,0,0
180069,-93.0232558139535,4,1,0,80,0,0
180216,-94.1176470588235,4,1,0,80,0,0
180362,-95.2380952380952,4,1,0,80,0,0
180655,-97.5609756097561,4,1,0,80,0,0
180948,-100,4,1,0,80,0,0
181094,-101.26582278481,4,1,0,80,0,0
181240,-102.564102564103,4,1,0,80,0,0
181533,-105.263157894737,4,1,0,80,0,0
181679,-106.666666666667,4,1,0,80,0,0
181826,-108.108108108108,4,1,0,80,0,0
181972,-109.58904109589,4,1,0,80,0,0
182118,-111.111111111111,4,1,0,80,0,0
182411,-114.285714285714,4,1,0,80,0,0
182704,-99.2063492063492,4,1,0,80,0,0
182850,-119.402985074627,4,1,0,80,0,0
182996,-121.212121212121,4,1,0,80,0,0
183289,-125,4,1,0,80,0,0
183582,-129.032258064516,4,1,0,80,0,0
183728,-131.147540983607,4,1,0,80,0,0
183874,-133.333333333333,4,1,0,80,0,0
184167,-137.931034482759,4,1,0,80,0,0
184460,-142.857142857143,4,1,0,80,0,0
184606,-145.454545454545,4,1,0,80,0,0
184752,-148.148148148148,4,1,0,80,0,0
184899,-150.943396226415,4,1,0,80,0,0
185045,-153.846153846154,4,1,0,80,0,0
185338,-160,4,1,0,80,0,0
185630,-166.666666666667,4,1,0,80,0,0
185777,-170.212765957447,4,1,0,80,0,0
185923,-173.913043478261,4,1,0,80,0,0
186216,-181.818181818182,4,1,0,80,0,0
186362,-186.046511627907,4,1,0,80,0,0
186509,-190.47619047619,4,1,0,80,0,0
186655,-195.121951219512,4,1,0,80,0,0
186801,-200,4,1,0,80,0,0
187387,-166.666666666667,4,1,0,80,0,0
187533,-194.82505684021,4,1,0,80,0,0
187679,-189.911159559558,4,1,0,80,0,0
187972,-180.790960451977,4,1,0,80,0,0
188265,-172.506589751729,4,1,0,80,0,0
188411,-168.642880150564,4,1,0,80,0,0
188557,-147.383935151069,4,1,0,80,0,0
188630,-145.241172967713,4,1,0,80,0,0
188704,-143.15961868004,4,1,0,80,0,0
188777,-141.137085039328,4,1,0,80,0,0
188850,-139.170903260913,4,1,0,80,0,0
188923,-137.258562189109,4,1,0,80,0,0
188996,-135.3982468635,4,1,0,80,0,0
189069,-133.587505827755,4,1,0,80,0,0
189143,-131.824731110505,4,1,0,80,0,0
189216,-130.107872437038,4,1,0,80,0,0
189289,-128.434993912181,4,1,0,80,0,0
189362,-126.804748584225,4,1,0,80,0,0
189435,-125.215370437152,4,1,0,80,0,0
189509,-123.66518886766,4,1,0,80,0,0
189582,-122.153070012032,4,1,0,80,0,0
189655,-120.677483391761,4,1,0,80,0,0
189728,-119.236978725738,4,1,0,80,0,0
190021,-135.306645450585,4,1,0,80,0,0
190313,-130.612244897959,4,1,0,80,0,0
190460,-128.385196673283,4,1,0,80,0,0
190606,-126.232661943882,4,1,0,80,0,0
190899,-122.137404580153,4,1,0,80,0,0
191045,-120.187829540005,4,1,0,80,0,0
191191,-118.299515445185,4,1,0,80,0,0
191338,-116.469483830542,4,1,0,80,0,0
191484,-114.695340501792,4,1,0,80,0,0
191777,-111.304285882832,4,1,0,80,0,0
192069,-88.6524822695036,4,1,0,80,0,0
192216,-106.577880187279,4,1,0,80,0,0
192362,-105.090367206761,4,1,0,80,0,0
192655,-90.5797101449275,4,1,0,80,0,0
192728,-89.862034817944,4,1,0,80,0,0
192801,-89.1557220588196,4,1,0,80,0,0
192874,-88.4603476491663,4,1,0,80,0,0
192948,-87.7757365042611,4,1,0,80,0,0
193021,-87.1017165135273,4,1,0,80,0,0
193094,-86.4378943728931,4,1,0,80,0,0
193167,-85.7841139830679,4,1,0,80,0,0
193240,-85.1402216881092,4,1,0,80,0,0
193313,-84.5058520302531,4,1,0,80,0,0
193387,-83.8808656840862,4,1,0,80,0,0
193460,-83.2651253181769,4,1,0,80,0,0
193533,-82.6582906265498,4,1,0,80,0,0
193606,-82.0602371376733,4,1,0,80,0,0
193679,-81.4708419930049,4,1,0,80,0,0
193752,-80.8897876643074,4,1,0,80,0,0
193826,-80.3169628622395,4,1,0,80,0,0
193899,-79.7522575870316,4,1,0,80,0,0
193972,-79.1953749901006,4,1,0,80,0,0
194045,-78.6462155047868,4,1,0,80,0,0
194118,-78.1046805791931,4,1,0,80,0,0
194191,-77.5704921847729,4,1,0,80,0,0
194265,-77.0435611999381,4,1,0,80,0,0
194338,-76.5237992841964,4,1,0,80,0,0
194411,-76.010945576163,4,1,0,80,0,0
194484,-75.5049202781299,4,1,0,80,0,0
194557,-75.0056441747242,4,1,0,80,0,0
194630,-74.512872098655,4,1,0,80,0,0
194704,-74.0265325898108,4,1,0,80,0,0
194777,-73.5465546013299,4,1,0,80,0,0
194850,-73.0727073438071,4,1,0,80,0,0
194996,-83.989501312336,4,1,0,80,0,0
195143,-83.062963387507,4,1,0,80,0,0
195289,-82.1565772912648,4,1,0,80,0,0
195582,-80.4020100502513,4,1,0,80,0,0
195728,-79.5525329128717,4,1,0,80,0,0
195874,-78.720818192696,4,1,0,80,0,0
196021,-77.9062538466213,4,1,0,80,0,0
196167,-77.1084337349398,4,1,0,80,0,0
196752,-66.6666666666667,4,1,0,80,0,0
197045,-80,4,1,0,80,0,0
197484,-81.6747905858369,4,1,0,80,0,0
197630,-82.2487465291029,4,1,0,80,0,0
197923,-83.4212036678635,4,1,0,80,0,0
198216,-84.6275709856065,4,1,0,80,0,0
198362,-85.2439340416536,4,1,0,80,0,0
198655,-86.503993024318,4,1,0,80,0,0
198801,-87.1480959883988,4,1,0,80,0,0
199094,-88.4655126045662,4,1,0,80,0,0
199387,-89.8232906403233,4,1,0,80,0,0
199826,-91.9400734601187,4,1,0,80,0,0
199972,-92.6680140595911,4,1,0,80,0,0
200265,-94.1590327230886,4,1,0,80,0,0
200557,-95.6988166841317,4,1,0,80,0,0
200704,-96.4877494328933,4,1,0,80,0,0
200996,-98.1052924862138,4,1,0,80,0,0
201143,-98.9345735771477,4,1,0,80,0,0
201216,-99.3544938534342,4,1,0,80,0,0
201435,-83.3333333333333,4,1,0,80,0,0
201728,-102.396801943082,4,1,0,80,0,0
202167,-105.156783506369,4,1,0,80,0,0
202313,-106.110140203328,4,1,0,80,0,0
202606,-108.069670355085,4,1,0,80,0,0
202899,-110.10293523415,4,1,0,80,0,0
203045,-111.148531116587,4,1,0,80,0,0
203338,-113.300453541716,4,1,0,80,0,0
203484,-114.407836479167,4,1,0,80,0,0
203777,-116.689109872132,4,1,0,80,0,0
204069,-119.063210658539,4,1,0,80,0,0
204509,-122.811197433737,4,1,0,80,0,0
204655,-124.113519189191,4,1,0,80,0,0
204948,-126.802819080274,4,1,0,80,0,0
205240,-129.611244034643,4,1,0,80,0,0
205387,-131.062629588175,4,1,0,80,0,0
205679,-134.06515030044,4,1,0,80,0,0
205826,-135.618597106984,4,1,0,80,0,0
205899,-136.408899316591,4,1,0,80,0,0
206118,-115.740740740741,4,1,0,80,0,0
206411,-142.209884724667,4,1,0,80,0,0
206850,-147.589712406686,4,1,0,80,0,0
206996,-149.474596792275,4,1,0,80,0,0
207289,-153.39258377536,4,1,0,80,0,0
207582,-157.52149380783,4,1,0,80,0,0
207728,-159.670440211404,4,1,0,80,0,0
208021,-164.148896180748,4,1,0,80,0,0
208167,-166.483811946545,4,1,0,80,0,0
208460,-171.35875497583,4,1,0,80,0,0
208752,-176.527804011771,4,1,0,80,0,0
209191,-184.893806242385,4,1,0,80,0,0
209338,-187.861516004862,4,1,0,80,0,0
209630,-194.092220977875,4,1,0,80,0,0
209923,-200.750405013942,4,1,0,80,0,0
210069,-204.253789418428,4,1,0,80,0,0
210362,-211.640659556951,4,1,0,80,0,0
210509,-181.159420289855,4,1,0,80,0,0
210801,-185.185185185185,4,1,0,80,0,0
211094,-232.677725063346,4,1,0,80,0,0
211533,-247.434720534855,4,1,0,80,0,0
211679,-252.778669524751,4,1,0,80,0,0
211972,-264.190322708479,4,1,0,80,0,0
212265,-276.68027933641,4,1,0,80,0,0
212411,-283.379240770338,4,1,0,80,0,0
212704,-297.799854673671,4,1,0,80,0,0
212850,-305.574908633102,4,1,0,80,0,0
213143,-322.410079828736,4,1,0,80,0,0
213435,-341.208423753566,4,1,0,80,0,0
213874,-373.910052197843,4,1,0,80,0,0
214021,-386.249517188103,4,1,0,80,0,0
214094,-392.729786197904,4,1,0,80,0,0
214167,-399.431209957021,4,1,0,80,0,0
214313,-50,4,1,0,80,0,0
215484,-133.333333333333,4,1,0,80,0,0
215777,-200,4,1,0,80,0,0
216069,-189.473604432167,4,1,0,80,0,0
216362,-179.999856000115,4,1,0,80,0,0
216655,-171.428669387811,4,1,0,80,0,0
216948,-163.636393388435,4,1,0,80,0,0
217240,-156.521711909267,4,1,0,80,0,0
217533,-149.999925000038,4,1,0,80,0,0
217826,-120.772946859903,4,1,0,80,0,0
218118,-138.461581065102,4,1,0,80,0,0
218411,-133.333333333333,4,1,0,80,0,0
218704,-128.571391836745,4,1,0,80,0,0
218996,-124.137862544628,4,1,0,80,0,0
219289,-120.000048000019,4,1,0,80,0,0
219582,-116.129047242458,4,1,0,80,0,0
219874,-112.499985937502,4,1,0,80,0,0
219948,-111.627948512725,4,1,0,80,0,0
220021,-110.769203502965,4,1,0,80,0,0
220094,-109.923690973726,4,1,0,80,0,0
220167,-90.5797101449275,4,1,0,80,0,0
220460,-105.88240276819,4,1,0,80,0,0
220752,-102.857166367352,4,1,0,80,0,0
221045,-100,4,1,0,80,0,0
221338,-97.2972762600484,4,1,0,80,0,0
221630,-94.7368022160833,4,1,0,80,0,0
221923,-92.3077207100679,4,1,0,80,0,0
222216,-90.0000090000009,4,1,0,80,0,0
222509,-73.0994152046784,4,1,0,80,0,0
222801,-85.7142612244968,4,1,0,80,0,0
223094,-83.7209613845438,4,1,0,80,0,0
223387,-81.8181966942176,4,1,0,80,0,0
223533,-80.8988836763042,4,1,0,80,0,0
223606,-80.4468986111647,4,1,0,80,0,0
223679,-66.6666666666667,4,1,0,80,0,0
223972,-80,4,1,0,80,0,0
224265,-100,4,1,0,80,0,0
224557,-115.470053837925,4,1,0,80,0,0
224850,-133.333333333333,4,1,0,80,0,0
225069,-200,4,1,0,80,0,0
225143,-197.287299630086,4,1,0,80,0,0
225289,-192.076461797913,4,1,0,80,0,0
225582,-182.439138303462,4,1,0,80,0,0
225728,-177.974261362322,4,1,0,80,0,0
225874,-173.722703820162,4,1,0,80,0,0
225948,-171.67205144668,4,1,0,80,0,0
226021,-169.669534647367,4,1,0,80,0,0
226167,-165.801184483662,4,1,0,80,0,0
226313,-162.105293872582,4,1,0,80,0,0
226460,-158.570581351465,4,1,0,80,0,0
226752,-151.944278994007,4,1,0,80,0,0
226899,-148.834551048018,4,1,0,80,0,0
226972,-147.327045415035,4,1,0,80,0,0
227045,-145.849559096783,4,1,0,80,0,0
227118,-144.401621341404,4,1,0,80,0,0
227191,-119.047619047619,4,1,0,80,0,0
227338,-140.22492077292,4,1,0,80,0,0
227484,-137.572208212786,4,1,0,80,0,0
227630,-135.01799789912,4,1,0,80,0,0
227923,-130.183923847612,4,1,0,80,0,0
228069,-127.894410374795,4,1,0,80,0,0
228216,-125.68403536246,4,1,0,80,0,0
228289,-124.607331147721,4,1,0,80,0,0
228362,-123.548917958577,4,1,0,80,0,0
228509,-121.484983848571,4,1,0,80,0,0
228655,-119.488874390905,4,1,0,80,0,0
228801,-117.557300367131,4,1,0,80,0,0
228948,-115.68718186025,4,1,0,80,0,0
229021,-114.774193252196,4,1,0,80,0,0
229094,-113.875631867412,4,1,0,80,0,0
229240,-112.119941428543,4,1,0,80,0,0
229313,-111.262180427202,4,1,0,80,0,0
229387,-110.417566109757,4,1,0,80,0,0
229460,-109.585558376775,4,1,0,80,0,0
229533,-90.5797101449275,4,1,0,80,0,0
229679,-107.163332993983,4,1,0,80,0,0
229752,-106.379470464272,4,1,0,80,0,0
229826,-105.607103556214,4,1,0,80,0,0
229972,-104.095426359252,4,1,0,80,0,0
230045,-103.355754641707,4,1,0,80,0,0
230118,-102.626415218266,4,1,0,80,0,0
230265,-101.198288939331,4,1,0,80,0,0
230338,-100.499078423451,4,1,0,80,0,0
230411,-99.8093641145412,4,1,0,80,0,0
230484,-99.1291504136164,4,1,0,80,0,0
230557,-98.4580485024039,4,1,0,80,0,0
230704,-80.9061488673139,4,1,0,80,0,0
230850,-95.8622957294306,4,1,0,80,0,0
230923,-95.2346486508107,4,1,0,80,0,0
230996,-94.615077480287,4,1,0,80,0,0
231143,-93.3998963261151,4,1,0,80,0,0
231216,-92.8039794346382,4,1,0,80,0,0
231289,-92.2155335221907,4,1,0,80,0,0
231435,-91.0608313671782,4,1,0,80,0,0
231509,-90.4942979542859,4,1,0,80,0,0
231582,-89.9347703110934,4,1,0,80,0,0
231655,-89.3820393942401,4,1,0,80,0,0
231728,-88.8361399631152,4,1,0,80,0,0
231874,-87.7640271050421,4,1,0,80,0,0
231948,-87.2375784592971,4,1,0,80,0,0
232021,-86.7174831117702,4,1,0,80,0,0
232069,-86.3741347471052,4,1,0,80,0,0
232118,-86.0334945601021,4,1,0,80,0,0
232167,-85.6956040725979,4,1,0,80,0,0
232240,-85.1936067309765,4,1,0,80,0,0
232313,-84.6975281873374,4,1,0,80,0,0
232362,-84.369958894956,4,1,0,80,0,0
232411,-84.0449136018288,4,1,0,80,0,0
232460,-83.7224333422916,4,1,0,80,0,0
232533,-83.2432225449285,4,1,0,80,0,0
232606,-82.769534851768,4,1,0,80,0,0
232655,-82.4566813824357,4,1,0,80,0,0
232704,-82.1462515433227,4,1,0,80,0,0
232752,-81.8380833520879,4,1,0,80,0,0
232826,-81.3801421060041,4,1,0,80,0,0
232899,-80.9273628362127,4,1,0,80,0,0
232972,-80.4795292269458,4,1,0,80,0,0
233045,-66.6666666666667,4,1,0,80,0,0
233191,-80,4,1,0,80,0,0
233240,-81.0811029948927,4,1,0,80,0,0
233289,-82.1917583036279,4,1,0,80,0,0
233338,-83.3333333333333,4,1,0,80,0,0
233411,-85.1063829787234,4,1,0,80,0,0
233484,-86.9565217391304,4,1,0,80,0,0
233557,-88.8888888888889,4,1,0,80,0,0
233630,-90.9090909090909,4,1,0,80,0,0
233777,-80,4,1,0,80,0,0
234216,-66.6666666666667,4,1,0,80,0,0
234509,-100,4,1,0,80,0,0
234801,-111.111111111111,4,1,0,80,0,0
235094,-125,4,1,0,80,0,0
235387,-142.857142857143,4,1,0,80,0,0
235679,-166.666666666667,4,1,0,80,0,0
235972,-80,4,1,0,80,0,0
236009,-81.0126582278481,4,1,0,80,0,0
236118,-84.2105263157895,4,1,0,80,0,0
236155,-85.3333333333333,4,1,0,80,0,0
236265,-88.8888888888889,4,1,0,80,0,0
236301,-90.1408450704225,4,1,0,80,0,0
236411,-94.1176470588235,4,1,0,80,0,0
236448,-95.5223880597015,4,1,0,80,0,0
236557,-66.6666666666667,4,1,0,90,0,1
236704,-100,4,1,0,90,0,1
240655,-80,4,1,0,90,0,1
240691,-81.0126582278481,4,1,0,90,0,1
240801,-84.2105263157895,4,1,0,90,0,1
240838,-85.3333333333333,4,1,0,90,0,1
240948,-88.8888888888889,4,1,0,90,0,1
240984,-90.1408450704225,4,1,0,90,0,1
241094,-94.1176470588235,4,1,0,90,0,1
241130,-95.5223880597015,4,1,0,90,0,1
241240,-80,4,1,0,90,0,1
241387,-100,4,1,0,90,0,1
245923,-80,4,1,0,90,0,1
246069,-100,4,1,0,90,0,1
246143,-99.773414575499,4,1,0,90,0,1
246216,-99.5478536487275,4,1,0,90,0,1
246362,-99.099777620099,4,1,0,90,0,1
246435,-98.8772488394283,4,1,0,90,0,1
246509,-98.6557171974673,4,1,0,90,0,1
246582,-98.4351760070165,4,1,0,90,0,1
246655,-98.2156186405387,4,1,0,90,0,1
246728,-97.9970385294956,4,1,0,90,0,1
246801,-97.7794291636925,4,1,0,90,0,1
246948,-97.3470969148758,4,1,0,90,0,1
247094,-84.4238075137189,4,1,0,90,0,1
247167,-84.2204554642232,4,1,0,90,0,1
247240,-84.0180806909647,4,1,0,90,0,1
247313,-83.81667616589,4,1,0,90,0,1
247387,-83.6162349281737,4,1,0,90,0,1
247460,-83.4166804999329,4,1,0,90,0,1
247533,-83.2181455502009,4,1,0,90,0,1
247606,-83.0205533984048,4,1,0,90,0,1
247679,-82.8238973447487,4,1,0,90,0,1
247752,-82.6281707527674,4,1,0,90,0,1
247826,-82.4333670485805,4,1,0,90,0,1
247899,-82.2394797201555,4,1,0,90,0,1
247972,-82.046502316583,4,1,0,90,0,1
248045,-81.8544284473606,4,1,0,90,0,1
248118,-81.663251781688,4,1,0,90,0,1
248191,-81.472899669383,4,1,0,90,0,1
248265,-81.2834989620097,4,1,0,90,0,1
248411,-93.2251424480177,4,1,0,90,0,1
248484,-93.0281884713887,4,1,0,90,0,1
248557,-92.8320649378861,4,1,0,90,0,1
248704,-92.4422882794272,4,1,0,90,0,1
248777,-92.2486248036257,4,1,0,90,0,1
248850,-92.055771068344,4,1,0,90,0,1
248923,-91.863722005679,4,1,0,90,0,1
248996,-91.6724725899307,4,1,0,90,0,1
249069,-91.4820178371638,4,1,0,90,0,1
249143,-91.292352804775,4,1,0,90,0,1
249289,-90.9153723348159,4,1,0,90,0,1
249362,-90.7280472148758,4,1,0,90,0,1
249435,-90.541492449745,4,1,0,90,0,1
249582,-90.1706750537417,4,1,0,90,0,1
249655,-89.9864030544985,4,1,0,90,0,1
249728,-89.8028826725338,4,1,0,90,0,1
249801,-89.6201093186094,4,1,0,90,0,1
249874,-89.4380784407723,4,1,0,90,0,1
250021,-80,4,1,0,90,0,1
250057,-81.0126582278481,4,1,0,90,0,1
250167,-84.2105263157895,4,1,0,90,0,1
250204,-85.3333333333333,4,1,0,90,0,1
250313,-88.8888888888889,4,1,0,90,0,1
250350,-90.1408450704225,4,1,0,90,0,1
250460,-94.1176470588235,4,1,0,90,0,1
250496,-95.5223880597015,4,1,0,90,0,1
250606,-66.6666666666667,4,1,0,90,0,1
250752,-87.3100134108181,4,1,0,90,0,1
250826,-87.1372367910841,4,1,0,90,0,1
250899,-86.9651426315304,4,1,0,90,0,1
251045,-86.6229855824703,4,1,0,90,0,1
251191,-75.6143667296786,4,1,0,90,0,1
251265,-75.4399279397808,4,1,0,90,0,1
251338,-75.266292141597,4,1,0,90,0,1
251411,-75.0933974130325,4,1,0,90,0,1
251484,-74.9213513114608,4,1,0,90,0,1
251557,-74.7500917557376,4,1,0,90,0,1
251630,-74.5796133643684,4,1,0,90,0,1
251704,-74.4099108048399,4,1,0,90,0,1
251777,-74.2409787930644,4,1,0,90,0,1
251850,-74.0727572250567,4,1,0,90,0,1
251923,-73.9053508952155,4,1,0,90,0,1
251996,-73.7386995442948,4,1,0,90,0,1
252069,-73.5727980765128,4,1,0,90,0,1
252143,-73.4076414418435,4,1,0,90,0,1
252216,-73.2432246355051,4,1,0,90,0,1
252289,-73.079489291297,4,1,0,90,0,1
252362,-72.9165375436314,4,1,0,90,0,1
252435,-72.7543108748051,4,1,0,90,0,1
252509,-72.5928044560367,4,1,0,90,0,1
252582,-72.4320135013273,4,1,0,90,0,1
252655,-72.2719332669877,4,1,0,90,0,1
252728,-72.1125070489976,4,1,0,90,0,1
252801,-71.9538344198362,4,1,0,90,0,1
252874,-71.7958585276967,4,1,0,90,0,1
252948,-71.6385747935376,4,1,0,90,0,1
253021,-71.4819786783554,4,1,0,90,0,1
253094,-71.3260656827474,4,1,0,90,0,1
253167,-71.1707806936447,4,1,0,90,0,1
253240,-71.0162208149964,4,1,0,90,0,1
253313,-70.8623307896119,4,1,0,90,0,1
253387,-70.7091062722513,4,1,0,90,0,1
253533,-81.1923584999874,4,1,0,90,0,1
253606,-81.0429251957592,4,1,0,90,0,1
253679,-80.8940409404741,4,1,0,90,0,1
253752,-80.7457027137016,4,1,0,90,0,1
253826,-80.5979075171251,4,1,0,90,0,1
253972,-80.3039343306547,4,1,0,90,0,1
254045,-80.1577504528913,4,1,0,90,0,1
254118,-76.9230769230769,4,1,0,90,0,0
254265,-80,4,1,0,90,0,0
254411,-74.0740740740741,4,1,0,90,0,0
254557,-80,4,1,0,90,0,0
254704,-71.4285714285714,4,1,0,90,0,0
254850,-80,4,1,0,90,0,0
254996,-68.9655172413793,4,1,0,90,0,0
255289,-66.6666666666667,4,1,0,90,0,1
255435,-100,4,1,0,90,0,1
259972,-80,4,1,0,90,0,1
260118,-100,4,1,0,90,0,1
264362,-80,4,1,0,90,0,0
264655,-66.6666666666667,4,1,0,90,0,1
264801,-100,4,1,0,90,0,1
264874,-99.773414575499,4,1,0,90,0,1
264948,-99.5478536487275,4,1,0,90,0,1
265094,-99.099777620099,4,1,0,90,0,1
265167,-98.8772488394283,4,1,0,90,0,1
265240,-98.6557171974673,4,1,0,90,0,1
265313,-98.4351760070165,4,1,0,90,0,1
265387,-98.2156186405387,4,1,0,90,0,1
265460,-97.9970385294956,4,1,0,90,0,1
265533,-97.7794291636925,4,1,0,90,0,1
265679,-97.3470969148758,4,1,0,90,0,1
265752,-97.1323612974164,4,1,0,90,0,1
265826,-96.918570955055,4,1,0,90,0,1
265972,-96.4938012382085,4,1,0,90,0,1
266045,-96.2828095708964,4,1,0,90,0,1
266118,-96.0727385918427,4,1,0,90,0,1
266191,-95.8635822878611,4,1,0,90,0,1
266265,-95.6553346980161,4,1,0,90,0,1
266411,-95.241542074856,4,1,0,90,0,1
266484,-95.0359853758626,4,1,0,90,0,1
266557,-94.8313140585526,4,1,0,90,0,1
266630,-94.6275224148944,4,1,0,90,0,1
266704,-94.4246047858167,4,1,0,90,0,1
266777,-94.2225555606855,4,1,0,90,0,1
266850,-94.0213691767865,4,1,0,90,0,1
266923,-93.821040118815,4,1,0,90,0,1
266996,-93.6215629183714,4,1,0,90,0,1
267143,-93.2251424480177,4,1,0,90,0,1
267216,-93.0281884713887,4,1,0,90,0,1
267289,-92.8320649378861,4,1,0,90,0,1
267435,-92.4422882794272,4,1,0,90,0,1
267509,-92.2486248036257,4,1,0,90,0,1
267582,-92.055771068344,4,1,0,90,0,1
267655,-91.863722005679,4,1,0,90,0,1
267728,-91.6724725899307,4,1,0,90,0,1
267874,-91.292352804775,4,1,0,90,0,1
268021,-90.9153723348159,4,1,0,90,0,1
268094,-90.7280472148758,4,1,0,90,0,1
268167,-90.541492449745,4,1,0,90,0,1
268313,-90.1706750537417,4,1,0,90,0,1
268387,-89.9864030544985,4,1,0,90,0,1
268460,-89.8028826725338,4,1,0,90,0,1
268533,-89.6201093186094,4,1,0,90,0,1
268606,-89.4380784407723,4,1,0,90,0,1
268752,-89.076226089714,4,1,0,90,0,1
268826,-88.8963956956365,4,1,0,90,0,1
268899,-88.7172899352009,4,1,0,90,0,1
268972,-88.5389044373043,4,1,0,90,0,1
269045,-88.3612348659295,4,1,0,90,0,1
269118,-88.1842769197938,4,1,0,90,0,1
269191,-88.0080263320015,4,1,0,90,0,1
269265,-87.8324788697014,4,1,0,90,0,1
269338,-80,4,1,0,90,0,1
269484,-87.3100134108181,4,1,0,90,0,1
269557,-87.1372367910841,4,1,0,90,0,1
269630,-86.9651426315304,4,1,0,90,0,1
269777,-86.6229855824703,4,1,0,90,0,1
269850,-86.4529147167932,4,1,0,90,0,1
269923,-86.2835103583354,4,1,0,90,0,1
269996,-86.1147685966996,4,1,0,90,0,1
270069,-85.9466855520184,4,1,0,90,0,1
270143,-85.7792573746572,4,1,0,90,0,1
270216,-85.6124069500152,4,1,0,90,0,1
270362,-85.2807912692937,4,1,0,90,0,1
270435,-85.1159449401975,4,1,0,90,0,1
270509,-84.9517346719461,4,1,0,90,0,1
270655,-84.6252076491033,4,1,0,90,0,1
270728,-84.4628836304175,4,1,0,90,0,1
270801,-84.301181143849,4,1,0,90,0,1
270874,-84.140096626487,4,1,0,90,0,1
270948,-83.9796265426008,4,1,0,90,0,1
271094,-83.6605156666865,4,1,0,90,0,1
271167,-83.5018679367857,4,1,0,90,0,1
271240,-83.3438207641128,4,1,0,90,0,1
271313,-83.1863707450171,4,1,0,90,0,1
271387,-83.0295145015199,4,1,0,90,0,1
271460,-82.8732486810723,4,1,0,90,0,1
271533,-82.7175699563169,4,1,0,90,0,1
271679,-82.4079606089948,4,1,0,90,0,1
271752,-82.2540234555573,4,1,0,90,0,1
271826,-82.1006603356111,4,1,0,90,0,1
271899,-81.947868044265,4,1,0,90,0,1
271972,-81.7956434004412,4,1,0,90,0,1
272045,-81.6439832466546,4,1,0,90,0,1
272118,-81.4928844487944,4,1,0,90,0,1
272191,-81.3423438959078,4,1,0,90,0,1
272265,-81.1923584999874,4,1,0,90,0,1
272338,-81.0429251957592,4,1,0,90,0,1
272411,-80.8940409404741,4,1,0,90,0,1
272484,-80.7457027137016,4,1,0,90,0,1
272557,-80.5979075171251,4,1,0,90,0,1
272630,-80.4506523743401,4,1,0,90,0,1
272704,-80.3039343306547,4,1,0,90,0,1
272850,-76.9230769230769,4,1,0,90,0,0
273143,-74.0740740740741,4,1,0,90,0,0
273435,-71.4285714285714,4,1,0,90,0,0
274021,-66.6666666666667,4,1,0,90,0,1
274167,-100,4,1,0,90,0,1
275191,-86.9565217391304,4,1,0,90,0,1
276509,-100,4,1,0,90,0,1
279289,-86.9565217391304,4,1,0,90,0,1
281630,-100,4,1,0,90,0,1
283387,-80,4,1,0,90,0,1
283533,-100,4,1,0,90,0,1
283606,-99.660456823602,4,1,0,90,0,1
283679,-99.3233102870146,4,1,0,90,0,1
283826,-98.6557171974673,4,1,0,90,0,1
283972,-97.9970385294956,4,1,0,90,0,1
284045,-97.6709387935295,4,1,0,90,0,1
284118,-97.3470969148758,4,1,0,90,0,1
284191,-97.0253012878168,4,1,0,90,0,1
284265,-96.7057196597893,4,1,0,90,0,1
284411,-96.0727385918427,4,1,0,90,0,1
284557,-83.6120401337793,4,1,0,90,0,1
284630,-83.2636000682761,4,1,0,90,0,1
284704,-82.9180520891203,4,1,0,90,0,1
284777,-82.5752921513836,4,1,0,90,0,1
284850,-82.2354219211675,4,1,0,90,0,1
284923,-81.8983379551295,4,1,0,90,0,1
284996,-81.5640061303507,4,1,0,90,0,1
285069,-81.2323928788435,4,1,0,90,0,1
285143,-80.903465176317,4,1,0,90,0,1
285216,-80.5771256044292,4,1,0,90,0,1
285289,-80.253472567758,4,1,0,90,0,1
285362,-79.9324091548187,4,1,0,90,0,1
285435,-79.6139044091773,4,1,0,90,0,1
285509,-79.2979278658469,4,1,0,90,0,1
285582,-78.9843871561908,4,1,0,90,0,1
285655,-78.6733780303018,4,1,0,90,0,1
285728,-78.3648085586909,4,1,0,90,0,1
285874,-90.1706750537417,4,1,0,90,0,1
285948,-89.8945087939303,4,1,0,90,0,1
286021,-89.6201093186094,4,1,0,90,0,1
286167,-89.076226089714,4,1,0,90,0,1
286313,-88.5389044373043,4,1,0,90,0,1
286387,-88.2726282468879,4,1,0,90,0,1
286460,-88.0080263320015,4,1,0,90,0,1
286533,-87.7449290011907,4,1,0,90,0,1
286606,-87.483476558365,4,1,0,90,0,1
286752,-86.9651426315304,4,1,0,90,0,1
286899,-86.4529147167932,4,1,0,90,0,1
287045,-85.9466855520184,4,1,0,90,0,1
287118,-85.6957509475808,4,1,0,90,0,1
287191,-85.4462773620342,4,1,0,90,0,1
287338,-84.9517346719461,4,1,0,90,0,1
287484,-84.4628836304175,4,1,0,90,0,1
287557,-84.2205973261645,4,1,0,90,0,1
287630,-83.9796265426008,4,1,0,90,0,1
287704,-83.7401008733255,4,1,0,90,0,1
287777,-83.5018679367857,4,1,0,90,0,1
287923,-83.0295145015199,4,1,0,90,0,1
287996,-82.7953704140679,4,1,0,90,0,1
288069,-82.5624750248513,4,1,0,90,0,1
288216,-82.1006603356111,4,1,0,90,0,1
288289,-81.8717184791837,4,1,0,90,0,1
288362,-81.6439832466546,4,1,0,90,0,1
288435,-81.4175777293615,4,1,0,90,0,1
288509,-81.1923584999874,4,1,0,90,0,1
288655,-70.6963591375044,4,1,0,90,0,1
288728,-70.4576648075238,4,1,0,90,0,1
288801,-70.2206261854119,4,1,0,90,0,1
288874,-69.9851281602659,4,1,0,90,0,1
288948,-69.7512044289225,4,1,0,90,0,1
289021,-69.5188875865684,4,1,0,90,0,1
289094,-69.2880651307812,4,1,0,90,0,1
289167,-69.0587703947814,4,1,0,90,0,1
289240,-68.8310356386453,4,1,0,90,0,1
289313,-68.6047508789984,4,1,0,90,0,1
289387,-68.3799490842899,4,1,0,90,0,1
289460,-68.1566621774145,4,1,0,90,0,1
289533,-67.9347826086957,4,1,0,90,0,1
289606,-67.7143429812729,4,1,0,90,0,1
289679,-67.4953748794364,4,1,0,90,0,1
289752,-67.2777731057102,4,1,0,90,0,1
289826,-67.061569897939,4,1,0,90,0,1
289899,-66.8467965009713,4,1,0,90,0,1
289972,-66.6333499916708,4,1,0,90,0,1
290045,-66.4212622430992,4,1,0,90,0,1
290118,-66.210564160354,4,1,0,90,0,1
290191,-66.0011550202128,4,1,0,90,0,1
290265,-65.7930663319115,4,1,0,90,0,1
290338,-65.5863286609633,4,1,0,90,0,1
290411,-65.38084341288,4,1,0,90,0,1
290557,-75.3565305853319,4,1,0,90,0,1
290630,-75.1636123932771,4,1,0,90,0,1
290704,-74.9716232406034,4,1,0,90,0,1
290777,-74.7806123784348,4,1,0,90,0,1
290850,-74.5906279859561,4,1,0,90,0,1
290923,-74.4015511235378,4,1,0,90,0,1
290996,-74.2134854808737,4,1,0,90,0,1
291069,-74.0263133933588,4,1,0,90,0,1
291143,-73.8401375789443,4,1,0,90,0,1
291216,-73.6548416273595,4,1,0,90,0,1
291289,-73.4705272979744,4,1,0,90,0,1
291362,-73.2870794146121,4,1,0,90,0,1
291435,-73.1045987909961,4,1,0,90,0,1
291484,-72.983431301426,4,1,0,90,0,1
291533,-72.86266480624,4,1,0,90,0,1
291582,-66.6666666666667,4,1,0,90,0,1
292752,-66.6666666666667,4,1,0,90,0,0
292899,-100,4,1,0,70,0,0
292972,-100.813057307182,4,1,0,70,0,0
293045,-101.639340929858,4,1,0,70,0,0
293338,-105.084735076129,4,1,0,70,0,0
293630,-108.77191074177,4,1,0,70,0,0
293923,-112.727244033065,4,1,0,70,0,0
294216,-116.981092346044,4,1,0,70,0,0
294509,-121.568575009634,4,1,0,70,0,0
294801,-126.530545106241,4,1,0,70,0,0
295094,-131.914809416079,4,1,0,70,0,0
295240,-134.782696597411,4,1,0,70,0,0
295387,-137.777863506226,4,1,0,70,0,0
295679,-144.186126987606,4,1,0,70,0,0
295972,-151.219585960774,4,1,0,70,0,0
296191,-156.961969684365,4,1,0,70,0,0
296265,-158.974424194636,4,1,0,70,0,0
296557,-167.567621913823,4,1,0,70,0,0
296850,-177.142897632662,4,1,0,70,0,0
296996,-182.352973356407,4,1,0,70,0,0
297143,-187.878810651977,4,1,0,70,0,0
297289,-193.750012109376,4,1,0,70,0,0
297435,-200,4,1,0,70,0,0
302118,-160,4,1,0,70,0,0
302265,-200,4,1,0,70,0,0
302338,-197.402576893239,4,1,0,70,0,0
302411,-194.871754898102,4,1,0,70,0,0
302704,-185.365745151759,4,1,0,70,0,0
302996,-176.744334018512,4,1,0,70,0,0
303289,-168.888963950651,4,1,0,70,0,0
303582,-161.702141421459,4,1,0,70,0,0
303874,-155.102002832163,4,1,0,70,0,0
304167,-149.019526028496,4,1,0,70,0,0
304460,-143.396312994,4,1,0,70,0,0
304606,-140.740803292209,4,1,0,70,0,0
304752,-138.181858380177,4,1,0,70,0,0
305045,-133.333333333333,4,1,0,70,0,0
305338,-128.813524389553,4,1,0,70,0,0
305557,-125.619776572665,4,1,0,70,0,0
305630,-124.590098575686,4,1,0,70,0,0
305923,-120.634974250465,4,1,0,70,0,0
306216,-116.92309850888,4,1,0,70,0,0
306362,-115.151522130395,4,1,0,70,0,0
306509,-113.432829048786,4,1,0,70,0,0
306655,-111.764686159173,4,1,0,70,0,0
306801,-110.144895610175,4,1,0,70,0,0
306948,-108.571385142875,4,1,0,70,0,0
307021,-107.801369508598,4,1,0,70,0,0
307094,-107.042199246209,4,1,0,70,0,0
307387,-104.109623268917,4,1,0,70,0,0
307679,-101.333344142223,4,1,0,70,0,0
307972,-98.7012884466194,4,1,0,70,0,0
308265,-96.2025024194929,4,1,0,70,0,0
308557,-93.8272021948059,4,1,0,70,0,0
308850,-91.5662871244065,4,1,0,70,0,0
309143,-89.411768913495,4,1,0,70,0,0
309289,-88.3720889129261,4,1,0,70,0,0
309435,-87.3563097899343,4,1,0,70,0,0
309728,-85.39323156168,4,1,0,70,0,0
310021,-83.5165128849276,4,1,0,70,0,0
310240,-82.1621799269578,4,1,0,70,0,0
310313,-81.7204441669581,4,1,0,70,0,0
310606,-80,4,1,0,70,0,0
310899,-800,4,1,0,70,0,0
311484,-40,4,1,0,70,0,0

[HitObjects]
256,192,70,5,4,0:0:0:0:
256,192,216,1,0,0:0:0:0:
256,192,289,1,0,0:0:0:0:
256,192,362,1,0,0:0:0:0:
256,192,655,1,0,0:0:0:0:
256,192,948,1,0,0:0:0:0:
256,192,1240,1,0,0:0:0:0:
256,192,1533,1,0,0:0:0:0:
256,192,1826,1,0,0:0:0:0:
256,192,2118,1,0,0:0:0:0:
256,192,2411,1,0,0:0:0:0:
256,192,2557,1,0,0:0:0:0:
256,192,2704,1,0,0:0:0:0:
256,192,2996,1,0,0:0:0:0:
256,192,3289,1,0,0:0:0:0:
256,192,3509,1,0,0:0:0:0:
256,192,3582,1,0,0:0:0:0:
256,192,3874,1,0,0:0:0:0:
256,192,4167,1,0,0:0:0:0:
256,192,4313,1,0,0:0:0:0:
256,192,4460,1,0,0:0:0:0:
256,192,4606,1,0,0:0:0:0:
256,192,4752,1,0,0:0:0:0:
256,192,4899,1,0,0:0:0:0:
256,192,4972,1,0,0:0:0:0:
256,192,5045,1,8,0:0:0:0:
256,192,5338,1,0,0:0:0:0:
256,192,5630,1,8,0:0:0:0:
256,192,5923,1,0,0:0:0:0:
256,192,6216,1,8,0:0:0:0:
256,192,6509,1,0,0:0:0:0:
256,192,6801,1,8,0:0:0:0:
256,192,7094,1,0,0:0:0:0:
256,192,7240,1,0,0:0:0:0:
256,192,7387,1,8,0:0:0:0:
256,192,7679,1,0,0:0:0:0:
256,192,7972,1,8,0:0:0:0:
256,192,8191,1,0,0:0:0:0:
256,192,8265,1,0,0:0:0:0:
256,192,8557,1,8,0:0:0:0:
256,192,8850,1,0,0:0:0:0:
256,192,8996,1,0,0:0:0:0:
256,192,9143,1,8,0:0:0:0:
256,192,9289,1,0,0:0:0:0:
256,192,9435,1,12,0:0:0:0:
256,192,9582,1,0,0:0:0:0:
256,192,9655,1,0,0:0:0:0:
256,192,9728,1,8,0:0:0:0:
256,192,9874,1,0,0:0:0:0:
256,192,10021,1,8,0:0:0:0:
256,192,10167,1,0,0:0:0:0:
256,192,10313,1,8,0:0:0:0:
256,192,10460,1,0,0:0:0:0:
256,192,10606,1,8,0:0:0:0:
256,192,10752,1,0,0:0:0:0:
256,192,10899,1,8,0:0:0:0:
256,192,11045,1,0,0:0:0:0:
256,192,11191,1,8,0:0:0:0:
256,192,11338,1,0,0:0:0:0:
256,192,11484,1,8,0:0:0:0:
256,192,11557,1,8,0:0:0:0:
256,192,11630,1,8,0:0:0:0:
256,192,11704,1,8,0:0:0:0:
256,192,11777,1,0,0:0:0:0:
256,192,11923,1,0,0:0:0:0:
256,192,12069,1,8,0:0:0:0:
256,192,12216,1,0,0:0:0:0:
256,192,12362,1,8,0:0:0:0:
256,192,12509,1,0,0:0:0:0:
256,192,12655,1,8,0:0:0:0:
256,192,12801,1,0,0:0:0:0:
256,192,12874,1,0,0:0:0:0:
256,192,12948,1,8,0:0:0:0:
256,192,13094,1,0,0:0:0:0:
256,192,13240,1,8,0:0:0:0:
256,192,13387,1,0,0:0:0:0:
256,192,13533,1,8,0:0:0:0:
256,192,13679,1,0,0:0:0:0:
256,192,13826,1,8,0:0:0:0:
256,192,13899,1,0,0:0:0:0:
256,192,13972,1,0,0:0:0:0:
256,192,14045,1,0,0:0:0:0:
256,192,14118,1,8,0:0:0:0:
256,192,14265,1,0,0:0:0:0:
256,192,14338,1,0,0:0:0:0:
256,192,14411,1,8,0:0:0:0:
256,192,14557,1,0,0:0:0:0:
256,192,14704,1,8,0:0:0:0:
256,192,14850,1,8,0:0:0:0:
256,192,14923,1,0,0:0:0:0:
256,192,14996,1,8,0:0:0:0:
256,192,15143,1,0,0:0:0:0:
256,192,15289,1,8,0:0:0:0:
256,192,15435,1,0,0:0:0:0:
256,192,15509,1,0,0:0:0:0:
256,192,15582,1,8,0:0:0:0:
256,192,15728,1,0,0:0:0:0:
256,192,15874,1,8,0:0:0:0:
256,192,15948,1,0,0:0:0:0:
256,192,16021,1,8,0:0:0:0:
256,192,16094,1,0,0:0:0:0:
256,192,16167,1,8,0:0:0:0:
256,192,16313,1,0,0:0:0:0:
256,192,16460,1,12,0:0:0:0:
256,192,16606,1,0,0:0:0:0:
256,192,16752,1,12,0:0:0:0:
256,192,16899,1,0,0:0:0:0:
256,192,17045,1,12,0:0:0:0:
256,192,17191,1,0,0:0:0:0:
256,192,17338,1,0,0:0:0:0:
256,192,17411,1,0,0:0:0:0:
256,192,17484,1,8,0:0:0:0:
256,192,17533,1,8,0:0:0:0:
256,192,17582,1,8,0:0:0:0:
256,192,17630,1,4,0:0:0:0:
256,192,18801,1,4,0:0:0:0:
256,192,18948,1,4,0:0:0:0:
256,192,19094,1,4,0:0:0:0:
256,192,19387,1,4,0:0:0:0:
256,192,19679,1,4,0:0:0:0:
256,192,19972,1,4,0:0:0:0:
256,192,20265,1,4,0:0:0:0:
256,192,20557,1,4,0:0:0:0:
256,192,20850,1,4,0:0:0:0:
256,192,21143,1,4,0:0:0:0:
256,192,21435,1,4,0:0:0:0:
256,192,21728,1,4,0:0:0:0:
256,192,22021,1,4,0:0:0:0:
256,192,22313,1,4,0:0:0:0:
256,192,22606,1,4,0:0:0:0:
256,192,22899,1,12,0:0:0:0:
256,192,23191,1,12,0:0:0:0:
256,192,23484,1,4,0:0:0:0:
256,192,23630,1,4,0:0:0:0:
256,192,23777,1,4,0:0:0:0:
256,192,24069,1,4,0:0:0:0:
256,192,24362,1,4,0:0:0:0:
256,192,24655,1,4,0:0:0:0:
256,192,24948,1,4,0:0:0:0:
256,192,25240,1,4,0:0:0:0:
256,192,25533,1,4,0:0:0:0:
256,192,25826,1,4,0:0:0:0:
256,192,26118,1,4,0:0:0:0:
256,192,26411,1,4,0:0:0:0:
256,192,26704,1,4,0:0:0:0:
256,192,26996,1,4,0:0:0:0:
256,192,27143,1,4,0:0:0:0:
256,192,27289,1,4,0:0:0:0:
256,192,27582,1,4,0:0:0:0:
256,192,27874,1,12,0:0:0:0:
256,192,28167,1,12,0:0:0:0:
256,192,28313,1,0,0:0:0:0:
256,192,28460,1,8,0:0:0:0:
256,192,28606,1,0,0:0:0:0:
256,192,28679,1,0,0:0:0:0:
256,192,28752,1,0,0:0:0:0:
256,192,28899,1,0,0:0:0:0:
256,192,29045,1,8,0:0:0:0:
256,192,29191,1,0,0:0:0:0:
256,192,29338,1,0,0:0:0:0:
256,192,29411,1,0,0:0:0:0:
256,192,29484,1,0,0:0:0:0:
256,192,29557,1,0,0:0:0:0:
256,192,29630,1,8,0:0:0:0:
256,192,29704,1,8,0:0:0:0:
256,192,29777,1,8,0:0:0:0:
256,192,29850,1,8,0:0:0:0:
256,192,29923,1,8,0:0:0:0:
256,192,29996,1,8,0:0:0:0:
256,192,30069,1,8,0:0:0:0:
256,192,30143,1,8,0:0:0:0:
256,192,30216,1,8,0:0:0:0:
256,192,30289,1,8,0:0:0:0:
256,192,30362,1,8,0:0:0:0:
256,192,30435,1,8,0:0:0:0:
256,192,30509,1,8,0:0:0:0:
256,192,30655,1,0,0:0:0:0:
256,192,30728,1,0,0:0:0:0:
256,192,30801,1,8,0:0:0:0:
256,192,30948,1,0,0:0:0:0:
256,192,31094,1,0,0:0:0:0:
256,192,31240,1,0,0:0:0:0:
256,192,31387,1,8,0:0:0:0:
256,192,31679,1,0,0:0:0:0:
256,192,31826,1,0,0:0:0:0:
256,192,31899,1,0,0:0:0:0:
256,192,31972,1,8,0:0:0:0:
256,192,32118,1,0,0:0:0:0:
256,192,32265,1,4,0:0:0:0:
256,192,32557,1,4,0:0:0:0:
256,192,32850,1,12,0:0:0:0:
256,192,32996,1,0,0:0:0:0:
256,192,33143,1,8,0:0:0:0:
256,192,33289,1,0,0:0:0:0:
256,192,33435,1,8,0:0:0:0:
256,192,33509,1,8,0:0:0:0:
256,192,33582,1,8,0:0:0:0:
256,192,33655,1,8,0:0:0:0:
256,192,33728,1,0,0:0:0:0:
256,192,33801,1,0,0:0:0:0:
256,192,33874,1,0,0:0:0:0:
256,192,33948,1,0,0:0:0:0:
256,192,34021,1,0,0:0:0:0:
256,192,34094,1,0,0:0:0:0:
256,192,34167,1,0,0:0:0:0:
256,192,34240,1,0,0:0:0:0:
256,192,34313,1,8,0:0:0:0:
256,192,34387,1,8,0:0:0:0:
256,192,34460,1,8,0:0:0:0:
256,192,34533,1,8,0:0:0:0:
256,192,34606,1,8,0:0:0:0:
256,192,34679,1,8,0:0:0:0:
256,192,34752,1,8,0:0:0:0:
256,192,34826,1,8,0:0:0:0:
256,192,34899,1,8,0:0:0:0:
256,192,34972,1,8,0:0:0:0:
256,192,35045,1,8,0:0:0:0:
256,192,35118,1,8,0:0:0:0:
256,192,35191,1,0,0:0:0:0:
256,192,35265,1,0,0:0:0:0:
256,192,35338,1,0,0:0:0:0:
256,192,35411,1,0,0:0:0:0:
256,192,35484,1,0,0:0:0:0:
256,192,35557,1,0,0:0:0:0:
256,192,35630,1,0,0:0:0:0:
256,192,35777,1,0,0:0:0:0:
256,192,36069,1,8,0:0:0:0:
256,192,36362,1,0,0:0:0:0:
256,192,36509,1,0,0:0:0:0:
256,192,36582,1,0,0:0:0:0:
256,192,36655,1,8,0:0:0:0:
256,192,36801,1,0,0:0:0:0:
256,192,36948,1,8,0:0:0:0:
256,192,37021,1,8,0:0:0:0:
256,192,37094,1,0,0:0:0:0:
256,192,37143,1,0,0:0:0:0:
256,192,37191,1,0,0:0:0:0:
256,192,37240,1,8,0:0:0:0:
256,192,37533,1,12,0:0:0:0:
256,192,37679,1,0,0:0:0:0:
256,192,37752,1,0,0:0:0:0:
256,192,37826,1,8,0:0:0:0:
256,192,37972,1,0,0:0:0:0:
256,192,38118,1,8,0:0:0:0:
256,192,38265,1,8,0:0:0:0:
256,192,38338,1,0,0:0:0:0:
256,192,38411,1,8,0:0:0:0:
256,192,38557,1,0,0:0:0:0:
256,192,38704,1,8,0:0:0:0:
256,192,38850,1,0,0:0:0:0:
256,192,38923,1,0,0:0:0:0:
256,192,38996,1,8,0:0:0:0:
256,192,39143,1,0,0:0:0:0:
256,192,39289,1,8,0:0:0:0:
256,192,39362,1,0,0:0:0:0:
256,192,39435,1,0,0:0:0:0:
256,192,39509,1,0,0:0:0:0:
256,192,39582,1,8,0:0:0:0:
256,192,39728,1,0,0:0:0:0:
256,192,39874,1,8,0:0:0:0:
256,192,40021,1,8,0:0:0:0:
256,192,40094,1,8,0:0:0:0:
256,192,40167,1,0,0:0:0:0:
256,192,40313,1,0,0:0:0:0:
256,192,40460,1,8,0:0:0:0:
256,192,40606,1,0,0:0:0:0:
256,192,40679,1,0,0:0:0:0:
256,192,40752,1,8,0:0:0:0:
256,192,40899,1,0,0:0:0:0:
256,192,41045,1,8,0:0:0:0:
256,192,41191,1,8,0:0:0:0:
256,192,41265,1,0,0:0:0:0:
256,192,41338,1,8,0:0:0:0:
256,192,41484,1,0,0:0:0:0:
256,192,41630,1,8,0:0:0:0:
256,192,41704,1,8,0:0:0:0:
256,192,41777,1,0,0:0:0:0:
256,192,41850,1,0,0:0:0:0:
256,192,41923,1,8,0:0:0:0:
256,192,42069,1,0,0:0:0:0:
256,192,42216,1,12,0:0:0:0:
256,192,42362,1,0,0:0:0:0:
256,192,42435,1,0,0:0:0:0:
256,192,42509,1,8,0:0:0:0:
256,192,42655,1,0,0:0:0:0:
256,192,42801,1,8,0:0:0:0:
256,192,42948,1,8,0:0:0:0:
256,192,43021,1,0,0:0:0:0:
256,192,43094,1,8,0:0:0:0:
256,192,43240,1,0,0:0:0:0:
256,192,43387,1,8,0:0:0:0:
256,192,43533,1,0,0:0:0:0:
256,192,43606,1,0,0:0:0:0:
256,192,43679,1,8,0:0:0:0:
256,192,43826,1,0,0:0:0:0:
256,192,43972,1,8,0:0:0:0:
256,192,44045,1,0,0:0:0:0:
256,192,44118,1,8,0:0:0:0:
256,192,44191,1,0,0:0:0:0:
256,192,44265,1,8,0:0:0:0:
256,192,44411,1,0,0:0:0:0:
256,192,44557,1,8,0:0:0:0:
256,192,44704,1,8,0:0:0:0:
256,192,44777,1,8,0:0:0:0:
256,192,44850,1,0,0:0:0:0:
256,192,44996,1,0,0:0:0:0:
256,192,45143,1,0,0:0:0:0:
256,192,45216,1,0,0:0:0:0:
256,192,45289,1,8,0:0:0:0:
256,192,45362,1,0,0:0:0:0:
256,192,45435,1,8,0:0:0:0:
256,192,45582,1,0,0:0:0:0:
256,192,45728,1,8,0:0:0:0:
256,192,45801,1,8,0:0:0:0:
256,192,45874,1,0,0:0:0:0:
256,192,45948,1,0,0:0:0:0:
256,192,46021,1,8,0:0:0:0:
256,192,46094,1,0,0:0:0:0:
256,192,46167,1,8,0:0:0:0:
256,192,46240,1,8,0:0:0:0:
256,192,46313,1,0,0:0:0:0:
256,192,46460,1,0,0:0:0:0:
256,192,46606,1,8,0:0:0:0:
256,192,46752,1,0,0:0:0:0:
256,192,46801,1,0,0:0:0:0:
256,192,46850,1,0,0:0:0:0:
256,192,46899,1,12,0:0:0:0:
256,192,47338,1,0,0:0:0:0:
256,192,47484,1,8,0:0:0:0:
256,192,47777,1,0,0:0:0:0:
256,192,48216,1,8,0:0:0:0:
256,192,48362,1,0,0:0:0:0:
256,192,48655,1,8,0:0:0:0:
256,192,49240,1,0,0:0:0:0:
256,192,49679,1,0,0:0:0:0:
256,192,49826,1,8,0:0:0:0:
256,192,50118,1,0,0:0:0:0:
256,192,50557,1,8,0:0:0:0:
256,192,50704,1,0,0:0:0:0:
256,192,50996,1,8,0:0:0:0:
256,192,51289,1,0,0:0:0:0:
256,192,51582,1,0,0:0:0:0:
256,192,52021,1,0,0:0:0:0:
256,192,52167,1,8,0:0:0:0:
256,192,52460,1,0,0:0:0:0:
256,192,52899,1,8,0:0:0:0:
256,192,53045,1,0,0:0:0:0:
256,192,53338,1,8,0:0:0:0:
256,192,53923,1,0,0:0:0:0:
256,192,54362,1,0,0:0:0:0:
256,192,54509,1,8,0:0:0:0:
256,192,54801,1,0,0:0:0:0:
256,192,55240,1,8,0:0:0:0:
256,192,55387,1,0,0:0:0:0:
256,192,55679,1,8,0:0:0:0:
256,192,55826,1,8,0:0:0:0:
256,192,55972,1,4,0:0:0:0:
256,192,56265,1,12,0:0:0:0:
256,192,56557,1,0,0:0:0:0:
256,192,56704,1,0,0:0:0:0:
256,192,56777,1,0,0:0:0:0:
256,192,56850,1,8,0:0:0:0:
256,192,57069,1,8,0:0:0:0:
256,192,57143,1,0,0:0:0:0:
256,192,57289,1,0,0:0:0:0:
256,192,57435,1,8,0:0:0:0:
256,192,57728,1,8,0:0:0:0:
256,192,57874,1,0,0:0:0:0:
256,192,58021,1,8,0:0:0:0:
256,192,58167,1,8,0:0:0:0:
256,192,58240,1,8,0:0:0:0:
256,192,58313,1,0,0:0:0:0:
256,192,58460,1,0,0:0:0:0:
256,192,58606,1,8,0:0:0:0:
256,192,58826,1,0,0:0:0:0:
256,192,58899,1,8,0:0:0:0:
256,192,59045,1,0,0:0:0:0:
256,192,59118,1,0,0:0:0:0:
256,192,59191,1,8,0:0:0:0:
256,192,59338,1,0,0:0:0:0:
256,192,59484,1,0,0:0:0:0:
256,192,59630,1,8,0:0:0:0:
256,192,59923,1,8,0:0:0:0:
256,192,60069,1,0,0:0:0:0:
256,192,60216,1,0,0:0:0:0:
256,192,60362,1,8,0:0:0:0:
256,192,60435,1,8,0:0:0:0:
256,192,60509,1,0,0:0:0:0:
256,192,60582,1,0,0:0:0:0:
256,192,60655,1,8,0:0:0:0:
256,192,60801,1,0,0:0:0:0:
256,192,60948,1,8,0:0:0:0:
256,192,61094,1,0,0:0:0:0:
256,192,61167,1,0,0:0:0:0:
256,192,61240,1,8,0:0:0:0:
256,192,61387,1,8,0:0:0:0:
256,192,61460,1,0,0:0:0:0:
256,192,61533,1,8,0:0:0:0:
256,192,61679,1,0,0:0:0:0:
256,192,61826,1,8,0:0:0:0:
256,192,61899,1,8,0:0:0:0:
256,192,61972,1,0,0:0:0:0:
256,192,62045,1,0,0:0:0:0:
256,192,62118,1,8,0:0:0:0:
256,192,62265,1,8,0:0:0:0:
256,192,62338,1,0,0:0:0:0:
256,192,62411,1,8,0:0:0:0:
256,192,62557,1,0,0:0:0:0:
256,192,62630,1,0,0:0:0:0:
256,192,62704,1,8,0:0:0:0:
256,192,62777,1,8,0:0:0:0:
256,192,62850,1,0,0:0:0:0:
256,192,62923,1,0,0:0:0:0:
256,192,62996,1,8,0:0:0:0:
256,192,63143,1,0,0:0:0:0:
256,192,63289,1,8,0:0:0:0:
256,192,63362,1,8,0:0:0:0:
256,192,63435,1,0,0:0:0:0:
256,192,63509,1,0,0:0:0:0:
256,192,63582,1,8,0:0:0:0:
256,192,63655,1,8,0:0:0:0:
256,192,63728,1,0,0:0:0:0:
256,192,63801,1,0,0:0:0:0:
256,192,63874,1,8,0:0:0:0:
256,192,63948,1,0,0:0:0:0:
256,192,64021,1,8,0:0:0:0:
256,192,64094,1,8,0:0:0:0:
256,192,64167,1,0,0:0:0:0:
256,192,64240,1,8,0:0:0:0:
256,192,64313,1,0,0:0:0:0:
256,192,64387,1,0,0:0:0:0:
256,192,64460,1,8,0:0:0:0:
256,192,65338,1,4,0:0:0:0:
256,192,65630,1,12,0:0:0:0:
256,192,65777,1,0,0:0:0:0:
256,192,65850,1,0,0:0:0:0:
256,192,65923,1,8,0:0:0:0:
256,192,66069,1,0,0:0:0:0:
256,192,66216,1,0,0:0:0:0:
256,192,66289,1,0,0:0:0:0:
256,192,66362,1,8,0:0:0:0:
256,192,66435,1,0,0:0:0:0:
256,192,66509,1,8,0:0:0:0:
256,192,66655,1,8,0:0:0:0:
256,192,66801,1,0,0:0:0:0:
256,192,66948,1,0,0:0:0:0:
256,192,67021,1,0,0:0:0:0:
256,192,67094,1,8,0:0:0:0:
256,192,67240,1,0,0:0:0:0:
256,192,67387,1,0,0:0:0:0:
256,192,67460,1,0,0:0:0:0:
256,192,67606,1,0,0:0:0:0:
256,192,67679,1,8,0:0:0:0:
256,192,67826,1,8,0:0:0:0:
256,192,67972,1,0,0:0:0:0:
256,192,68118,1,0,0:0:0:0:
256,192,68191,1,0,0:0:0:0:
256,192,68265,1,8,0:0:0:0:
256,192,68411,1,0,0:0:0:0:
256,192,68557,1,0,0:0:0:0:
256,192,68630,1,8,0:0:0:0:
256,192,68704,1,0,0:0:0:0:
256,192,68777,1,0,0:0:0:0:
256,192,68850,1,8,0:0:0:0:
256,192,68996,1,8,0:0:0:0:
256,192,69143,1,0,0:0:0:0:
256,192,69289,1,0,0:0:0:0:
256,192,69362,1,0,0:0:0:0:
256,192,69435,1,8,0:0:0:0:
256,192,69582,1,8,0:0:0:0:
256,192,69728,1,4,0:0:0:0:
256,192,70021,1,4,0:0:0:0:
256,192,70313,1,12,0:0:0:0:
256,192,70460,1,0,0:0:0:0:
256,192,70533,1,0,0:0:0:0:
256,192,70606,1,8,0:0:0:0:
256,192,70752,1,8,0:0:0:0:
256,192,70899,1,0,0:0:0:0:
256,192,70972,1,0,0:0:0:0:
256,192,71118,1,0,0:0:0:0:
256,192,71191,1,8,0:0:0:0:
256,192,71338,1,8,0:0:0:0:
256,192,71411,1,8,0:0:0:0:
256,192,71484,1,0,0:0:0:0:
256,192,71630,1,0,0:0:0:0:
256,192,71777,1,8,0:0:0:0:
256,192,71923,1,0,0:0:0:0:
256,192,71996,1,8,0:0:0:0:
256,192,72069,1,8,0:0:0:0:
256,192,72143,1,0,0:0:0:0:
256,192,72216,1,0,0:0:0:0:
256,192,72362,1,8,0:0:0:0:
256,192,72509,1,8,0:0:0:0:
256,192,72582,1,8,0:0:0:0:
256,192,72655,1,0,0:0:0:0:
256,192,72801,1,0,0:0:0:0:
256,192,72874,1,0,0:0:0:0:
256,192,72948,1,8,0:0:0:0:
256,192,73094,1,8,0:0:0:0:
256,192,73240,1,0,0:0:0:0:
256,192,73313,1,0,0:0:0:0:
256,192,73460,1,0,0:0:0:0:
256,192,73533,1,8,0:0:0:0:
256,192,73679,1,8,0:0:0:0:
256,192,73752,1,8,0:0:0:0:
256,192,73826,1,0,0:0:0:0:
256,192,73972,1,0,0:0:0:0:
256,192,74118,1,8,0:0:0:0:
256,192,74265,1,8,0:0:0:0:
256,192,74338,1,8,0:0:0:0:
256,192,74411,1,0,0:0:0:0:
256,192,74484,1,0,0:0:0:0:
256,192,74557,1,8,0:0:0:0:
256,192,74704,1,4,0:0:0:0:
256,192,74996,1,12,0:0:0:0:
256,192,75143,1,0,0:0:0:0:
256,192,75216,1,0,0:0:0:0:
256,192,75289,1,8,0:0:0:0:
256,192,75435,1,8,0:0:0:0:
256,192,75582,1,0,0:0:0:0:
256,192,75655,1,0,0:0:0:0:
256,192,75728,1,8,0:0:0:0:
256,192,75801,1,0,0:0:0:0:
256,192,75874,1,8,0:0:0:0:
256,192,76021,1,8,0:0:0:0:
256,192,76167,1,0,0:0:0:0:
256,192,76240,1,0,0:0:0:0:
256,192,76313,1,0,0:0:0:0:
256,192,76387,1,0,0:0:0:0:
256,192,76460,1,8,0:0:0:0:
256,192,76533,1,8,0:0:0:0:
256,192,76606,1,8,0:0:0:0:
256,192,76679,1,8,0:0:0:0:
256,192,76752,1,8,0:0:0:0:
256,192,76826,1,8,0:0:0:0:
256,192,76899,1,8,0:0:0:0:
256,192,76972,1,8,0:0:0:0:
256,192,77045,1,8,0:0:0:0:
256,192,77118,1,8,0:0:0:0:
256,192,77191,1,8,0:0:0:0:
256,192,77265,1,8,0:0:0:0:
256,192,77338,1,8,0:0:0:0:
256,192,77484,1,0,0:0:0:0:
256,192,77557,1,0,0:0:0:0:
256,192,77630,1,8,0:0:0:0:
256,192,77777,1,8,0:0:0:0:
256,192,77923,1,0,0:0:0:0:
256,192,77996,1,8,0:0:0:0:
256,192,78069,1,0,0:0:0:0:
256,192,78143,1,0,0:0:0:0:
256,192,78216,1,8,0:0:0:0:
256,192,78362,1,8,0:0:0:0:
256,192,78509,1,0,0:0:0:0:
256,192,78655,1,0,0:0:0:0:
256,192,78728,1,0,0:0:0:0:
256,192,78801,1,8,0:0:0:0:
256,192,78948,1,8,0:0:0:0:
256,192,79094,1,4,0:0:0:0:
256,192,79387,1,4,0:0:0:0:
256,192,79679,1,12,0:0:0:0:
256,192,79826,1,0,0:0:0:0:
256,192,79899,1,0,0:0:0:0:
256,192,79972,1,8,0:0:0:0:
256,192,80118,1,8,0:0:0:0:
256,192,80265,1,8,0:0:0:0:
256,192,80338,1,8,0:0:0:0:
256,192,80411,1,8,0:0:0:0:
256,192,80484,1,8,0:0:0:0:
256,192,80557,1,0,0:0:0:0:
256,192,80630,1,0,0:0:0:0:
256,192,80704,1,0,0:0:0:0:
256,192,80777,1,0,0:0:0:0:
256,192,80850,1,0,0:0:0:0:
256,192,80923,1,0,0:0:0:0:
256,192,80996,1,0,0:0:0:0:
256,192,81069,1,0,0:0:0:0:
256,192,81143,1,8,0:0:0:0:
256,192,81216,1,8,0:0:0:0:
256,192,81289,1,8,0:0:0:0:
256,192,81362,1,8,0:0:0:0:
256,192,81435,1,8,0:0:0:0:
256,192,81509,1,8,0:0:0:0:
256,192,81582,1,8,0:0:0:0:
256,192,81655,1,8,0:0:0:0:
256,192,81728,1,8,0:0:0:0:
256,192,81801,1,8,0:0:0:0:
256,192,81874,1,8,0:0:0:0:
256,192,81948,1,8,0:0:0:0:
256,192,82021,1,0,0:0:0:0:
256,192,82094,1,0,0:0:0:0:
256,192,82167,1,0,0:0:0:0:
256,192,82240,1,0,0:0:0:0:
256,192,82313,1,0,0:0:0:0:
256,192,82387,1,0,0:0:0:0:
256,192,82460,1,0,0:0:0:0:
256,192,82606,1,0,0:0:0:0:
256,192,82679,1,0,0:0:0:0:
256,192,82826,1,0,0:0:0:0:
256,192,82899,1,8,0:0:0:0:
256,192,83045,1,8,0:0:0:0:
256,192,83118,1,8,0:0:0:0:
256,192,83191,1,0,0:0:0:0:
256,192,83338,1,0,0:0:0:0:
256,192,83484,1,8,0:0:0:0:
256,192,83630,1,8,0:0:0:0:
256,192,83704,1,8,0:0:0:0:
256,192,83777,1,0,0:0:0:0:
256,192,83850,1,0,0:0:0:0:
256,192,83923,1,8,0:0:0:0:
256,192,84069,1,4,0:0:0:0:
256,192,84362,1,12,0:0:0:0:
256,192,84509,1,0,0:0:0:0:
256,192,84582,1,0,0:0:0:0:
256,192,84655,1,8,0:0:0:0:
256,192,84801,1,8,0:0:0:0:
256,192,84874,1,8,0:0:0:0:
256,192,84948,1,0,0:0:0:0:
256,192,85094,1,0,0:0:0:0:
256,192,85240,1,0,0:0:0:0:
256,192,85277,1,0,0:0:0:0:
256,192,85387,1,0,0:0:0:0:
256,192,85423,1,0,0:0:0:0:
256,192,85533,1,8,0:0:0:0:
256,192,85569,1,8,0:0:0:0:
256,192,85679,1,8,0:0:0:0:
256,192,85716,1,8,0:0:0:0:
256,192,85826,1,8,0:0:0:0:
256,192,85862,1,0,0:0:0:0:
256,192,85972,1,8,0:0:0:0:
256,192,86009,1,0,0:0:0:0:
256,192,86118,1,0,0:0:0:0:
256,192,86265,1,8,0:0:0:0:
256,192,86338,1,8,0:0:0:0:
256,192,86411,1,0,0:0:0:0:
256,192,86484,1,0,0:0:0:0:
256,192,86557,1,8,0:0:0:0:
256,192,86704,1,0,0:0:0:0:
256,192,86850,1,0,0:0:0:0:
256,192,86923,1,0,0:0:0:0:
256,192,86996,1,8,0:0:0:0:
256,192,87143,1,8,0:0:0:0:
256,192,87216,1,8,0:0:0:0:
256,192,87289,1,0,0:0:0:0:
256,192,87435,1,0,0:0:0:0:
256,192,87582,1,0,0:0:0:0:
256,192,87618,1,8,0:0:0:0:
256,192,87728,1,0,0:0:0:0:
256,192,87765,1,8,0:0:0:0:
256,192,87874,1,8,0:0:0:0:
256,192,87911,1,0,0:0:0:0:
256,192,88021,1,8,0:0:0:0:
256,192,88057,1,0,0:0:0:0:
256,192,88167,1,0,0:0:0:0:
256,192,88204,1,0,0:0:0:0:
256,192,88313,1,0,0:0:0:0:
256,192,88350,1,0,0:0:0:0:
256,192,88460,1,0,0:0:0:0:
256,192,88533,1,8,0:0:0:0:
256,192,88606,1,0,0:0:0:0:
256,192,88679,1,8,0:0:0:0:
256,192,88752,1,0,0:0:0:0:
256,192,88899,1,0,0:0:0:0:
256,192,89045,1,12,0:0:0:0:
256,192,89191,1,0,0:0:0:0:
256,192,89265,1,0,0:0:0:0:
256,192,89338,1,8,0:0:0:0:
256,192,89484,1,8,0:0:0:0:
256,192,89557,1,8,0:0:0:0:
256,192,89630,1,0,0:0:0:0:
256,192,89777,1,0,0:0:0:0:
256,192,89923,1,0,0:0:0:0:
256,192,89960,1,0,0:0:0:0:
256,192,90069,1,0,0:0:0:0:
256,192,90106,1,0,0:0:0:0:
256,192,90216,1,8,0:0:0:0:
256,192,90252,1,8,0:0:0:0:
256,192,90362,1,8,0:0:0:0:
256,192,90399,1,8,0:0:0:0:
256,192,90509,1,8,0:0:0:0:
256,192,90545,1,0,0:0:0:0:
256,192,90655,1,8,0:0:0:0:
256,192,90691,1,0,0:0:0:0:
256,192,90801,1,0,0:0:0:0:
256,192,90948,1,8,0:0:0:0:
256,192,91021,1,0,0:0:0:0:
256,192,91094,1,8,0:0:0:0:
256,192,91167,1,0,0:0:0:0:
256,192,91240,1,8,0:0:0:0:
256,192,91387,1,0,0:0:0:0:
256,192,91533,1,0,0:0:0:0:
256,192,91606,1,0,0:0:0:0:
256,192,91679,1,8,0:0:0:0:
256,192,91826,1,8,0:0:0:0:
256,192,91899,1,8,0:0:0:0:
256,192,91972,1,0,0:0:0:0:
256,192,92118,1,8,0:0:0:0:
256,192,92265,1,0,0:0:0:0:
256,192,92301,1,8,0:0:0:0:
256,192,92411,1,0,0:0:0:0:
256,192,92448,1,8,0:0:0:0:
256,192,92557,1,8,0:0:0:0:
256,192,92594,1,0,0:0:0:0:
256,192,92704,1,8,0:0:0:0:
256,192,92740,1,0,0:0:0:0:
256,192,92850,1,0,0:0:0:0:
256,192,92887,1,0,0:0:0:0:
256,192,92996,1,0,0:0:0:0:
256,192,93033,1,0,0:0:0:0:
256,192,93143,1,8,0:0:0:0:
256,192,93216,1,8,0:0:0:0:
256,192,93289,1,8,0:0:0:0:
256,192,93362,1,8,0:0:0:0:
256,192,93435,1,0,0:0:0:0:
256,192,93509,1,0,0:0:0:0:
256,192,93582,1,0,0:0:0:0:
256,192,93655,1,0,0:0:0:0:
256,192,93728,1,12,0:0:0:0:
256,192,93874,1,4,0:0:0:0:
256,192,94021,1,4,0:0:0:0:
256,192,94313,1,4,0:0:0:0:
256,192,94606,1,4,0:0:0:0:
256,192,94899,1,0,0:0:0:0:
256,192,94972,1,0,0:0:0:0:
256,192,95045,1,0,0:0:0:0:
256,192,95118,1,0,0:0:0:0:
256,192,95191,1,8,0:0:0:0:
256,192,95265,1,8,0:0:0:0:
256,192,95338,1,8,0:0:0:0:
256,192,95411,1,8,0:0:0:0:
256,192,95484,1,8,0:0:0:0:
256,192,95557,1,8,0:0:0:0:
256,192,95630,1,8,0:0:0:0:
256,192,95704,1,8,0:0:0:0:
256,192,95777,1,8,0:0:0:0:
256,192,95850,1,8,0:0:0:0:
256,192,95923,1,8,0:0:0:0:
256,192,95996,1,8,0:0:0:0:
256,192,96069,1,8,0:0:0:0:
256,192,96362,1,4,0:0:0:0:
256,192,96655,1,4,0:0:0:0:
256,192,96948,1,4,0:0:0:0:
256,192,97240,1,4,0:0:0:0:
256,192,97533,1,4,0:0:0:0:
256,192,97826,1,4,0:0:0:0:
256,192,98118,1,4,0:0:0:0:
256,192,98411,1,4,0:0:0:0:
256,192,98557,1,4,0:0:0:0:
256,192,98704,1,4,0:0:0:0:
256,192,98996,1,8,0:0:0:0:
256,192,99069,1,8,0:0:0:0:
256,192,99143,1,8,0:0:0:0:
256,192,99216,1,8,0:0:0:0:
256,192,99289,1,0,0:0:0:0:
256,192,99362,1,0,0:0:0:0:
256,192,99435,1,0,0:0:0:0:
256,192,99509,1,0,0:0:0:0:
256,192,99582,1,0,0:0:0:0:
256,192,99655,1,0,0:0:0:0:
256,192,99728,1,0,0:0:0:0:
256,192,99801,1,0,0:0:0:0:
256,192,99874,1,8,0:0:0:0:
256,192,99948,1,8,0:0:0:0:
256,192,100021,1,8,0:0:0:0:
256,192,100094,1,8,0:0:0:0:
256,192,100167,1,8,0:0:0:0:
256,192,100240,1,8,0:0:0:0:
256,192,100313,1,8,0:0:0:0:
256,192,100387,1,8,0:0:0:0:
256,192,100460,1,8,0:0:0:0:
256,192,100533,1,8,0:0:0:0:
256,192,100606,1,8,0:0:0:0:
256,192,100679,1,8,0:0:0:0:
256,192,100752,1,0,0:0:0:0:
256,192,100826,1,0,0:0:0:0:
256,192,100899,1,0,0:0:0:0:
256,192,100972,1,0,0:0:0:0:
256,192,101045,1,0,0:0:0:0:
256,192,101118,1,0,0:0:0:0:
256,192,101191,1,0,0:0:0:0:
256,192,101338,1,4,0:0:0:0:
256,192,101630,1,4,0:0:0:0:
256,192,101923,1,12,0:0:0:0:
256,192,102216,1,12,0:0:0:0:
256,192,102509,1,12,0:0:0:0:
256,192,102801,1,12,0:0:0:0:
256,192,103094,1,12,0:0:0:0:
256,192,103387,1,12,0:0:0:0:
256,192,103533,1,0,0:0:0:0:
256,192,103606,1,0,0:0:0:0:
256,192,103679,1,8,0:0:0:0:
256,192,103826,1,0,0:0:0:0:
256,192,103972,1,8,0:0:0:0:
256,192,104118,1,0,0:0:0:0:
256,192,104265,1,0,0:0:0:0:
256,192,104338,1,0,0:0:0:0:
256,192,104411,1,0,0:0:0:0:
256,192,104484,1,0,0:0:0:0:
256,192,104557,1,8,0:0:0:0:
256,192,104630,1,8,0:0:0:0:
256,192,104704,1,8,0:0:0:0:
256,192,104777,1,8,0:0:0:0:
256,192,104850,1,8,0:0:0:0:
256,192,104923,1,8,0:0:0:0:
256,192,104996,1,8,0:0:0:0:
256,192,105069,1,8,0:0:0:0:
256,192,105143,1,8,0:0:0:0:
256,192,105216,1,8,0:0:0:0:
256,192,105289,1,8,0:0:0:0:
256,192,105362,1,8,0:0:0:0:
256,192,105435,1,8,0:0:0:0:
256,192,105582,1,0,0:0:0:0:
256,192,105728,1,8,0:0:0:0:
256,192,105874,1,8,0:0:0:0:
256,192,105948,1,8,0:0:0:0:
256,192,106021,1,0,0:0:0:0:
256,192,106167,1,0,0:0:0:0:
256,192,106313,1,8,0:0:0:0:
256,192,106460,1,0,0:0:0:0:
256,192,106533,1,8,0:0:0:0:
256,192,106606,1,0,0:0:0:0:
256,192,106752,1,0,0:0:0:0:
256,192,106899,1,8,0:0:0:0:
256,192,107045,1,8,0:0:0:0:
256,192,107118,1,8,0:0:0:0:
256,192,107191,1,0,0:0:0:0:
256,192,107338,1,0,0:0:0:0:
256,192,107484,1,8,0:0:0:0:
256,192,107557,1,0,0:0:0:0:
256,192,107630,1,0,0:0:0:0:
256,192,107704,1,0,0:0:0:0:
256,192,107777,1,12,0:0:0:0:
256,192,107923,1,0,0:0:0:0:
256,192,107996,1,0,0:0:0:0:
256,192,108069,1,8,0:0:0:0:
256,192,108216,1,0,0:0:0:0:
256,192,108362,1,8,0:0:0:0:
256,192,108435,1,8,0:0:0:0:
256,192,108509,1,8,0:0:0:0:
256,192,108582,1,8,0:0:0:0:
256,192,108655,1,0,0:0:0:0:
256,192,108728,1,0,0:0:0:0:
256,192,108801,1,0,0:0:0:0:
256,192,108874,1,0,0:0:0:0:
256,192,108948,1,0,0:0:0:0:
256,192,109021,1,0,0:0:0:0:
256,192,109094,1,0,0:0:0:0:
256,192,109167,1,0,0:0:0:0:
256,192,109240,1,8,0:0:0:0:
256,192,109313,1,8,0:0:0:0:
256,192,109387,1,8,0:0:0:0:
256,192,109460,1,8,0:0:0:0:
256,192,109533,1,8,0:0:0:0:
256,192,109606,1,8,0:0:0:0:
256,192,109679,1,8,0:0:0:0:
256,192,109752,1,8,0:0:0:0:
256,192,109826,1,8,0:0:0:0:
256,192,109899,1,8,0:0:0:0:
256,192,109972,1,8,0:0:0:0:
256,192,110045,1,8,0:0:0:0:
256,192,110118,1,8,0:0:0:0:
256,192,110265,1,0,0:0:0:0:
256,192,110338,1,0,0:0:0:0:
256,192,110411,1,8,0:0:0:0:
256,192,110484,1,8,0:0:0:0:
256,192,110557,1,0,0:0:0:0:
256,192,110630,1,8,0:0:0:0:
256,192,110704,1,0,0:0:0:0:
256,192,110777,1,0,0:0:0:0:
256,192,110850,1,8,0:0:0:0:
256,192,110923,1,0,0:0:0:0:
256,192,110996,1,8,0:0:0:0:
256,192,111069,1,8,0:0:0:0:
256,192,111143,1,0,0:0:0:0:
256,192,111216,1,0,0:0:0:0:
256,192,111289,1,8,0:0:0:0:
256,192,111435,1,8,0:0:0:0:
256,192,111509,1,0,0:0:0:0:
256,192,111582,1,8,0:0:0:0:
256,192,111655,1,0,0:0:0:0:
256,192,111728,1,8,0:0:0:0:
256,192,111801,1,8,0:0:0:0:
256,192,111874,1,0,0:0:0:0:
256,192,111948,1,0,0:0:0:0:
256,192,112021,1,8,0:0:0:0:
256,192,112069,1,0,0:0:0:0:
256,192,112118,1,0,0:0:0:0:
256,192,112167,1,8,0:0:0:0:
256,192,112240,1,8,0:0:0:0:
256,192,112313,1,8,0:0:0:0:
256,192,112387,1,8,0:0:0:0:
256,192,112460,1,4,0:0:0:0:
256,192,112752,1,8,0:0:0:0:
256,192,113045,1,8,0:0:0:0:
256,192,113338,1,8,0:0:0:0:
256,192,113630,1,8,0:0:0:0:
256,192,113923,1,8,0:0:0:0:
256,192,114216,1,8,0:0:0:0:
256,192,114509,1,8,0:0:0:0:
256,192,114655,1,8,0:0:0:0:
256,192,114801,1,8,0:0:0:0:
256,192,115094,1,8,0:0:0:0:
256,192,115387,1,8,0:0:0:0:
256,192,115679,1,8,0:0:0:0:
256,192,115972,1,8,0:0:0:0:
256,192,116265,1,8,0:0:0:0:
256,192,116557,1,8,0:0:0:0:
256,192,116704,1,8,0:0:0:0:
256,192,116777,1,8,0:0:0:0:
256,192,116850,1,8,0:0:0:0:
256,192,116996,1,8,0:0:0:0:
256,192,117143,1,4,0:0:0:0:
256,192,117435,1,8,0:0:0:0:
256,192,117728,1,8,0:0:0:0:
256,192,118021,1,8,0:0:0:0:
256,192,118313,1,8,0:0:0:0:
256,192,118606,1,8,0:0:0:0:
256,192,118899,1,8,0:0:0:0:
256,192,119191,1,8,0:0:0:0:
256,192,119338,1,8,0:0:0:0:
256,192,119484,1,8,0:0:0:0:
256,192,119777,1,8,0:0:0:0:
256,192,120069,1,8,0:0:0:0:
256,192,120362,1,8,0:0:0:0:
256,192,120655,2,4,L|544:192,3,280,0|0|4|4,0:0|0:0|0:0|0:0,0:0:0:0:
256,192,121826,1,4,0:0:0:0:
256,192,122045,1,0,0:0:0:0:
256,192,122118,1,8,0:0:0:0:
256,192,122265,1,0,0:0:0:0:
256,192,122557,1,0,0:0:0:0:
256,192,122704,1,8,0:0:0:0:
256,192,122996,1,8,0:0:0:0:
256,192,123143,1,8,0:0:0:0:
256,192,123216,1,0,0:0:0:0:
256,192,123289,1,8,0:0:0:0:
256,192,123435,1,0,0:0:0:0:
256,192,123728,1,0,0:0:0:0:
256,192,123874,1,8,0:0:0:0:
256,192,124021,1,8,0:0:0:0:
256,192,124094,1,8,0:0:0:0:
256,192,124167,1,0,0:0:0:0:
256,192,124387,1,0,0:0:0:0:
256,192,124460,1,8,0:0:0:0:
256,192,124606,1,0,0:0:0:0:
256,192,124899,1,0,0:0:0:0:
256,192,125045,1,8,0:0:0:0:
256,192,125191,1,0,0:0:0:0:
256,192,125265,1,0,0:0:0:0:
256,192,125338,1,8,0:0:0:0:
256,192,125484,1,8,0:0:0:0:
256,192,125557,1,0,0:0:0:0:
256,192,125630,1,8,0:0:0:0:
256,192,125777,1,0,0:0:0:0:
256,192,125923,1,8,0:0:0:0:
256,192,125996,1,8,0:0:0:0:
256,192,126069,1,0,0:0:0:0:
256,192,126216,1,8,0:0:0:0:
256,192,126362,1,0,0:0:0:0:
256,192,126509,1,4,0:0:0:0:
256,192,126655,1,0,0:0:0:0:
256,192,126728,1,0,0:0:0:0:
256,192,126801,1,8,0:0:0:0:
256,192,126948,1,0,0:0:0:0:
256,192,127094,1,8,0:0:0:0:
256,192,127240,1,8,0:0:0:0:
256,192,127313,1,0,0:0:0:0:
256,192,127387,1,8,0:0:0:0:
256,192,127679,1,8,0:0:0:0:
256,192,127826,1,8,0:0:0:0:
256,192,127899,1,0,0:0:0:0:
256,192,127972,1,8,0:0:0:0:
256,192,128118,1,0,0:0:0:0:
256,192,128265,1,8,0:0:0:0:
256,192,128338,1,8,0:0:0:0:
256,192,128411,1,0,0:0:0:0:
256,192,128484,1,0,0:0:0:0:
256,192,128557,1,8,0:0:0:0:
256,192,128704,1,8,0:0:0:0:
256,192,128850,1,0,0:0:0:0:
256,192,128996,1,8,0:0:0:0:
256,192,129069,1,0,0:0:0:0:
256,192,129143,1,8,0:0:0:0:
256,192,129289,1,0,0:0:0:0:
256,192,129435,1,8,0:0:0:0:
256,192,129509,1,8,0:0:0:0:
256,192,129582,1,0,0:0:0:0:
256,192,129655,1,8,0:0:0:0:
256,192,129728,1,0,0:0:0:0:
256,192,129801,1,0,0:0:0:0:
256,192,129874,1,8,0:0:0:0:
256,192,129923,1,8,0:0:0:0:
256,192,129972,1,8,0:0:0:0:
256,192,130021,1,4,0:0:0:0:
256,192,130313,1,8,0:0:0:0:
256,192,130460,1,0,0:0:0:0:
256,192,130606,1,8,0:0:0:0:
256,192,130679,1,8,0:0:0:0:
256,192,130752,1,0,0:0:0:0:
256,192,130826,1,0,0:0:0:0:
256,192,130899,1,8,0:0:0:0:
256,192,131045,1,0,0:0:0:0:
256,192,131191,1,12,0:0:0:0:
256,192,131338,1,0,0:0:0:0:
256,192,131411,1,0,0:0:0:0:
256,192,131484,1,8,0:0:0:0:
256,192,131630,1,0,0:0:0:0:
256,192,131777,1,8,0:0:0:0:
256,192,131923,1,0,0:0:0:0:
256,192,132069,1,8,0:0:0:0:
256,192,132216,1,0,0:0:0:0:
256,192,132362,1,8,0:0:0:0:
256,192,132509,1,0,0:0:0:0:
256,192,132655,1,8,0:0:0:0:
256,192,132801,1,0,0:0:0:0:
256,192,132948,1,8,0:0:0:0:
256,192,133094,1,0,0:0:0:0:
256,192,133240,1,8,0:0:0:0:
256,192,133313,1,0,0:0:0:0:
256,192,133387,1,0,0:0:0:0:
256,192,133460,1,0,0:0:0:0:
256,192,133533,1,8,0:0:0:0:
256,192,133679,1,8,0:0:0:0:
256,192,133826,1,8,0:0:0:0:
256,192,133972,1,0,0:0:0:0:
256,192,134118,1,8,0:0:0:0:
256,192,134265,1,0,0:0:0:0:
256,192,134411,1,8,0:0:0:0:
256,192,134557,1,0,0:0:0:0:
256,192,134630,1,8,0:0:0:0:
256,192,134704,1,8,0:0:0:0:
256,192,134850,1,0,0:0:0:0:
256,192,134996,1,8,0:0:0:0:
256,192,135143,1,0,0:0:0:0:
256,192,135289,1,4,0:0:0:0:
256,192,135435,1,8,0:0:0:0:
256,192,135582,1,4,0:0:0:0:
256,192,135728,1,8,0:0:0:0:
256,192,135874,1,4,0:0:0:0:
256,192,136021,1,8,0:0:0:0:
256,192,136094,1,8,0:0:0:0:
256,192,136167,1,8,0:0:0:0:
256,192,136313,1,0,0:0:0:0:
256,192,136460,1,8,0:0:0:0:
256,192,136606,1,0,0:0:0:0:
256,192,136679,1,0,0:0:0:0:
256,192,136752,1,8,0:0:0:0:
256,192,136899,1,0,0:0:0:0:
256,192,137045,1,8,0:0:0:0:
256,192,137191,1,8,0:0:0:0:
256,192,137265,1,0,0:0:0:0:
256,192,137338,1,8,0:0:0:0:
256,192,137484,1,0,0:0:0:0:
256,192,137630,1,8,0:0:0:0:
256,192,137704,1,8,0:0:0:0:
256,192,137777,1,0,0:0:0:0:
256,192,137850,1,0,0:0:0:0:
256,192,137923,1,8,0:0:0:0:
256,192,138069,1,0,0:0:0:0:
256,192,138216,1,8,0:0:0:0:
256,192,138289,1,0,0:0:0:0:
256,192,138362,1,8,0:0:0:0:
256,192,138435,1,0,0:0:0:0:
256,192,138509,1,8,0:0:0:0:
256,192,138582,1,8,0:0:0:0:
256,192,138655,1,0,0:0:0:0:
256,192,138728,1,0,0:0:0:0:
256,192,138801,1,8,0:0:0:0:
256,192,138874,1,8,0:0:0:0:
256,192,138948,1,0,0:0:0:0:
256,192,139021,1,0,0:0:0:0:
256,192,139094,1,8,0:0:0:0:
256,192,139167,1,8,0:0:0:0:
256,192,139240,1,8,0:0:0:0:
256,192,139313,1,8,0:0:0:0:
256,192,139387,1,4,0:0:0:0:
256,192,139679,1,8,0:0:0:0:
256,192,139752,1,8,0:0:0:0:
256,192,139826,1,8,0:0:0:0:
256,192,139899,1,8,0:0:0:0:
256,192,139972,1,0,0:0:0:0:
256,192,140045,1,0,0:0:0:0:
256,192,140118,1,0,0:0:0:0:
256,192,140191,1,0,0:0:0:0:
256,192,140265,1,8,0:0:0:0:
256,192,140338,1,8,0:0:0:0:
256,192,140411,1,0,0:0:0:0:
256,192,140484,1,0,0:0:0:0:
256,192,140557,1,12,0:0:0:0:
256,192,140704,1,0,0:0:0:0:
256,192,140777,1,0,0:0:0:0:
256,192,140850,1,8,0:0:0:0:
256,192,140996,1,0,0:0:0:0:
256,192,141069,1,0,0:0:0:0:
256,192,141143,1,8,0:0:0:0:
256,192,141216,1,8,0:0:0:0:
256,192,141289,1,0,0:0:0:0:
256,192,141435,1,8,0:0:0:0:
256,192,141582,1,8,0:0:0:0:
256,192,141655,1,8,0:0:0:0:
256,192,141728,1,0,0:0:0:0:
256,192,141874,1,0,0:0:0:0:
256,192,141948,1,0,0:0:0:0:
256,192,142021,1,8,0:0:0:0:
256,192,142167,1,0,0:0:0:0:
256,192,142240,1,8,0:0:0:0:
256,192,142313,1,0,0:0:0:0:
256,192,142387,1,8,0:0:0:0:
256,192,142460,1,0,0:0:0:0:
256,192,142606,1,8,0:0:0:0:
256,192,142752,1,8,0:0:0:0:
256,192,142826,1,8,0:0:0:0:
256,192,142899,1,0,0:0:0:0:
256,192,143045,1,0,0:0:0:0:
256,192,143118,1,0,0:0:0:0:
256,192,143191,1,8,0:0:0:0:
256,192,143338,1,0,0:0:0:0:
256,192,143411,1,8,0:0:0:0:
256,192,143484,1,8,0:0:0:0:
256,192,143557,1,0,0:0:0:0:
256,192,143630,1,8,0:0:0:0:
256,192,143777,1,8,0:0:0:0:
256,192,143923,1,8,0:0:0:0:
256,192,143996,1,8,0:0:0:0:
256,192,144069,1,0,0:0:0:0:
256,192,144216,1,0,0:0:0:0:
256,192,144289,1,8,0:0:0:0:
256,192,144362,1,8,0:0:0:0:
256,192,144435,1,0,0:0:0:0:
256,192,144509,1,0,0:0:0:0:
256,192,144655,1,0,0:0:0:0:
256,192,144728,1,8,0:0:0:0:
256,192,144801,1,0,0:0:0:0:
256,192,144874,1,0,0:0:0:0:
256,192,144948,1,8,0:0:0:0:
256,192,145021,1,8,0:0:0:0:
256,192,145094,1,0,0:0:0:0:
256,192,145167,1,0,0:0:0:0:
256,192,145240,1,12,0:0:0:0:
256,192,145387,1,0,0:0:0:0:
256,192,145460,1,0,0:0:0:0:
256,192,145533,1,8,0:0:0:0:
256,192,145679,1,0,0:0:0:0:
256,192,145752,1,8,0:0:0:0:
256,192,145826,1,0,0:0:0:0:
256,192,145899,1,8,0:0:0:0:
256,192,145972,1,0,0:0:0:0:
256,192,146118,1,8,0:0:0:0:
256,192,146265,1,8,0:0:0:0:
256,192,146338,1,8,0:0:0:0:
256,192,146411,1,0,0:0:0:0:
256,192,146557,1,8,0:0:0:0:
256,192,146630,1,0,0:0:0:0:
256,192,146704,1,8,0:0:0:0:
256,192,146777,1,8,0:0:0:0:
256,192,146850,1,0,0:0:0:0:
256,192,146996,1,0,0:0:0:0:
256,192,147069,1,8,0:0:0:0:
256,192,147143,1,0,0:0:0:0:
256,192,147216,1,0,0:0:0:0:
256,192,147289,1,8,0:0:0:0:
256,192,147435,1,8,0:0:0:0:
256,192,147509,1,8,0:0:0:0:
256,192,147582,1,0,0:0:0:0:
256,192,147728,1,8,0:0:0:0:
256,192,147801,1,0,0:0:0:0:
256,192,147874,1,8,0:0:0:0:
256,192,148021,1,0,0:0:0:0:
256,192,148094,1,8,0:0:0:0:
256,192,148167,1,0,0:0:0:0:
256,192,148240,1,0,0:0:0:0:
256,192,148313,1,8,0:0:0:0:
256,192,148460,1,8,0:0:0:0:
256,192,148606,1,0,0:0:0:0:
256,192,148679,1,8,0:0:0:0:
256,192,148752,1,0,0:0:0:0:
256,192,148826,1,0,0:0:0:0:
256,192,148899,1,8,0:0:0:0:
256,192,148972,1,0,0:0:0:0:
256,192,149045,1,8,0:0:0:0:
256,192,149118,1,8,0:0:0:0:
256,192,149191,1,0,0:0:0:0:
256,192,149338,1,8,0:0:0:0:
256,192,149411,1,0,0:0:0:0:
256,192,149484,1,8,0:0:0:0:
256,192,149557,1,0,0:0:0:0:
256,192,149630,1,8,0:0:0:0:
256,192,149704,1,8,0:0:0:0:
256,192,149777,1,0,0:0:0:0:
256,192,149850,1,0,0:0:0:0:
256,192,149923,1,12,0:0:0:0:
256,192,150069,1,0,0:0:0:0:
256,192,150143,1,0,0:0:0:0:
256,192,150216,1,8,0:0:0:0:
256,192,150362,1,0,0:0:0:0:
256,192,150435,1,0,0:0:0:0:
256,192,150509,1,8,0:0:0:0:
256,192,150582,1,8,0:0:0:0:
256,192,150655,1,0,0:0:0:0:
256,192,150801,1,8,0:0:0:0:
256,192,150948,1,0,0:0:0:0:
256,192,151094,1,0,0:0:0:0:
256,192,151167,1,0,0:0:0:0:
256,192,151240,1,0,0:0:0:0:
256,192,151313,1,0,0:0:0:0:
256,192,151387,1,8,0:0:0:0:
256,192,151460,1,8,0:0:0:0:
256,192,151533,1,8,0:0:0:0:
256,192,151606,1,8,0:0:0:0:
256,192,151679,1,8,0:0:0:0:
256,192,151752,1,8,0:0:0:0:
256,192,151826,1,8,0:0:0:0:
256,192,151899,1,8,0:0:0:0:
256,192,151972,1,8,0:0:0:0:
256,192,152045,1,8,0:0:0:0:
256,192,152118,1,8,0:0:0:0:
256,192,152191,1,8,0:0:0:0:
256,192,152265,1,8,0:0:0:0:
256,192,152411,1,0,0:0:0:0:
256,192,152484,1,0,0:0:0:0:
256,192,152557,1,8,0:0:0:0:
256,192,152704,1,0,0:0:0:0:
256,192,152777,1,8,0:0:0:0:
256,192,152850,1,0,0:0:0:0:
256,192,152923,1,8,0:0:0:0:
256,192,152996,1,0,0:0:0:0:
256,192,153143,1,8,0:0:0:0:
256,192,153289,1,8,0:0:0:0:
256,192,153362,1,8,0:0:0:0:
256,192,153435,1,0,0:0:0:0:
256,192,153582,1,0,0:0:0:0:
256,192,153655,1,8,0:0:0:0:
256,192,153728,1,8,0:0:0:0:
256,192,153801,1,0,0:0:0:0:
256,192,153874,1,0,0:0:0:0:
256,192,154021,1,0,0:0:0:0:
256,192,154094,1,8,0:0:0:0:
256,192,154167,1,0,0:0:0:0:
256,192,154240,1,0,0:0:0:0:
256,192,154313,1,8,0:0:0:0:
256,192,154387,1,8,0:0:0:0:
256,192,154460,1,0,0:0:0:0:
256,192,154533,1,0,0:0:0:0:
256,192,154606,1,12,0:0:0:0:
256,192,154752,1,0,0:0:0:0:
256,192,154826,1,0,0:0:0:0:
256,192,154899,1,8,0:0:0:0:
256,192,155045,1,8,0:0:0:0:
256,192,155191,1,8,0:0:0:0:
256,192,155265,1,8,0:0:0:0:
256,192,155338,1,8,0:0:0:0:
256,192,155411,1,8,0:0:0:0:
256,192,155484,1,0,0:0:0:0:
256,192,155557,1,0,0:0:0:0:
256,192,155630,1,0,0:0:0:0:
256,192,155704,1,0,0:0:0:0:
256,192,155777,1,0,0:0:0:0:
256,192,155850,1,0,0:0:0:0:
256,192,155923,1,0,0:0:0:0:
256,192,155996,1,0,0:0:0:0:
256,192,156069,1,8,0:0:0:0:
256,192,156143,1,8,0:0:0:0:
256,192,156216,1,8,0:0:0:0:
256,192,156289,1,8,0:0:0:0:
256,192,156362,1,8,0:0:0:0:
256,192,156435,1,8,0:0:0:0:
256,192,156509,1,8,0:0:0:0:
256,192,156582,1,8,0:0:0:0:
256,192,156655,1,8,0:0:0:0:
256,192,156728,1,8,0:0:0:0:
256,192,156801,1,8,0:0:0:0:
256,192,156874,1,8,0:0:0:0:
256,192,156948,1,0,0:0:0:0:
256,192,157021,1,0,0:0:0:0:
256,192,157094,1,0,0:0:0:0:
256,192,157167,1,0,0:0:0:0:
256,192,157240,1,0,0:0:0:0:
256,192,157313,1,0,0:0:0:0:
256,192,157387,1,0,0:0:0:0:
256,192,157533,1,0,0:0:0:0:
256,192,157606,1,0,0:0:0:0:
256,192,157679,1,8,0:0:0:0:
256,192,157752,1,0,0:0:0:0:
256,192,157826,1,8,0:0:0:0:
256,192,157972,1,8,0:0:0:0:
256,192,158045,1,8,0:0:0:0:
256,192,158118,1,4,0:0:0:0:
256,192,158265,1,8,0:0:0:0:
256,192,158411,1,4,0:0:0:0:
256,192,158557,1,8,0:0:0:0:
256,192,158704,1,0,0:0:0:0:
256,192,158777,1,0,0:0:0:0:
256,192,158850,1,8,0:0:0:0:
256,192,158923,1,0,0:0:0:0:
256,192,158996,1,8,0:0:0:0:
256,192,159069,1,0,0:0:0:0:
256,192,159143,1,8,0:0:0:0:
256,192,159216,1,8,0:0:0:0:
256,192,159289,1,4,0:0:0:0:
256,192,159582,1,12,0:0:0:0:
256,192,159728,1,0,0:0:0:0:
256,192,159801,1,0,0:0:0:0:
256,192,159874,1,8,0:0:0:0:
256,192,160021,1,8,0:0:0:0:
256,192,160094,1,0,0:0:0:0:
256,192,160167,1,8,0:0:0:0:
256,192,160240,1,8,0:0:0:0:
256,192,160313,1,0,0:0:0:0:
256,192,160460,1,8,0:0:0:0:
256,192,160606,1,0,0:0:0:0:
256,192,160679,1,0,0:0:0:0:
256,192,160752,1,8,0:0:0:0:
256,192,160899,1,8,0:0:0:0:
256,192,160972,1,0,0:0:0:0:
256,192,161045,1,8,0:0:0:0:
256,192,161118,1,8,0:0:0:0:
256,192,161191,1,0,0:0:0:0:
256,192,161265,1,0,0:0:0:0:
256,192,161338,1,8,0:0:0:0:
256,192,161484,1,0,0:0:0:0:
256,192,161630,1,8,0:0:0:0:
256,192,161777,1,8,0:0:0:0:
256,192,161850,1,0,0:0:0:0:
256,192,161923,1,8,0:0:0:0:
256,192,162069,1,0,0:0:0:0:
256,192,162143,1,0,0:0:0:0:
256,192,162216,1,8,0:0:0:0:
256,192,162289,1,8,0:0:0:0:
256,192,162362,1,0,0:0:0:0:
256,192,162509,1,8,0:0:0:0:
256,192,162655,1,0,0:0:0:0:
256,192,162728,1,0,0:0:0:0:
256,192,162801,1,8,0:0:0:0:
256,192,162948,1,0,0:0:0:0:
256,192,163021,1,0,0:0:0:0:
256,192,163094,1,8,0:0:0:0:
256,192,163167,1,0,0:0:0:0:
256,192,163240,1,8,0:0:0:0:
256,192,163387,1,4,0:0:0:0:
256,192,163533,1,8,0:0:0:0:
256,192,163679,1,4,0:0:0:0:
256,192,163826,1,8,0:0:0:0:
256,192,163972,1,12,0:0:0:0:
256,192,164118,1,0,0:0:0:0:
256,192,164191,1,0,0:0:0:0:
256,192,164265,1,8,0:0:0:0:
256,192,164411,1,0,0:0:0:0:
256,192,164557,1,8,0:0:0:0:
256,192,164630,1,8,0:0:0:0:
256,192,164704,1,0,0:0:0:0:
256,192,164777,1,0,0:0:0:0:
256,192,164850,1,8,0:0:0:0:
256,192,164923,1,0,0:0:0:0:
256,192,164996,1,8,0:0:0:0:
256,192,165143,1,8,0:0:0:0:
256,192,165289,1,0,0:0:0:0:
256,192,165362,1,0,0:0:0:0:
256,192,165435,1,8,0:0:0:0:
256,192,165582,1,0,0:0:0:0:
256,192,165728,1,0,0:0:0:0:
256,192,165801,1,8,0:0:0:0:
256,192,165874,1,8,0:0:0:0:
256,192,165948,1,0,0:0:0:0:
256,192,166021,1,8,0:0:0:0:
256,192,166167,1,0,0:0:0:0:
256,192,166313,1,8,0:0:0:0:
256,192,166460,1,8,0:0:0:0:
256,192,166533,1,0,0:0:0:0:
256,192,166606,1,0,0:0:0:0:
256,192,166752,1,0,0:0:0:0:
256,192,166899,1,8,0:0:0:0:
256,192,166972,1,8,0:0:0:0:
256,192,167045,1,0,0:0:0:0:
256,192,167118,1,0,0:0:0:0:
256,192,167191,1,8,0:0:0:0:
256,192,167338,1,0,0:0:0:0:
256,192,167484,1,8,0:0:0:0:
256,192,167557,1,8,0:0:0:0:
256,192,167630,1,0,0:0:0:0:
256,192,167704,1,0,0:0:0:0:
256,192,167777,1,8,0:0:0:0:
256,192,167850,1,0,0:0:0:0:
256,192,167923,1,8,0:0:0:0:
256,192,167996,1,8,0:0:0:0:
256,192,168069,1,0,0:0:0:0:
256,192,168143,1,0,0:0:0:0:
256,192,168216,1,8,0:0:0:0:
256,192,168289,1,0,0:0:0:0:
256,192,168362,1,8,0:0:0:0:
256,192,168435,1,8,0:0:0:0:
256,192,168509,1,0,0:0:0:0:
256,192,168582,1,0,0:0:0:0:
256,192,168655,1,12,0:0:0:0:
256,192,168801,1,0,0:0:0:0:
256,192,168874,1,0,0:0:0:0:
256,192,168948,1,8,0:0:0:0:
256,192,169094,1,0,0:0:0:0:
256,192,169240,1,8,0:0:0:0:
256,192,169313,1,8,0:0:0:0:
256,192,169387,1,8,0:0:0:0:
256,192,169460,1,0,0:0:0:0:
256,192,169533,1,8,0:0:0:0:
256,192,169679,1,0,0:0:0:0:
256,192,169826,1,8,0:0:0:0:
256,192,169972,1,0,0:0:0:0:
256,192,170045,1,8,0:0:0:0:
256,192,170118,1,8,0:0:0:0:
256,192,170191,1,0,0:0:0:0:
256,192,170265,1,8,0:0:0:0:
256,192,170411,1,8,0:0:0:0:
256,192,170484,1,8,0:0:0:0:
256,192,170557,1,0,0:0:0:0:
256,192,170630,1,0,0:0:0:0:
256,192,170704,1,8,0:0:0:0:
256,192,170777,1,0,0:0:0:0:
256,192,170850,1,8,0:0:0:0:
256,192,170996,1,8,0:0:0:0:
256,192,171143,1,0,0:0:0:0:
256,192,171216,1,8,0:0:0:0:
256,192,171289,1,8,0:0:0:0:
256,192,171362,1,0,0:0:0:0:
256,192,171435,1,8,0:0:0:0:
256,192,171582,1,0,0:0:0:0:
256,192,171728,1,8,0:0:0:0:
256,192,171801,1,0,0:0:0:0:
256,192,171874,1,8,0:0:0:0:
256,192,171948,1,8,0:0:0:0:
256,192,172021,1,0,0:0:0:0:
256,192,172094,1,0,0:0:0:0:
256,192,172167,1,8,0:0:0:0:
256,192,172313,1,0,0:0:0:0:
256,192,172387,1,0,0:0:0:0:
256,192,172460,1,8,0:0:0:0:
256,192,172533,1,8,0:0:0:0:
256,192,172606,1,0,0:0:0:0:
256,192,172752,1,4,0:0:0:0:
256,192,172899,1,8,0:0:0:0:
256,192,173045,1,4,0:0:0:0:
256,192,173191,1,8,0:0:0:0:
256,192,173338,1,12,0:0:0:0:
256,192,173484,1,0,0:0:0:0:
256,192,173557,1,0,0:0:0:0:
256,192,173630,1,8,0:0:0:0:
256,192,173777,1,0,0:0:0:0:
256,192,173850,1,8,0:0:0:0:
256,192,173923,1,8,0:0:0:0:
256,192,173996,1,0,0:0:0:0:
256,192,174069,1,0,0:0:0:0:
256,192,174216,1,8,0:0:0:0:
256,192,174362,1,0,0:0:0:0:
256,192,174435,1,0,0:0:0:0:
256,192,174509,1,8,0:0:0:0:
256,192,174655,1,8,0:0:0:0:
256,192,174728,1,0,0:0:0:0:
256,192,174801,1,8,0:0:0:0:
256,192,174874,1,8,0:0:0:0:
256,192,174948,1,0,0:0:0:0:
256,192,175094,1,0,0:0:0:0:
256,192,175167,1,8,0:0:0:0:
256,192,175240,1,0,0:0:0:0:
256,192,175313,1,0,0:0:0:0:
256,192,175387,1,8,0:0:0:0:
256,192,175460,1,0,0:0:0:0:
256,192,175533,1,8,0:0:0:0:
256,192,175679,1,8,0:0:0:0:
256,192,175826,1,8,0:0:0:0:
256,192,175899,1,0,0:0:0:0:
256,192,175972,1,8,0:0:0:0:
256,192,176118,1,8,0:0:0:0:
256,192,176191,1,0,0:0:0:0:
256,192,176265,1,8,0:0:0:0:
256,192,176338,1,8,0:0:0:0:
256,192,176411,1,0,0:0:0:0:
256,192,176484,1,0,0:0:0:0:
256,192,176557,1,8,0:0:0:0:
256,192,176704,1,0,0:0:0:0:
256,192,176850,1,8,0:0:0:0:
256,192,176923,1,8,0:0:0:0:
256,192,176996,1,0,0:0:0:0:
256,192,177045,1,0,0:0:0:0:
256,192,177094,1,0,0:0:0:0:
256,192,177143,1,8,0:0:0:0:
256,192,177216,1,8,0:0:0:0:
256,192,177289,1,0,0:0:0:0:
256,192,177362,1,0,0:0:0:0:
256,192,177435,1,8,0:0:0:0:
256,192,177484,1,8,0:0:0:0:
256,192,177533,1,8,0:0:0:0:
256,192,177582,1,0,0:0:0:0:
256,192,177655,1,0,0:0:0:0:
256,192,177728,1,8,0:0:0:0:
256,192,178021,1,12,0:0:0:0:
256,192,178167,1,0,0:0:0:0:
256,192,178313,1,0,0:0:0:0:
256,192,178606,1,0,0:0:0:0:
256,192,178899,1,0,0:0:0:0:
256,192,179045,1,8,0:0:0:0:
256,192,179191,1,0,0:0:0:0:
256,192,179484,1,0,0:0:0:0:
256,192,179777,1,0,0:0:0:0:
256,192,179923,1,8,0:0:0:0:
256,192,180069,1,0,0:0:0:0:
256,192,180216,1,8,0:0:0:0:
256,192,180362,1,0,0:0:0:0:
256,192,180655,1,0,0:0:0:0:
256,192,180948,1,0,0:0:0:0:
256,192,181094,1,8,0:0:0:0:
256,192,181240,1,0,0:0:0:0:
256,192,181533,1,0,0:0:0:0:
256,192,181679,1,8,0:0:0:0:
256,192,181826,1,0,0:0:0:0:
256,192,181972,1,8,0:0:0:0:
256,192,182118,1,0,0:0:0:0:
256,192,182411,1,0,0:0:0:0:
256,192,182704,1,12,0:0:0:0:
256,192,182850,1,0,0:0:0:0:
256,192,182996,1,0,0:0:0:0:
256,192,183289,1,0,0:0:0:0:
256,192,183582,1,0,0:0:0:0:
256,192,183728,1,8,0:0:0:0:
256,192,183874,1,0,0:0:0:0:
256,192,184167,1,0,0:0:0:0:
256,192,184460,1,0,0:0:0:0:
256,192,184606,1,8,0:0:0:0:
256,192,184752,1,0,0:0:0:0:
256,192,184899,1,8,0:0:0:0:
256,192,185045,1,0,0:0:0:0:
256,192,185338,1,0,0:0:0:0:
256,192,185630,1,0,0:0:0:0:
256,192,185777,1,8,0:0:0:0:
256,192,185923,1,0,0:0:0:0:
256,192,186216,1,0,0:0:0:0:
256,192,186362,1,8,0:0:0:0:
256,192,186509,1,0,0:0:0:0:
256,192,186655,1,8,0:0:0:0:
256,192,186801,1,0,0:0:0:0:
256,192,187387,1,12,0:0:0:0:
256,192,187533,1,0,0:0:0:0:
256,192,187679,1,0,0:0:0:0:
256,192,187972,1,0,0:0:0:0:
256,192,188265,1,0,0:0:0:0:
256,192,188411,1,8,0:0:0:0:
256,192,188557,1,0,0:0:0:0:
256,192,188630,1,0,0:0:0:0:
256,192,188704,1,0,0:0:0:0:
256,192,188777,1,0,0:0:0:0:
256,192,188850,1,8,0:0:0:0:
256,192,188923,1,8,0:0:0:0:
256,192,188996,1,8,0:0:0:0:
256,192,189069,1,8,0:0:0:0:
256,192,189143,1,8,0:0:0:0:
256,192,189216,1,8,0:0:0:0:
256,192,189289,1,8,0:0:0:0:
256,192,189362,1,8,0:0:0:0:
256,192,189435,1,8,0:0:0:0:
256,192,189509,1,8,0:0:0:0:
256,192,189582,1,8,0:0:0:0:
256,192,189655,1,8,0:0:0:0:
256,192,189728,1,8,0:0:0:0:
256,192,190021,1,0,0:0:0:0:
256,192,190313,1,0,0:0:0:0:
256,192,190460,1,8,0:0:0:0:
256,192,190606,1,0,0:0:0:0:
256,192,190899,1,0,0:0:0:0:
256,192,191045,1,8,0:0:0:0:
256,192,191191,1,0,0:0:0:0:
256,192,191338,1,8,0:0:0:0:
256,192,191484,1,0,0:0:0:0:
256,192,191777,1,0,0:0:0:0:
256,192,192069,1,12,0:0:0:0:
256,192,192216,1,0,0:0:0:0:
256,192,192362,1,0,0:0:0:0:
256,192,192655,1,8,0:0:0:0:
256,192,192728,1,8,0:0:0:0:
256,192,192801,1,8,0:0:0:0:
256,192,192874,1,8,0:0:0:0:
256,192,192948,1,0,0:0:0:0:
256,192,193021,1,0,0:0:0:0:
256,192,193094,1,0,0:0:0:0:
256,192,193167,1,0,0:0:0:0:
256,192,193240,1,0,0:0:0:0:
256,192,193313,1,0,0:0:0:0:
256,192,193387,1,0,0:0:0:0:
256,192,193460,1,0,0:0:0:0:
256,192,193533,1,8,0:0:0:0:
256,192,193606,1,8,0:0:0:0:
256,192,193679,1,8,0:0:0:0:
256,192,193752,1,8,0:0:0:0:
256,192,193826,1,8,0:0:0:0:
256,192,193899,1,8,0:0:0:0:
256,192,193972,1,8,0:0:0:0:
256,192,194045,1,8,0:0:0:0:
256,192,194118,1,8,0:0:0:0:
256,192,194191,1,8,0:0:0:0:
256,192,194265,1,8,0:0:0:0:
256,192,194338,1,8,0:0:0:0:
256,192,194411,1,0,0:0:0:0:
256,192,194484,1,0,0:0:0:0:
256,192,194557,1,0,0:0:0:0:
256,192,194630,1,0,0:0:0:0:
256,192,194704,1,0,0:0:0:0:
256,192,194777,1,0,0:0:0:0:
256,192,194850,1,0,0:0:0:0:
256,192,194996,1,0,0:0:0:0:
256,192,195143,1,8,0:0:0:0:
256,192,195289,1,0,0:0:0:0:
256,192,195582,1,0,0:0:0:0:
256,192,195728,1,8,0:0:0:0:
256,192,195874,1,0,0:0:0:0:
256,192,196021,1,8,0:0:0:0:
256,192,196167,1,0,0:0:0:0:
256,192,196752,1,12,0:0:0:0:
256,192,197045,1,8,0:0:0:0:
256,192,197484,1,0,0:0:0:0:
256,192,197630,1,8,0:0:0:0:
256,192,197923,1,0,0:0:0:0:
256,192,198216,1,8,0:0:0:0:
256,192,198362,1,0,0:0:0:0:
256,192,198655,1,0,0:0:0:0:
256,192,198801,1,8,0:0:0:0:
256,192,199094,1,0,0:0:0:0:
256,192,199387,1,8,0:0:0:0:
256,192,199826,1,0,0:0:0:0:
256,192,199972,1,8,0:0:0:0:
256,192,200265,1,0,0:0:0:0:
256,192,200557,1,8,0:0:0:0:
256,192,200704,1,0,0:0:0:0:
256,192,200996,1,0,0:0:0:0:
256,192,201143,1,8,0:0:0:0:
256,192,201216,1,0,0:0:0:0:
256,192,201435,1,4,0:0:0:0:
256,192,201728,1,8,0:0:0:0:
256,192,202167,1,0,0:0:0:0:
256,192,202313,1,8,0:0:0:0:
256,192,202606,1,0,0:0:0:0:
256,192,202899,1,8,0:0:0:0:
256,192,203045,1,0,0:0:0:0:
256,192,203338,1,0,0:0:0:0:
256,192,203484,1,8,0:0:0:0:
256,192,203777,1,0,0:0:0:0:
256,192,204069,1,8,0:0:0:0:
256,192,204509,1,0,0:0:0:0:
256,192,204655,1,8,0:0:0:0:
256,192,204948,1,0,0:0:0:0:
256,192,205240,1,8,0:0:0:0:
256,192,205387,1,0,0:0:0:0:
256,192,205679,1,0,0:0:0:0:
256,192,205826,1,8,0:0:0:0:
256,192,205899,1,0,0:0:0:0:
256,192,206118,1,12,0:0:0:0:
256,192,206411,1,8,0:0:0:0:
256,192,206850,1,0,0:0:0:0:
256,192,206996,1,8,0:0:0:0:
256,192,207289,1,0,0:0:0:0:
256,192,207582,1,8,0:0:0:0:
256,192,207728,1,0,0:0:0:0:
256,192,208021,1,0,0:0:0:0:
256,192,208167,1,8,0:0:0:0:
256,192,208460,1,0,0:0:0:0:
256,192,208752,1,8,0:0:0:0:
256,192,209191,1,0,0:0:0:0:
256,192,209338,1,8,0:0:0:0:
256,192,209630,1,0,0:0:0:0:
256,192,209923,1,8,0:0:0:0:
256,192,210069,1,0,0:0:0:0:
256,192,210362,1,0,0:0:0:0:
256,192,210509,1,4,0:0:0:0:
256,192,210801,1,4,0:0:0:0:
256,192,211094,1,8,0:0:0:0:
256,192,211533,1,0,0:0:0:0:
256,192,211679,1,8,0:0:0:0:
256,192,211972,1,0,0:0:0:0:
256,192,212265,1,8,0:0:0:0:
256,192,212411,1,0,0:0:0:0:
256,192,212704,1,0,0:0:0:0:
256,192,212850,1,8,0:0:0:0:
256,192,213143,1,0,0:0:0:0:
256,192,213435,1,8,0:0:0:0:
256,192,213874,1,0,0:0:0:0:
256,192,214021,1,8,0:0:0:0:
256,192,214094,1,8,0:0:0:0:
256,192,214167,1,8,0:0:0:0:
256,192,214313,2,4,L|448:192,6,140
256,192,215484,1,4,0:0:0:0:
256,192,215777,1,0,0:0:0:0:
256,192,216069,1,0,0:0:0:0:
256,192,216362,1,0,0:0:0:0:
256,192,216655,1,0,0:0:0:0:
256,192,216948,1,0,0:0:0:0:
256,192,217240,1,0,0:0:0:0:
256,192,217533,1,0,0:0:0:0:
256,192,217826,1,4,0:0:0:0:
256,192,218118,1,0,0:0:0:0:
256,192,218411,1,0,0:0:0:0:
256,192,218704,1,0,0:0:0:0:
256,192,218996,1,0,0:0:0:0:
256,192,219289,1,0,0:0:0:0:
256,192,219582,1,0,0:0:0:0:
256,192,219874,1,8,0:0:0:0:
256,192,219948,1,8,0:0:0:0:
256,192,220021,1,8,0:0:0:0:
256,192,220094,1,8,0:0:0:0:
256,192,220167,1,4,0:0:0:0:
256,192,220460,1,8,0:0:0:0:
256,192,220752,1,8,0:0:0:0:
256,192,221045,1,8,0:0:0:0:
256,192,221338,1,8,0:0:0:0:
256,192,221630,1,8,0:0:0:0:
256,192,221923,1,8,0:0:0:0:
256,192,222216,1,8,0:0:0:0:
256,192,222509,1,4,0:0:0:0:
256,192,222801,1,8,0:0:0:0:
256,192,223094,1,8,0:0:0:0:
256,192,223387,1,8,0:0:0:0:
256,192,223533,1,8,0:0:0:0:
256,192,223606,1,8,0:0:0:0:
256,192,223679,1,4,0:0:0:0:
256,192,223972,1,0,0:0:0:0:
256,192,224265,1,0,0:0:0:0:
256,192,224557,1,4,0:0:0:0:
256,192,224850,1,4,0:0:0:0:
256,192,225069,1,0,0:0:0:0:
256,192,225143,1,8,0:0:0:0:
256,192,225289,1,0,0:0:0:0:
256,192,225582,1,0,0:0:0:0:
256,192,225728,1,8,0:0:0:0:
256,192,225874,1,8,0:0:0:0:
256,192,225948,1,8,0:0:0:0:
256,192,226021,1,0,0:0:0:0:
256,192,226167,1,0,0:0:0:0:
256,192,226313,1,8,0:0:0:0:
256,192,226460,1,0,0:0:0:0:
256,192,226752,1,8,0:0:0:0:
256,192,226899,1,8,0:0:0:0:
256,192,226972,1,8,0:0:0:0:
256,192,227045,1,8,0:0:0:0:
256,192,227118,1,8,0:0:0:0:
256,192,227191,1,4,0:0:0:0:
256,192,227338,1,0,0:0:0:0:
256,192,227484,1,8,0:0:0:0:
256,192,227630,1,0,0:0:0:0:
256,192,227923,1,0,0:0:0:0:
256,192,228069,1,8,0:0:0:0:
256,192,228216,1,8,0:0:0:0:
256,192,228289,1,8,0:0:0:0:
256,192,228362,1,0,0:0:0:0:
256,192,228509,1,0,0:0:0:0:
256,192,228655,1,8,0:0:0:0:
256,192,228801,1,0,0:0:0:0:
256,192,228948,1,8,0:0:0:0:
256,192,229021,1,0,0:0:0:0:
256,192,229094,1,8,0:0:0:0:
256,192,229240,1,8,0:0:0:0:
256,192,229313,1,8,0:0:0:0:
256,192,229387,1,8,0:0:0:0:
256,192,229460,1,8,0:0:0:0:
256,192,229533,1,4,0:0:0:0:
256,192,229679,1,0,0:0:0:0:
256,192,229752,1,0,0:0:0:0:
256,192,229826,1,8,0:0:0:0:
256,192,229972,1,0,0:0:0:0:
256,192,230045,1,0,0:0:0:0:
256,192,230118,1,8,0:0:0:0:
256,192,230265,1,0,0:0:0:0:
256,192,230338,1,0,0:0:0:0:
256,192,230411,1,8,0:0:0:0:
256,192,230484,1,0,0:0:0:0:
256,192,230557,1,8,0:0:0:0:
256,192,230704,1,4,0:0:0:0:
256,192,230850,1,8,0:0:0:0:
256,192,230923,1,0,0:0:0:0:
256,192,230996,1,8,0:0:0:0:
256,192,231143,1,8,0:0:0:0:
256,192,231216,1,0,0:0:0:0:
256,192,231289,1,8,0:0:0:0:
256,192,231435,1,8,0:0:0:0:
256,192,231509,1,0,0:0:0:0:
256,192,231582,1,8,0:0:0:0:
256,192,231655,1,8,0:0:0:0:
256,192,231728,1,8,0:0:0:0:
256,192,231874,1,0,0:0:0:0:
256,192,231948,1,0,0:0:0:0:
256,192,232021,1,8,0:0:0:0:
256,192,232069,1,0,0:0:0:0:
256,192,232118,1,0,0:0:0:0:
256,192,232167,1,8,0:0:0:0:
256,192,232240,1,0,0:0:0:0:
256,192,232313,1,8,0:0:0:0:
256,192,232362,1,8,0:0:0:0:
256,192,232411,1,8,0:0:0:0:
256,192,232460,1,0,0:0:0:0:
256,192,232533,1,0,0:0:0:0:
256,192,232606,1,8,0:0:0:0:
256,192,232655,1,0,0:0:0:0:
256,192,232704,1,0,0:0:0:0:
256,192,232752,1,8,0:0:0:0:
256,192,232826,1,0,0:0:0:0:
256,192,232899,1,8,0:0:0:0:
256,192,232972,1,8,0:0:0:0:
256,192,233045,1,4,0:0:0:0:
256,192,233191,1,0,0:0:0:0:
256,192,233240,1,0,0:0:0:0:
256,192,233289,1,0,0:0:0:0:
256,192,233338,1,8,0:0:0:0:
256,192,233411,1,8,0:0:0:0:
256,192,233484,1,8,0:0:0:0:
256,192,233557,1,8,0:0:0:0:
256,192,233630,1,0,0:0:0:0:
256,192,233777,1,8,0:0:0:0:
256,192,233850,1,8,0:0:0:0:
256,192,234216,5,12,0:0:0:0:
256,192,234509,1,8,0:0:0:0:
256,192,234801,1,8,0:0:0:0:
256,192,235094,1,8,0:0:0:0:
256,192,235387,1,8,0:0:0:0:
256,192,235679,1,8,0:0:0:0:
256,192,235972,1,8,0:0:0:0:
256,192,236009,1,8,0:0:0:0:
256,192,236118,1,0,0:0:0:0:
256,192,236155,1,0,0:0:0:0:
256,192,236265,1,8,0:0:0:0:
256,192,236301,1,8,0:0:0:0:
256,192,236411,1,0,0:0:0:0:
256,192,236448,1,0,0:0:0:0:
256,192,236557,1,12,0:0:0:0:
256,192,236704,1,0,0:0:0:0:
256,192,236777,1,0,0:0:0:0:
256,192,236850,1,8,0:0:0:0:
256,192,236996,1,0,0:0:0:0:
256,192,237069,1,8,0:0:0:0:
256,192,237143,1,0,0:0:0:0:
256,192,237216,1,8,0:0:0:0:
256,192,237289,1,0,0:0:0:0:
256,192,237362,1,0,0:0:0:0:
256,192,237435,1,8,0:0:0:0:
256,192,237582,1,8,0:0:0:0:
256,192,237655,1,8,0:0:0:0:
256,192,237728,1,0,0:0:0:0:
256,192,237874,1,0,0:0:0:0:
256,192,237948,1,0,0:0:0:0:
256,192,238021,1,8,0:0:0:0:
256,192,238094,1,8,0:0:0:0:
256,192,238167,1,0,0:0:0:0:
256,192,238313,1,8,0:0:0:0:
256,192,238387,1,0,0:0:0:0:
256,192,238460,1,8,0:0:0:0:
256,192,238606,1,8,0:0:0:0:
256,192,238679,1,8,0:0:0:0:
256,192,238752,1,0,0:0:0:0:
256,192,238826,1,8,0:0:0:0:
256,192,238899,1,0,0:0:0:0:
256,192,239045,1,0,0:0:0:0:
256,192,239118,1,0,0:0:0:0:
256,192,239191,1,8,0:0:0:0:
256,192,239338,1,8,0:0:0:0:
256,192,239411,1,8,0:0:0:0:
256,192,239484,1,0,0:0:0:0:
256,192,239557,1,8,0:0:0:0:
256,192,239630,1,0,0:0:0:0:
256,192,239704,1,0,0:0:0:0:
256,192,239777,1,8,0:0:0:0:
256,192,239923,1,8,0:0:0:0:
256,192,239996,1,0,0:0:0:0:
256,192,240069,1,8,0:0:0:0:
256,192,240143,1,8,0:0:0:0:
256,192,240216,1,0,0:0:0:0:
256,192,240289,1,0,0:0:0:0:
256,192,240362,1,8,0:0:0:0:
256,192,240435,1,0,0:0:0:0:
256,192,240509,1,8,0:0:0:0:
256,192,240655,1,8,0:0:0:0:
256,192,240691,1,8,0:0:0:0:
256,192,240801,1,0,0:0:0:0:
256,192,240838,1,0,0:0:0:0:
256,192,240948,1,8,0:0:0:0:
256,192,240984,1,8,0:0:0:0:
256,192,241094,1,0,0:0:0:0:
256,192,241130,1,0,0:0:0:0:
256,192,241240,1,12,0:0:0:0:
256,192,241387,1,0,0:0:0:0:
256,192,241460,1,0,0:0:0:0:
256,192,241533,1,8,0:0:0:0:
256,192,241679,1,8,0:0:0:0:
256,192,241752,1,8,0:0:0:0:
256,192,241826,1,0,0:0:0:0:
256,192,241899,1,8,0:0:0:0:
256,192,241972,1,0,0:0:0:0:
256,192,242045,1,0,0:0:0:0:
256,192,242118,1,8,0:0:0:0:
256,192,242265,1,0,0:0:0:0:
256,192,242338,1,8,0:0:0:0:
256,192,242411,1,0,0:0:0:0:
256,192,242557,1,8,0:0:0:0:
256,192,242630,1,0,0:0:0:0:
256,192,242704,1,8,0:0:0:0:
256,192,242777,1,8,0:0:0:0:
256,192,242850,1,0,0:0:0:0:
256,192,242996,1,8,0:0:0:0:
256,192,243069,1,8,0:0:0:0:
256,192,243143,1,0,0:0:0:0:
256,192,243216,1,0,0:0:0:0:
256,192,243289,1,8,0:0:0:0:
256,192,243362,1,0,0:0:0:0:
256,192,243435,1,8,0:0:0:0:
256,192,243509,1,8,0:0:0:0:
256,192,243582,1,0,0:0:0:0:
256,192,243728,1,0,0:0:0:0:
256,192,243801,1,0,0:0:0:0:
256,192,243874,1,8,0:0:0:0:
256,192,244021,1,0,0:0:0:0:
256,192,244094,1,8,0:0:0:0:
256,192,244167,1,0,0:0:0:0:
256,192,244240,1,8,0:0:0:0:
256,192,244313,1,0,0:0:0:0:
256,192,244387,1,0,0:0:0:0:
256,192,244460,1,8,0:0:0:0:
256,192,244606,1,0,0:0:0:0:
256,192,244679,1,8,0:0:0:0:
256,192,244752,1,8,0:0:0:0:
256,192,244826,1,0,0:0:0:0:
256,192,244899,1,0,0:0:0:0:
256,192,245045,1,8,0:0:0:0:
256,192,245118,1,0,0:0:0:0:
256,192,245191,1,8,0:0:0:0:
256,192,245265,1,8,0:0:0:0:
256,192,245338,1,0,0:0:0:0:
256,192,245411,1,0,0:0:0:0:
256,192,245484,1,8,0:0:0:0:
256,192,245557,1,0,0:0:0:0:
256,192,245630,1,8,0:0:0:0:
256,192,245704,1,8,0:0:0:0:
256,192,245777,1,0,0:0:0:0:
256,192,245850,1,0,0:0:0:0:
256,192,245923,1,12,0:0:0:0:
256,192,246069,1,0,0:0:0:0:
256,192,246143,1,0,0:0:0:0:
256,192,246216,1,8,0:0:0:0:
256,192,246362,1,0,0:0:0:0:
256,192,246435,1,8,0:0:0:0:
256,192,246509,1,0,0:0:0:0:
256,192,246582,1,8,0:0:0:0:
256,192,246655,1,0,0:0:0:0:
256,192,246728,1,0,0:0:0:0:
256,192,246801,1,8,0:0:0:0:
256,192,246948,1,8,0:0:0:0:
256,192,247094,1,0,0:0:0:0:
256,192,247167,1,0,0:0:0:0:
256,192,247240,1,0,0:0:0:0:
256,192,247313,1,0,0:0:0:0:
256,192,247387,1,8,0:0:0:0:
256,192,247460,1,8,0:0:0:0:
256,192,247533,1,8,0:0:0:0:
256,192,247606,1,8,0:0:0:0:
256,192,247679,1,8,0:0:0:0:
256,192,247752,1,8,0:0:0:0:
256,192,247826,1,8,0:0:0:0:
256,192,247899,1,8,0:0:0:0:
256,192,247972,1,8,0:0:0:0:
256,192,248045,1,8,0:0:0:0:
256,192,248118,1,8,0:0:0:0:
256,192,248191,1,8,0:0:0:0:
256,192,248265,1,8,0:0:0:0:
256,192,248411,1,0,0:0:0:0:
256,192,248484,1,0,0:0:0:0:
256,192,248557,1,8,0:0:0:0:
256,192,248704,1,8,0:0:0:0:
256,192,248777,1,8,0:0:0:0:
256,192,248850,1,0,0:0:0:0:
256,192,248923,1,0,0:0:0:0:
256,192,248996,1,8,0:0:0:0:
256,192,249069,1,0,0:0:0:0:
256,192,249143,1,8,0:0:0:0:
256,192,249289,1,8,0:0:0:0:
256,192,249362,1,8,0:0:0:0:
256,192,249435,1,0,0:0:0:0:
256,192,249582,1,0,0:0:0:0:
256,192,249655,1,8,0:0:0:0:
256,192,249728,1,8,0:0:0:0:
256,192,249801,1,0,0:0:0:0:
256,192,249874,1,8,0:0:0:0:
256,192,250021,1,8,0:0:0:0:
256,192,250057,1,8,0:0:0:0:
256,192,250167,1,0,0:0:0:0:
256,192,250204,1,0,0:0:0:0:
256,192,250313,1,8,0:0:0:0:
256,192,250350,1,8,0:0:0:0:
256,192,250460,1,0,0:0:0:0:
256,192,250496,1,0,0:0:0:0:
256,192,250606,1,12,0:0:0:0:
256,192,250752,1,0,0:0:0:0:
256,192,250826,1,0,0:0:0:0:
256,192,250899,1,8,0:0:0:0:
256,192,251045,1,8,0:0:0:0:
256,192,251191,1,8,0:0:0:0:
256,192,251265,1,8,0:0:0:0:
256,192,251338,1,8,0:0:0:0:
256,192,251411,1,8,0:0:0:0:
256,192,251484,1,0,0:0:0:0:
256,192,251557,1,0,0:0:0:0:
256,192,251630,1,0,0:0:0:0:
256,192,251704,1,0,0:0:0:0:
256,192,251777,1,0,0:0:0:0:
256,192,251850,1,0,0:0:0:0:
256,192,251923,1,0,0:0:0:0:
256,192,251996,1,0,0:0:0:0:
256,192,252069,1,8,0:0:0:0:
256,192,252143,1,8,0:0:0:0:
256,192,252216,1,8,0:0:0:0:
256,192,252289,1,8,0:0:0:0:
256,192,252362,1,8,0:0:0:0:
256,192,252435,1,8,0:0:0:0:
256,192,252509,1,8,0:0:0:0:
256,192,252582,1,8,0:0:0:0:
256,192,252655,1,8,0:0:0:0:
256,192,252728,1,8,0:0:0:0:
256,192,252801,1,8,0:0:0:0:
256,192,252874,1,8,0:0:0:0:
256,192,252948,1,0,0:0:0:0:
256,192,253021,1,0,0:0:0:0:
256,192,253094,1,0,0:0:0:0:
256,192,253167,1,0,0:0:0:0:
256,192,253240,1,0,0:0:0:0:
256,192,253313,1,0,0:0:0:0:
256,192,253387,1,0,0:0:0:0:
256,192,253533,1,0,0:0:0:0:
256,192,253606,1,0,0:0:0:0:
256,192,253679,1,8,0:0:0:0:
256,192,253752,1,0,0:0:0:0:
256,192,253826,1,8,0:0:0:0:
256,192,253972,1,8,0:0:0:0:
256,192,254045,1,8,0:0:0:0:
256,192,254118,1,4,0:0:0:0:
256,192,254265,1,8,0:0:0:0:
256,192,254411,1,4,0:0:0:0:
256,192,254557,1,8,0:0:0:0:
256,192,254704,1,4,0:0:0:0:
256,192,254850,1,8,0:0:0:0:
256,192,254996,1,4,0:0:0:0:
256,192,255289,1,12,0:0:0:0:
256,192,255435,1,0,0:0:0:0:
256,192,255509,1,0,0:0:0:0:
256,192,255582,1,8,0:0:0:0:
256,192,255728,1,0,0:0:0:0:
256,192,255801,1,8,0:0:0:0:
256,192,255874,1,0,0:0:0:0:
256,192,255948,1,8,0:0:0:0:
256,192,256021,1,0,0:0:0:0:
256,192,256094,1,0,0:0:0:0:
256,192,256167,1,8,0:0:0:0:
256,192,256313,1,8,0:0:0:0:
256,192,256387,1,8,0:0:0:0:
256,192,256460,1,0,0:0:0:0:
256,192,256606,1,8,0:0:0:0:
256,192,256679,1,0,0:0:0:0:
256,192,256752,1,8,0:0:0:0:
256,192,256899,1,0,0:0:0:0:
256,192,256972,1,8,0:0:0:0:
256,192,257045,1,0,0:0:0:0:
256,192,257118,1,0,0:0:0:0:
256,192,257191,1,8,0:0:0:0:
256,192,257265,1,0,0:0:0:0:
256,192,257338,1,8,0:0:0:0:
256,192,257411,1,8,0:0:0:0:
256,192,257484,1,0,0:0:0:0:
256,192,257630,1,8,0:0:0:0:
256,192,257777,1,0,0:0:0:0:
256,192,257850,1,0,0:0:0:0:
256,192,257923,1,8,0:0:0:0:
256,192,258069,1,0,0:0:0:0:
256,192,258216,1,8,0:0:0:0:
256,192,258289,1,8,0:0:0:0:
256,192,258362,1,0,0:0:0:0:
256,192,258435,1,0,0:0:0:0:
256,192,258509,1,8,0:0:0:0:
256,192,258655,1,8,0:0:0:0:
256,192,258728,1,0,0:0:0:0:
256,192,258801,1,8,0:0:0:0:
256,192,258948,1,0,0:0:0:0:
256,192,259021,1,0,0:0:0:0:
256,192,259094,1,8,0:0:0:0:
256,192,259167,1,0,0:0:0:0:
256,192,259240,1,8,0:0:0:0:
256,192,259387,1,0,0:0:0:0:
256,192,259460,1,0,0:0:0:0:
256,192,259533,1,8,0:0:0:0:
256,192,259606,1,0,0:0:0:0:
256,192,259679,1,8,0:0:0:0:
256,192,259752,1,8,0:0:0:0:
256,192,259826,1,0,0:0:0:0:
256,192,259899,1,0,0:0:0:0:
256,192,259972,1,12,0:0:0:0:
256,192,260118,1,0,0:0:0:0:
256,192,260191,1,0,0:0:0:0:
256,192,260265,1,8,0:0:0:0:
256,192,260411,1,0,0:0:0:0:
256,192,260557,1,8,0:0:0:0:
256,192,260630,1,8,0:0:0:0:
256,192,260704,1,0,0:0:0:0:
256,192,260777,1,0,0:0:0:0:
256,192,260850,1,8,0:0:0:0:
256,192,260996,1,8,0:0:0:0:
256,192,261069,1,0,0:0:0:0:
256,192,261143,1,8,0:0:0:0:
256,192,261289,1,8,0:0:0:0:
256,192,261362,1,0,0:0:0:0:
256,192,261435,1,8,0:0:0:0:
256,192,261509,1,8,0:0:0:0:
256,192,261582,1,0,0:0:0:0:
256,192,261728,1,0,0:0:0:0:
256,192,261801,1,0,0:0:0:0:
256,192,261874,1,8,0:0:0:0:
256,192,261948,1,0,0:0:0:0:
256,192,262021,1,8,0:0:0:0:
256,192,262094,1,8,0:0:0:0:
256,192,262167,1,0,0:0:0:0:
256,192,262313,1,8,0:0:0:0:
256,192,262387,1,0,0:0:0:0:
256,192,262460,1,8,0:0:0:0:
256,192,262533,1,8,0:0:0:0:
256,192,262606,1,0,0:0:0:0:
256,192,262752,1,8,0:0:0:0:
256,192,262899,1,0,0:0:0:0:
256,192,262972,1,8,0:0:0:0:
256,192,263045,1,0,0:0:0:0:
256,192,263118,1,0,0:0:0:0:
256,192,263191,1,8,0:0:0:0:
256,192,263338,1,0,0:0:0:0:
256,192,263484,1,0,0:0:0:0:
256,192,263557,1,8,0:0:0:0:
256,192,263630,1,0,0:0:0:0:
256,192,263704,1,0,0:0:0:0:
256,192,263777,1,8,0:0:0:0:
256,192,263850,1,0,0:0:0:0:
256,192,263923,1,8,0:0:0:0:
256,192,263996,1,8,0:0:0:0:
256,192,264069,1,0,0:0:0:0:
256,192,264143,1,0,0:0:0:0:
256,192,264216,1,8,0:0:0:0:
256,192,264289,1,8,0:0:0:0:
256,192,264362,1,4,0:0:0:0:
256,192,264655,1,12,0:0:0:0:
256,192,264801,1,0,0:0:0:0:
256,192,264874,1,0,0:0:0:0:
256,192,264948,1,8,0:0:0:0:
256,192,265094,1,0,0:0:0:0:
256,192,265167,1,8,0:0:0:0:
256,192,265240,1,8,0:0:0:0:
256,192,265313,1,0,0:0:0:0:
256,192,265387,1,8,0:0:0:0:
256,192,265460,1,0,0:0:0:0:
256,192,265533,1,8,0:0:0:0:
256,192,265679,1,0,0:0:0:0:
256,192,265752,1,0,0:0:0:0:
256,192,265826,1,8,0:0:0:0:
256,192,265972,1,0,0:0:0:0:
256,192,266045,1,8,0:0:0:0:
256,192,266118,1,0,0:0:0:0:
256,192,266191,1,0,0:0:0:0:
256,192,266265,1,8,0:0:0:0:
256,192,266411,1,8,0:0:0:0:
256,192,266484,1,0,0:0:0:0:
256,192,266557,1,8,0:0:0:0:
256,192,266630,1,0,0:0:0:0:
256,192,266704,1,8,0:0:0:0:
256,192,266777,1,8,0:0:0:0:
256,192,266850,1,0,0:0:0:0:
256,192,266923,1,0,0:0:0:0:
256,192,266996,1,8,0:0:0:0:
256,192,267143,1,0,0:0:0:0:
256,192,267216,1,0,0:0:0:0:
256,192,267289,1,8,0:0:0:0:
256,192,267435,1,8,0:0:0:0:
256,192,267509,1,8,0:0:0:0:
256,192,267582,1,0,0:0:0:0:
256,192,267655,1,0,0:0:0:0:
256,192,267728,1,0,0:0:0:0:
256,192,267874,1,8,0:0:0:0:
256,192,268021,1,8,0:0:0:0:
256,192,268094,1,8,0:0:0:0:
256,192,268167,1,0,0:0:0:0:
256,192,268313,1,8,0:0:0:0:
256,192,268387,1,0,0:0:0:0:
256,192,268460,1,8,0:0:0:0:
256,192,268533,1,8,0:0:0:0:
256,192,268606,1,0,0:0:0:0:
256,192,268752,1,0,0:0:0:0:
256,192,268826,1,0,0:0:0:0:
256,192,268899,1,8,0:0:0:0:
256,192,268972,1,0,0:0:0:0:
256,192,269045,1,8,0:0:0:0:
256,192,269118,1,8,0:0:0:0:
256,192,269191,1,0,0:0:0:0:
256,192,269265,1,0,0:0:0:0:
256,192,269338,1,12,0:0:0:0:
256,192,269484,1,0,0:0:0:0:
256,192,269557,1,0,0:0:0:0:
256,192,269630,1,8,0:0:0:0:
256,192,269777,1,0,0:0:0:0:
256,192,269850,1,8,0:0:0:0:
256,192,269923,1,8,0:0:0:0:
256,192,269996,1,0,0:0:0:0:
256,192,270069,1,8,0:0:0:0:
256,192,270143,1,0,0:0:0:0:
256,192,270216,1,8,0:0:0:0:
256,192,270362,1,0,0:0:0:0:
256,192,270435,1,0,0:0:0:0:
256,192,270509,1,8,0:0:0:0:
256,192,270655,1,8,0:0:0:0:
256,192,270728,1,0,0:0:0:0:
256,192,270801,1,8,0:0:0:0:
256,192,270874,1,8,0:0:0:0:
256,192,270948,1,0,0:0:0:0:
256,192,271094,1,0,0:0:0:0:
256,192,271167,1,8,0:0:0:0:
256,192,271240,1,0,0:0:0:0:
256,192,271313,1,0,0:0:0:0:
256,192,271387,1,8,0:0:0:0:
256,192,271460,1,0,0:0:0:0:
256,192,271533,1,8,0:0:0:0:
256,192,271679,1,8,0:0:0:0:
256,192,271752,1,0,0:0:0:0:
256,192,271826,1,8,0:0:0:0:
256,192,271899,1,8,0:0:0:0:
256,192,271972,1,0,0:0:0:0:
256,192,272045,1,0,0:0:0:0:
256,192,272118,1,8,0:0:0:0:
256,192,272191,1,0,0:0:0:0:
256,192,272265,1,8,0:0:0:0:
256,192,272338,1,8,0:0:0:0:
256,192,272411,1,0,0:0:0:0:
256,192,272484,1,8,0:0:0:0:
256,192,272557,1,0,0:0:0:0:
256,192,272630,1,0,0:0:0:0:
256,192,272704,1,8,0:0:0:0:
256,192,272850,1,4,0:0:0:0:
256,192,273143,1,4,0:0:0:0:
256,192,273435,1,4,0:0:0:0:
256,192,274021,1,12,0:0:0:0:
256,192,274167,1,0,0:0:0:0:
256,192,274240,1,0,0:0:0:0:
256,192,274313,1,8,0:0:0:0:
256,192,274460,1,8,0:0:0:0:
256,192,274606,1,0,0:0:0:0:
256,192,274679,1,8,0:0:0:0:
256,192,274752,1,0,0:0:0:0:
256,192,274826,1,0,0:0:0:0:
256,192,274899,1,8,0:0:0:0:
256,192,275045,1,8,0:0:0:0:
256,192,275191,1,0,0:0:0:0:
256,192,275265,1,0,0:0:0:0:
256,192,275338,1,0,0:0:0:0:
256,192,275411,1,0,0:0:0:0:
256,192,275484,1,8,0:0:0:0:
256,192,275557,1,8,0:0:0:0:
256,192,275630,1,8,0:0:0:0:
256,192,275704,1,8,0:0:0:0:
256,192,275777,1,8,0:0:0:0:
256,192,275850,1,8,0:0:0:0:
256,192,275923,1,8,0:0:0:0:
256,192,275996,1,8,0:0:0:0:
256,192,276069,1,8,0:0:0:0:
256,192,276143,1,8,0:0:0:0:
256,192,276216,1,8,0:0:0:0:
256,192,276289,1,8,0:0:0:0:
256,192,276362,1,8,0:0:0:0:
256,192,276509,1,0,0:0:0:0:
256,192,276582,1,0,0:0:0:0:
256,192,276655,1,8,0:0:0:0:
256,192,276801,1,8,0:0:0:0:
256,192,276948,1,0,0:0:0:0:
256,192,277021,1,0,0:0:0:0:
256,192,277094,1,8,0:0:0:0:
256,192,277167,1,0,0:0:0:0:
256,192,277240,1,8,0:0:0:0:
256,192,277387,1,8,0:0:0:0:
256,192,277533,1,0,0:0:0:0:
256,192,277679,1,8,0:0:0:0:
256,192,277752,1,8,0:0:0:0:
256,192,277826,1,0,0:0:0:0:
256,192,277972,1,0,0:0:0:0:
256,192,278118,1,0,0:0:0:0:
256,192,278191,1,8,0:0:0:0:
256,192,278265,1,8,0:0:0:0:
256,192,278338,1,0,0:0:0:0:
256,192,278411,1,8,0:0:0:0:
256,192,278557,1,8,0:0:0:0:
256,192,278704,1,0,0:0:0:0:
256,192,278850,1,0,0:0:0:0:
256,192,278923,1,0,0:0:0:0:
256,192,278996,1,8,0:0:0:0:
256,192,279143,1,8,0:0:0:0:
256,192,279289,1,8,0:0:0:0:
256,192,279362,1,8,0:0:0:0:
256,192,279435,1,8,0:0:0:0:
256,192,279509,1,8,0:0:0:0:
256,192,279582,1,0,0:0:0:0:
256,192,279655,1,0,0:0:0:0:
256,192,279728,1,0,0:0:0:0:
256,192,279801,1,0,0:0:0:0:
256,192,279874,1,0,0:0:0:0:
256,192,279948,1,0,0:0:0:0:
256,192,280021,1,0,0:0:0:0:
256,192,280094,1,0,0:0:0:0:
256,192,280167,1,8,0:0:0:0:
256,192,280240,1,8,0:0:0:0:
256,192,280313,1,8,0:0:0:0:
256,192,280387,1,8,0:0:0:0:
256,192,280460,1,8,0:0:0:0:
256,192,280533,1,8,0:0:0:0:
256,192,280606,1,8,0:0:0:0:
256,192,280679,1,8,0:0:0:0:
256,192,280752,1,8,0:0:0:0:
256,192,280826,1,8,0:0:0:0:
256,192,280899,1,8,0:0:0:0:
256,192,280972,1,8,0:0:0:0:
256,192,281045,1,0,0:0:0:0:
256,192,281118,1,0,0:0:0:0:
256,192,281191,1,0,0:0:0:0:
256,192,281265,1,0,0:0:0:0:
256,192,281338,1,0,0:0:0:0:
256,192,281411,1,0,0:0:0:0:
256,192,281484,1,0,0:0:0:0:
256,192,281630,1,0,0:0:0:0:
256,192,281704,1,0,0:0:0:0:
256,192,281850,1,0,0:0:0:0:
256,192,281923,1,8,0:0:0:0:
256,192,282069,1,8,0:0:0:0:
256,192,282143,1,8,0:0:0:0:
256,192,282216,1,0,0:0:0:0:
256,192,282362,1,0,0:0:0:0:
256,192,282435,1,0,0:0:0:0:
256,192,282509,1,8,0:0:0:0:
256,192,282582,1,8,0:0:0:0:
256,192,282655,1,0,0:0:0:0:
256,192,282801,1,8,0:0:0:0:
256,192,282874,1,8,0:0:0:0:
256,192,282948,1,8,0:0:0:0:
256,192,283021,1,8,0:0:0:0:
256,192,283094,1,0,0:0:0:0:
256,192,283167,1,0,0:0:0:0:
256,192,283240,1,0,0:0:0:0:
256,192,283313,1,0,0:0:0:0:
256,192,283387,1,12,0:0:0:0:
256,192,283533,1,0,0:0:0:0:
256,192,283606,1,0,0:0:0:0:
256,192,283679,1,8,0:0:0:0:
256,192,283826,1,0,0:0:0:0:
256,192,283972,1,8,0:0:0:0:
256,192,284045,1,8,0:0:0:0:
256,192,284118,1,0,0:0:0:0:
256,192,284191,1,0,0:0:0:0:
256,192,284265,1,8,0:0:0:0:
256,192,284411,1,8,0:0:0:0:
256,192,284557,1,0,0:0:0:0:
256,192,284630,1,0,0:0:0:0:
256,192,284704,1,0,0:0:0:0:
256,192,284777,1,0,0:0:0:0:
256,192,284850,1,8,0:0:0:0:
256,192,284923,1,8,0:0:0:0:
256,192,284996,1,8,0:0:0:0:
256,192,285069,1,8,0:0:0:0:
256,192,285143,1,8,0:0:0:0:
256,192,285216,1,8,0:0:0:0:
256,192,285289,1,8,0:0:0:0:
256,192,285362,1,8,0:0:0:0:
256,192,285435,1,8,0:0:0:0:
256,192,285509,1,8,0:0:0:0:
256,192,285582,1,8,0:0:0:0:
256,192,285655,1,8,0:0:0:0:
256,192,285728,1,8,0:0:0:0:
256,192,285874,1,8,0:0:0:0:
256,192,285948,1,0,0:0:0:0:
256,192,286021,1,8,0:0:0:0:
256,192,286167,1,0,0:0:0:0:
256,192,286313,1,0,0:0:0:0:
256,192,286387,1,0,0:0:0:0:
256,192,286460,1,8,0:0:0:0:
256,192,286533,1,0,0:0:0:0:
256,192,286606,1,8,0:0:0:0:
256,192,286752,1,0,0:0:0:0:
256,192,286899,1,8,0:0:0:0:
256,192,287045,1,8,0:0:0:0:
256,192,287118,1,0,0:0:0:0:
256,192,287191,1,8,0:0:0:0:
256,192,287338,1,0,0:0:0:0:
256,192,287484,1,8,0:0:0:0:
256,192,287557,1,0,0:0:0:0:
256,192,287630,1,8,0:0:0:0:
256,192,287704,1,0,0:0:0:0:
256,192,287777,1,8,0:0:0:0:
256,192,287923,1,0,0:0:0:0:
256,192,287996,1,0,0:0:0:0:
256,192,288069,1,8,0:0:0:0:
256,192,288216,1,8,0:0:0:0:
256,192,288289,1,8,0:0:0:0:
256,192,288362,1,0,0:0:0:0:
256,192,288435,1,0,0:0:0:0:
256,192,288509,1,8,0:0:0:0:
256,192,288655,1,8,0:0:0:0:
256,192,288728,1,8,0:0:0:0:
256,192,288801,1,8,0:0:0:0:
256,192,288874,1,8,0:0:0:0:
256,192,288948,1,0,0:0:0:0:
256,192,289021,1,0,0:0:0:0:
256,192,289094,1,0,0:0:0:0:
256,192,289167,1,0,0:0:0:0:
256,192,289240,1,0,0:0:0:0:
256,192,289313,1,0,0:0:0:0:
256,192,289387,1,0,0:0:0:0:
256,192,289460,1,0,0:0:0:0:
256,192,289533,1,8,0:0:0:0:
256,192,289606,1,8,0:0:0:0:
256,192,289679,1,8,0:0:0:0:
256,192,289752,1,8,0:0:0:0:
256,192,289826,1,8,0:0:0:0:
256,192,289899,1,8,0:0:0:0:
256,192,289972,1,8,0:0:0:0:
256,192,290045,1,8,0:0:0:0:
256,192,290118,1,8,0:0:0:0:
256,192,290191,1,8,0:0:0:0:
256,192,290265,1,8,0:0:0:0:
256,192,290338,1,8,0:0:0:0:
256,192,290411,1,8,0:0:0:0:
256,192,290557,1,0,0:0:0:0:
256,192,290630,1,8,0:0:0:0:
256,192,290704,1,0,0:0:0:0:
256,192,290777,1,0,0:0:0:0:
256,192,290850,1,8,0:0:0:0:
256,192,290923,1,0,0:0:0:0:
256,192,290996,1,8,0:0:0:0:
256,192,291069,1,8,0:0:0:0:
256,192,291143,1,0,0:0:0:0:
256,192,291216,1,8,0:0:0:0:
256,192,291289,1,0,0:0:0:0:
256,192,291362,1,0,0:0:0:0:
256,192,291435,1,8,0:0:0:0:
256,192,291484,1,8,0:0:0:0:
256,192,291533,1,8,0:0:0:0:
256,192,291582,1,4,0:0:0:0:
256,192,292752,1,12,0:0:0:0:
256,192,292899,1,0,0:0:0:0:
256,192,292972,1,0,0:0:0:0:
256,192,293045,1,8,0:0:0:0:
256,192,293338,1,0,0:0:0:0:
256,192,293630,1,8,0:0:0:0:
256,192,293923,1,0,0:0:0:0:
256,192,294216,1,8,0:0:0:0:
256,192,294509,1,0,0:0:0:0:
256,192,294801,1,8,0:0:0:0:
256,192,295094,1,0,0:0:0:0:
256,192,295240,1,0,0:0:0:0:
256,192,295387,1,8,0:0:0:0:
256,192,295679,1,0,0:0:0:0:
256,192,295972,1,8,0:0:0:0:
256,192,296191,1,0,0:0:0:0:
256,192,296265,1,0,0:0:0:0:
256,192,296557,1,8,0:0:0:0:
256,192,296850,1,0,0:0:0:0:
256,192,296996,1,0,0:0:0:0:
256,192,297143,1,8,0:0:0:0:
256,192,297289,1,0,0:0:0:0:
256,192,297435,1,0,0:0:0:0:
256,192,297582,1,0,0:0:0:0:
256,192,297655,1,0,0:0:0:0:
256,192,297728,1,8,0:0:0:0:
256,192,298021,1,0,0:0:0:0:
256,192,298313,1,8,0:0:0:0:
256,192,298606,1,0,0:0:0:0:
256,192,298899,1,8,0:0:0:0:
256,192,299191,1,0,0:0:0:0:
256,192,299484,1,8,0:0:0:0:
256,192,299777,1,0,0:0:0:0:
256,192,299923,1,0,0:0:0:0:
256,192,300069,1,8,0:0:0:0:
256,192,300362,1,0,0:0:0:0:
256,192,300655,1,8,0:0:0:0:
256,192,300874,1,0,0:0:0:0:
256,192,300948,1,0,0:0:0:0:
256,192,301240,1,8,0:0:0:0:
256,192,301533,1,0,0:0:0:0:
256,192,301679,1,0,0:0:0:0:
256,192,301826,1,8,0:0:0:0:
256,192,301972,1,0,0:0:0:0:
256,192,302118,1,12,0:0:0:0:
256,192,302265,1,0,0:0:0:0:
256,192,302338,1,0,0:0:0:0:
256,192,302411,1,8,0:0:0:0:
256,192,302704,1,0,0:0:0:0:
256,192,302996,1,8,0:0:0:0:
256,192,303289,1,0,0:0:0:0:
256,192,303582,1,8,0:0:0:0:
256,192,303874,1,0,0:0:0:0:
256,192,304167,1,8,0:0:0:0:
256,192,304460,1,0,0:0:0:0:
256,192,304606,1,0,0:0:0:0:
256,192,304752,1,8,0:0:0:0:
256,192,305045,1,0,0:0:0:0:
256,192,305338,1,8,0:0:0:0:
256,192,305557,1,0,0:0:0:0:
256,192,305630,1,0,0:0:0:0:
256,192,305923,1,8,0:0:0:0:
256,192,306216,1,0,0:0:0:0:
256,192,306362,1,0,0:0:0:0:
256,192,306509,1,8,0:0:0:0:
256,192,306655,1,0,0:0:0:0:
256,192,306801,1,0,0:0:0:0:
256,192,306948,1,0,0:0:0:0:
256,192,307021,1,0,0:0:0:0:
256,192,307094,1,8,0:0:0:0:
256,192,307387,1,0,0:0:0:0:
256,192,307679,1,8,0:0:0:0:
256,192,307972,1,0,0:0:0:0:
256,192,308265,1,8,0:0:0:0:
256,192,308557,1,0,0:0:0:0:
256,192,308850,1,8,0:0:0:0:
256,192,309143,1,0,0:0:0:0:
256,192,309289,1,0,0:0:0:0:
256,192,309435,1,8,0:0:0:0:
256,192,309728,1,0,0:0:0:0:
256,192,310021,1,8,0:0:0:0:
256,192,310240,1,0,0:0:0:0:
256,192,310313,1,0,0:0:0:0:
256,192,310606,1,8,0:0:0:0:
256,192,310899,12,0,311484,0:0:0:0:
