osu file format v14

[General]
AudioFilename: audio.mp3
AudioLeadIn: 0
PreviewTime: 159376
Countdown: 0
SampleSet: Soft
StackLeniency: 0.2
Mode: 2
LetterboxInBreaks: 0
WidescreenStoryboard: 1

[Editor]
Bookmarks: 178223
DistanceSpacing: 0.7
BeatDivisor: 8
GridSize: 32
TimelineZoom: 2

[Metadata]
Title:TAPIOCA
TitleUnicode:TAPIOCA
Artist:USAO
ArtistUnicode:USAO
Creator:Secre
Version:Alpha
Source:
Tags:chickenbible realazy hardstyle hardtek frenchcore electronic instrumental hardcore syndrome 13 tano*c records game super boba fa featured artist mpg mappers' guild mg
BeatmapID:3473163
BeatmapSetID:1699721

[Difficulty]
HPDrainRate:5
CircleSize:4.2
OverallDifficulty:9.7
ApproachRate:9.7
SliderMultiplier:1.9
SliderTickRate:2

[Events]
//Background and Video events
0,0,"niji members searching for their holo acceptance letter.jpg",0,0
//Break Periods
//Storyboard Layer 0 (Background)
//Storyboard Layer 1 (Fail)
//Storyboard Layer 2 (Pass)
//Storyboard Layer 3 (Foreground)
//Storyboard Layer 4 (Overlay)
//Storyboard Sound Samples

[TimingPoints]
272,292.682926829268,4,2,1,40,1,0
9637,-100,4,2,1,50,0,0
16662,-100,4,2,1,60,0,0
19003,-100,4,2,1,70,0,0
19589,-100,4,2,1,70,0,0
19882,-100,4,2,1,70,0,0
20175,-100,4,2,1,70,0,0
20467,-100,4,2,1,70,0,0
20760,-100,4,2,1,70,0,0
21053,-100,4,2,1,70,0,0
21345,-100,4,2,1,70,0,0
21638,-100,4,2,1,70,0,0
21931,-100,4,2,1,70,0,0
22224,-100,4,2,1,70,0,0
22516,-100,4,2,1,70,0,0
22809,-100,4,2,1,70,0,0
23101,-100,4,2,1,70,0,0
24272,-100,4,2,1,70,0,0
24565,-100,4,2,1,70,0,0
24858,-100,4,2,1,70,0,0
25150,-100,4,2,1,70,0,0
25443,-100,4,2,1,70,0,0
25736,-100,4,2,1,70,0,0
26028,-100,4,2,1,70,0,0
26321,-100,4,2,1,70,0,0
26614,-100,4,2,1,70,0,0
26906,-100,4,2,1,70,0,0
27199,-100,4,2,1,70,0,0
27345,-100,4,2,1,70,0,0
27492,-100,4,2,1,70,0,0
27785,-100,4,2,1,70,0,0
27931,-100,4,2,1,70,0,0
28076,-100,4,2,1,70,0,0
28955,-100,4,2,1,70,0,0
29101,-100,4,2,1,80,0,0
30711,-100,4,2,1,70,0,0
31296,-100,4,2,1,70,0,0
31881,-100,4,2,1,70,0,0
32467,-100,4,2,1,50,0,0
33052,-100,4,2,1,70,0,0
33345,-100,4,2,1,80,0,0
33930,-100,4,2,1,80,0,0
34515,-100,4,2,1,80,0,0
35980,-100,4,2,1,70,0,0
36272,-100,4,2,1,70,0,0
36565,-100,4,2,1,70,0,0
39198,-100,4,2,1,70,0,0
39491,-100,4,2,1,70,0,0
42418,-100,4,2,1,70,0,0
43881,-100,4,2,1,70,0,0
44174,-100,4,2,1,70,0,0
47101,-100,4,2,2,50,0,0
55881,-74.0740740740741,4,2,2,50,0,0
56174,-100,4,2,1,70,0,0
56467,-100,4,2,2,60,0,0
62320,-100,4,2,2,60,0,0
63784,-100,4,2,2,60,0,0
64076,-100,4,2,2,60,0,0
64369,-100,4,2,2,60,0,0
65540,-100,4,2,1,70,0,0
65832,-83.3333333333333,4,2,1,80,0,0
70223,-100,4,2,1,60,0,0
70515,-83.3333333333333,4,2,1,80,0,0
75198,-83.3333333333333,4,2,1,80,0,0
75930,-100,4,2,1,90,0,0
76369,-83.3333333333333,4,2,1,90,0,0
77832,-83.3333333333333,4,2,1,80,0,0
79881,-83.3333333333333,4,2,1,80,0,0
80174,-83.3333333333333,4,2,1,90,0,0
80759,-83.3333333333333,4,2,1,90,0,0
81344,-83.3333333333333,4,2,1,90,0,0
82515,-83.3333333333333,4,2,1,80,0,0
84564,-83.3333333333333,4,2,1,80,0,0
86613,-83.3333333333333,4,2,1,80,0,0
86906,-83.3333333333333,4,2,1,80,0,0
91589,-83.3333333333333,4,2,1,80,0,0
93637,-83.3333333333333,4,2,1,80,0,0
93930,-83.3333333333333,4,2,1,80,0,0
94515,-83.3333333333333,4,2,1,80,0,0
94662,-83.3333333333333,4,2,1,90,0,0
96564,-83.3333333333333,4,2,1,80,0,0
96857,-83.3333333333333,4,2,1,80,0,0
97149,-83.3333333333333,4,2,1,80,0,0
97442,-83.3333333333333,4,2,1,80,0,0
97735,-83.3333333333333,4,2,1,80,0,0
98027,-83.3333333333333,4,2,1,80,0,0
98320,-83.3333333333333,4,2,1,80,0,0
98613,-83.3333333333333,4,2,1,80,0,0
98906,-100,4,2,1,90,0,0
99491,-100,4,2,1,90,0,0
100076,-100,4,2,1,90,0,0
101540,-100,4,2,1,80,0,0
101832,-100,4,2,1,80,0,0
102125,-100,4,2,1,80,0,0
102418,-100,4,2,1,80,0,0
102710,-100,4,2,1,80,0,0
103003,-100,4,2,1,60,0,0
103296,-100,4,2,1,80,0,0
103589,-83.3333333333333,4,2,1,80,0,0
104028,-83.3333333333333,4,2,1,90,0,0
105930,-83.3333333333333,4,2,1,80,0,0
111491,-100,4,2,1,60,0,0
111784,-100,4,2,1,60,0,0
112662,-100,4,2,1,80,0,0
112954,-100,4,2,2,60,0,0
117345,-100,4,2,1,60,0,0
117637,-100,4,2,2,60,0,0
120857,-66.6666666666667,4,2,1,70,0,0
122028,-71.4285714285714,4,2,2,60,0,0
123198,-45.4545454545455,4,2,2,60,0,0
123784,-71.4285714285714,4,2,2,60,0,0
126711,-66.6666666666667,4,2,1,70,0,0
126857,-66.6666666666667,4,2,2,60,0,0
127881,-45.4545454545455,4,2,2,60,0,0
128467,-66.6666666666667,4,2,2,60,0,0
129930,-45.4545454545455,4,2,2,60,0,0
130223,-100,4,2,1,70,0,0
130515,-100,4,2,1,70,0,0
131393,-83.3333333333333,4,2,1,60,0,0
133735,-100,4,2,1,65,0,0
136076,-100,4,2,1,70,0,0
136954,-83.3333333333333,4,2,1,70,0,0
137247,-83.3333333333333,4,2,1,75,0,0
137540,-76.9230769230769,4,2,1,75,0,0
138125,-68.9655172413793,4,2,1,75,0,0
138418,-68.9655172413793,4,2,1,80,0,0
138711,-45.4545454545455,4,2,1,80,0,0
139881,-80,4,2,1,60,0,0
140759,-100,4,2,1,90,0,1
150857,-100,4,2,1,100,0,1
152467,-100,4,2,1,90,0,1
155101,-100,4,2,1,100,0,1
155686,-100,4,2,1,100,0,1
156271,-100,4,2,1,100,0,1
157150,-100,4,2,1,90,0,1
158320,-100,4,2,1,90,0,1
159491,-100,4,2,1,80,0,0
159784,-100,4,2,1,90,0,1
165052,-100,4,2,1,90,0,1
173540,-100,4,2,1,90,0,1
177052,-100,4,2,1,70,0,0
179686,-100,4,2,1,70,0,0
181735,-100,4,2,1,70,0,0
191101,-100,4,2,1,70,0,0
193735,-100,4,2,1,70,0,0
196954,-100,4,2,2,60,0,0
201637,-100,4,2,1,60,0,0
201929,-100,4,2,2,60,0,0
202515,-100,4,2,2,60,0,0
202808,-100,4,2,2,60,0,0
206320,-100,4,2,1,70,0,0
206612,-100,4,2,2,60,0,0
207198,-100,4,2,2,60,0,0
207491,-100,4,2,2,60,0,0
209832,-100,4,2,2,60,0,0
210711,-100,4,2,1,70,0,0
211296,-100,4,2,2,60,0,0
211881,-100,4,2,2,60,0,0
212174,-100,4,2,2,60,0,0
214515,-100,4,2,1,70,0,0
215686,-100,4,2,1,50,0,0
218028,-100,4,2,1,60,0,0
220076,-100,4,2,1,70,0,0
220369,-100,4,2,1,70,0,0
223735,-100,4,2,1,80,0,0
224174,-100,4,2,1,70,0,0
224467,-100,4,2,1,60,0,0
224759,-100,4,2,1,50,0,0
225052,-100,4,2,1,60,0,0
225344,-100,4,2,2,50,0,0
227393,-100,4,2,1,70,0,0
227686,-100,4,2,2,60,0,0
229735,-100,4,2,1,70,0,0
229881,-100,4,2,1,60,0,0
230906,-100,4,2,1,80,0,0
231052,-100,4,2,1,70,0,0
232076,-100,4,2,1,80,0,0
233393,-100,4,2,1,70,0,0
233979,-37.037037037037,4,2,1,70,0,0
234418,-50,4,2,1,70,0,0
234711,-100,4,2,2,50,0,0
236759,-83.3333333333333,4,2,1,90,0,1
240857,-83.3333333333333,4,2,3,100,0,1
240893,-83.3333333333333,4,2,3,30,0,1
241003,-83.3333333333333,4,2,3,100,0,1
241040,-83.3333333333333,4,2,3,30,0,1
241150,-83.3333333333333,4,2,3,100,0,1
241186,-83.3333333333333,4,2,3,30,0,1
241296,-83.3333333333333,4,2,3,100,0,1
241332,-83.3333333333333,4,2,3,30,0,1
241442,-83.3333333333333,4,2,1,90,0,1
245832,-83.3333333333333,4,2,1,80,0,1
246125,-83.3333333333333,4,2,1,90,0,1
247296,-83.3333333333333,4,2,1,100,0,1
248759,-83.3333333333333,4,2,1,90,0,1
250223,-83.3333333333333,4,2,3,100,0,1
250259,-83.3333333333333,4,2,3,30,0,1
250369,-83.3333333333333,4,2,3,100,0,1
250406,-83.3333333333333,4,2,3,30,0,1
250515,-83.3333333333333,4,2,3,100,0,1
250552,-83.3333333333333,4,2,3,30,0,1
250662,-83.3333333333333,4,2,3,100,0,1
250699,-83.3333333333333,4,2,3,30,0,1
250808,-83.3333333333333,4,2,1,90,0,1
251393,-83.3333333333333,4,2,1,100,0,1
252271,-83.3333333333333,4,2,1,100,0,1
253150,-83.3333333333333,4,2,1,90,0,1
254613,-83.3333333333333,4,2,1,90,0,1
254906,-83.3333333333333,4,2,1,90,0,1
255198,-83.3333333333333,4,2,1,90,0,1
255491,-100,4,2,1,70,0,0
256662,-66.6666666666667,4,2,1,70,0,0
256954,-83.3333333333333,4,2,1,70,0,0
274223,-100,4,2,1,80,0,0
275393,-83.3333333333333,4,2,1,90,0,0
276711,-100,4,2,1,80,0,0
279491,-100,4,2,1,90,0,0
280369,-100,4,2,1,90,0,0
281393,-100,4,2,1,80,0,0
284467,-83.3333333333333,4,2,1,80,0,0
288857,-83.3333333333333,4,2,1,90,0,0
291784,-100,4,2,1,80,0,0
292369,-100,4,2,1,80,0,0
292954,-100,4,2,1,60,0,0

[Colours]
Combo1 : 255,108,108
Combo2 : 249,235,157

[HitObjects]
312,187,272,5,0,1:0:0:0:
168,112,418,2,0,L|237:111,1,47.5
395,130,564,2,0,L|397:16,1,95,0|0,1:0|0:0,0:0:0:0:
301,89,857,2,0,L|300:-17,1,95,0|0,1:0|0:0,0:0:0:0:
207,44,1150,2,0,L|199:-70,1,95,0|0,1:0|0:0,0:0:0:0:
105,75,1442,6,0,L|99:-42,1,95,0|0,1:0|0:0,0:0:0:0:
201,123,1735,2,0,L|204:21,1,95,0|0,1:0|0:0,0:0:0:0:
302,119,2028,2,0,L|306:8,1,95,0|0,1:0|0:0,0:0:0:0:
403,126,2320,2,0,L|414:-5,1,95,0|0,1:0|0:0,0:0:0:0:
264,171,2613,5,0,1:0:0:0:
406,178,2759,1,0,1:0:0:0:
264,171,2906,2,0,L|263:42,1,95,0|0,1:0|0:0,0:0:0:0:
167,71,3198,2,0,L|166:-35,1,95,0|0,1:0|0:0,0:0:0:0:
71,111,3491,2,0,L|68:2,1,95,0|0,1:0|0:0,0:0:0:0:
127,7,3711,1,0,1:0:0:0:
270,152,3784,6,0,L|271:48,1,95,0|0,1:0|0:0,0:0:0:0:
373,99,4076,2,0,L|376:-17,1,95,0|0,1:0|0:0,0:0:0:0:
269,151,4369,2,0,L|392:150,1,95,0|0,1:0|1:0,0:0:0:0:
269,151,4662,2,0,L|388:150,1,95,0|0,1:0|1:0,0:0:0:0:
269,151,4954,6,0,L|388:149,1,95,0|0,1:0|1:0,0:0:0:0:
315,203,5174,1,0,1:0:0:0:
111,200,5247,2,0,L|107:79,1,95,8|0,1:3|0:0,0:0:0:0:
17,114,5540,2,0,L|12:11,1,95,0|0,1:0|0:0,0:0:0:0:
256,166,5832,2,0,L|257:45,1,95,8|0,1:3|0:0,0:0:0:0:
355,155,6125,6,0,L|359:30,1,95,0|0,1:0|0:0,0:0:0:0:
109,95,6418,2,0,L|4:96,1,95,8|0,1:3|0:0,0:0:0:0:
109,95,6711,2,0,L|-14:98,1,95,0|0,1:0|0:0,0:0:0:0:
287,250,7003,2,0,L|392:251,1,95,8|0,1:3|0:0,0:0:0:0:
238,333,7296,5,0,1:0:0:0:
380,332,7442,1,0,1:0:0:0:
91,204,7589,2,0,L|88:108,1,95,8|0,1:3|0:0,0:0:0:0:
183,109,7881,2,0,L|76:109,1,95,0|0,1:0|0:0,0:0:0:0:
370,177,8174,2,0,L|371:57,1,95,8|0,1:3|0:0,0:0:0:0:
318,68,8393,1,0,1:0:0:0:
120,207,8467,6,0,L|118:76,1,95,0|0,1:0|0:0,0:0:0:0:
419,129,8759,2,0,L|299:125,1,95,8|0,1:3|0:0,0:0:0:0:
467,236,9052,1,0,1:0:0:0:
324,231,9198,1,0,1:0:0:0:
46,195,9345,2,0,L|41:70,1,95,8|0,1:3|1:0,0:0:0:0:
279,108,9637,6,0,L|390:110,1,95,4|0,1:0|1:0,0:0:0:0:
321,174,9857,1,0,1:0:0:0:
111,212,9930,2,0,L|104:86,1,95,8|0,1:3|0:0,0:0:0:0:
329,119,10223,2,0,L|227:121,1,95,0|0,1:0|0:0,0:0:0:0:
452,216,10515,2,0,L|334:209,1,95,8|0,1:3|0:0,0:0:0:0:
136,272,10808,6,0,L|256:275,1,95,0|0,1:0|0:0,0:0:0:0:
16,172,11101,2,0,L|132:170,1,95,8|0,1:3|0:0,0:0:0:0:
330,157,11393,2,0,L|221:160,1,95,0|0,1:0|0:0,0:0:0:0:
468,219,11686,2,0,L|391:220,3,47.5,8|0|0|0,1:3|0:0|0:0|0:0,0:0:0:0:
205,165,11979,6,0,L|86:167,1,95,0|0,1:0|1:0,0:0:0:0:
336,241,12271,2,0,L|203:244,1,95,8|0,1:3|0:0,0:0:0:0:
488,338,12564,2,0,L|360:335,1,95,0|0,1:0|0:0,0:0:0:0:
182,169,12857,2,0,L|316:168,1,95,8|0,1:3|0:0,0:0:0:0:
335,118,13076,1,0,1:0:0:0:
142,73,13150,6,0,L|15:75,1,95,0|0,1:0|0:0,0:0:0:0:
277,235,13442,2,0,L|161:235,1,95,8|0,1:3|0:0,0:0:0:0:
450,236,13735,2,0,L|456:98,1,95,0|0,1:0|1:0,0:0:0:0:
144,114,14028,2,0,L|218:114,3,47.5,8|0|0|0,1:3|0:0|1:0|0:0,0:0:0:0:
394,110,14320,6,0,L|495:106,1,95,0|0,1:0|1:0,0:0:0:0:
239,233,14613,2,0,L|361:231,1,95,8|0,1:3|0:0,0:0:0:0:
77,261,14906,2,0,L|211:259,1,95,0|0,1:0|0:0,0:0:0:0:
389,220,15198,1,8,1:3:0:0:
169,217,15345,1,0,0:0:0:0:
447,149,15491,6,0,L|341:149,1,95,0|0,1:0|0:0,0:0:0:0:
56,138,15784,2,0,L|192:136,1,95,8|0,1:3|0:0,0:0:0:0:
491,71,16076,2,0,L|385:70,1,95,0|0,1:0|0:0,0:0:0:0:
29,61,16369,2,0,L|160:60,1,95,8|0,1:3|0:0,0:0:0:0:
389,180,16662,5,8,1:3:0:0:
125,171,16808,1,0,1:0:0:0:
408,107,16954,2,0,L|417:0,1,95,8|0,1:3|0:0,0:0:0:0:
87,86,17247,2,0,L|81:-32,1,95,8|0,1:3|0:0,0:0:0:0:
311,51,17540,2,0,L|222:50,2,47.5,0|0|0,1:3|0:0|0:0,0:0:0:0:
98,222,17832,6,0,P|42:201|116:122,1,190,0|0,3:0|0:0,0:0:0:0:
241,152,18271,2,0,P|280:121|195:39,1,190
124,107,18711,2,0,L|118:-25,1,95
463,106,19003,6,0,L|431:106,1,23.75,4|0,3:1|0:0,0:0:0:0:
233,88,19150,2,0,L|196:90,1,23.75,4|0,3:1|0:0,0:0:0:0:
408,180,19296,2,0,P|465:157|436:57,1,142.5,0|0,3:0|0:0,1:0:0:0:
283,103,19589,2,0,P|292:44|401:25,1,142.5,0|0,3:0|0:0,1:0:0:0:
128,173,19881,2,0,P|86:147|123:60,1,142.5,0|0,3:0|0:0,1:0:0:0:
286,160,20174,6,0,L|285:7,1,142.5,0|0,3:0|0:0,1:0:0:0:
491,196,20467,2,0,L|491:39,1,142.5,0|0,3:0|0:0,1:0:0:0:
285,109,20759,2,0,P|286:60|382:35,1,142.5,0|0,3:0|0:0,1:0:0:0:
215,199,21052,2,0,P|164:164|229:108,1,142.5,0|0,3:0|0:0,1:0:0:0:
386,152,21345,6,0,P|392:100|296:60,1,142.5,0|0,3:0|0:0,1:0:0:0:
138,159,21637,2,0,L|130:-2,1,142.5,0|0,3:0|0:0,1:0:0:0:
315,106,21930,2,0,P|356:78|287:34,1,142.5,0|0,3:0|0:0,1:0:0:0:
112,111,22223,2,0,P|70:79|141:32,1,142.5,0|0,3:0|0:0,1:0:0:0:
306,47,22515,6,0,P|370:62|389:137,1,142.5,0|0,3:0|0:0,1:0:0:0:
141,70,22808,2,0,P|88:78|49:160,1,142.5,0|0,3:0|0:0,1:0:0:0:
319,219,23101,1,8,0:3:0:0:
178,217,23247,1,0,0:0:0:0:
388,320,23393,1,8,0:3:0:0:
122,311,23540,1,0,0:0:0:0:
380,129,23686,6,0,L|384:99,1,23.75,4|0,3:1|0:0,0:0:0:0:
155,81,23832,2,0,L|148:37,1,23.75,0|0,3:0|0:0,0:0:0:0:
391,47,23979,2,0,P|425:61|380:132,1,142.5,0|0,3:0|0:0,1:0:0:0:
199,208,24271,2,0,P|206:145|297:117,1,142.5,0|0,3:0|0:0,1:0:0:0:
91,151,24564,2,0,P|39:127|102:84,1,142.5,0|0,3:0|0:0,1:0:0:0:
296,189,24857,6,0,L|299:42,1,142.5,0|0,3:0|0:0,1:0:0:0:
487,200,25150,2,0,L|493:42,1,142.5,0|0,3:0|0:0,1:0:0:0:
298,147,25442,2,0,L|298:-5,1,142.5,0|0,3:0|0:0,1:0:0:0:
89,104,25735,2,0,L|83:-52,1,142.5,0|0,3:0|0:0,1:0:0:0:
272,126,26028,6,0,P|271:56|177:33,1,142.5,0|0,3:0|0:0,1:0:0:0:
398,201,26320,2,0,P|441:165|386:101,1,142.5,0|0,3:0|0:0,1:0:0:0:
252,145,26613,2,0,P|254:92|332:60,1,142.5,0|0,3:0|0:0,1:0:0:0:
127,127,26906,2,0,P|86:99|156:55,1,142.5,0|0,3:0|0:0,1:0:0:0:
349,85,27198,5,0,3:0:0:0:
134,43,27345,1,0,3:0:0:0:
396,184,27491,2,0,P|438:157|376:102,1,142.5,8|0,3:3|0:0,1:0:0:0:
183,122,27784,1,0,3:0:0:0:
324,116,27930,1,0,3:0:0:0:
79,190,28076,2,0,L|76:25,1,142.5,8|0,3:2|0:0,0:0:0:0:
295,57,28369,6,0,L|259:56,1,23.75,0|0,3:0|0:0,0:0:0:0:
85,60,28515,2,0,L|45:60,1,23.75,0|0,3:0|0:0,0:0:0:0:
298,199,28662,2,0,L|397:192,1,95,8|0,3:2|0:0,1:0:0:0:
152,141,28954,1,0,3:0:0:0:
445,96,29101,1,2,0:1:0:0:
447,143,29174,1,0,0:0:0:0:
450,190,29247,1,8,3:2:0:0:
230,232,29393,2,0,L|295:228,1,47.5,2|0,0:1|0:0,0:0:0:0:
104,276,29540,5,0,3:0:0:0:
58,255,29613,1,0,0:0:0:0:
58,206,29686,1,0,0:0:0:0:
103,186,29759,1,0,0:0:0:0:
296,189,29832,1,8,3:2:0:0:
301,133,29905,1,0,0:0:0:0:
267,89,29978,1,0,0:0:0:0:
213,80,30051,1,0,0:0:0:0:
415,238,30125,5,0,3:0:0:0:
461,209,30198,1,0,0:0:0:0:
460,155,30271,1,0,0:0:0:0:
413,127,30344,1,0,0:0:0:0:
233,204,30418,1,8,3:2:0:0:
240,148,30491,1,0,0:0:0:0:
284,101,30564,1,0,0:0:0:0:
335,96,30637,1,0,0:0:0:0:
161,154,30711,6,0,B|67:154|67:154|128:154,1,142.5,0|0,3:0|0:0,0:0:0:0:
301,262,31003,2,0,B|395:262|395:262|334:262,1,142.5,8|0,3:2|0:0,1:0:0:0:
136,180,31296,2,0,B|42:180|42:180|42:127,1,142.5,0|0,3:0|0:0,0:0:0:0:
234,110,31589,2,0,B|328:110|328:110|328:57,1,142.5,8|0,3:2|0:0,1:0:0:0:
101,244,31881,6,0,P|49:213|106:173,1,142.5,0|0,3:0|0:0,0:0:0:0:
267,192,32174,2,0,P|270:144|186:115,1,142.5,8|0,3:2|0:0,0:0:0:0:
401,202,32467,2,0,L|410:96,1,95,8|0,0:3|0:0,0:0:0:0:
66,106,32759,2,0,L|53:-1,1,95,8|0,1:3|0:0,0:0:0:0:
313,82,33052,6,0,L|341:83,1,23.75,0|0,3:0|0:0,0:0:0:0:
144,78,33198,2,0,L|116:79,1,23.75,0|0,3:0|0:0,0:0:0:0:
303,245,33345,1,10,3:1:0:0:
162,246,33491,1,0,0:0:0:0:
443,177,33637,6,2,L|384:174,1,47.5,2|0,3:1|0:0,1:0:0:0:
216,151,33784,2,0,L|160:152,1,47.5
350,128,33930,2,0,L|355:75,1,47.5,10|0,3:1|0:0,0:0:0:0:
164,79,34076,2,0,L|156:27,1,47.5,2|0,0:1|0:0,0:0:0:0:
302,228,34223,5,2,3:1:0:0:
350,205,34296,1,0,0:0:0:0:
491,153,34369,1,0,0:0:0:0:
442,129,34442,1,0,0:0:0:0:
211,195,34515,1,10,3:1:0:0:
209,139,34588,1,0,0:0:0:0:
245,96,34661,1,0,0:0:0:0:
300,88,34734,1,0,0:0:0:0:
86,195,34808,5,0,3:0:0:0:
37,179,34881,1,0,0:0:0:0:
38,128,34954,1,0,0:0:0:0:
87,113,35027,1,0,0:0:0:0:
268,214,35101,1,8,3:1:0:0:
268,159,35174,1,0,0:0:0:0:
231,116,35247,1,0,0:0:0:0:
176,108,35320,1,0,0:0:0:0:
358,56,35393,6,0,L|387:55,1,23.75,0|0,3:0|0:0,0:0:0:0:
186,39,35540,2,0,L|151:38,1,23.75,0|0,1:0|0:0,0:0:0:0:
371,194,35686,2,0,P|415:176|443:84,1,142.5,8|0,3:2|0:0,0:0:0:0:
229,214,35979,2,0,P|177:197|146:100,1,142.5,0|0,3:0|0:0,0:0:0:0:
392,137,36271,2,0,P|448:118|465:38,1,142.5,8|0,3:2|0:0,0:0:0:0:
237,125,36564,5,0,3:0:0:0:
357,119,36711,2,0,L|295:118,1,47.5
77,189,36857,2,0,L|186:186,1,95,10|0,0:0|0:0,0:0:0:0:
376,278,37150,1,0,0:0:0:0:
232,278,37296,1,2,0:0:0:0:
477,230,37442,2,0,L|481:119,1,95
204,159,37735,6,0,L|301:157,1,95,4|0,3:2|1:0,0:0:0:0:
63,248,38028,2,0,L|171:247,1,95,2|2,3:2|0:0,0:0:0:0:
396,242,38320,2,0,P|356:228|221:250,1,166.25,2|0,3:2|0:0,0:0:0:0:
275,248,38613,2,0,L|306:204,1,47.5,0|0,3:0|0:0,0:0:0:0:
354,193,38759,2,0,L|385:143,1,47.5
140,152,38906,6,0,P|104:134|155:62,1,142.5,2|0,3:2|0:0,0:0:0:0:
301,103,39198,2,0,L|121:80,1,166.25,2|0,3:2|0:0,0:0:0:0:
174,143,39491,2,0,L|182:81,1,47.5,2|0,3:2|0:0,0:0:0:0:
122,79,39637,2,0,L|92:21,1,47.5,2|0,0:0|0:0,0:0:0:0:
299,59,39784,2,0,L|351:56,1,47.5,2|0,3:2|0:0,0:0:0:0:
269,122,39930,2,0,L|217:122,1,47.5
449,159,40076,6,0,L|341:151,1,95,0|2,3:0|0:0,0:0:0:0:
111,230,40369,2,0,L|10:227,1,95,2|0,3:2|0:0,0:0:0:0:
293,219,40662,2,0,P|297:170|197:121,1,166.25,2|0,3:2|0:0,0:0:0:0:
241,116,40954,2,0,L|352:105,1,95,0|2,3:0|0:0,0:0:0:0:
108,220,41247,6,0,P|66:194|135:136,1,166.25,2|0,3:2|0:0,0:0:0:0:
161,132,41540,2,0,L|164:83,1,47.5,0|0,3:0|0:0,0:0:0:0:
102,70,41686,2,0,L|93:8,1,47.5,2|0,0:0|0:0,0:0:0:0:
298,188,41832,1,2,3:2:0:0:
171,178,41979,1,2,0:0:0:0:
420,217,42125,2,0,P|465:192|437:114,1,142.5,0|0,3:0|0:0,0:0:0:0:
245,84,42418,6,0,L|182:91,1,47.5,6|0,3:2|0:0,0:0:0:0:
277,145,42564,2,0,L|333:139,1,47.5,0|0,1:0|0:0,0:0:0:0:
158,271,42711,2,0,L|270:268,1,95,2|2,3:2|0:0,0:0:0:0:
41,237,43003,2,0,P|55:176|149:147,1,166.25,2|0,3:2|0:0,0:0:0:0:
117,133,43296,2,0,L|98:87,1,47.5,0|0,3:2|0:0,0:0:0:0:
49,83,43442,2,0,L|39:27,1,47.5
244,137,43589,5,2,3:2:0:0:
117,133,43735,1,0,0:0:0:0:
359,233,43881,2,0,L|180:228,1,166.25,2|0,3:2|0:0,0:0:0:0:
229,183,44174,2,0,L|255:129,1,47.5,2|0,3:2|0:0,0:0:0:0:
198,109,44320,2,0,L|154:78,1,47.5,2|0,0:0|0:0,0:0:0:0:
296,61,44467,2,0,L|358:59,1,47.5,2|0,3:2|0:0,0:0:0:0:
477,79,44613,2,0,L|490:25,1,47.5
286,196,44759,6,0,P|289:153|388:119,1,142.5,2|0,3:2|0:0,0:0:0:0:
291,103,45052,2,0,L|234:102,1,47.5,0|0,3:0|0:0,0:0:0:0:
416,152,45198,2,0,L|427:213,1,47.5,2|0,0:0|0:0,0:0:0:0:
212,274,45345,1,2,3:2:0:0:
321,256,45491,1,0,0:0:0:0:
91,188,45637,2,0,P|49:163|108:107,1,142.5,2|0,3:2|0:0,0:0:0:0:
267,114,45930,6,0,L|273:61,1,47.5,2|0,3:2|0:0,0:0:0:0:
186,65,46076,2,0,L|179:4,1,47.5
276,9,46223,2,0,L|335:-12,1,47.5,0|0,3:0|0:0,0:0:0:0:
247,25,46369,2,0,L|195:52,1,47.5,2|0,0:0|0:0,0:0:0:0:
421,40,46515,5,2,3:2:0:0:
443,34,46551,1,0,0:0:0:0:
466,41,46588,1,0,0:0:0:0:
483,57,46624,1,0,0:0:0:0:
491,79,46661,1,0,0:0:0:0:
487,102,46697,1,0,0:0:0:0:
473,121,46734,1,0,0:0:0:0:
451,131,46771,1,0,0:0:0:0:
428,129,46807,1,0,0:0:0:0:
378,169,46881,2,0,L|438:167,2,47.5
179,206,47101,6,0,L|176:154,1,47.5,4|0,1:0|0:0,0:0:0:0:
111,154,47247,2,0,L|106:104,1,47.5,2|0,0:0|0:0,0:0:0:0:
173,109,47393,2,0,L|173:51,1,47.5
243,71,47540,2,0,L|251:2,1,47.5
65,208,47686,2,0,P|31:181|96:116,1,142.5,10|0,0:0|0:0,0:0:0:0:
147,118,47979,2,0,P|149:74|69:18,1,142.5
277,166,48271,6,0,L|315:124,1,47.5,2|0,0:0|0:0,0:0:0:0:
362,118,48418,2,0,L|366:55,1,47.5
161,177,48564,2,0,P|131:156|196:84,1,166.25,2|0,1:2|0:0,0:0:0:0:
232,85,48857,2,0,L|183:83,1,47.5,10|0,0:0|0:0,0:0:0:0:
128,73,49003,2,0,L|125:7,1,47.5,2|0,0:0|0:0,0:0:0:0:
205,20,49150,2,0,L|254:20,1,47.5,2|0,0:0|0:0,0:0:0:0:
170,84,49296,2,0,L|110:88,1,47.5
255,184,49442,6,0,L|317:186,1,47.5,2|0,1:2|0:0,0:0:0:0:
437,128,49589,2,0,L|444:68,1,47.5,2|0,0:0|0:0,0:0:0:0:
265,84,49735,2,0,L|157:84,1,95,2|0,0:0|0:0,0:0:0:0:
428,249,50028,2,0,P|451:232|380:148,1,166.25,10|0,0:0|0:0,0:0:0:0:
361,156,50320,2,0,L|463:140,1,95,0|2,1:0|0:0,0:0:0:0:
200,236,50613,6,0,P|154:216|218:152,1,166.25,2|0,0:0|0:0,0:0:0:0:
251,147,50906,2,0,L|356:142,1,95,0|0,1:0|0:0,0:0:0:0:
55,227,51198,1,8,0:0:0:0:
181,218,51345,1,0,0:0:0:0:
55,227,51491,1,0,0:0:0:0:
455,197,51784,6,0,L|399:184,1,47.5,2|0,1:2|0:0,0:0:0:0:
349,166,51930,2,0,L|343:112,1,47.5
421,99,52076,2,0,L|429:44,1,47.5
346,36,52223,2,0,L|290:36,1,47.5,2|0,0:0|0:0,0:0:0:0:
104,177,52369,2,0,P|53:152|119:84,1,166.25,10|0,0:0|0:0,0:0:0:0:
135,83,52662,2,0,L|26:85,1,95
286,111,52954,6,0,L|352:113,1,47.5,2|0,0:0|0:0,0:0:0:0:
466,117,53101,2,0,L|471:181,1,47.5
326,194,53247,2,0,P|315:162|409:96,1,166.25,2|0,1:2|0:0,0:0:0:0:
364,78,53540,2,0,L|303:75,1,47.5,10|0,0:0|0:0,0:0:0:0:
388,24,53686,2,0,L|444:25,1,47.5,2|0,0:0|0:0,0:0:0:0:
286,145,53832,2,0,L|226:142,1,47.5,2|0,0:0|0:0,0:0:0:0:
387,190,53979,2,0,L|455:186,1,47.5
221,230,54125,6,0,P|228:179|392:220,1,285,0|2,1:0|0:0,0:0:0:0:
63,281,54711,2,0,L|43:73,1,190,10|0,0:0|1:0,0:0:0:0:
425,112,55296,6,0,L|314:106,1,95,2|2,0:0|0:0,0:0:0:0:
30,175,55589,2,0,L|133:167,1,95,0|2,1:0|0:0,0:0:0:0:
405,235,55881,2,0,L|121:227,1,256.50000097847,10|0,0:0|3:0,0:0:0:0:
405,235,56320,1,0,0:0:0:0:
122,151,56467,6,0,L|187:146,1,47.5,4|0,1:0|0:0,0:0:0:0:
244,134,56613,2,0,L|253:79,1,47.5
171,71,56759,2,0,L|163:8,1,47.5,2|0,0:0|0:0,0:0:0:0:
247,12,56906,2,0,L|297:12,1,47.5,2|2,0:0|0:0,0:0:0:0:
104,198,57052,6,0,L|98:169,6,23.75,8|0|0|0|0|0|0,0:0|0:0|0:0|0:0|0:0|0:0|0:0,0:0:0:0:
318,229,57345,1,0,0:0:0:0:
343,222,57381,1,0,0:0:0:0:
361,204,57418,1,0,0:0:0:0:
368,179,57454,1,0,0:0:0:0:
361,154,57491,1,0,0:0:0:0:
343,136,57527,1,0,0:0:0:0:
318,129,57564,1,0,0:0:0:0:
121,115,57637,6,0,L|172:97,1,47.5,2|0,0:0|0:0,0:0:0:0:
246,88,57784,2,0,L|248:156,1,47.5
63,230,57930,2,0,P|39:191|127:134,1,166.25,2|0,1:2|0:0,0:0:0:0:
155,133,58223,2,0,L|106:129,1,47.5,10|0,0:0|0:0,0:0:0:0:
37,122,58369,2,0,L|31:61,1,47.5,2|0,0:0|0:0,0:0:0:0:
196,61,58515,2,0,L|261:57,1,47.5,2|0,0:3|0:0,0:0:0:0:
398,70,58662,2,0,L|464:70,1,47.5,2|0,0:3|0:0,0:0:0:0:
266,169,58808,6,0,L|204:167,1,47.5,2|2,1:2|0:0,0:0:0:0:
386,125,58954,2,0,L|394:192,1,47.5,2|0,0:0|0:0,0:0:0:0:
236,238,59101,2,0,P|230:205|317:143,1,142.5,2|0,0:0|0:0,0:0:0:0:
100,193,59393,2,0,P|66:171|135:93,1,166.25,10|0,0:0|0:0,0:0:0:0:
160,92,59686,2,0,L|63:88,1,95,0|2,1:0|0:0,0:0:0:0:
380,204,59979,5,2,0:0:0:0:
421,188,60052,1,0,0:0:0:0:
422,143,60125,1,0,0:0:0:0:
381,125,60198,1,0,0:0:0:0:
212,137,60271,2,0,L|206:78,1,47.5,0|0,1:0|0:0,0:0:0:0:
365,55,60418,2,0,L|426:57,1,47.5,2|0,0:0|0:0,0:0:0:0:
262,196,60564,6,0,L|326:193,1,47.5,10|0,0:0|0:0,0:0:0:0:
155,98,60711,2,0,L|107:99,1,47.5,2|2,0:3|0:3,0:0:0:0:
309,105,60857,1,2,0:3:0:0:
363,116,60930,1,0,0:0:0:0:
410,90,61003,1,0,0:0:0:0:
430,40,61076,1,0,0:0:0:0:
212,175,61150,6,0,L|206:125,1,47.5,2|0,1:2|0:0,0:0:0:0:
288,86,61296,2,0,L|339:81,1,47.5,2|0,0:0|0:0,0:0:0:0:
130,195,61442,2,0,L|124:145,1,47.5,2|0,0:0|0:0,0:0:0:0:
206,106,61588,2,0,L|257:101,1,47.5,2|0,0:0|0:0,0:0:0:0:
62,117,61735,6,0,L|124:114,1,47.5,10|0,0:0|0:0,0:0:0:0:
316,147,61881,2,0,L|372:142,1,47.5
168,248,62028,1,2,0:0:0:0:
174,177,62101,1,0,0:0:0:0:
231,135,62174,1,0,0:0:0:0:
299,130,62247,1,0,0:0:0:0:
111,221,62320,5,2,0:0:0:0:
87,217,62356,1,0,0:0:0:0:
68,203,62393,1,0,0:0:0:0:
58,181,62429,1,0,0:0:0:0:
60,158,62466,1,0,0:0:0:0:
71,138,62502,1,0,0:0:0:0:
91,125,62539,1,0,0:0:0:0:
115,124,62576,1,0,0:0:0:0:
280,178,62613,1,2,1:2:0:0:
307,172,62649,1,0,0:0:0:0:
335,175,62686,1,0,0:0:0:0:
361,187,62722,1,0,0:0:0:0:
381,208,62759,1,0,0:0:0:0:
393,233,62795,1,0,0:0:0:0:
396,261,62832,1,0,0:0:0:0:
390,289,62869,1,0,0:0:0:0:
279,325,62906,5,10,0:0:0:0:
171,241,62942,2,0,L|153:215,2,23.75
279,325,63052,1,2,0:0:0:0:
385,231,63088,2,0,L|403:205,2,23.75
279,325,63198,1,2,0:3:0:0:
164,302,63235,1,0,0:0:0:0:
52,246,63271,2,0,L|45:204,1,23.75
164,302,63345,1,2,0:3:0:0:
276,234,63382,1,0,0:0:0:0:
383,172,63418,2,0,L|390:130,1,23.75
205,229,63491,5,2,1:2:0:0:
177,224,63527,1,0,0:0:0:0:
155,207,63564,1,0,0:0:0:0:
143,181,63600,1,0,0:0:0:0:
144,153,63637,1,0,0:0:0:0:
158,129,63673,1,0,0:0:0:0:
182,113,63710,1,0,0:0:0:0:
210,110,63747,1,0,0:0:0:0:
394,170,63784,5,2,0:0:0:0:
403,148,63820,1,0,0:0:0:0:
404,124,63857,1,0,0:0:0:0:
395,102,63893,1,0,0:0:0:0:
380,84,63930,1,0,0:0:0:0:
359,74,63966,1,0,0:0:0:0:
335,72,64003,1,0,0:0:0:0:
312,78,64040,1,0,0:0:0:0:
180,292,64076,6,0,L|180:257,2,23.75,10|0|0,0:0|0:0|0:0,0:0:0:0:
341,227,64223,2,0,L|341:193,2,23.75
180,292,64369,6,0,L|180:258,2,23.75,2|0|0,0:0|0:0|0:0,0:0:0:0:
19,156,64515,2,0,L|18:122,2,23.75,2|0|0,0:0|0:0|0:0,0:0:0:0:
214,92,64662,5,0,0:0:0:0:
256,192,64735,12,8,65540,0:0:0:0:
344,142,65832,6,0,L|204:139,1,113.999996520996,4|0,1:2|1:0,0:0:0:0:
398,245,66052,1,0,1:0:0:0:
230,139,66125,2,0,L|344:142,1,113.999996520996,8|0,1:0|0:0,0:0:0:0:
129,249,66418,2,0,L|258:247,1,113.999996520996,0|0,1:0|0:0,0:0:0:0:
34,160,66711,2,0,L|151:158,1,113.999996520996,8|0,1:0|0:0,0:0:0:0:
356,216,67003,6,0,L|230:213,1,113.999996520996,0|0,1:0|0:0,0:0:0:0:
496,258,67296,2,0,L|379:250,1,113.999996520996,8|0,1:0|0:0,0:0:0:0:
164,285,67589,2,0,L|296:284,1,113.999996520996,0|0,1:0|0:0,0:0:0:0:
50,205,67881,2,0,L|181:205,1,113.999996520996,8|0,1:0|0:0,0:0:0:0:
464,225,68174,6,0,L|346:223,1,113.999996520996,0|0,1:0|0:0,0:0:0:0:
104,145,68467,2,0,L|221:149,1,113.999996520996,8|0,1:0|0:0,0:0:0:0:
479,170,68759,2,0,L|349:170,1,113.999996520996,0|0,1:0|0:0,0:0:0:0:
150,78,69052,2,0,L|26:77,1,113.999996520996,8|0,1:0|0:0,0:0:0:0:
271,148,69345,6,0,L|152:147,1,113.999996520996,0|0,1:0|0:0,0:0:0:0:
386,93,69637,2,0,L|503:93,1,113.999996520996,8|0,1:0|0:0,0:0:0:0:
78,213,69930,2,0,L|57:78,1,113.999996520996,2|0,1:2|0:0,0:0:0:0:
434,213,70223,2,0,L|443:101,1,95,2|0,0:0|0:0,0:0:0:0:
133,144,70515,6,0,L|273:141,1,113.999996520996,4|0,1:2|1:0,0:0:0:0:
79,247,70735,1,0,1:0:0:0:
247,141,70808,2,0,L|133:144,1,113.999996520996,8|0,1:0|0:0,0:0:0:0:
383,249,71101,2,0,L|254:247,1,113.999996520996,0|0,1:0|0:0,0:0:0:0:
478,160,71394,2,0,L|361:158,1,113.999996520996,8|0,1:0|0:0,0:0:0:0:
156,216,71686,6,0,L|282:213,1,113.999996520996,0|0,1:0|0:0,0:0:0:0:
16,258,71979,2,0,L|133:250,1,113.999996520996,8|0,1:0|0:0,0:0:0:0:
348,285,72272,2,0,L|216:284,1,113.999996520996,0|0,1:0|0:0,0:0:0:0:
462,205,72564,2,0,L|331:205,1,113.999996520996,8|0,1:0|0:0,0:0:0:0:
48,225,72857,6,0,L|166:223,1,113.999996520996,2|2,1:3|0:3,0:0:0:0:
408,145,73150,2,0,L|291:149,1,113.999996520996,8|0,1:0|0:0,0:0:0:0:
33,170,73442,2,0,L|163:170,1,113.999996520996,2|2,1:3|0:3,0:0:0:0:
362,78,73735,2,0,L|486:77,1,113.999996520996,8|0,1:0|0:0,0:0:0:0:
241,148,74028,6,0,L|360:147,1,113.999996520996,0|2,1:0|0:3,0:0:0:0:
126,93,74320,2,0,L|9:93,1,113.999996520996,8|2,1:0|0:3,0:0:0:0:
351,92,74613,2,0,L|483:92,1,113.999996520996,0|0,1:0|1:0,0:0:0:0:
34,174,74906,2,0,L|24:44,1,113.999996520996,8|0,1:0|0:0,0:0:0:0:
293,37,75198,5,4,1:2:0:0:
26,35,75345,1,0,1:0:0:0:
293,37,75491,2,0,L|423:35,1,113.999996520996,8|0,1:0|0:0,0:0:0:0:
154,120,75784,1,0,1:0:0:0:
437,69,75930,2,0,L|444:179,1,95,2|8,0:1|1:0,0:0:0:0:
154,120,76223,1,2,0:1:0:0:
221,112,76296,1,0,0:0:0:0:
429,194,76369,5,0,1:0:0:0:
424,130,76442,1,0,0:0:0:0:
377,88,76515,1,0,0:0:0:0:
314,88,76588,1,0,0:0:0:0:
132,232,76662,1,8,1:0:0:0:
188,230,76735,1,0,0:0:0:0:
245,228,76808,1,0,0:0:0:0:
302,227,76881,1,0,0:0:0:0:
93,184,76954,5,0,1:0:0:0:
39,157,77027,1,0,0:0:0:0:
41,97,77100,1,0,0:0:0:0:
96,74,77173,1,0,0:0:0:0:
299,108,77247,1,8,1:0:0:0:
242,106,77320,1,0,0:0:0:0:
185,105,77393,1,0,0:0:0:0:
128,104,77466,1,0,0:0:0:0:
348,220,77540,6,0,L|361:102,1,113.999996520996,0|0,1:0|0:0,0:0:0:0:
117,194,77832,2,0,L|246:195,1,113.999996520996,8|0,1:0|0:0,0:0:0:0:
293,172,78052,1,0,0:0:0:0:
117,194,78125,2,0,L|246:195,1,113.999996520996,0|0,1:0|0:0,0:0:0:0:
495,229,78418,2,0,L|377:231,1,113.999996520996,8|0,1:0|0:0,0:0:0:0:
152,296,78711,6,0,L|273:294,1,113.999996520996,0|0,1:0|0:0,0:0:0:0:
31,217,79003,2,0,L|149:217,1,113.999996520996,8|0,1:0|0:0,0:0:0:0:
463,172,79296,2,0,L|470:43,1,113.999996520996,2|0,1:2|0:0,0:0:0:0:
69,85,79589,2,0,L|56:-32,1,113.999996520996,10|0,1:2|0:0,0:0:0:0:
331,93,79881,6,0,L|192:92,1,113.999996520996,4|0,1:2|1:0,0:0:0:0:
366,182,80101,1,0,1:0:0:0:
217,92,80174,2,0,L|331:93,1,113.999996520996,10|0,1:0|0:0,0:0:0:0:
102,257,80467,1,2,1:0:0:0:
46,196,80540,1,0,0:0:0:0:
105,146,80613,1,0,0:0:0:0:
170,144,80686,1,0,0:0:0:0:
354,209,80759,2,0,L|359:128,1,56.9999982604981,10|0,1:0|0:0,0:0:0:0:
146,83,80906,2,0,L|80:84,1,56.9999982604981,2|0,0:1|0:0,0:0:0:0:
275,108,81052,6,2,L|340:108,1,56.9999982604981,2|0,1:0|0:0,1:0:0:0:
253,187,81198,2,0,L|173:192,1,56.9999982604981
277,276,81345,2,2,L|334:276,1,56.9999982604981,8|0,1:0|0:0,1:0:0:0:
90,277,81491,5,0,0:0:0:0:
70,205,81564,1,0,0:0:0:0:
91,133,81637,1,0,1:0:0:0:
146,83,81710,1,0,0:0:0:0:
219,69,81783,1,0,0:0:0:0:
289,95,81856,1,0,0:0:0:0:
88,154,81930,6,0,L|83:78,1,56.9999982604981,8|0,1:0|0:0,0:0:0:0:
314,149,82076,2,0,L|389:146,1,56.9999982604981
289,95,82223,2,0,L|213:98,1,56.9999982604981,0|0,1:0|0:0,0:0:0:0:
441,231,82369,5,0,0:0:0:0:
480,188,82442,1,0,0:0:0:0:
286,137,82515,1,8,1:0:0:0:
329,98,82588,1,0,0:0:0:0:
387,101,82661,1,0,0:0:0:0:
150,260,82808,2,0,L|276:258,1,113.999996520996,0|0,1:0|0:0,0:0:0:0:
12,155,83101,2,0,L|133:153,1,113.999996520996,8|0,1:0|0:0,0:0:0:0:
337,192,83393,6,0,L|211:193,1,113.999996520996,0|0,1:0|0:0,0:0:0:0:
484,269,83686,2,0,L|364:271,1,113.999996520996,8|0,1:0|0:0,0:0:0:0:
137,159,83979,2,0,L|13:162,1,113.999996520996,0|0,1:0|0:0,0:0:0:0:
443,149,84271,2,0,L|448:26,1,113.999996520996,2|0,0:0|0:0,0:0:0:0:
144,82,84564,6,2,L|176:78,1,28.4999991302491,6|0,1:0|0:0,1:0:0:0:
342,74,84711,2,0,L|372:71,1,28.4999991302491,0|0,1:0|0:0,0:0:0:0:
192,153,84857,1,8,1:0:0:0:
434,90,85003,2,0,L|445:207,1,113.999996520996,2|0,0:1|1:0,0:0:0:0:
182,270,85296,2,0,L|270:209,1,85.4999973907472,2|0,0:1|0:0,0:0:0:0:
133,211,85442,2,0,L|132:105,1,85.4999973907472,10|0,1:2|0:0,0:0:0:0:
256,68,85589,2,0,L|255:169,1,85.4999973907472,2|0,0:0|0:0,0:0:0:0:
133,211,85735,6,0,L|132:118,1,85.4999973907472,2|0,1:2|0:0,0:0:0:0:
13,167,85881,2,0,L|10:72,1,85.4999973907472,2|0,0:0|0:0,0:0:0:0:
137,122,86028,2,0,L|139:12,1,85.4999973907472,10|0,1:2|0:0,0:0:0:0:
272,153,86174,2,0,L|271:83,1,56.9999982604981,2|0,0:0|0:0,0:0:0:0:
137,122,86320,1,2,1:2:0:0:
381,158,86467,1,2,0:1:0:0:
309,154,86540,1,0,0:0:0:0:
108,294,86613,6,2,L|98:262,6,28.4999991302491,10|0|0|0|0|0|0,1:0|0:0|0:0|0:0|0:0|0:0|0:0,0:1:0:0:
368,82,86906,6,2,L|336:78,1,28.4999991302491,2|0,1:0|0:0,1:0:0:0:
170,74,87053,2,0,L|140:71,1,28.4999991302491,0|0,1:0|0:0,0:0:0:0:
320,153,87199,1,8,1:0:0:0:
78,90,87345,2,0,L|67:207,1,113.999996520996,2|0,0:1|1:0,0:0:0:0:
330,270,87637,2,0,L|242:209,1,85.4999973907472,2|0,0:1|0:0,0:0:0:0:
381,185,87783,2,0,L|381:80,1,85.4999973907472,10|0,1:2|0:0,0:0:0:0:
260,74,87930,2,0,L|261:175,1,85.4999973907472,2|0,0:0|0:0,0:0:0:0:
385,219,88076,6,0,L|386:126,1,85.4999973907472,2|0,1:2|0:0,0:0:0:0:
505,175,88222,2,0,L|508:80,1,85.4999973907472,2|0,0:0|0:0,0:0:0:0:
381,130,88369,2,0,L|379:20,1,85.4999973907472,10|0,1:2|0:0,0:0:0:0:
246,161,88515,2,0,L|247:91,1,56.9999982604981,2|0,0:0|0:0,0:0:0:0:
415,47,88662,6,0,L|450:48,2,28.4999991302491,2|0|0,1:0|0:0|0:0,0:0:0:0:
201,40,88808,2,0,L|166:41,2,28.4999991302491,2|0|0,0:1|0:0|0:0,0:0:0:0:
406,156,88954,2,0,L|341:156,3,56.9999982604981,10|0|2|0,1:0|0:0|0:0|0:0,0:0:0:0:
138,225,89247,5,2,1:0:0:0:
351,219,89393,1,0,1:0:0:0:
138,225,89540,1,8,1:0:0:0:
430,115,89686,2,0,L|434:233,1,113.999996520996,2|0,0:1|1:0,0:0:0:0:
182,270,89979,2,0,L|270:209,1,85.4999973907472,2|0,0:1|0:0,0:0:0:0:
131,185,90125,2,0,L|130:79,1,85.4999973907472,10|0,1:2|0:0,0:0:0:0:
252,65,90272,2,0,L|251:166,1,85.4999973907472,2|0,0:0|0:0,0:0:0:0:
129,208,90418,6,0,L|128:115,1,85.4999973907472,2|0,1:2|0:0,0:0:0:0:
9,164,90564,2,0,L|6:69,1,85.4999973907472,2|0,0:0|0:0,0:0:0:0:
133,119,90711,2,0,L|135:9,1,85.4999973907472,10|0,1:2|0:0,0:0:0:0:
268,150,90857,2,0,L|267:80,1,56.9999982604981,2|0,0:0|0:0,0:0:0:0:
133,119,91003,1,2,1:2:0:0:
439,227,91150,1,2,0:1:0:0:
374,225,91223,1,0,0:0:0:0:
308,222,91296,1,10,1:0:0:0:
244,220,91369,1,0,0:0:0:0:
178,218,91442,1,0,0:0:0:0:
114,215,91515,1,0,0:0:0:0:
316,116,91589,5,2,1:0:0:0:
103,110,91735,1,0,1:0:0:0:
374,225,91882,1,8,1:0:0:0:
72,96,92028,2,0,L|68:214,1,113.999996520996,2|0,0:1|0:0,0:0:0:0:
330,270,92320,2,0,L|242:209,1,85.4999973907472,2|0,0:1|0:0,0:0:0:0:
381,185,92466,2,0,L|382:79,1,85.4999973907472,10|0,1:2|0:0,0:0:0:0:
263,78,92613,2,0,L|264:179,1,85.4999973907472,2|0,0:0|0:0,0:0:0:0:
386,221,92759,6,0,L|387:128,1,85.4999973907472,2|0,1:2|0:0,0:0:0:0:
506,177,92905,2,0,L|509:82,1,85.4999973907472,2|0,1:2|0:0,0:0:0:0:
382,132,93052,2,0,L|380:22,1,85.4999973907472,10|0,1:2|0:0,0:0:0:0:
247,163,93198,2,0,L|248:93,1,56.9999982604981,2|0,0:0|0:0,0:0:0:0:
434,247,93345,2,0,L|361:244,1,56.9999982604981,2|0,0:0|0:0,0:0:0:0:
174,174,93491,2,0,L|99:174,1,56.9999982604981
349,185,93637,6,0,L|361:144,6,28.4999991302491,2|0|0|0|0|0|0,0:0|0:0|0:0|0:0|0:0|0:0|0:0,0:0:0:0:
124,254,93930,5,4,3:2:0:0:
379,255,94076,1,0,3:0:0:0:
98,201,94223,2,0,P|48:161|100:82,1,170.999994781494,0|0,3:0|0:0,1:0:0:0:
271,104,94515,2,0,L|344:103,1,56.9999982604981,0|0,3:0|0:0,0:0:0:0:
157,182,94662,2,0,P|206:147|151:69,1,170.999994781494,2|0,0:1|0:0,0:0:0:0:
398,76,94954,2,0,L|302:77,1,56.9999982604981,2|0,0:1|0:0,0:0:0:0:
165,289,95101,5,0,3:0:0:0:
163,208,95174,1,0,0:0:0:0:
216,148,95247,1,0,0:0:0:0:
297,141,95320,1,0,0:0:0:0:
59,197,95393,1,0,3:0:0:0:
57,123,95466,1,0,0:0:0:0:
106,68,95539,1,0,0:0:0:0:
180,62,95612,1,0,0:0:0:0:
395,302,95686,5,0,3:0:0:0:
396,235,95759,1,0,0:0:0:0:
352,185,95832,1,0,0:0:0:0:
285,179,95905,1,0,0:0:0:0:
484,228,95978,1,0,3:0:0:0:
485,161,96051,1,0,0:0:0:0:
441,111,96124,1,0,0:0:0:0:
374,105,96197,1,0,0:0:0:0:
166,244,96271,6,0,L|154:43,1,170.999994781494,0|0,3:0|0:0,0:0:0:0:
383,146,96564,2,0,P|380:88|247:47,1,170.999994781494,0|0,3:0|0:0,1:0:0:0:
89,204,96857,2,0,P|87:142|211:114,1,170.999994781494,0|0,3:0|0:0,1:0:0:0:
412,56,97150,2,0,L|420:264,1,170.999994781494,0|0,3:0|0:0,1:0:0:0:
214,248,97442,6,0,P|157:219|241:156,1,170.999994781494,0|0,3:0|0:0,1:0:0:0:
431,187,97735,2,0,P|480:151|404:91,1,170.999994781494,0|0,3:0|0:0,0:0:0:0:
223,163,98028,2,0,P|231:100|326:73,1,170.999994781494,0|0,3:0|0:0,1:0:0:0:
105,222,98320,2,0,P|51:184|134:128,1,170.999994781494,0|0,3:0|0:0,1:0:0:0:
323,120,98613,5,4,3:2:0:0:
194,118,98759,1,0,3:0:0:0:
467,205,98906,2,0,L|471:75,1,95,2|0,3:1|0:0,0:0:0:0:
150,183,99198,1,2,3:1:0:0:
217,178,99271,1,0,0:0:0:0:
285,175,99344,1,0,0:0:0:0:
352,172,99417,1,0,0:0:0:0:
191,98,99491,2,0,L|188:36,1,47.5,2|0,3:1|0:0,0:0:0:0:
29,73,99637,2,0,L|23:13,1,47.5,2|0,0:1|0:0,0:0:0:0:
266,67,99784,5,2,3:1:0:0:
321,64,99857,1,0,0:0:0:0:
266,67,99930,1,0,0:0:0:0:
211,73,100003,1,0,0:0:0:0:
266,67,100076,1,0,3:0:0:0:
321,64,100150,1,0,0:0:0:0:
131,296,100223,5,0,0:0:0:0:
75,274,100296,1,0,0:0:0:0:
45,223,100369,1,0,3:0:0:0:
52,164,100442,1,0,0:0:0:0:
94,122,100515,1,0,0:0:0:0:
154,115,100588,1,0,0:0:0:0:
340,231,100662,1,0,3:0:0:0:
341,170,100735,1,0,0:0:0:0:
304,122,100808,1,0,0:0:0:0:
246,107,100881,1,0,0:0:0:0:
421,66,100954,6,0,L|425:134,1,47.5,0|0,3:0|0:0,0:0:0:0:
222,246,101101,1,0,0:0:0:0:
218,189,101174,1,0,0:0:0:0:
241,137,101247,1,0,3:0:0:0:
283,100,101320,1,0,0:0:0:0:
338,85,101393,1,0,0:0:0:0:
393,96,101466,1,0,0:0:0:0:
231,192,101540,6,0,L|230:28,1,142.5,0|0,3:0|0:0,1:0:0:0:
43,114,101832,2,0,L|31:-33,1,142.5,0|0,3:0|0:0,1:0:0:0:
299,78,102125,6,0,L|437:75,1,95,2|0,3:2|0:0,0:0:0:0:
125,22,102418,2,0,L|16:25,1,95,2|0,3:2|0:0,1:0:0:0:
387,164,102711,2,0,L|495:159,1,95,2|0,3:2|0:0,1:0:0:0:
169,77,103003,2,0,L|54:78,1,95,2|0,0:0|0:0,0:0:0:0:
487,61,103296,6,0,L|494:190,1,95,0|0,1:0|0:0,0:0:0:0:
207,213,103589,2,0,L|294:210,1,56.9999982604981,12|0,3:2|0:0,0:0:0:0:
342,157,103735,2,0,L|345:224,1,56.9999982604981
265,135,103881,2,0,L|199:136,1,56.9999982604981,0|0,3:0|0:0,0:0:0:0:
471,150,104028,2,0,L|481:91,1,56.9999982604981,2|0,0:1|0:0,0:0:0:0:
423,93,104174,2,0,L|499:94,1,56.9999982604981,8|0,3:2|0:0,0:0:0:0:
280,93,104320,2,0,L|173:94,1,56.9999982604981,2|0,0:1|0:0,0:0:0:0:
415,228,104467,5,0,3:0:0:0:
470,209,104540,1,0,0:0:0:0:
471,150,104613,1,0,0:0:0:0:
415,131,104686,1,0,0:0:0:0:
220,247,104759,2,0,L|215:183,1,56.9999982604981,8|0,3:2|0:0,0:0:0:0:
295,179,104906,2,0,L|302:107,1,56.9999982604981
215,106,105052,2,0,L|208:27,1,56.9999982604981,0|0,3:0|0:0,0:0:0:0:
301,68,105198,2,0,L|309:7,1,56.9999982604981
120,181,105345,2,0,L|6:182,1,113.999996520996,8|0,3:2|0:0,0:0:0:0:
256,276,105637,6,0,L|116:279,1,113.999996520996,0|0,3:0|0:0,0:0:0:0:
385,205,105930,2,0,L|507:206,1,113.999996520996,8|0,3:2|0:0,0:0:0:0:
259,299,106223,2,0,L|384:299,1,113.999996520996,0|0,3:0|0:0,0:0:0:0:
31,249,106515,2,0,L|14:92,1,113.999996520996,8|0,3:2|0:0,0:0:0:0:
253,148,106808,6,0,L|253:25,1,113.999996520996,0|0,3:0|0:0,0:0:0:0:
475,191,107101,2,0,L|481:72,1,113.999996520996,8|0,3:2|0:0,0:0:0:0:
156,76,107393,2,0,L|6:82,1,113.999996520996,0|0,3:0|0:0,0:0:0:0:
366,74,107686,2,0,L|487:72,1,113.999996520996,8|0,3:2|0:0,0:0:0:0:
140,212,107979,5,6,3:2:0:0:
290,215,108125,1,2,3:2:0:0:
140,212,108271,1,10,3:1:0:0:
290,215,108418,1,2,0:0:0:0:
36,180,108564,2,0,L|121:165,1,56.9999982604981,2|0,3:1|0:0,0:0:0:0:
298,116,108711,2,0,L|396:115,1,56.9999982604981,2|0,0:0|0:0,0:0:0:0:
176,57,108857,2,0,L|112:59,1,56.9999982604981,10|0,3:1|0:0,0:0:0:0:
337,37,109003,2,0,L|420:39,1,56.9999982604981,2|0,0:1|0:0,0:0:0:0:
170,189,109150,6,0,L|244:184,1,56.9999982604981,2|0,3:1|0:0,0:0:0:0:
409,144,109296,2,0,L|483:141,1,56.9999982604981,2|0,0:0|0:0,0:0:0:0:
253,105,109442,2,0,L|168:106,1,56.9999982604981,10|0,3:1|0:0,0:0:0:0:
445,217,109589,2,0,P|489:180|416:120,1,170.999994781494,2|0,0:0|0:0,0:0:0:0:
239,148,109881,2,0,L|174:147,1,56.9999982604981,2|0,0:0|0:0,0:0:0:0:
380,65,110028,2,0,L|383:99,6,28.4999991302491,10|0|0|0|2|0|0,3:2|0:0|0:0|0:0|0:0|0:0|0:0,0:0:0:0:
181,235,110320,6,0,L|287:234,3,56.9999982604981,2|2|2|2,3:2|0:0|0:0|0:0,0:0:0:0:
408,143,110613,2,0,L|331:142,1,56.9999982604981,10|2,3:2|0:0,0:0:0:0:
197,59,110759,2,0,L|114:62,1,56.9999982604981,2|2,0:0|0:0,0:0:0:0:
352,143,110906,6,0,L|246:142,3,56.9999982604981,2|2|2|2,3:2|0:0|0:0|0:0,0:0:0:0:
93,160,111198,2,0,L|170:159,1,56.9999982604981,10|2,3:2|0:0,0:0:0:0:
307,108,111344,2,0,L|390:111,1,56.9999982604981,2|2,0:0|0:0,0:0:0:0:
168,62,111491,6,0,L|40:65,1,95,0|0,3:0|0:0,0:0:0:0:
303,173,111784,1,2,0:3:0:0:
167,115,111857,1,4,0:3:0:0:
235,116,111930,1,2,0:3:0:0:
303,173,112003,1,4,0:3:0:0:
167,115,112076,1,0,0:0:0:0:
98,107,112150,1,2,0:0:0:0:
235,116,112223,1,2,0:0:0:0:
303,173,112296,1,2,0:0:0:0:
98,107,112369,1,2,0:3:0:0:
158,107,112442,1,2,0:3:0:0:
98,107,112515,1,2,0:3:0:0:
158,107,112589,1,2,0:3:0:0:
411,113,112662,6,0,L|417:241,1,95,12|0,1:2|0:0,0:0:0:0:
325,263,112954,2,0,L|216:264,1,95,8|0,0:3|0:0,0:0:0:0:
377,209,113247,2,0,L|381:107,1,95,8|0,0:3|0:0,0:0:0:0:
233,109,113540,2,0,L|222:0,1,95,8|0,0:3|0:0,0:0:0:0:
368,63,113832,6,0,L|271:67,2,95,8|0|8,0:3|0:0|0:3,0:0:0:0:
182,220,114418,2,0,L|175:120,1,95,8|0,0:3|0:0,0:0:0:0:
330,115,114711,2,0,L|334:-6,1,95,8|8,0:3|0:3,0:0:0:0:
47,142,115003,6,0,L|182:132,1,95,2|0,0:0|0:0,0:0:0:0:
47,142,115296,2,0,L|168:131,1,95,2|0,0:0|0:0,0:0:0:0:
390,191,115589,2,0,L|255:181,1,95,2|0,0:0|0:0,0:0:0:0:
390,191,115882,2,0,L|269:180,1,95,2|0,0:0|0:0,0:0:0:0:
26,156,116174,5,2,0:0:0:0:
167,155,116320,1,0,0:0:0:0:
26,156,116467,1,2,0:0:0:0:
167,155,116613,1,0,0:0:0:0:
439,156,116759,1,2,0:0:0:0:
298,155,116905,1,8,0:3:0:0:
439,156,117052,1,8,0:3:0:0:
298,155,117198,1,0,0:0:0:0:
72,227,117345,5,0,3:0:0:0:
298,155,117491,1,0,0:0:0:0:
164,138,117637,2,0,L|157:2,1,95,8|0,0:3|0:0,0:0:0:0:
319,37,117930,1,8,0:3:0:0:
411,75,118076,1,0,0:0:0:0:
414,175,118222,1,8,0:3:0:0:
325,220,118369,1,0,0:0:0:0:
155,53,118515,5,8,0:3:0:0:
63,91,118661,1,0,0:0:0:0:
60,191,118807,1,8,0:3:0:0:
149,236,118954,1,0,0:0:0:0:
305,134,119101,2,0,L|427:134,1,95,8|0,0:3|0:0,0:0:0:0:
242,60,119393,2,0,L|133:62,1,95,8|8,0:3|0:3,0:0:0:0:
397,99,119686,6,0,L|513:99,1,95,2|0,0:0|0:0,0:0:0:0:
397,99,119979,2,0,L|513:99,1,95,2|0,0:0|0:0,0:0:0:0:
226,191,120271,2,0,L|342:191,1,95,2|0,0:0|0:0,0:0:0:0:
226,191,120564,2,0,L|342:191,1,95,2|0,0:0|0:0,0:0:0:0:
42,238,120857,6,2,P|53:166|460:91,1,570.000021743775,0|0,3:0|0:0,0:1:0:0:
453,83,121461,2,0,P|361:119|271:82,1,195.937507474423
491,62,121735,2,0,L|496:210,1,142.500005435944,0|0,1:0|0:0,0:0:0:0:
200,203,122028,6,0,L|43:205,1,132.999995941162,2|0,1:2|0:0,0:0:0:0:
200,203,122320,2,0,L|43:205,1,132.999995941162,10|2,0:0|0:0,0:0:0:0:
317,146,122613,2,0,L|474:148,1,132.999995941162,2|0,0:0|1:0,0:0:0:0:
317,146,122905,2,0,L|474:148,1,132.999995941162,10|2,0:0|0:0,0:0:0:0:
161,281,123198,6,0,L|394:281,1,209.000006378174,2|0,1:2|0:0,0:0:0:0:
161,281,123491,6,0,L|394:281,1,209.000006378174,10|2,0:0|0:0,0:0:0:0:
23,135,123784,2,0,L|180:137,1,132.999995941162,2|0,0:0|1:0,0:0:0:0:
23,135,124076,2,0,L|180:137,1,132.999995941162,10|2,0:0|0:0,0:0:0:0:
446,232,124369,6,0,L|289:234,1,132.999995941162,2|2,1:2|0:0,0:0:0:0:
446,232,124661,2,0,L|289:234,1,132.999995941162,10|2,0:0|0:0,0:0:0:0:
49,144,124954,2,0,L|206:142,1,132.999995941162,2|0,0:0|1:0,0:0:0:0:
461,132,125247,2,0,L|284:133,1,132.999995941162,10|2,0:0|0:0,0:0:0:0:
87,262,125540,6,0,P|168:238|68:146,1,265.999991882324,2|8,1:2|0:0,0:0:0:0:
357,144,125979,2,0,L|81:145,1,265.999991882324,2|0,0:0|1:0,0:0:0:0:
302,73,126418,2,0,L|379:71,1,66.4999979705811,8|0,0:0|1:0,0:0:0:0:
368,71,126564,1,0,0:0:0:0:
39,213,126711,6,0,L|240:215,1,142.500005435944,2|0,3:2|0:0,0:0:0:0:
323,215,127003,2,0,L|180:213,1,142.500005435944,10|2,0:0|0:0,0:0:0:0:
323,215,127296,2,0,L|524:217,1,142.500005435944,2|0,0:0|1:0,0:0:0:0:
323,215,127589,2,0,L|180:213,1,142.500005435944,10|0,0:0|0:0,0:0:0:0:
501,209,127881,6,0,L|260:208,1,209.000006378174,2|0,1:2|0:0,0:0:0:0:
83,207,128174,2,0,L|291:207,1,209.000006378174,10|2,0:0|0:0,0:0:0:0:
501,209,128467,2,0,L|358:207,1,142.500005435944,2|0,0:0|1:0,0:0:0:0:
217,206,128759,2,0,L|359:207,1,142.500005435944,10|2,0:0|0:0,0:0:0:0:
68,272,129052,6,0,L|210:270,1,142.500005435944,2|2,1:2|0:0,0:0:0:0:
353,270,129345,2,0,L|495:271,1,142.500005435944,10|2,0:0|0:0,0:0:0:0:
361,170,129637,2,0,L|218:168,1,142.500005435944,2|0,0:0|1:0,0:0:0:0:
9,167,129930,2,0,L|217:167,1,209.000006378174,8|0,0:0|0:0,0:0:0:0:
472,115,130223,6,0,L|477:254,1,95,0|0,3:0|0:0,0:0:0:0:
216,220,130515,1,8,0:0:0:0:
367,202,130662,1,0,0:0:0:0:
117,91,130808,2,0,L|-7:95,1,95
394,58,131101,2,0,L|491:57,1,95
152,235,131393,6,0,L|144:108,1,113.999996520996,0|0,1:0|1:0,0:0:0:0:
289,78,131613,1,0,1:0:0:0:
439,126,131686,2,0,L|441:9,1,113.999996520996,2|0,1:2|0:0,0:0:0:0:
266,146,131979,2,0,L|260:1,1,113.999996520996,2|0,1:2|0:0,0:0:0:0:
85,108,132271,2,0,L|74:-27,1,113.999996520996,2|0,1:2|0:0,0:0:0:0:
462,137,132564,6,0,L|465:11,1,113.999996520996,2|0,1:2|0:0,0:0:0:0:
252,119,132857,2,0,L|250:-13,1,113.999996520996,2|0,1:2|0:0,0:0:0:0:
33,86,133150,2,0,L|26:-33,1,113.999996520996,2|0,1:2|0:0,0:0:0:0:
251,119,133442,2,0,L|411:115,1,113.999996520996,2|0,1:2|0:0,0:0:0:0:
119,249,133735,5,2,1:2:0:0:
362,258,133881,1,0,1:0:0:0:
30,164,134028,2,0,L|19:33,1,95,2|0,1:2|0:0,0:0:0:0:
318,86,134320,2,0,L|190:86,1,95,2|0,1:2|0:0,0:0:0:0:
484,91,134613,2,0,L|491:221,1,95,2|0,1:2|0:0,0:0:0:0:
221,245,134906,6,0,L|358:245,1,95,2|0,1:2|0:0,0:0:0:0:
31,168,135198,2,0,L|22:47,1,95,2|0,1:2|0:0,0:0:0:0:
368,91,135491,2,0,L|504:88,1,95,2|0,1:2|1:0,0:0:0:0:
128,31,135784,2,0,L|13:34,1,95,2|0,1:2|1:0,0:0:0:0:
364,187,136076,5,2,1:2:0:0:
153,190,136223,1,0,1:0:0:0:
486,122,136369,2,0,L|357:122,1,95,2|0,1:2|0:0,0:0:0:0:
26,122,136662,2,0,L|155:122,1,95,2|0,1:2|0:0,0:0:0:0:
486,122,136954,2,0,L|331:122,1,113.999996520996,2|0,1:2|0:0,0:0:0:0:
26,122,137247,6,0,L|168:122,1,113.999996520996,2|0,1:2|0:0,0:0:0:0:
486,122,137540,2,0,L|318:122,1,123.499994346619,2|0,1:2|0:0,0:0:0:0:
26,122,137833,2,0,L|175:122,1,123.499994346619,2|0,1:2|0:0,0:0:0:0:
486,122,138125,2,0,L|309:122,1,137.750004203797,2|0,1:2|0:0,0:0:0:0:
26,122,138418,6,0,L|186:122,1,137.750004203797,2|0,1:2|1:0,0:0:0:0:
486,122,138711,2,0,L|238:122,1,209.000006378174,2|0,1:2|0:0,0:0:0:0:
26,122,139003,2,0,L|274:122,1,209.000006378174,2|0,1:2|0:0,0:0:0:0:
486,122,139296,2,0,L|238:122,1,209.000006378174,2|0,1:2|0:0,0:0:0:0:
24,231,139589,6,0,L|21:173,6,52.2500015945435,0|0|0|0|0|0|0,3:0|0:0|0:0|0:0|0:0|0:0|0:0,0:0:0:0:
279,200,139881,5,8,1:2:0:0:
307,195,139917,1,0,0:0:0:0:
329,175,139954,1,0,1:0:0:0:
338,147,139990,1,0,0:0:0:0:
330,119,140027,1,0,1:0:0:0:
308,99,140063,1,0,0:0:0:0:
279,94,140100,1,0,1:0:0:0:
83,265,140174,6,0,P|58:233|91:51,1,237.5,2|0,0:0|0:0,0:0:0:0:
471,161,140759,5,4,1:2:0:0:
314,209,140906,2,0,L|378:205,1,47.5,0|0,1:0|1:0,0:0:0:0:
185,140,141052,2,0,L|69:135,1,95,8|2,1:0|0:0,0:0:0:0:
322,143,141345,1,2,1:2:0:0:
185,140,141491,1,0,0:0:0:0:
322,143,141637,1,10,1:2:0:0:
185,140,141783,1,0,0:0:0:0:
459,146,141930,5,0,1:0:0:0:
391,143,142003,1,0,0:0:0:0:
322,143,142076,1,2,0:0:0:0:
48,143,142223,1,10,1:2:0:0:
185,140,142369,1,2,0:0:0:0:
451,143,142515,1,2,1:2:0:0:
322,143,142662,1,2,0:0:0:0:
48,143,142808,1,10,1:2:0:0:
322,143,142954,1,2,0:0:0:0:
48,143,143101,5,0,1:0:0:0:
117,138,143174,1,0,0:0:0:0:
185,140,143247,1,2,0:0:0:0:
451,143,143393,1,10,1:2:0:0:
322,143,143540,1,0,0:0:0:0:
380,143,143613,1,0,0:0:0:0:
209,64,143686,1,2,1:2:0:0:
151,64,143759,1,0,0:0:0:0:
283,38,143832,1,2,0:0:0:0:
341,38,143905,1,0,0:0:0:0:
140,165,143979,2,0,L|33:162,1,95,10|0,1:2|0:0,0:0:0:0:
325,81,144271,5,2,1:2:0:0:
462,81,144418,1,0,0:0:0:0:
187,81,144564,1,8,1:0:0:0:
119,79,144637,1,0,0:0:0:0:
50,81,144711,1,2,0:0:0:0:
334,181,144857,1,2,1:2:0:0:
278,180,144930,1,2,0:0:0:0:
96,128,145003,1,2,0:0:0:0:
152,127,145076,1,0,0:0:0:0:
382,103,145150,2,0,L|485:102,1,95,10|2,1:2|0:0,0:0:0:0:
227,103,145442,5,6,1:2:0:0:
370,58,145589,1,0,1:0:0:0:
227,103,145662,1,0,1:0:0:0:
84,116,145735,2,0,L|84:232,1,95,8|2,1:0|0:0,0:0:0:0:
312,215,146028,1,2,1:2:0:0:
178,214,146174,1,2,0:0:0:0:
442,149,146320,2,0,L|448:278,1,95,10|0,1:2|0:0,0:0:0:0:
178,214,146613,5,0,1:0:0:0:
312,213,146759,1,2,0:0:0:0:
69,145,146906,1,10,1:2:0:0:
202,121,147052,1,0,0:0:0:0:
142,120,147125,1,0,0:0:0:0:
307,110,147198,2,0,L|405:113,1,95,0|2,1:0|0:0,0:0:0:0:
115,41,147491,2,0,L|-5:41,1,95,10|0,1:2|0:0,0:0:0:0:
266,77,147784,5,0,3:0:0:0:
42,87,147930,1,0,3:0:0:0:
315,199,148076,1,10,3:2:0:0:
456,199,148223,1,2,0:0:0:0:
154,147,148369,1,2,3:2:0:0:
214,143,148442,1,0,0:0:0:0:
398,118,148515,1,0,0:0:0:0:
338,114,148588,1,0,0:0:0:0:
138,69,148662,2,0,L|36:68,1,95,10|0,3:2|0:0,0:0:0:0:
188,211,148881,1,0,1:0:0:0:
331,219,148954,5,2,3:2:0:0:
462,219,149101,1,0,0:0:0:0:
188,211,149247,1,8,3:2:0:0:
331,219,149393,1,2,0:0:0:0:
108,138,149540,1,0,3:0:0:0:
168,141,149613,1,0,0:0:0:0:
347,100,149686,1,0,3:0:0:0:
287,103,149759,1,0,0:0:0:0:
43,71,149832,2,0,L|151:71,1,95,8|0,3:2|3:0,0:0:0:0:
377,133,150125,5,6,1:2:0:0:
227,100,150271,1,0,1:0:0:0:
287,103,150344,1,0,1:0:0:0:
127,223,150418,2,0,L|32:223,1,95,8|2,1:0|0:0,0:0:0:0:
174,128,150711,1,2,1:2:0:0:
415,89,150857,2,0,L|417:200,1,95,2|8,0:1|1:0,0:0:0:0:
174,128,151150,1,2,0:1:0:0:
416,90,151296,5,0,1:0:0:0:
354,86,151369,1,0,0:0:0:0:
213,63,151442,1,0,0:0:0:0:
151,59,151515,1,0,0:0:0:0:
322,201,151589,1,8,1:0:0:0:
370,197,151662,1,0,0:0:0:0:
199,217,151735,1,0,0:0:0:0:
199,168,151808,1,0,0:0:0:0:
28,136,151881,1,0,1:0:0:0:
86,137,151954,1,0,0:0:0:0:
28,136,152028,1,0,0:0:0:0:
86,137,152101,1,0,0:0:0:0:
258,98,152174,2,0,L|359:97,1,95,8|0,1:0|0:0,0:0:0:0:
73,191,152467,5,0,1:0:0:0:
195,196,152613,1,2,0:0:0:0:
456,191,152759,1,10,1:2:0:0:
334,196,152905,1,2,0:0:0:0:
115,112,153052,1,2,1:2:0:0:
176,108,153125,1,2,0:0:0:0:
335,91,153198,1,2,0:0:0:0:
396,87,153271,1,0,0:0:0:0:
201,239,153345,2,0,L|307:238,1,95,10|0,1:2|0:0,0:0:0:0:
48,146,153637,5,2,1:2:0:0:
181,138,153784,1,2,0:0:0:0:
48,146,153930,1,8,1:2:0:0:
181,138,154076,1,2,0:0:0:0:
436,132,154223,1,2,1:2:0:0:
378,133,154296,1,2,0:0:0:0:
436,132,154370,1,2,0:0:0:0:
378,133,154443,1,0,0:0:0:0:
213,200,154515,2,0,L|85:202,1,95,10|2,1:2|0:0,0:0:0:0:
358,134,154808,5,6,1:2:0:0:
221,105,154954,1,0,1:0:0:0:
358,134,155028,1,0,1:0:0:0:
494,145,155101,1,10,1:0:0:0:
358,134,155247,1,0,0:0:0:0:
74,196,155393,5,2,1:0:0:0:
132,187,155467,1,0,0:0:0:0:
280,188,155540,1,0,0:0:0:0:
338,179,155614,1,0,0:0:0:0:
170,239,155686,1,10,1:0:0:0:
228,230,155760,1,0,0:0:0:0:
369,132,155832,1,2,0:1:0:0:
427,123,155906,1,0,0:0:0:0:
184,121,155979,5,2,1:0:0:0:
242,112,156053,1,0,0:0:0:0:
320,70,156125,1,0,0:0:0:0:
262,61,156199,1,0,0:0:0:0:
184,121,156271,1,8,1:0:0:0:
242,112,156345,1,0,0:0:0:0:
419,265,156418,5,0,0:0:0:0:
359,251,156491,1,0,0:0:0:0:
322,204,156564,1,0,1:0:0:0:
322,144,156637,1,0,0:0:0:0:
360,97,156710,1,0,0:0:0:0:
419,84,156783,1,0,0:0:0:0:
224,166,156857,1,8,1:0:0:0:
105,164,157003,1,0,0:0:0:0:
369,58,157150,5,0,1:0:0:0:
225,54,157296,1,0,1:0:0:0:
369,58,157369,1,0,1:0:0:0:
225,54,157442,2,0,L|102:52,1,95,8|0,1:0|0:0,0:0:0:0:
340,177,157662,6,0,L|426:177,2,47.5,0|0|0,1:0|0:0|1:0,0:0:0:0:
178,141,157881,1,0,0:0:0:0:
232,138,157954,1,0,0:0:0:0:
89,73,158028,1,8,1:0:0:0:
31,70,158101,1,0,0:0:0:0:
206,184,158174,1,0,1:0:0:0:
151,183,158247,1,0,0:0:0:0:
341,132,158320,6,0,L|478:134,1,95,2|0,1:2|1:0,0:0:0:0:
187,52,158613,2,0,L|62:57,1,95,10|2,1:2|0:0,0:0:0:0:
393,73,158906,1,0,1:0:0:0:
336,75,158979,1,0,1:0:0:0:
393,73,159052,1,0,1:0:0:0:
336,75,159125,1,0,1:0:0:0:
163,135,159198,1,8,1:0:0:0:
220,137,159271,1,0,1:0:0:0:
163,135,159344,1,0,1:0:0:0:
220,137,159417,1,0,1:0:0:0:
391,176,159491,6,0,L|499:176,1,95,4|0,0:1|0:0,0:0:0:0:
177,194,159784,1,8,1:0:0:0:
391,176,159930,1,2,0:0:0:0:
72,122,160076,6,0,L|112:149,1,47.5,2|0,1:2|0:0,0:0:0:0:
195,115,160223,2,0,L|140:150,1,47.5
19,78,160369,2,0,L|73:122,1,47.5,8|0,1:0|0:0,0:0:0:0:
195,115,160515,2,0,L|135:145,1,47.5
312,135,160662,6,0,P|387:150|438:223,1,142.5,2|2,1:2|0:0,0:0:0:0:
214,222,160954,2,0,L|273:213,1,47.5,10|0,3:2|0:0,0:0:0:0:
353,203,161101,2,0,L|298:204,1,47.5,0|2,0:0|0:0,0:0:0:0:
93,134,161247,6,0,L|160:126,1,47.5,2|0,1:2|0:0,0:0:0:0:
344,83,161393,2,0,L|410:80,1,47.5,2|0,0:0|0:0,0:0:0:0:
222,147,161540,2,0,L|291:141,1,47.5,10|0,1:2|0:0,0:0:0:0:
101,227,161686,2,0,L|171:215,1,47.5,2|0,0:0|0:0,0:0:0:0:
354,191,161832,5,2,3:2:0:0:
147,218,161979,1,2,3:2:0:0:
441,145,162125,2,0,L|454:262,1,95,10|0,3:2|0:0,0:0:0:0:
206,257,162418,2,0,L|286:246,1,47.5,2|0,3:2|0:0,0:0:0:0:
345,223,162564,2,0,L|419:220,1,47.5
215,151,162711,1,8,3:2:0:0:
325,104,162857,1,0,1:0:0:0:
385,100,162930,1,0,1:0:0:0:
188,79,163003,6,0,L|56:79,2,95,2|0|8,3:2|0:0|3:2,0:0:0:0:
410,68,163442,1,0,0:0:0:0:
194,187,163589,1,2,1:2:0:0:
329,182,163735,1,2,1:2:0:0:
110,105,163881,1,10,1:2:0:0:
405,100,164028,1,2,1:2:0:0:
110,105,164174,5,6,1:2:0:0:
260,108,164320,1,0,1:0:0:0:
110,105,164393,1,0,1:0:0:0:
260,108,164467,2,0,L|361:108,1,95,10|0,1:2|0:0,0:0:0:0:
84,209,164759,6,0,L|148:207,1,47.5,2|0,1:2|0:0,0:0:0:0:
219,187,164906,2,0,L|152:202,1,47.5
34,146,165052,2,0,L|98:144,1,47.5,8|0,1:2|0:0,0:0:0:0:
168,123,165198,2,0,L|101:138,1,47.5
302,113,165345,6,0,P|411:129|433:168,1,142.5,2|2,1:2|0:0,0:0:0:0:
272,211,165637,2,0,L|206:197,1,47.5,10|0,1:2|0:0,0:0:0:0:
140,158,165784,2,0,L|85:141,1,47.5,0|2,0:0|0:0,0:0:0:0:
280,123,165930,5,2,1:2:0:0:
335,127,166003,1,0,0:0:0:0:
195,214,166076,1,2,0:0:0:0:
250,216,166150,1,0,0:0:0:0:
70,159,166223,1,10,1:2:0:0:
126,158,166296,1,0,0:0:0:0:
302,79,166369,1,2,0:0:0:0:
355,78,166442,1,0,0:0:0:0:
166,74,166515,6,0,L|31:73,1,95,2|2,3:2|3:2,0:0:0:0:
324,89,166808,1,10,3:2:0:0:
385,102,166881,1,0,0:0:0:0:
426,144,166954,1,2,0:0:0:0:
357,187,167027,1,2,0:0:0:0:
155,195,167101,6,0,L|211:192,1,47.5,2|0,3:2|0:0,0:0:0:0:
338,156,167247,2,0,L|259:151,1,47.5,2|2,0:0|0:0,0:0:0:0:
76,121,167393,2,0,L|192:113,1,95,10|0,3:2|0:0,0:0:0:0:
324,89,167613,1,0,1:0:0:0:
170,114,167686,6,0,L|76:121,1,95,2|0,3:2|0:0,0:0:0:0:
329,217,167979,1,10,3:2:0:0:
188,213,168125,1,0,0:0:0:0:
409,118,168271,1,0,3:0:0:0:
117,121,168418,1,0,3:0:0:0:
329,217,168564,1,8,3:2:0:0:
188,213,168711,1,0,3:0:0:0:
465,218,168857,5,6,1:2:0:0:
329,217,169003,1,0,1:0:0:0:
465,218,169076,1,0,1:0:0:0:
329,217,169150,2,0,L|225:217,1,95,10|0,1:2|0:0,0:0:0:0:
475,131,169442,6,0,L|423:143,1,47.5,2|0,1:2|0:0,0:0:0:0:
341,141,169589,2,0,L|294:149,1,47.5
475,131,169735,2,0,L|423:143,1,47.5,8|0,1:0|0:0,0:0:0:0:
341,141,169882,2,0,L|294:149,1,47.5
107,203,170028,6,0,P|226:187|282:211,1,142.5,2|2,1:2|0:0,0:0:0:0:
62,120,170320,2,0,L|134:106,1,47.5,10|0,1:2|0:0,0:0:0:0:
203,94,170467,2,0,L|139:94,1,47.5,0|2,0:0|0:0,0:0:0:0:
303,90,170613,5,2,1:2:0:0:
360,88,170686,1,0,0:0:0:0:
191,198,170759,1,2,0:0:0:0:
134,196,170832,1,0,0:0:0:0:
319,131,170906,1,10,1:2:0:0:
261,134,170979,1,0,0:0:0:0:
411,95,171052,1,2,0:0:0:0:
469,93,171125,1,0,0:0:0:0:
319,131,171198,5,2,3:2:0:0:
89,133,171345,1,2,3:2:0:0:
319,131,171491,2,0,L|331:264,1,95,10|0,3:2|0:0,0:0:0:0:
80,232,171784,2,0,L|155:229,1,47.5,2|0,3:2|0:0,0:0:0:0:
219,207,171930,2,0,L|161:207,1,47.5
35,136,172076,1,8,3:2:0:0:
166,128,172223,1,0,1:0:0:0:
109,129,172296,1,0,1:0:0:0:
321,127,172369,6,0,L|442:129,1,95,2|0,3:2|0:0,0:0:0:0:
208,259,172662,1,10,3:2:0:0:
337,260,172808,1,0,0:0:0:0:
19,131,172954,1,2,1:2:0:0:
157,127,173101,1,2,1:2:0:0:
493,131,173247,1,10,1:2:0:0:
355,127,173394,1,2,1:2:0:0:
19,131,173540,5,6,1:2:0:0:
157,127,173686,1,0,1:0:0:0:
19,131,173759,1,0,1:0:0:0:
157,127,173832,2,0,L|291:126,1,95,10|0,1:2|0:0,0:0:0:0:
33,54,174125,1,2,1:2:0:0:
88,49,174198,1,0,0:0:0:0:
173,39,174271,1,0,0:0:0:0:
228,34,174344,1,0,0:0:0:0:
33,54,174418,2,0,L|40:180,1,95,10|0,1:2|0:0,0:0:0:0:
285,217,174711,6,0,P|203:204|161:145,1,142.5,2|2,1:2|0:0,0:0:0:0:
352,103,175003,2,0,L|428:99,1,47.5,10|0,1:2|0:0,0:0:0:0:
491,103,175150,2,0,L|436:98,1,47.5,0|2,0:0|0:0,0:0:0:0:
242,89,175296,5,2,1:2:0:0:
187,93,175369,1,0,0:0:0:0:
344,195,175442,1,2,0:0:0:0:
399,196,175515,1,0,0:0:0:0:
233,221,175589,1,10,1:2:0:0:
291,220,175662,1,0,0:0:0:0:
151,142,175735,1,2,0:0:0:0:
96,141,175808,1,0,0:0:0:0:
305,108,175881,5,2,1:2:0:0:
363,109,175954,1,0,0:0:0:0:
231,55,176028,1,2,1:2:0:0:
101,50,176101,1,2,1:2:0:0:
231,55,176174,1,10,1:2:0:0:
288,55,176247,1,0,0:0:0:0:
231,55,176320,1,0,0:0:0:0:
390,57,176393,5,0,1:0:0:0:
447,57,176467,1,0,0:0:0:0:
390,57,176540,1,0,1:0:0:0:
243,157,176613,1,2,1:2:0:0:
300,156,176686,1,0,0:0:0:0:
141,98,176759,1,10,1:2:0:0:
84,96,176832,1,0,0:0:0:0:
300,156,176906,1,2,1:0:0:0:
243,157,176979,1,0,0:0:0:0:
406,168,177052,6,0,L|502:165,1,95,0|0,3:0|0:0,0:0:0:0:
406,168,177345,2,0,L|502:165,1,95
264,248,177637,2,0,P|217:211|277:164,1,142.5
436,83,177930,2,0,L|440:198,1,95,8|0,0:0|0:0,0:0:0:0:
196,189,178223,6,0,L|95:187,1,95,0|2,3:0|0:0,0:0:0:0:
256,113,178515,2,0,L|177:192,1,95,8|2,3:0|0:0,0:0:0:0:
332,205,178808,1,0,3:0:0:0:
222,162,178954,1,0,0:0:0:0:
223,72,179100,1,8,3:0:0:0:
334,49,179247,1,2,0:0:0:0:
132,200,179393,6,0,P|78:176|51:90,1,142.5,4|0,3:2|0:0,0:0:0:0:
222,91,179686,2,0,P|276:99|317:207,1,142.5,8|0,3:0|0:0,0:0:0:0:
176,241,179979,2,0,L|281:231,1,95,0|2,3:0|0:0,0:0:0:0:
157,172,180271,2,0,L|146:67,1,95,8|2,3:0|0:0,0:0:0:0:
387,130,180564,5,0,3:0:0:0:
246,80,180711,2,0,L|364:67,2,95,2|8|2,0:0|3:0|0:0,0:0:0:0:
475,73,181150,2,0,L|475:203,1,95,4|0,3:2|0:0,0:0:0:0:
239,250,181442,2,0,L|390:236,1,142.5,8|0,3:0|0:0,0:0:0:0:
212,184,181735,6,0,L|209:79,1,95,0|2,3:2|0:0,0:0:0:0:
352,75,182028,2,0,L|460:76,1,95,8|2,3:0|0:0,0:0:0:0:
215,41,182320,2,0,P|152:62|214:129,1,190,0|8,3:0|3:0,0:0:0:0:
355,140,182759,1,0,3:0:0:0:
106,211,182906,5,4,3:2:0:0:
239,143,183052,2,0,L|140:137,2,95,2|8|2,3:2|3:0|0:0,0:0:0:0:
464,193,183491,1,2,3:2:0:0:
333,124,183637,1,2,0:0:0:0:
202,71,183784,1,8,3:3:0:0:
72,43,183930,1,0,0:0:0:0:
322,67,184076,6,0,L|333:204,1,95,2|0,3:2|0:0,0:0:0:0:
191,184,184369,1,8,3:0:0:0:
328,173,184515,1,0,0:0:0:0:
91,208,184662,2,0,L|83:87,1,95,0|0,3:0|0:0,0:0:0:0:
219,71,184954,1,8,3:0:0:0:
83,78,185101,1,0,0:0:0:0:
361,62,185247,6,0,P|416:84|345:172,1,190,0|8,3:0|3:0,0:0:0:0:
235,158,185686,1,0,0:0:0:0:
462,205,185832,2,0,L|246:199,1,190,2|8,3:2|3:0,0:0:0:0:
404,124,186271,1,0,0:0:0:0:
179,95,186418,6,0,L|69:94,1,95,2|2,3:2|0:3,0:0:0:0:
232,176,186711,2,0,L|124:174,1,95,8|2,3:2|0:3,0:0:0:0:
361,78,187003,2,0,P|413:90|359:177,1,190,0|0,3:0|0:3,0:0:0:0:
384,183,187369,2,0,L|367:139,2,47.5,0|0|0,0:3|0:0|0:0,0:0:0:0:
191,179,187589,6,0,L|66:173,1,95,0|0,3:0|0:0,0:0:0:0:
238,109,187881,1,8,3:0:0:0:
93,106,188028,1,0,0:0:0:0:
367,188,188174,1,0,3:0:0:0:
100,194,188320,2,0,L|229:187,1,95,2|8,0:1|3:0,0:0:0:0:
439,174,188613,1,2,0:1:0:0:
188,150,188759,6,2,L|249:125,1,47.5,4|0,3:1|0:0,1:0:0:0:
373,103,188906,2,0,L|437:88,1,47.5
286,62,189052,2,0,L|275:9,1,47.5,8|0,3:0|0:0,0:0:0:0:
350,15,189198,2,0,L|284:11,1,47.5
156,97,189345,6,0,L|229:85,1,47.5,0|0,3:1|0:0,0:0:0:0:
291,77,189491,2,0,L|298:153,1,47.5
156,182,189637,2,0,L|238:172,1,47.5,8|0,3:0|0:0,0:0:0:0:
386,133,189784,2,0,L|396:207,1,47.5
214,273,189930,6,0,L|315:258,1,95,0|2,3:1|0:0,0:0:0:0:
168,190,190223,2,0,L|61:193,1,95,8|0,3:0|0:0,0:0:0:0:
306,169,190515,2,0,L|176:165,1,95,2|0,3:2|0:0,0:0:0:0:
456,182,190808,2,0,L|460:73,1,95,8|0,3:0|0:0,0:0:0:0:
254,90,191101,5,2,3:2:0:0:
385,84,191247,1,0,0:0:0:0:
178,214,191393,1,8,3:0:0:0:
309,208,191539,1,2,0:0:0:0:
81,142,191686,2,0,L|78:39,1,95,2|2,3:2|0:0,0:0:0:0:
306,59,191979,1,8,3:0:0:0:
175,51,192125,1,0,0:0:0:0:
387,151,192271,6,0,L|519:150,1,95,4|0,3:2|3:0,0:0:0:0:
248,240,192564,1,8,3:0:0:0:
488,237,192711,1,0,0:0:0:0:
191,163,192857,6,2,L|265:145,1,47.5,2|0,3:1|0:0,1:0:0:0:
467,123,193003,2,0,L|394:113,1,47.5
285,85,193150,2,0,L|340:78,1,47.5,8|0,3:0|0:0,0:0:0:0:
198,35,193296,2,0,L|129:36,1,47.5,2|2,0:1|0:2,0:0:0:0:
304,41,193442,6,0,L|361:39,1,47.5,2|0,3:1|0:0,0:0:0:0:
286,128,193589,2,0,L|213:127,1,47.5
316,193,193735,2,2,L|373:194,1,47.5,8|0,3:0|0:0,1:0:0:0:
195,146,193881,2,0,L|177:80,1,47.5
376,78,194028,6,0,L|291:61,1,47.5,0|0,3:2|0:0,0:0:0:0:
248,50,194174,2,0,L|238:141,1,47.5
393,168,194320,2,0,L|316:157,1,47.5,8|0,3:0|0:0,0:0:0:0:
173,87,194467,2,0,L|116:85,1,47.5
362,70,194613,5,0,3:1:0:0:
405,78,194686,1,0,0:0:0:0:
408,122,194759,1,0,0:0:0:0:
366,136,194832,1,0,0:0:0:0:
204,227,194906,2,0,L|329:228,1,95,8|2,3:2|0:0,0:0:0:0:
176,149,195198,2,0,L|74:147,1,95,0|0,3:0|0:0,0:0:0:0:
326,123,195491,2,0,P|377:136|401:221,1,142.5,8|0,3:2|0:0,0:0:0:0:
245,254,195784,6,0,L|350:249,1,95,0|0,3:0|0:0,0:0:0:0:
205,175,196076,2,0,L|324:165,1,95,8|0,3:2|0:0,0:0:0:0:
57,172,196369,2,0,L|51:-29,1,190,0|0,3:0|0:0,0:0:0:0:
434,130,196954,5,0,1:2:0:0:
221,132,197101,2,0,L|338:129,1,95,2|0,0:0|0:0,0:0:0:0:
181,210,197393,2,0,L|315:205,2,95,0|2|0,0:0|0:0|1:0,0:0:0:0:
399,143,197832,1,8,0:0:0:0:
169,130,197979,1,0,0:0:0:0:
426,87,198125,6,0,P|484:97|508:158,1,95,2|0,1:2|0:0,0:0:0:0:
386,192,198418,2,0,L|501:185,1,95,8|2,0:0|1:2,0:0:0:0:
255,100,198711,2,0,P|146:98|118:187,1,190,2|10,0:0|0:0,0:0:0:0:
278,169,199150,1,2,0:0:0:0:
62,208,199296,6,0,P|11:172|85:91,1,190,2|8,1:2|0:0,0:0:0:0:
207,93,199735,1,2,0:0:0:0:
56,86,199881,2,0,L|187:74,1,95,2|2,0:0|1:2,0:0:0:0:
385,75,200174,2,0,P|448:86|463:173,1,142.5,10|0,0:0|0:0,0:0:0:0:
291,205,200467,6,0,L|158:206,1,95,2|0,1:2|0:0,0:0:0:0:
334,135,200759,2,0,L|439:128,1,95,8|2,0:0|1:2,0:0:0:0:
184,171,201052,2,0,L|182:38,1,95,2|0,0:0|0:0,0:0:0:0:
411,60,201345,2,0,L|459:58,1,47.5,8|0,0:0|1:0,0:0:0:0:
121,181,201637,6,0,P|62:156|136:89,1,190,2|8,3:2|0:0,0:0:0:0:
259,94,202076,1,2,0:0:0:0:
55,103,202223,2,0,L|167:94,1,95,2|0,0:0|0:0,0:0:0:0:
304,114,202515,2,0,L|308:227,1,95,10|0,0:0|0:0,0:0:0:0:
100,251,202808,5,2,1:2:0:0:
311,248,202954,1,0,0:0:0:0:
100,251,203101,2,0,L|196:251,1,95,8|2,0:0|1:2,0:0:0:0:
431,212,203393,2,0,L|258:197,1,142.5
349,148,203686,2,0,L|358:262,1,95,8|0,0:0|0:0,0:0:0:0:
129,239,203979,5,2,1:2:0:0:
265,193,204125,2,0,L|59:184,1,190,2|2,0:0|1:2,0:0:0:0:
214,118,204564,2,0,L|116:117,1,95,0|2,0:2|1:2,0:0:0:0:
264,193,204857,2,0,L|139:191,1,95,10|0,0:0|0:2,0:0:0:0:
395,235,205150,6,0,P|447:210|387:140,1,142.5,2|0,1:2|0:0,0:0:0:0:
258,65,205442,2,0,P|195:71|139:151,1,142.5,10|0,0:0|0:0,0:0:0:0:
304,160,205735,2,0,L|310:289,1,95
73,173,206028,2,0,L|2:173,1,47.5,10|0,0:0|1:0,0:0:0:0:
400,251,206320,6,0,P|459:227|386:150,1,190,6|8,3:2|0:0,0:0:0:0:
167,148,206759,1,2,0:2:0:0:
455,92,206906,2,0,L|338:82,1,95,2|0,0:0|0:0,0:0:0:0:
152,248,207198,2,0,L|323:225,1,142.5,10|0,0:0|0:0,0:0:0:0:
113,157,207491,6,0,L|12:154,2,95,2|0|8,1:2|0:0|0:0,0:0:0:0:
348,230,207930,2,0,L|129:227,1,190,0|0,1:2|1:0,0:0:0:0:
371,133,208369,2,0,L|496:132,1,95,8|0,0:0|0:0,0:0:0:0:
179,191,208662,6,0,P|123:162|197:85,1,190,2|8,1:2|0:0,0:0:0:0:
413,79,209101,1,2,0:2:0:0:
179,113,209247,2,0,L|311:108,1,95,2|0,0:0|0:0,0:0:0:0:
26,113,209540,2,0,L|16:-4,1,95,10|0,0:0|0:0,0:0:0:0:
303,97,209832,6,0,L|96:86,1,190,2|8,1:2|0:0,0:0:0:0:
368,201,210271,2,0,L|156:187,1,190,2|0,1:2|1:0,0:0:0:0:
449,48,210711,2,0,L|450:84,4,23.75,10|0|0|0|0,3:2|0:0|0:0|0:0|0:0,0:0:0:0:
227,62,211003,6,0,L|226:98,4,23.75,2|0|0|0|0,3:2|0:0|0:0|0:0|0:0,0:0:0:0:
458,176,211296,2,0,L|337:171,1,95,8|2,0:0|0:0,0:0:0:0:
232,129,211589,1,2,0:0:0:0:
455,121,211735,1,0,0:0:0:0:
232,129,211881,2,0,L|105:124,1,95,10|0,0:0|0:0,0:0:0:0:
385,257,212174,6,0,P|434:237|367:152,1,190,2|8,1:2|0:0,0:0:0:0:
152,197,212613,2,0,L|369:182,1,190,0|0,1:0|1:0,0:0:0:0:
293,126,212979,1,0,0:0:0:0:
110,99,213052,2,0,L|11:101,1,95,8|0,0:0|0:0,0:0:0:0:
270,174,213345,6,0,P|316:162|264:94,1,142.5,2|0,1:2|0:0,0:0:0:0:
137,132,213637,2,0,L|129:31,1,95,8|0,0:2|0:0,0:0:0:0:
269,43,213930,2,0,L|149:43,1,95,0|2,0:0|1:2,0:0:0:0:
311,137,214223,1,8,0:0:0:0:
240,132,214296,1,0,0:0:0:0:
169,145,214369,1,2,0:0:0:0:
430,218,214515,6,0,P|432:158|428:118,1,95,0|0,3:0|0:0,0:0:0:0:
379,102,214735,1,0,0:0:0:0:
211,72,214808,1,8,0:0:0:0:
234,67,214844,1,0,0:0:0:0:
257,63,214881,1,0,0:0:0:0:
281,59,214917,1,0,0:0:0:0:
304,55,214954,1,0,0:0:0:0:
303,57,214991,1,0,0:0:0:0:
281,59,215028,1,0,0:0:0:0:
49,82,215101,6,0,P|26:121|58:169,1,95
271,251,215393,2,0,L|387:244,1,95
66,211,215686,6,0,L|56:83,1,95,4|0,1:0|0:0,0:0:0:0:
195,99,215979,2,0,L|201:-9,1,95,2|0,0:0|0:0,0:0:0:0:
347,101,216271,2,0,L|360:-12,1,95,2|0,0:0|0:0,0:0:0:0:
496,123,216564,2,0,L|508:14,1,95,2|0,0:0|0:0,0:0:0:0:
208,183,216857,6,0,L|203:78,1,95,2|0,0:0|0:0,0:0:0:0:
69,81,217150,2,0,L|61:-32,1,95,2|0,0:0|0:0,0:0:0:0:
213,104,217442,2,0,L|219:4,1,95,2|0,0:0|0:0,0:0:0:0:
363,112,217735,2,0,L|373:-1,1,95,2|0,0:0|0:0,0:0:0:0:
116,110,218028,5,4,1:0:0:0:
362,113,218174,1,0,0:0:0:0:
116,110,218320,2,0,L|105:3,1,95,2|0,0:0|0:0,0:0:0:0:
254,60,218613,2,0,L|263:-40,1,95,2|0,0:0|0:0,0:0:0:0:
417,68,218906,2,0,L|426:-37,1,95,2|0,0:0|0:0,0:0:0:0:
191,195,219198,6,0,L|185:88,1,95,2|0,0:0|0:0,0:0:0:0:
326,106,219491,2,0,L|335:0,1,95,2|0,0:0|0:0,0:0:0:0:
184,46,219784,2,0,L|176:-57,1,95,2|0,0:0|0:0,0:0:0:0:
416,101,220076,1,0,1:0:0:0:
352,96,220150,1,0,1:0:0:0:
416,101,220223,1,0,1:0:0:0:
352,96,220297,1,0,1:0:0:0:
123,165,220369,6,0,L|-11:166,1,95,4|0,1:0|0:0,0:0:0:0:
245,241,220662,2,0,L|138:244,1,95,2|0,0:0|0:0,0:0:0:0:
367,172,220954,2,0,L|248:174,1,95,2|0,0:0|0:0,0:0:0:0:
494,118,221247,2,0,L|375:120,1,95,2|0,0:0|0:0,0:0:0:0:
153,227,221540,6,0,L|265:217,1,95,2|0,0:0|0:0,0:0:0:0:
11,138,221832,2,0,L|111:128,1,95,2|0,0:0|0:0,0:0:0:0:
359,227,222125,2,0,L|247:217,1,95,2|0,0:0|0:0,0:0:0:0:
501,138,222417,2,0,L|401:128,1,95,2|0,0:0|0:0,0:0:0:0:
109,124,222711,5,0,3:0:0:0:
398,124,222857,1,0,0:0:0:0:
182,65,223003,1,0,0:0:0:0:
315,66,223150,1,2,0:0:0:0:
109,124,223296,1,2,0:0:0:0:
398,124,223442,1,2,0:0:0:0:
109,124,223589,1,0,1:0:0:0:
398,124,223735,1,0,1:0:0:0:
257,122,223808,1,0,1:0:0:0:
109,124,223881,6,0,P|63:141|68:249,1,166.25,4|0,1:0|0:0,0:0:0:0:
110,241,224174,2,0,L|260:160,1,166.25
217,189,224467,2,0,L|75:306,1,166.25
102,277,224759,2,0,L|221:360,1,142.5,0|0,3:0|0:0,0:0:0:0:
67,233,225052,6,0,L|62:113,1,95,2|0,3:2|0:0,0:0:0:0:
204,133,225345,2,0,L|210:36,1,95,10|2,0:0|0:2,0:0:0:0:
350,113,225637,2,0,L|358:10,1,95,0|0,0:0|1:2,0:0:0:0:
500,126,225930,2,0,L|506:26,1,95,10|0,0:2|0:0,0:0:0:0:
236,173,226223,6,0,L|236:51,1,95,2|0,1:2|0:0,0:0:0:0:
370,84,226515,2,0,L|376:-23,1,95,10|0,0:0|1:2,0:0:0:0:
233,44,226808,2,0,L|230:-54,1,95,0|0,0:0|1:2,0:0:0:0:
92,64,227101,2,0,L|86:-45,1,95,10|0,0:2|0:0,0:0:0:0:
348,151,227393,5,2,3:2:0:0:
95,142,227540,1,0,0:0:0:0:
355,149,227686,2,0,L|365:28,1,95,10|0,0:0|0:2,0:0:0:0:
221,52,227979,2,0,L|216:-50,1,95,0|0,0:0|1:2,0:0:0:0:
71,92,228271,2,0,L|66:-21,1,95,10|0,0:2|0:0,0:0:0:0:
339,105,228564,6,0,L|346:-16,1,95,2|0,1:2|0:0,0:0:0:0:
197,48,228857,2,0,L|191:-52,1,95,10|0,0:0|0:0,0:0:0:0:
341,99,229150,2,0,L|348:-1,1,95,2|0,0:0|0:0,0:0:0:0:
94,157,229442,1,0,1:0:0:0:
159,156,229515,1,0,1:0:0:0:
94,157,229589,1,0,1:0:0:0:
159,156,229662,1,0,1:0:0:0:
350,182,229735,6,0,L|469:174,1,95,2|2,3:2|0:2,0:0:0:0:
308,111,230028,1,2,0:2:0:0:
444,175,230174,1,2,0:2:0:0:
214,196,230320,1,0,0:2:0:0:
444,175,230467,1,2,0:2:0:0:
147,275,230613,1,2,0:2:0:0:
444,175,230759,1,2,0:2:0:0:
162,182,230906,6,0,L|43:174,1,95,2|2,3:2|0:2,0:0:0:0:
204,111,231199,1,2,0:0:0:0:
68,175,231345,1,2,0:2:0:0:
298,196,231491,1,2,0:2:0:0:
68,175,231638,1,2,0:2:0:0:
365,275,231784,1,2,0:0:0:0:
68,175,231930,1,2,0:2:0:0:
454,188,232076,6,0,L|392:175,1,47.5,4|0,1:0|0:0,0:0:0:0:
253,122,232223,2,0,L|252:59,1,47.5
109,79,232369,2,0,L|62:76,1,47.5,8|0,1:0|0:0,0:0:0:0:
249,91,232515,2,0,L|253:146,1,47.5
401,151,232662,6,0,L|449:151,1,47.5,0|0,1:0|0:0,0:0:0:0:
266,91,232808,2,0,L|263:34,1,47.5
98,61,232954,2,0,L|45:59,1,47.5,8|0,1:0|1:0,0:0:0:0:
186,51,233101,1,0,1:0:0:0:
319,43,233174,1,0,1:0:0:0:
120,240,233247,6,0,L|114:131,1,95,4|0,1:0|0:0,0:0:0:0:
318,109,233540,2,2,L|153:103,1,142.5,0|0,0:0|0:0,0:1:0:0:
313,231,233832,2,0,L|398:225,1,47.5,0|2,0:0|0:3,0:0:0:0:
175,261,233979,2,0,B|431:261|431:261|329:-7,1,513.00000195694,10|0,0:3|0:0,0:0:0:0:
95,268,234418,6,0,L|88:73,1,190,0|0,3:2|0:0,0:0:0:0:
180,117,234711,2,0,L|183:-12,1,95,8|0,0:3|0:0,0:0:0:0:
280,84,235003,2,0,L|284:-25,1,95,8|0,0:3|0:0,0:0:0:0:
375,98,235296,2,0,L|382:-20,1,95,8|0,0:3|0:0,0:0:0:0:
231,169,235589,6,0,L|122:171,1,95,8|0,0:3|0:0,0:0:0:0:
305,117,235881,2,0,P|364:127|400:217,1,142.5,8|0,0:3|0:0,0:0:0:0:
250,203,236174,2,0,L|211:198,1,23.75,8|0,0:3|0:0,0:0:0:0:
250,203,236320,2,0,L|211:198,1,23.75,8|0,0:3|0:0,0:0:0:0:
362,166,236467,2,0,L|401:161,1,23.75,2|0,0:0|0:0,0:0:0:0:
362,166,236613,2,0,L|401:161,1,23.75,2|0,0:0|0:0,0:0:0:0:
178,145,236759,6,0,L|39:145,1,113.999996520996,6|0,1:2|1:0,0:0:0:0:
232,147,236979,1,0,1:0:0:0:
64,145,237052,2,0,L|203:145,1,113.999996520996,10|0,1:2|0:0,0:0:0:0:
428,131,237345,2,0,L|435:167,1,28.4999991302491,2|0,1:2|0:0,0:0:0:0:
312,211,237491,2,0,L|274:213,1,28.4999991302491,2|0,0:0|0:0,0:0:0:0:
487,188,237637,2,0,L|350:188,1,113.999996520996,10|2,1:2|0:0,0:0:0:0:
99,137,237930,5,0,1:0:0:0:
232,102,238076,2,0,L|233:147,1,28.4999991302491,2|0,0:0|0:0,0:0:0:0:
22,213,238223,2,0,L|158:210,1,113.999996520996,10|2,1:2|0:0,0:0:0:0:
350,168,238515,2,0,L|318:163,1,28.4999991302491,2|0,1:2|0:0,0:0:0:0:
207,91,238662,2,0,L|177:82,1,28.4999991302491,2|0,0:0|0:0,0:0:0:0:
381,88,238808,2,0,L|392:209,1,113.999996520996,10|2,1:2|0:2,0:0:0:0:
147,207,239101,6,0,L|185:201,1,28.4999991302491,2|0,1:2|0:0,0:0:0:0:
288,147,239247,2,0,L|296:195,1,28.4999991302491
104,215,239393,2,0,L|222:199,1,113.999996520996,10|0,1:2|0:0,0:0:0:0:
438,150,239686,2,0,L|397:142,1,28.4999991302491,2|0,1:2|0:0,0:0:0:0:
301,78,239832,2,0,L|302:111,1,28.4999991302491,2|0,0:0|0:0,0:0:0:0:
84,113,239979,2,0,L|125:105,1,28.4999991302491,10|0,1:2|0:0,0:0:0:0:
225,73,240125,2,0,L|225:112,1,28.4999991302491,2|0,0:0|0:0,0:0:0:0:
53,205,240271,6,0,L|182:199,1,113.999996520996,2|0,1:2|0:0,0:0:0:0:
397,203,240564,1,10,1:2:0:0:
166,199,240711,1,0,0:0:0:0:
424,114,240857,1,2,1:0:0:0:
306,139,240893,1,0,0:0:0:0:
306,139,241003,1,2,0:1:0:0:
424,116,241039,1,0,0:0:0:0:
424,114,241150,1,10,1:0:0:0:
306,139,241186,1,0,0:0:0:0:
306,139,241296,1,2,0:1:0:0:
424,116,241332,1,0,0:0:0:0:
251,190,241442,6,0,L|115:191,1,113.999996520996,6|0,1:2|1:0,0:0:0:0:
303,191,241662,1,0,1:0:0:0:
137,190,241735,2,0,L|273:191,1,113.999996520996,10|0,1:2|0:0,0:0:0:0:
22,244,242028,2,0,L|17:115,1,113.999996520996,2|2,1:2|0:0,0:0:0:0:
346,109,242320,2,0,L|306:104,1,28.4999991302491,10|0,1:2|0:0,0:0:0:0:
204,70,242467,2,0,L|198:109,1,28.4999991302491,2|0,0:0|0:0,0:0:0:0:
475,183,242613,6,0,L|349:182,1,113.999996520996,0|0,1:0|0:0,0:0:0:0:
107,190,242906,2,0,L|149:182,1,28.4999991302491,10|0,1:2|0:0,0:0:0:0:
246,113,243052,1,0,0:0:0:0:
29,141,243198,2,0,L|21:17,1,113.999996520996,0|2,1:0|0:2,0:0:0:0:
333,65,243491,2,0,L|371:61,1,28.4999991302491,10|0,1:2|0:0,0:0:0:0:
477,134,243637,1,0,0:0:0:0:
264,222,243784,6,0,L|394:216,1,113.999996520996,2|0,1:2|0:0,0:0:0:0:
162,108,244076,2,0,L|115:104,1,28.4999991302491,10|0,1:2|0:0,0:0:0:0:
24,48,244223,1,0,0:0:0:0:
305,85,244369,2,0,L|307:202,1,113.999996520996,2|2,1:2|0:2,0:0:0:0:
77,248,244662,2,0,L|121:237,1,28.4999991302491,10|0,1:2|0:0,0:0:0:0:
219,176,244808,2,0,L|221:228,1,28.4999991302491
426,243,244954,5,0,3:0:0:0:
214,251,245101,1,0,3:0:0:0:
426,243,245247,2,0,L|310:239,1,113.999996520996,10|2,3:2|0:2,0:0:0:0:
76,171,245540,2,0,L|71:35,1,113.999996520996,2|0,3:2|0:0,0:0:0:0:
300,71,245832,2,0,B|187:70|187:70|180:133,1,170.999994781494,8|0,0:0|0:0,0:0:0:0:
361,199,246125,6,0,L|488:195,1,113.999996520996,4|0,1:2|1:0,0:0:0:0:
299,168,246345,1,0,1:0:0:0:
474,195,246418,2,0,L|347:191,1,113.999996520996,10|0,1:2|0:0,0:0:0:0:
136,236,246711,1,0,1:0:0:0:
366,169,246857,2,0,L|287:158,1,56.9999982604981,2|0,0:1|0:0,0:0:0:0:
120,121,247003,1,8,1:2:0:0:
331,111,247150,1,2,0:1:0:0:
120,121,247296,6,2,L|193:111,1,56.9999982604981,4|0,1:0|0:0,0:1:0:0:
352,78,247442,2,0,L|425:74,1,56.9999982604981
247,219,247589,2,0,L|311:214,1,56.9999982604981,8|0,1:2|0:0,0:0:0:0:
240,154,247735,2,0,L|168:160,1,56.9999982604981
352,134,247881,6,0,L|359:195,1,56.9999982604981,0|0,1:0|0:0,0:0:0:0:
213,229,248028,2,0,L|204:149,1,56.9999982604981
66,146,248174,2,0,L|144:136,1,56.9999982604981,8|0,1:2|0:0,0:0:0:0:
198,112,248320,2,0,L|275:98,1,56.9999982604981
118,39,248467,6,0,L|3:60,1,113.999996520996,0|0,1:0|0:0,0:0:0:0:
341,94,248759,2,0,L|481:94,1,113.999996520996,8|0,1:2|0:0,0:0:0:0:
195,211,249052,1,0,1:0:0:0:
251,210,249125,1,0,0:0:0:0:
308,210,249198,1,0,0:0:0:0:
74,151,249345,2,0,L|60:23,1,113.999996520996,10|0,1:2|0:0,0:0:0:0:
317,211,249637,5,0,1:0:0:0:
260,210,249710,1,0,0:0:0:0:
203,210,249783,1,0,0:0:0:0:
439,192,249930,2,0,L|445:60,1,113.999996520996,8|2,1:2|0:0,0:0:0:0:
176,88,250223,1,2,1:0:0:0:
312,88,250259,1,0,0:0:0:0:
312,88,250369,1,2,0:1:0:0:
176,88,250405,1,0,0:0:0:0:
176,88,250515,1,10,1:1:0:0:
312,88,250551,1,0,0:0:0:0:
312,88,250661,1,2,0:1:0:0:
176,88,250697,1,0,0:0:0:0:
351,201,250808,6,0,L|478:201,1,113.999996520996,6|0,1:2|1:0,0:0:0:0:
293,160,251028,1,0,1:0:0:0:
465,201,251101,2,0,L|338:201,1,113.999996520996,10|0,1:0|0:0,0:0:0:0:
93,200,251393,6,0,L|168:194,1,56.9999982604981,2|0,1:0|0:0,0:0:0:0:
345,134,251540,2,0,L|424:129,1,56.9999982604981
242,100,251686,2,0,L|308:95,1,56.9999982604981,10|0,1:0|0:0,0:0:0:0:
137,52,251832,2,0,L|129:-12,1,56.9999982604981,2|2,0:1|0:0,0:0:0:0:
294,29,251979,6,2,L|225:22,1,56.9999982604981,2|0,1:0|0:0,1:0:0:0:
95,172,252125,2,0,L|157:170,1,56.9999982604981
335,172,252271,2,2,L|273:164,1,56.9999982604981,10|0,1:0|0:0,1:1:0:0:
451,126,252418,2,0,L|464:189,1,56.9999982604981
253,232,252564,6,0,L|315:224,1,56.9999982604981,0|0,1:0|0:0,0:0:0:0:
391,203,252711,2,0,L|454:187,1,56.9999982604981
226,93,252857,2,0,L|223:160,1,56.9999982604981,8|0,1:2|0:0,0:0:0:0:
295,92,253003,2,0,L|362:88,1,56.9999982604981,2|0,0:0|0:0,0:0:0:0:
205,45,253150,6,0,L|76:48,1,113.999996520996,0|0,1:0|0:0,0:0:0:0:
241,146,253369,1,0,1:0:0:0:
91,47,253442,2,0,L|220:50,1,113.999996520996,8|0,1:0|0:0,0:0:0:0:
410,127,253662,6,0,L|296:120,1,113.999996520996,0|0,1:2|1:0,0:0:0:0:
119,113,253881,2,0,L|179:99,1,56.9999982604981,0|0,1:0|0:0,0:0:0:0:
379,74,254028,2,0,L|308:67,1,56.9999982604981,8|0,1:2|0:0,0:0:0:0:
136,48,254174,2,0,L|70:44,1,56.9999982604981,0|0,1:2|0:0,0:0:0:0:
407,52,254320,6,0,L|410:187,1,113.999996520996,0|0,1:0|0:0,0:0:0:0:
66,56,254613,2,0,L|60:190,1,113.999996520996,0|0,1:0|0:0,0:0:0:0:
447,30,254906,2,0,L|456:157,1,113.999996520996,0|0,1:0|0:0,0:0:0:0:
33,150,255198,1,8,0:2:0:0:
444,204,255491,6,0,L|340:197,1,95,0|0,3:0|1:0,0:0:0:0:
126,229,255784,2,0,L|180:223,1,47.5,10|0,1:2|0:0,0:0:0:0:
333,210,255930,2,0,L|273:199,1,47.5
108,157,256076,2,0,L|166:134,1,47.5,2|0,1:2|0:0,0:0:0:0:
219,119,256223,2,0,L|159:103,1,47.5
326,91,256369,2,0,L|441:87,1,95,8|0,1:2|0:0,0:0:0:0:
208,262,256662,6,0,B|219:164|219:164|347:158,1,213.750008153916,2|0,1:2|0:0,0:0:0:0:
190,76,256954,2,0,L|115:66,1,56.9999982604981,10|0,1:2|0:0,0:0:0:0:
210,144,257101,2,0,L|278:144,1,56.9999982604981
119,186,257247,2,0,L|187:181,1,56.9999982604981,2|0,1:2|0:0,0:0:0:0:
362,180,257393,2,0,L|294:166,1,56.9999982604981,2|0,0:0|0:0,0:0:0:0:
449,122,257540,2,0,L|457:188,1,56.9999982604981,10|0,1:2|0:0,0:0:0:0:
301,262,257686,2,0,L|376:251,1,56.9999982604981
206,202,257832,6,0,L|326:193,1,113.999996520996,2|2,1:2|0:0,0:0:0:0:
99,192,258125,2,0,P|43:164|108:118,1,170.999994781494,10|0,1:2|0:0,0:0:0:0:
325,181,258418,2,0,L|266:172,1,56.9999982604981,2|0,1:2|0:0,0:0:0:0:
195,122,258564,2,0,L|132:110,1,56.9999982604981
344,114,258711,2,0,L|469:108,1,113.999996520996,8|2,1:2|0:0,0:0:0:0:
229,249,259003,6,0,P|181:237|239:173,1,170.999994781494,2|0,1:2|0:0,0:0:0:0:
455,206,259296,2,0,L|330:200,1,113.999996520996,8|2,1:0|1:2,0:0:0:0:
82,194,259589,2,0,L|155:186,1,56.9999982604981,2|0,0:0|0:0,0:0:0:0:
227,179,259735,2,0,L|166:167,1,56.9999982604981,2|0,1:2|0:0,0:0:0:0:
351,145,259881,2,0,P|391:153|416:236,1,113.999996520996,10|0,1:2|0:0,0:0:0:0:
80,258,260174,6,0,L|153:248,1,56.9999982604981,6|0,1:2|0:0,0:0:0:0:
289,238,260320,2,0,L|217:223,1,56.9999982604981,0|0,1:0|0:0,0:0:0:0:
401,207,260467,2,0,L|331:188,1,56.9999982604981,10|0,1:2|0:0,0:0:0:0:
202,161,260613,2,0,L|263:150,1,56.9999982604981
119,70,260759,2,0,P|78:73|44:142,1,113.999996520996,2|0,1:2|0:0,0:0:0:0:
365,148,261052,2,0,L|304:139,1,56.9999982604981,10|0,1:2|0:0,0:0:0:0:
226,111,261198,2,0,L|157:101,1,56.9999982604981
387,96,261345,6,0,L|250:101,1,113.999996520996,2|0,1:2|0:0,0:0:0:0:
477,96,261637,2,0,L|491:158,1,56.9999982604981,10|0,1:2|0:0,0:0:0:0:
419,175,261784,2,0,L|475:160,1,56.9999982604981
299,137,261930,2,0,L|225:132,1,56.9999982604981,2|0,1:2|0:0,0:0:0:0:
71,103,262076,2,0,L|152:94,1,56.9999982604981,2|0,0:0|0:0,0:0:0:0:
342,120,262223,2,0,L|203:122,1,113.999996520996,10|0,1:2|0:0,0:0:0:0:
444,94,262515,6,0,P|489:115|431:190,1,170.999994781494,2|0,1:2|0:0,0:0:0:0:
276,242,262808,2,0,L|390:234,1,113.999996520996,8|2,1:2|0:0,0:0:0:0:
168,189,263101,2,0,L|292:183,1,113.999996520996,2|2,1:2|0:0,0:0:0:0:
66,155,263393,2,0,P|15:133|75:65,1,170.999994781494,10|0,1:2|0:0,0:0:0:0:
348,113,263686,6,0,L|227:103,1,113.999996520996,2|0,3:2|0:0,0:0:0:0:
464,256,263979,2,0,L|327:248,1,113.999996520996,8|2,3:2|0:0,0:0:0:0:
129,172,264271,1,2,3:2:0:0:
400,172,264418,1,0,0:0:0:0:
76,235,264564,2,0,L|71:95,1,113.999996520996,8|0,0:3|0:0,0:0:0:0:
392,167,264857,6,0,L|329:160,1,56.9999982604981,2|0,1:2|0:0,0:0:0:0:
200,135,265003,2,0,L|265:131,1,56.9999982604981,2|0,1:2|0:0,0:0:0:0:
81,107,265150,2,0,L|161:103,1,56.9999982604981,10|0,1:2|0:0,0:0:0:0:
275,95,265296,2,0,L|205:85,1,56.9999982604981
381,80,265442,2,0,P|463:98|477:176,1,170.999994781494,2|0,1:2|0:0,0:0:0:0:
276,219,265735,2,0,L|357:210,1,56.9999982604981,10|0,1:2|0:0,0:0:0:0:
422,195,265881,2,0,L|499:185,1,56.9999982604981
275,126,266028,6,0,P|216:120|161:215,1,170.999994781494,2|0,1:2|0:0,0:0:0:0:
373,240,266320,2,0,L|296:230,1,56.9999982604981,10|0,1:2|0:0,0:0:0:0:
229,183,266467,2,0,L|156:170,1,56.9999982604981
436,162,266613,2,0,L|362:154,1,56.9999982604981,2|0,1:2|0:0,0:0:0:0:
217,127,266759,2,0,L|292:123,1,56.9999982604981,2|0,0:0|0:0,0:0:0:0:
464,105,266906,2,0,L|383:93,1,56.9999982604981,10|0,1:2|0:0,0:0:0:0:
220,78,267052,2,0,L|296:72,1,56.9999982604981
136,77,267198,6,0,L|3:74,1,113.999996520996,2|2,1:2|0:2,0:0:0:0:
265,199,267491,2,0,P|206:197|131:283,1,170.999994781494,10|0,1:2|0:0,0:0:0:0:
322,293,267784,2,0,L|191:292,1,113.999996520996,2|0,1:2|0:0,0:0:0:0:
494,275,268076,2,0,L|494:146,1,113.999996520996,10|2,1:2|0:0,0:0:0:0:
230,170,268369,6,0,L|408:152,1,170.999994781494,0|0,3:0|0:0,0:0:0:0:
202,81,268662,2,0,L|84:79,1,113.999996520996,0|0,3:0|0:0,0:0:0:0:
393,183,268954,2,0,L|313:172,1,56.9999982604981,0|0,3:0|0:0,0:0:0:0:
183,141,269101,2,0,L|255:134,1,56.9999982604981
449,145,269247,2,0,P|475:186|397:269,1,170.999994781494,8|0,3:2|0:0,0:0:0:0:
124,237,269540,6,0,L|204:226,1,56.9999982604981,2|0,1:2|0:0,0:0:0:0:
329,194,269686,2,0,L|402:189,1,56.9999982604981,2|0,0:0|0:0,0:0:0:0:
199,145,269832,2,0,L|268:138,1,56.9999982604981,10|0,1:2|0:0,0:0:0:0:
96,140,269979,2,0,L|89:57,1,56.9999982604981,2|0,0:0|0:0,0:0:0:0:
271,74,270125,2,0,P|154:60|113:105,1,170.999994781494,2|0,1:2|0:0,0:0:0:0:
354,189,270418,2,0,L|277:181,1,56.9999982604981,10|0,1:2|0:0,0:0:0:0:
136,126,270564,2,0,L|206:114,1,56.9999982604981,2|0,0:0|0:0,0:0:0:0:
413,123,270711,6,0,L|293:123,1,113.999996520996,2|2,1:2|0:0,0:0:0:0:
82,241,271003,2,0,L|161:228,1,56.9999982604981,10|0,1:2|0:0,0:0:0:0:
215,210,271150,2,0,L|290:199,1,56.9999982604981,2|0,0:0|0:0,0:0:0:0:
59,154,271296,2,0,L|53:84,1,56.9999982604981,2|0,1:2|0:0,0:0:0:0:
212,93,271442,2,0,L|131:86,1,56.9999982604981,2|0,0:0|0:0,0:0:0:0:
314,110,271589,2,0,L|386:110,1,56.9999982604981,10|0,1:2|0:0,0:0:0:0:
197,254,271735,2,0,L|263:244,1,56.9999982604981,2|0,0:0|0:0,0:0:0:0:
20,170,271881,6,0,L|21:94,1,56.9999982604981,2|0,1:2|0:0,0:0:0:0:
179,106,272028,2,0,L|185:37,1,56.9999982604981,2|2,0:0|0:0,0:0:0:0:
339,182,272174,2,0,L|340:106,1,56.9999982604981,10|0,1:2|0:0,0:0:0:0:
498,122,272321,2,0,L|504:53,1,56.9999982604981,2|0,0:2|0:0,0:0:0:0:
333,106,272467,2,0,L|327:37,1,56.9999982604981,2|0,1:2|0:0,0:0:0:0:
173,182,272613,2,0,L|172:106,1,56.9999982604981,2|0,0:2|0:0,0:0:0:0:
18,124,272759,2,0,L|11:4,1,113.999996520996,10|2,1:2|0:0,0:0:0:0:
18,124,273052,6,0,L|125:213,1,113.999996520996,8|0,0:3|0:0,0:0:0:0:
18,124,273345,2,0,L|125:213,1,113.999996520996,8|0,0:3|0:0,0:0:0:0:
18,124,273637,2,0,L|125:213,1,113.999996520996,8|0,0:3|0:0,0:0:0:0:
18,124,273930,2,0,P|16:63|34:-47,1,170.999994781494
306,150,274223,6,0,L|198:148,1,95,0|0,1:0|1:0,0:0:0:0:
370,150,274442,1,0,1:0:0:0:
211,148,274515,2,0,L|95:147,1,95,8|2,1:2|0:0,0:0:0:0:
369,226,274808,1,0,0:0:0:0:
76,218,274954,2,0,L|173:215,2,95,2|8|2,0:1|1:2|0:0,0:0:0:0:
349,188,275393,6,2,L|433:191,1,56.9999982604981,0|0,1:0|0:0,1:1:0:0:
246,115,275540,2,0,L|177:111,1,56.9999982604981
339,88,275686,2,0,L|409:90,1,56.9999982604981,8|0,1:2|0:0,0:0:0:0:
339,88,275832,2,0,L|262:89,1,56.9999982604981
462,132,275979,2,0,L|390:127,1,56.9999982604981,0|0,1:0|0:0,0:0:0:0:
219,137,276125,2,0,L|143:134,1,56.9999982604981
354,167,276271,2,0,L|475:164,1,113.999996520996,8|0,1:2|0:0,0:0:0:0:
211,238,276564,6,0,L|207:113,1,113.999996520996,0|2,1:0|0:0,0:0:0:0:
480,115,276857,2,0,L|366:112,1,95,8|2,1:2|0:0,0:0:0:0:
91,177,277150,2,0,L|89:71,1,95,0|2,1:0|0:0,0:0:0:0:
328,78,277442,2,0,L|440:79,1,95,8|2,1:2|0:0,0:0:0:0:
185,166,277735,6,0,L|184:57,1,95,0|2,1:0|0:0,0:0:0:0:
416,71,278028,1,8,1:2:0:0:
189,57,278174,1,2,0:0:0:0:
415,166,278320,2,0,L|416:57,1,95,0|0,1:0|0:2,0:0:0:0:
184,71,278613,1,8,1:2:0:0:
411,57,278759,1,0,0:2:0:0:
157,197,278906,6,0,L|43:193,1,95,0|0,1:0|1:0,0:0:0:0:
233,204,279125,1,0,1:0:0:0:
62,193,279198,2,0,L|173:196,1,95,10|0,1:0|0:0,0:0:0:0:
400,193,279491,2,0,L|336:191,1,47.5,2|0,1:0|0:0,0:0:0:0:
184,120,279637,2,0,L|130:116,1,47.5
341,102,279784,2,0,L|271:97,1,47.5,10|0,1:0|0:0,0:0:0:0:
106,65,279930,2,0,L|165:63,1,47.5,2|2,0:1|0:0,0:0:0:0:
316,186,280076,6,0,L|248:185,1,47.5,2|0,3:1|0:0,0:0:0:0:
447,158,280223,2,0,L|450:222,1,47.5
277,263,280369,2,2,L|344:260,1,47.5,8|0,1:2|0:0,1:1:0:0:
177,131,280515,1,0,0:0:0:0:
134,112,280588,1,0,0:0:0:0:
93,131,280661,1,0,1:2:0:0:
81,176,280734,1,0,0:0:0:0:
107,214,280807,1,0,0:0:0:0:
153,219,280880,1,0,0:0:0:0:
374,191,280954,2,0,L|307:188,1,47.5,8|0,1:2|0:0,0:0:0:0:
144,125,281101,2,0,L|88:123,1,47.5
240,111,281247,6,0,L|307:110,1,47.5,0|0,1:2|0:0,0:0:0:0:
216,52,281393,2,0,L|164:50,1,47.5,0|0,1:0|0:0,0:0:0:0:
386,66,281540,2,0,L|496:70,1,95,10|0,1:2|0:0,0:0:0:0:
220,220,281832,2,0,L|110:216,1,95,2|0,1:2|0:0,0:0:0:0:
390,147,282125,2,0,L|392:263,1,95,10|0,1:2|0:0,0:0:0:0:
245,244,282345,1,0,1:0:0:0:
391,241,282418,6,0,L|280:241,1,95,0|2,1:0|0:0,0:0:0:0:
41,181,282711,2,0,L|32:74,1,95,8|2,1:2|0:0,0:0:0:0:
168,92,283003,2,0,L|57:89,1,95,0|2,1:2|1:2,0:0:0:0:
345,93,283296,2,0,L|449:94,1,95,10|0,1:2|1:0,0:0:0:0:
196,198,283589,6,0,L|91:194,1,95,4|2,1:2|1:2,0:0:0:0:
239,134,283808,1,2,1:2:0:0:
376,157,283881,2,0,L|479:156,1,95,10|2,1:2|0:0,0:0:0:0:
231,272,284174,2,0,L|343:268,1,95,2|2,1:2|0:1,0:0:0:0:
278,215,284393,1,0,0:0:0:0:
132,172,284467,2,0,L|66:173,1,56.9999982604981,10|0,3:2|0:0,0:0:0:0:
251,152,284613,2,0,L|325:153,1,56.9999982604981,2|0,0:0|0:0,0:0:0:0:
150,49,284759,5,4,1:0:0:0:
94,43,284832,1,0,0:0:0:0:
61,85,284905,1,0,0:0:0:0:
79,136,284978,1,0,0:0:0:0:
311,119,285052,2,0,L|236:120,1,56.9999982604981,8|0,1:2|0:0,0:0:0:0:
96,75,285198,2,0,L|29:75,1,56.9999982604981
297,80,285345,2,0,L|413:81,1,113.999996520996,0|0,1:0|0:0,0:0:0:0:
176,201,285637,2,0,L|296:201,1,113.999996520996,8|0,1:2|0:0,0:0:0:0:
51,163,285930,6,0,L|49:46,1,113.999996520996,0|2,1:0|0:0,0:0:0:0:
300,94,286223,2,0,L|182:91,1,113.999996520996,8|2,1:2|0:0,0:0:0:0:
460,198,286515,2,0,L|463:83,1,113.999996520996,0|2,1:2|0:0,0:0:0:0:
254,111,286808,2,0,L|254:-11,1,113.999996520996,8|2,3:2|0:0,0:0:0:0:
37,83,287101,6,0,L|35:-33,1,113.999996520996,0|2,1:0|0:0,0:0:0:0:
256,111,287393,2,0,L|257:-8,1,113.999996520996,8|2,3:1|0:0,0:0:0:0:
479,143,287686,2,0,L|483:22,1,113.999996520996,0|2,1:2|0:0,0:0:0:0:
253,112,287979,2,0,L|255:-7,1,113.999996520996,8|2,1:2|0:0,0:0:0:0:
21,82,288271,6,0,L|22:-33,1,113.999996520996,4|2,1:2|1:2,0:0:0:0:
165,86,288491,1,2,1:2:0:0:
309,181,288564,2,0,L|434:180,1,113.999996520996,10|2,1:0|0:2,0:0:0:0:
168,182,288857,2,2,L|101:183,1,56.9999982604981,2|0,1:0|0:0,1:0:0:0:
301,245,289003,2,0,L|364:245,1,56.9999982604981
197,192,289150,2,0,L|261:188,1,56.9999982604981,8|0,3:2|0:0,0:0:0:0:
445,186,289296,2,0,L|373:181,1,56.9999982604981,2|2,0:1|0:0,0:0:0:0:
149,117,289442,6,2,L|220:114,1,56.9999982604981,2|0,1:0|0:0,1:0:0:0:
276,116,289589,2,0,L|208:111,1,56.9999982604981
149,117,289735,2,2,L|220:114,1,56.9999982604981,8|0,1:2|0:0,0:1:0:0:
411,111,289881,1,0,0:0:0:0:
466,104,289954,1,0,0:0:0:0:
508,139,290027,1,0,1:0:0:0:
512,195,290100,1,0,0:0:0:0:
474,235,290173,1,0,0:0:0:0:
419,236,290246,1,0,0:0:0:0:
161,231,290320,2,0,L|231:226,1,56.9999982604981,8|0,1:2|0:0,0:0:0:0:
375,189,290467,2,0,L|449:181,1,56.9999982604981
187,105,290613,6,0,L|46:106,1,113.999996520996,10|0,3:0|0:0,0:0:0:0:
346,53,290906,2,0,L|474:52,1,113.999996520996,10|0,3:0|0:0,0:0:0:0:
139,221,291198,1,10,3:0:0:0:
378,225,291345,1,0,0:0:0:0:
78,176,291491,2,0,P|44:156|86:54,1,170.999994781494,0|0,3:0|0:0,0:0:0:0:
309,101,291784,6,0,L|224:177,1,95,4|0,1:0|0:0,0:0:0:0:
309,101,292076,2,0,L|224:177,1,95
383,64,292369,2,0,P|439:73|467:150,1,142.5,2|0,0:0|0:0,0:0:0:0:
417,175,292662,2,0,L|263:175,1,142.5
464,245,292954,6,0,L|468:131,1,95,0|0,1:0|1:0,0:0:0:0:
395,122,293174,1,0,1:0:0:0:
249,101,293247,2,0,L|136:103,1,95,8|0,1:3|0:0,0:0:0:0:
300,126,293540,2,0,L|302:226,1,95,0|0,1:0|0:0,0:0:0:0:
58,235,293832,2,0,L|156:229,1,95,8|0,1:3|0:0,0:0:0:0:
296,219,294125,6,0,L|299:112,1,95,0|0,1:0|0:0,0:0:0:0:
49,111,294418,2,0,L|46:6,1,95,8|0,1:3|0:0,0:0:0:0:
186,53,294711,2,0,L|81:53,1,95,0|0,1:0|0:0,0:0:0:0:
396,89,295003,2,0,L|397:193,1,95,8|0,1:3|0:0,0:0:0:0:
256,195,295296,5,0,1:0:0:0:
396,183,295442,1,0,1:0:0:0:
175,147,295589,2,0,L|74:147,1,95,8|0,1:3|0:0,0:0:0:0:
213,129,295881,2,0,L|318:129,1,95,0|0,1:0|0:0,0:0:0:0:
71,201,296174,2,0,L|69:88,1,95,8|0,1:3|0:0,0:0:0:0:
140,90,296393,1,0,1:0:0:0:
337,200,296467,6,0,L|435:198,1,95,0|0,1:0|0:0,0:0:0:0:
186,165,296759,2,0,L|185:63,1,95,8|0,1:3|0:0,0:0:0:0:
327,69,297052,1,0,1:0:0:0:
185,70,297198,1,0,1:0:0:0:
457,90,297345,2,0,L|457:206,1,95,8|0,1:3|1:0,3:0:0:0:
320,249,297637,5,0,1:0:0:0:
461,253,297784,1,0,1:0:0:0:
392,250,297857,1,0,1:0:0:0:
178,173,297930,2,0,L|76:174,1,95,8|0,1:3|0:0,0:0:0:0:
219,156,298223,2,0,L|323:155,1,95,0|0,1:0|0:0,0:0:0:0:
72,135,298515,2,0,L|71:27,1,95,8|0,1:3|0:0,0:0:0:0:
216,62,298808,6,0,L|114:58,1,95,0|0,1:0|0:0,0:0:0:0:
423,79,299101,2,0,L|424:180,1,95,8|0,1:3|0:0,0:0:0:0:
289,208,299393,2,0,L|176:207,1,95,0|0,1:0|0:0,0:0:0:0:
474,134,299686,2,0,L|475:241,1,95,8|0,1:3|0:0,0:0:0:0:
333,267,299979,5,0,1:0:0:0:
477,274,300125,1,0,1:0:0:0:
210,197,300271,2,0,L|99:198,1,95,8|0,1:3|0:0,0:0:0:0:
251,149,300564,2,0,L|252:50,1,95,0|0,1:0|0:0,0:0:0:0:
23,75,300857,2,0,L|24:183,1,95,8|0,1:3|0:0,0:0:0:0:
94,180,301076,1,0,1:0:0:0:
290,214,301150,6,0,L|397:212,1,95,0|0,1:0|0:0,0:0:0:0:
253,150,301442,2,0,L|254:50,1,95,8|0,1:3|0:0,0:0:0:0:
392,54,301735,1,0,1:0:0:0:
254,42,301881,1,0,1:0:0:0:
484,74,302028,2,0,L|482:174,1,95,8|0,1:3|1:0,0:0:0:0:
173,249,302320,5,4,1:2:0:0:
