osu file format v14

[General]
AudioFilename: audio.mp3
AudioLeadIn: 0
PreviewTime: 159376
Countdown: 0
SampleSet: Soft
StackLeniency: 0.2
Mode: 0
LetterboxInBreaks: 0
WidescreenStoryboard: 1

[Editor]
Bookmarks: 178223
DistanceSpacing: 0.7
BeatDivisor: 8
GridSize: 32
TimelineZoom: 2

[Metadata]
Title:TAPIOCA
TitleUnicode:TAPIOCA
Artist:USAO
ArtistUnicode:USAO
Creator:Realazy
Version:FURY
Source:
Tags:corsace open 2020 semifinals sf tiebreaker tb regou hardstyle hardtek frenchcore electronic instrumental hardcore syndrome 13 tano*c records game super
BeatmapID:2633754
BeatmapSetID:1267298

[Difficulty]
HPDrainRate:5
CircleSize:4
OverallDifficulty:9
ApproachRate:9.6
SliderMultiplier:1.86
SliderTickRate:1

[Events]
//Background and Video events
0,0,"tapioca.jpg",0,0
//Break Periods
//Storyboard Layer 0 (Background)
//Storyboard Layer 1 (Fail)
//Storyboard Layer 2 (Pass)
//Storyboard Layer 3 (Foreground)
//Storyboard Layer 4 (Overlay)
//Storyboard Sound Samples

[TimingPoints]
272,292.682926829268,4,2,1,40,1,0
272,-133.333333333333,4,2,1,40,0,0
9637,-133.333333333333,4,2,1,50,0,0
9930,-200,4,2,1,50,0,0
10223,-181.818181818182,4,2,1,50,0,0
10515,-166.666666666667,4,2,1,50,0,0
10808,-153.846153846154,4,2,1,50,0,0
11101,-142.857142857143,4,2,1,50,0,0
11393,-133.333333333333,4,2,1,50,0,0
11686,-125,4,2,1,50,0,0
11979,-133.333333333333,4,2,1,50,0,0
12271,-125,4,2,1,50,0,0
12564,-117.647058823529,4,2,1,50,0,0
12857,-111.111111111111,4,2,1,50,0,0
13150,-105.263157894737,4,2,1,50,0,0
13442,-100,4,2,1,50,0,0
13735,-95.2380952380952,4,2,1,50,0,0
14028,-90.9090909090909,4,2,1,50,0,0
14320,-83.3333333333333,4,2,1,50,0,0
16662,-66.6666666666667,4,2,1,60,0,0
19003,-80,4,2,1,70,0,0
19515,-80,4,2,1,5,0,0
19589,-80,4,2,1,70,0,0
19808,-80,4,2,1,5,0,0
19882,-80,4,2,1,70,0,0
20101,-80,4,2,1,5,0,0
20175,-80,4,2,1,70,0,0
20393,-80,4,2,1,5,0,0
20467,-80,4,2,1,70,0,0
20686,-80,4,2,1,5,0,0
20760,-80,4,2,1,70,0,0
20979,-80,4,2,1,5,0,0
21053,-80,4,2,1,70,0,0
21271,-80,4,2,1,5,0,0
21345,-80,4,2,1,70,0,0
21564,-80,4,2,1,5,0,0
21638,-80,4,2,1,70,0,0
21857,-80,4,2,1,5,0,0
21931,-80,4,2,1,70,0,0
22150,-80,4,2,1,5,0,0
22224,-80,4,2,1,70,0,0
22442,-80,4,2,1,5,0,0
22516,-80,4,2,1,70,0,0
22735,-80,4,2,1,5,0,0
22809,-80,4,2,1,70,0,0
23028,-80,4,2,1,5,0,0
23101,-133.333333333333,4,2,1,70,0,0
23686,-79.9999999999999,4,2,1,70,0,0
24198,-80,4,2,1,5,0,0
24272,-80,4,2,1,70,0,0
24491,-80,4,2,1,5,0,0
24565,-80,4,2,1,70,0,0
24784,-80,4,2,1,5,0,0
24858,-80,4,2,1,70,0,0
25076,-80,4,2,1,5,0,0
25150,-80,4,2,1,70,0,0
25369,-80,4,2,1,5,0,0
25443,-80,4,2,1,70,0,0
25662,-80,4,2,1,5,0,0
25736,-80,4,2,1,70,0,0
25954,-80,4,2,1,5,0,0
26028,-80,4,2,1,70,0,0
26247,-80,4,2,1,5,0,0
26321,-80,4,2,1,70,0,0
26540,-80,4,2,1,5,0,0
26614,-80,4,2,1,70,0,0
26832,-80,4,2,1,5,0,0
26906,-80,4,2,1,70,0,0
27125,-80,4,2,1,5,0,0
27199,-80,4,2,1,70,0,0
27271,-80,4,2,1,5,0,0
27345,-80,4,2,1,70,0,0
27418,-80,4,2,1,5,0,0
27492,-80,4,2,1,70,0,0
27711,-80,4,2,1,5,0,0
27785,-80,4,2,1,70,0,0
27857,-80,4,2,1,5,0,0
27931,-80,4,2,1,70,0,0
28003,-80,4,2,1,5,0,0
28076,-50,4,2,1,70,0,0
28369,-80,4,2,1,70,0,0
28881,-80,4,2,1,5,0,0
28955,-80,4,2,1,70,0,0
29101,-57.1428571428571,4,2,1,80,0,0
30711,-80,4,2,1,70,0,0
31223,-80,4,2,1,5,0,0
31296,-80,4,2,1,70,0,0
31808,-80,4,2,1,5,0,0
31881,-80,4,2,1,70,0,0
32393,-80,4,2,1,5,0,0
32467,-200,4,2,1,50,0,0
33052,-80,4,2,1,70,0,0
33345,-57.1428571428571,4,2,1,80,0,0
33857,-57.1428571428571,4,2,1,5,0,0
33930,-57.1428571428571,4,2,1,80,0,0
34442,-57.1428571428571,4,2,1,5,0,0
34515,-57.1428571428571,4,2,1,80,0,0
35906,-57.1428571428571,4,2,1,5,0,0
35980,-57.1428571428571,4,2,1,70,0,0
36198,-57.1428571428571,4,2,1,5,0,0
36272,-57.1428571428571,4,2,1,70,0,0
36491,-57.1428571428571,4,2,1,5,0,0
36565,-57.1428571428571,4,2,1,70,0,0
36857,-133.333333333333,4,2,1,70,0,0
37735,-100,4,2,1,70,0,0
39125,-100,4,2,1,5,0,0
39198,-100,4,2,1,70,0,0
39418,-100,4,2,1,5,0,0
39491,-100,4,2,1,70,0,0
42345,-100,4,2,1,5,0,0
42418,-100,4,2,1,70,0,0
43808,-100,4,2,1,5,0,0
43881,-100,4,2,1,70,0,0
44101,-100,4,2,1,5,0,0
44174,-100,4,2,1,70,0,0
47101,-133.333333333333,4,2,2,50,0,0
55881,-79.9999999999999,4,2,2,50,0,0
56174,-200,4,2,1,70,0,0
56393,-200,4,2,1,5,0,0
56467,-117.647058823529,4,2,2,60,0,0
62247,-117.647058823529,4,2,2,5,0,0
62320,-117.647058823529,4,2,2,60,0,0
63491,-133.333333333333,4,2,2,60,0,0
63711,-133.333333333333,4,2,2,5,0,0
63784,-133.333333333333,4,2,2,60,0,0
64003,-133.333333333333,4,2,2,5,0,0
64076,-133.333333333333,4,2,2,60,0,0
64296,-133.333333333333,4,2,2,5,0,0
64369,-133.333333333333,4,2,2,60,0,0
65540,-66.6666666666667,4,2,1,70,0,0
65759,-66.6666666666667,4,2,1,5,0,0
65832,-86.9565217391302,4,2,1,80,0,0
69930,-76.9230769230769,4,2,1,80,0,0
70223,-153.846153846154,4,2,1,60,0,0
70442,-153.846153846154,4,2,1,5,0,0
70515,-86.9565217391305,4,2,1,80,0,0
74906,-57.1428571428571,4,2,1,80,0,0
75125,-57.1428571428571,4,2,1,5,0,0
75198,-80,4,2,1,80,0,0
75930,-50,4,2,1,90,0,0
77832,-80,4,2,1,80,0,0
79296,-66.6666666666667,4,2,1,80,0,0
79881,-80,4,2,1,80,0,0
80174,-50,4,2,1,90,0,0
80686,-50,4,2,1,5,0,0
80759,-50,4,2,1,90,0,0
81271,-50,4,2,1,5,0,0
81344,-50,4,2,1,90,0,0
82515,-79.9999999999999,4,2,1,80,0,0
84271,-200,4,2,1,80,0,0
84491,-200,4,2,1,5,0,0
84564,-57.1428571428571,4,2,1,80,0,0
85003,-66.6666666666667,4,2,1,80,0,0
85442,-200,4,2,1,80,0,0
85735,-222.222222222222,4,2,1,80,0,0
86028,-250,4,2,1,80,0,0
86467,-57.1428571428571,4,2,1,80,0,0
86576,-57.1428571428571,4,2,1,5,0,0
86613,-50,4,2,1,80,0,0
86832,-50,4,2,1,5,0,0
86906,-57.1428571428571,4,2,1,80,0,0
87345,-66.6666666666667,4,2,1,80,0,0
87784,-200,4,2,1,80,0,0
88076,-222.222222222222,4,2,1,80,0,0
88369,-250,4,2,1,80,0,0
88662,-66.6666666666667,4,2,1,80,0,0
89247,-57.1428571428571,4,2,1,80,0,0
89540,-66.6666666666667,4,2,1,80,0,0
90125,-200,4,2,1,80,0,0
90418,-222.222222222222,4,2,1,80,0,0
90711,-250,4,2,1,80,0,0
91150,-50,4,2,1,80,0,0
91515,-50,4,2,1,5,0,0
91589,-57.1428571428571,4,2,1,80,0,0
92028,-66.6666666666667,4,2,1,80,0,0
92467,-200,4,2,1,80,0,0
92759,-222.222222222222,4,2,1,80,0,0
93052,-250,4,2,1,80,0,0
93345,-240.384615384615,4,2,1,80,0,0
93564,-240.384615384615,4,2,1,5,0,0
93637,-80,4,2,1,80,0,0
93857,-80,4,2,1,5,0,0
93930,-66.6666666666667,4,2,1,80,0,0
94442,-66.6666666666667,4,2,1,5,0,0
94515,-66.6666666666667,4,2,1,80,0,0
94662,-50,4,2,1,90,0,0
96564,-66.6666666666667,4,2,1,80,0,0
96784,-66.6666666666667,4,2,1,5,0,0
96857,-66.6666666666667,4,2,1,80,0,0
97076,-66.6666666666667,4,2,1,5,0,0
97149,-66.6666666666667,4,2,1,80,0,0
97369,-66.6666666666667,4,2,1,5,0,0
97442,-66.6666666666667,4,2,1,80,0,0
97662,-66.6666666666667,4,2,1,5,0,0
97735,-66.6666666666667,4,2,1,80,0,0
97954,-66.6666666666667,4,2,1,5,0,0
98027,-66.6666666666667,4,2,1,80,0,0
98247,-66.6666666666667,4,2,1,5,0,0
98320,-66.6666666666667,4,2,1,80,0,0
98540,-66.6666666666667,4,2,1,5,0,0
98613,-66.6666666666667,4,2,1,80,0,0
98906,-50,4,2,1,90,0,0
99418,-50,4,2,1,5,0,0
99491,-50,4,2,1,90,0,0
100003,-50,4,2,1,5,0,0
100076,-50,4,2,1,90,0,0
101540,-66.6666666666667,4,2,1,80,0,0
101759,-66.6666666666667,4,2,1,5,0,0
101832,-66.6666666666667,4,2,1,80,0,0
102052,-66.6666666666667,4,2,1,5,0,0
102125,-100,4,2,1,80,0,0
102345,-100,4,2,1,5,0,0
102418,-100,4,2,1,80,0,0
102637,-66.6666666666667,4,2,1,5,0,0
102710,-66.6666666666667,4,2,1,80,0,0
103003,-133.333333333333,4,2,1,60,0,0
103296,-100,4,2,1,80,0,0
103515,-100,4,2,1,5,0,0
103589,-79.9999999999999,4,2,1,80,0,0
104028,-50,4,2,1,90,0,0
105930,-79.9999999999999,4,2,1,80,0,0
107979,-71.4285714285714,4,2,1,80,0,0
108564,-66.6666666666667,4,2,1,80,0,0
109150,-62.5,4,2,1,80,0,0
109735,-58.8235294117647,4,2,1,80,0,0
111491,-80,4,2,1,60,0,0
111711,-80,4,2,1,5,0,0
111784,-80,4,2,1,60,0,0
112662,-133.333333333333,4,2,1,80,0,0
112954,-133.333333333333,4,2,2,60,0,0
115589,-117.647058823529,4,2,2,60,0,0
116174,-100,4,2,2,60,0,0
116759,-117.647058823529,4,2,2,60,0,0
117345,-133.333333333333,4,2,1,60,0,0
117637,-133.333333333333,4,2,2,60,0,0
120857,-100,4,2,1,70,0,0
122028,-100,4,2,2,60,0,0
126711,-80,4,2,1,70,0,0
126857,-80,4,2,2,60,0,0
130223,-80,4,2,1,70,0,0
130442,-80,4,2,1,5,0,0
130515,-80,4,2,1,70,0,0
131393,-133.333333333333,4,2,1,60,0,0
132564,-117.647058823529,4,2,1,60,0,0
133735,-100,4,2,1,65,0,0
134906,-90.9090909090909,4,2,1,65,0,0
135491,-71.4285714285714,4,2,1,65,0,0
136076,-80,4,2,1,70,0,0
137247,-74.0740740740741,4,2,1,75,0,0
138418,-68.9655172413793,4,2,1,80,0,0
139589,-133.333333333333,4,2,1,80,0,0
139808,-133.333333333333,4,2,1,5,0,0
139881,-133.333333333333,4,2,1,60,0,0
140174,-399.999999999997,4,2,1,60,0,0
140467,-399.999999999997,4,2,1,5,0,0
140759,-66.6666666666667,4,2,1,90,0,1
142369,-100,4,2,1,90,0,1
143101,-66.6666666666667,4,2,1,90,0,1
145150,-133.333333333333,4,2,1,90,0,1
145442,-66.6666666666667,4,2,1,90,0,1
147784,-71.4285714285714,4,2,1,90,0,1
148954,-62.5,4,2,1,90,0,1
150125,-66.6666666666667,4,2,1,90,0,1
150857,-44.4444444444444,4,2,1,100,0,1
152467,-66.6666666666667,4,2,1,90,0,1
155101,-44.4444444444445,4,2,1,100,0,1
155613,-44.4444444444445,4,2,1,5,0,1
155686,-44.4444444444445,4,2,1,100,0,1
156198,-44.4444444444445,4,2,1,5,0,1
156271,-44.4444444444445,4,2,1,100,0,1
157150,-44.4444444444445,4,2,1,90,0,1
158320,-133.333333333333,4,2,1,90,0,1
159491,-400,4,2,1,80,0,0
159711,-400,4,2,1,5,0,0
159784,-66.6666666666667,4,2,1,90,0,1
161832,-57.1428571428571,4,2,1,90,0,1
163589,-100,4,2,1,90,0,1
164174,-66.6666666666667,4,2,1,90,0,1
164979,-66.6666666666667,4,2,1,5,0,1
165052,-66.6666666666667,4,2,1,90,0,1
166515,-74.0740740740741,4,2,1,90,0,1
168857,-66.6666666666667,4,2,1,90,0,1
171198,-57.1428571428571,4,2,1,90,0,1
172954,-100,4,2,1,90,0,1
173540,-66.6666666666667,4,2,1,90,0,1
177052,-200,4,2,1,70,0,0
178223,-100,4,2,1,70,0,0
179393,-66.6666666666667,4,2,1,70,0,0
179650,-66.6666666666667,4,2,1,5,0,0
179686,-100,4,2,1,70,0,0
181698,-100,4,2,1,5,0,0
181735,-100,4,2,1,70,0,0
185832,-66.6666666666667,4,2,1,70,0,0
186125,-100,4,2,1,70,0,0
187881,-66.6666666666667,4,2,1,70,0,0
188759,-50,4,2,1,70,0,0
190515,-66.6666666666667,4,2,1,70,0,0
191028,-66.6666666666667,4,2,1,5,0,0
191101,-66.6666666666667,4,2,1,70,0,0
193662,-66.6666666666667,4,2,1,5,0,0
193735,-50,4,2,1,70,0,0
194613,-66.6666666666667,4,2,1,70,0,0
194906,-100,4,2,1,70,0,0
195491,-100,4,2,1,70,0,0
195784,-66.6666666666667,4,2,1,70,0,0
196076,-80,4,2,1,70,0,0
196369,-100,4,2,1,70,0,0
196954,-100,4,2,2,60,0,0
201198,-100,4,2,2,60,0,0
201345,-100,4,2,2,60,0,0
201491,-100,4,2,2,60,0,0
201637,-100,4,2,1,60,0,0
201929,-100,4,2,2,60,0,0
202442,-100,4,2,2,5,0,0
202515,-100,4,2,2,60,0,0
202735,-100,4,2,2,5,0,0
202808,-100,4,2,2,60,0,0
206174,-100,4,2,2,60,0,0
206320,-80,4,2,1,70,0,0
206612,-100,4,2,2,60,0,0
207125,-100,4,2,2,5,0,0
207198,-100,4,2,2,60,0,0
207418,-100,4,2,2,5,0,0
207491,-100,4,2,2,60,0,0
209467,-100,4,2,2,5,0,0
209540,-100,4,2,2,60,0,0
209759,-100,4,2,2,5,0,0
209832,-100,4,2,2,60,0,0
210417,-100,4,2,2,60,0,0
210564,-100,4,2,2,60,0,0
210711,-66.6666666666667,4,2,1,70,0,0
211296,-66.6666666666667,4,2,2,60,0,0
211589,-100,4,2,2,60,0,0
211735,-100,4,2,2,60,0,0
211808,-100,4,2,2,5,0,0
211881,-100,4,2,2,60,0,0
212101,-100,4,2,2,5,0,0
212174,-100,4,2,2,60,0,0
212759,-100,4,2,2,60,0,0
212906,-100,4,2,2,60,0,0
214515,-66.6666666666667,4,2,1,70,0,0
215686,-133.333333333333,4,2,1,50,0,0
215832,-133.333333333333,4,2,1,50,0,0
215979,-133.333333333333,4,2,1,50,0,0
216125,-133.333333333333,4,2,1,50,0,0
216271,-133.333333333333,4,2,1,50,0,0
216417,-133.333333333333,4,2,1,50,0,0
216564,-133.333333333333,4,2,1,50,0,0
216710,-133.333333333333,4,2,1,50,0,0
216857,-133.333333333333,4,2,1,50,0,0
217003,-133.333333333333,4,2,1,50,0,0
217150,-133.333333333333,4,2,1,50,0,0
217296,-133.333333333333,4,2,1,50,0,0
217442,-133.333333333333,4,2,1,50,0,0
217588,-133.333333333333,4,2,1,50,0,0
217735,-133.333333333333,4,2,1,50,0,0
217881,-133.333333333333,4,2,1,50,0,0
218028,-100,4,2,1,60,0,0
220076,-100,4,2,1,70,0,0
220369,-75.187969924812,4,2,1,70,0,0
223735,-75.187969924812,4,2,1,80,0,0
224174,-100,4,2,1,70,0,0
224467,-133.333333333333,4,2,1,60,0,0
224759,-75.187969924812,4,2,1,50,0,0
225052,-100,4,2,1,60,0,0
225344,-100,4,2,2,50,0,0
225637,-100,4,2,2,50,0,0
225784,-100,4,2,2,50,0,0
226442,-100,4,2,2,50,0,0
226515,-100,4,2,2,50,0,0
226808,-100,4,2,2,50,0,0
226954,-100,4,2,2,50,0,0
227393,-100,4,2,1,70,0,0
227686,-100,4,2,2,60,0,0
227978,-100,4,2,2,60,0,0
228125,-100,4,2,2,60,0,0
228710,-100,4,2,2,60,0,0
228857,-100,4,2,2,60,0,0
229003,-100,4,2,2,60,0,0
229149,-100,4,2,2,60,0,0
229296,-100,4,2,2,60,0,0
229442,-100,4,2,2,60,0,0
229735,-100,4,2,1,70,0,0
229881,-100,4,2,1,60,0,0
230906,-100,4,2,1,80,0,0
231052,-100,4,2,1,70,0,0
232076,-100,4,2,1,80,0,0
233393,-100,4,2,1,70,0,0
233540,-50,4,2,1,70,0,0
233832,-66.6666666666667,4,2,1,70,0,0
234344,-66.6666666666667,4,2,1,5,0,0
234418,-66.6666666666667,4,2,1,70,0,0
234711,-303.030303030303,4,2,2,50,0,0
236759,-66.6666666666667,4,2,1,90,0,1
239101,-50,4,2,1,90,0,1
239393,-66.6666666666667,4,2,1,90,0,1
240271,-50,4,2,1,90,0,1
240857,-66.6666666666667,4,2,3,100,0,1
240893,-66.6666666666667,4,2,3,30,0,1
241003,-66.6666666666667,4,2,3,100,0,1
241040,-66.6666666666667,4,2,3,30,0,1
241150,-66.6666666666667,4,2,3,100,0,1
241186,-66.6666666666667,4,2,3,30,0,1
241296,-66.6666666666667,4,2,3,100,0,1
241332,-66.6666666666667,4,2,3,30,0,1
241442,-66.6666666666667,4,2,1,90,0,1
242906,-50,4,2,1,90,0,1
243930,-66.6666666666667,4,2,1,90,0,1
245832,-66.6666666666667,4,2,1,80,0,1
245978,-66.6666666666667,4,2,1,80,0,1
246052,-66.6666666666667,4,2,1,5,0,1
246125,-66.6666666666667,4,2,1,90,0,1
247296,-44.4444444444445,4,2,1,100,0,1
248613,-66.6666666666667,4,2,1,100,0,1
248759,-66.6666666666667,4,2,1,90,0,1
250223,-66.6666666666667,4,2,3,100,0,1
250259,-66.6666666666667,4,2,3,30,0,1
250369,-66.6666666666667,4,2,3,100,0,1
250406,-66.6666666666667,4,2,3,30,0,1
250515,-66.6666666666667,4,2,3,100,0,1
250552,-66.6666666666667,4,2,3,30,0,1
250662,-66.6666666666667,4,2,3,100,0,1
250699,-66.6666666666667,4,2,3,30,0,1
250808,-66.6666666666667,4,2,1,90,0,1
251393,-66.6666666666667,4,2,1,100,0,1
252198,-66.6666666666667,4,2,1,5,0,1
252271,-44.4444444444445,4,2,1,100,0,1
253150,-44.4444444444445,4,2,1,90,0,1
253662,-66.6666666666667,4,2,1,90,0,1
254320,-50,4,2,1,90,0,1
254540,-66.6666666666667,4,2,1,5,0,1
254613,-66.6666666666667,4,2,1,90,0,1
254832,-66.6666666666667,4,2,1,5,0,1
254906,-83.3333333333333,4,2,1,90,0,1
255125,-66.6666666666667,4,2,1,5,0,1
255198,-66.6666666666667,4,2,1,90,0,1
255491,-90.9090909090909,4,2,1,70,0,0
268369,-400,4,2,1,70,0,0
269540,-90.9090909090909,4,2,1,70,0,0
274223,-66.6666666666667,4,2,1,80,0,0
275393,-44.4444444444445,4,2,1,90,0,0
276711,-66.6666666666667,4,2,1,80,0,0
279491,-66.6666666666667,4,2,1,90,0,0
280369,-44.4444444444445,4,2,1,90,0,0
281393,-44.4444444444445,4,2,1,80,0,0
281540,-100,4,2,1,80,0,0
281832,-133.333333333333,4,2,1,80,0,0
284759,-44.4444444444445,4,2,1,80,0,0
286076,-66.6666666666667,4,2,1,80,0,0
288857,-66.6666666666667,4,2,1,90,0,0
289735,-44.4444444444445,4,2,1,90,0,0
290613,-50,4,2,1,90,0,0
291491,-28.5714285714286,4,2,1,90,0,0
291784,-100,4,2,1,80,0,0
291857,-100,4,2,1,5,0,0
292369,-200,4,2,1,80,0,0
292954,-133.333333333333,4,2,1,60,0,0
310808,-400,4,2,1,60,0,0
311686,-400,4,2,1,5,0,0

[Colours]
Combo1 : 235,75,71
Combo2 : 227,111,224

[HitObjects]
13,107,272,5,0,1:0:0:0:
255,60,418,1,0,0:0:0:0:
248,61,491,1,0,0:0:0:0:
241,62,564,1,0,1:0:0:0:
165,77,857,1,0,1:0:0:0:
89,92,1150,1,0,1:0:0:0:
64,166,1442,1,0,1:0:0:0:
140,151,1735,1,0,1:0:0:0:
216,136,2028,1,0,1:0:0:0:
292,121,2320,1,0,1:0:0:0:
444,90,2613,5,0,1:0:0:0:
368,106,2759,1,0,1:0:0:0:
315,49,2906,1,0,1:0:0:0:
391,32,3198,1,0,1:0:0:0:
467,15,3491,1,0,1:0:0:0:
344,181,3711,1,0,1:0:0:0:
344,181,3784,1,0,1:0:0:0:
396,238,4076,1,0,1:0:0:0:
420,164,4369,1,0,1:0:0:0:
368,106,4515,1,0,1:0:0:0:
496,147,4662,1,0,1:0:0:0:
444,90,4808,1,0,1:0:0:0:
472,222,4954,1,0,1:0:0:0:
342,312,5101,5,0,1:0:0:0:
324,307,5174,1,0,1:0:0:0:
306,302,5247,2,0,L|239:282,1,69.7500026607514,8|0,1:3|0:0,0:0:0:0:
396,238,5540,1,0,1:0:0:0:
240,282,5832,2,0,L|206:220,1,69.7500026607514,8|0,1:3|0:0,0:0:0:0:
396,238,6125,1,0,1:0:0:0:
207,220,6418,2,0,L|227:153,1,69.7500026607514,8|0,1:3|0:0,0:0:0:0:
396,238,6711,1,0,1:0:0:0:
227,153,7003,2,0,L|288:119,1,69.7500026607514,8|0,1:3|0:0,0:0:0:0:
396,238,7296,1,0,1:0:0:0:
400,242,7442,1,0,1:0:0:0:
287,119,7589,6,0,L|220:98,1,69.7500026607514,8|0,1:3|0:0,0:0:0:0:
0,11,7881,1,0,1:0:0:0:
220,98,8174,2,0,L|158:131,1,69.7500026607514,8|0,1:3|0:0,0:0:0:0:
4,15,8393,1,0,1:0:0:0:
4,15,8467,1,0,1:0:0:0:
158,130,8759,2,0,L|137:197,1,69.7500026607514,8|0,1:3|0:0,0:0:0:0:
4,15,9052,1,0,1:0:0:0:
8,19,9198,1,0,1:0:0:0:
137,196,9345,1,8,1:3:0:0:
141,200,9491,1,0,1:0:0:0:
284,44,9637,5,4,1:0:0:0:
391,79,9784,1,0,1:0:0:0:
409,75,9857,1,0,1:0:0:0:
427,71,9930,2,0,L|381:62,1,46.5,8|0,1:3|0:0,0:0:0:0:
284,44,10223,2,0,L|233:34,1,51.1500015609742,0|0,1:0|0:0,0:0:0:0:
137,16,10515,2,0,L|81:5,1,55.7999982971192,8|0,1:3|0:0,0:0:0:0:
19,89,10808,2,0,L|78:100,1,60.4499972328187,0|0,1:0|0:0,0:0:0:0:
176,119,11101,2,0,L|239:130,1,65.0999980133057,8|0,1:3|0:0,0:0:0:0:
338,150,11393,2,0,L|406:162,1,69.7500026607514,0|0,1:0|0:0,0:0:0:0:
500,286,11686,1,8,1:3:0:0:
497,293,11759,1,0,0:0:0:0:
493,300,11832,1,0,0:0:0:0:
491,307,11906,1,0,0:0:0:0:
488,313,11979,5,0,1:0:0:0:
472,203,12125,1,0,1:0:0:0:
455,93,12271,2,0,L|381:79,1,74.4,8|0,1:3|0:0,0:0:0:0:
247,61,12564,2,0,L|195:121,1,79.0500015077591,0|0,1:0|0:0,0:0:0:0:
115,225,12857,2,0,L|142:303,1,83.6999974456788,8|0,1:3|0:0,0:0:0:0:
7,359,13076,1,0,1:0:0:0:
0,351,13150,6,0,L|79:365,1,88.3499976408005,0|0,1:0|0:0,0:0:0:0:
214,384,13442,2,0,L|274:313,1,93,8|0,1:3|0:0,0:0:0:0:
346,220,13735,1,0,1:0:0:0:
313,127,13881,1,0,1:0:0:0:
274,313,14028,1,8,1:3:0:0:
241,220,14174,2,0,L|233:195,2,25.5750007804871,0|0|0,1:0|0:0|0:0,0:0:0:0:
269,298,14320,5,0,1:0:0:0:
451,220,14467,1,0,1:0:0:0:
451,220,14540,1,0,1:0:0:0:
451,220,14613,1,8,1:3:0:0:
379,313,14759,1,0,0:0:0:0:
470,223,14906,1,0,1:0:0:0:
383,334,15052,1,0,0:0:0:0:
489,226,15198,1,8,1:3:0:0:
387,355,15345,1,0,0:0:0:0:
215,153,15491,5,0,1:0:0:0:
269,298,15637,1,0,0:0:0:0:
188,147,15784,1,8,1:3:0:0:
255,322,15930,1,0,0:0:0:0:
163,144,16076,1,0,1:0:0:0:
243,348,16223,1,0,0:0:0:0:
138,141,16369,1,8,1:3:0:0:
231,374,16515,1,0,0:0:0:0:
345,200,16662,6,0,P|376:183|410:178,1,69.7500026607514,8|0,1:3|0:0,0:0:0:0:
512,195,16808,1,0,1:0:0:0:
332,213,16954,6,0,P|302:194|281:167,1,69.7500026607514,8|0,1:3|0:0,0:0:0:0:
244,71,17101,1,0,0:0:0:0:
349,217,17247,6,0,P|348:251|335:283,1,69.7500026607514,8|0,1:3|0:0,0:0:0:0:
270,365,17393,1,0,0:0:0:0:
161,183,17540,5,0,1:3:0:0:
161,183,17686,1,0,0:0:0:0:
161,183,17832,2,0,B|171:197|171:197|171:215|171:215|161:200|161:200|161:183,1,69.7500026607514,0|0,3:0|0:0,0:0:0:0:
160,184,19003,6,0,B|174:127,1,58.125,4|0,3:1|0:0,0:0:0:0:
103,107,19150,2,0,B|88:163,1,58.125,4|0,3:1|0:0,0:0:0:0:
76,242,19296,2,0,B|253:205,1,174.375,0|0,3:0|0:0,1:0:0:0:
308,317,19589,2,0,B|325:270|325:270|447:243,1,174.375,0|0,3:0|0:0,1:0:0:0:
498,154,19881,2,0,B|436:166|436:166|459:38,1,174.375,0|0,3:0|0:0,1:0:0:0:
336,50,20174,6,0,B|279:54|279:54|242:106|242:106|188:111,1,174.375,0|0,3:0|0:0,1:0:0:0:
85,28,20467,2,0,B|23:19|23:19|14:66|14:66|77:76,1,174.375,0|0,3:0|0:0,1:0:0:0:
205,22,20759,2,0,B|254:44|254:44|271:105|271:105|322:129,1,174.375,0|0,3:0|0:0,1:0:0:0:
455,57,21052,2,0,B|450:27|450:27|433:19|433:19|449:143,1,174.375,0|0,3:0|0:0,1:0:0:0:
492,298,21345,6,0,B|425:288|425:288|407:266|407:266|329:255,1,174.375,0|0,3:0|0:0,1:0:0:0:
281,320,21637,2,0,B|253:330|253:330|366:364|366:364|346:335,1,174.375,0|0,3:0|0:0,1:0:0:0:
321,244,21930,2,0,B|273:238|273:238|239:251|239:251|209:232|209:232|153:226,1,174.375,0|0,3:0|0:0,1:0:0:0:
25,321,22223,2,0,B|-25:363|-25:363|104:316,1,203.4375,0|0,3:0|0:0,1:0:0:0:
170,145,22515,6,0,B|198:119|198:119|296:126|296:126|316:157,1,174.375,0|0,3:0|0:0,1:0:0:0:
308,264,22808,2,0,B|280:290|280:290|182:283|182:283|161:251,1,174.375,0|0,3:0|0:0,1:0:0:0:
471,88,23101,6,0,P|486:57|483:23,1,69.7500026607514,8|0,0:3|0:0,0:0:0:0:
394,71,23393,2,0,P|391:37|405:6,1,69.7500026607514,8|0,0:3|0:0,0:0:0:0:
490,351,23686,6,0,B|471:292,1,58.125,4|0,3:1|0:0,0:0:0:0:
421,378,23832,2,0,B|399:318,1,58.125,0|0,3:0|0:0,0:0:0:0:
308,264,23979,6,0,B|250:268|250:268|203:231|203:231|146:236,1,174.375,0|0,3:0|0:0,1:0:0:0:
12,329,24271,2,0,B|4:362|4:362|108:333|108:333|85:310,1,174.375,0|0,3:0|0:0,1:0:0:0:
8,146,24564,2,0,B|0:113|0:113|104:142|104:142|81:164,1,174.375,0|0,3:0|0:0,1:0:0:0:
146,235,24857,6,0,B|186:194|186:194|301:211,1,174.375,0|0,3:0|0:0,1:0:0:0:
422,55,25150,2,0,B|405:12|405:12|385:139,1,174.375,0|0,3:0|0:0,1:0:0:0:
332,290,25442,2,0,B|376:274|376:274|396:148,1,174.375,0|0,3:0|0:0,1:0:0:0:
309,50,25735,2,0,B|231:56|231:56|215:69|215:69|140:77,1,174.375,0|0,3:0|0:0,1:0:0:0:
49,119,26028,6,0,B|18:99|18:99|31:4|31:4|41:44,1,174.375,0|0,3:0|0:0,1:0:0:0:
76,232,26320,2,0,B|25:301|25:301|66:223,1,174.375,0|0,3:0|0:0,1:0:0:0:
133,157,26613,2,0,B|189:152|189:152|237:189|237:189|294:184,1,174.375,0|0,3:0|0:0,1:0:0:0:
427,78,26906,2,0,B|443:29|443:29|375:6|375:6|357:52,1,174.375,0|0,3:0|0:0,1:0:0:0:
395,218,27198,6,0,P|407:244|427:266,1,58.125,0|0,3:0|0:0,0:0:0:0:
205,242,27345,2,0,P|199:270|186:296,1,58.125,0|0,3:0|0:0,0:0:0:0:
295,184,27491,2,0,L|316:357,1,174.375,8|0,3:3|0:0,1:0:0:0:
427,266,27784,6,0,P|452:279|481:283,1,58.125,0|0,3:0|0:0,0:0:0:0:
186,296,27930,2,0,P|164:314|137:326,1,58.125,0|0,3:0|0:0,0:0:0:0:
295,184,28076,2,0,B|305:160|289:140|289:140|279:162|295:184,1,93,8|0,3:2|0:0,0:0:0:0:
295,184,28369,6,0,L|237:172,1,58.125,0|0,3:0|0:0,0:0:0:0:
165,205,28515,2,0,L|132:156,1,58.125,0|0,3:0|0:0,0:0:0:0:
59,127,28662,2,0,B|70:67|70:67|183:48,1,174.375,8|0,3:2|0:0,1:0:0:0:
181,48,28954,1,0,3:0:0:0:
305,171,29101,6,0,P|331:140|368:123,1,81.3750007760525,2|0,0:1|0:0,0:0:0:0:
487,186,29247,1,8,3:2:0:0:
294,183,29393,6,0,P|326:209|342:246,1,81.3750007760525,2|0,0:1|0:0,0:0:0:0:
291,370,29540,2,2,B|79:325|79:325|60:263|2:259,4,325.50000310421,0|8|0|8|0,3:0|3:2|3:0|3:2|3:0,1:0:0:0:
418,286,30857,1,0,0:0:0:0:
447,98,31003,6,0,P|398:165|316:156,1,174.375,8|0,3:2|0:0,1:0:0:0:
315,155,31296,1,0,3:0:0:0:
216,55,31442,1,0,0:0:0:0:
0,182,31589,6,0,P|48:249|130:240,1,174.375,8|0,3:2|0:0,1:0:0:0:
131,239,31881,1,0,3:0:0:0:
231,139,32028,1,0,0:0:0:0:
447,266,32174,6,0,P|398:333|316:324,1,174.375,8|0,3:2|0:0,0:0:0:0:
316,324,32467,6,0,L|321:277,1,46.5,8|0,0:3|0:0,0:0:0:0:
249,247,32759,2,0,L|243:293,1,46.5,8|0,1:3|0:0,0:0:0:0:
501,27,33052,6,0,P|482:48|455:60,1,58.125,0|0,3:0|0:0,0:0:0:0:
402,120,33198,2,0,P|373:122|346:111,1,58.125,0|0,3:0|0:0,0:0:0:0:
271,49,33345,6,0,L|190:58,1,81.3750007760525,10|0,3:1|0:0,0:0:0:0:
83,71,33491,1,0,0:0:0:0:
271,49,33637,6,2,L|242:292,1,244.125002328157,2|0,3:1|0:0,1:0:0:0:
242,292,33930,2,0,L|161:280,1,81.3750007760525,10|0,3:1|0:0,0:0:0:0:
4,253,34076,2,0,L|85:265,1,81.3750007760525,2|0,0:1|0:0,0:0:0:0:
161,280,34223,6,2,P|161:161|83:71,1,244.125002328157,2|0,3:1|0:0,1:0:0:0:
133,9,34515,2,2,P|236:132|241:292,3,325.50000310421,10|0|8|0,3:1|3:0|3:1|3:0,1:0:0:0:
339,124,35540,1,0,1:0:0:0:
427,384,35686,6,0,B|493:339|493:339|331:363,1,244.125002328157,8|0,3:2|0:0,0:0:0:0:
146,311,35979,2,0,B|79:266|79:266|241:290,1,244.125002328157,0|0,3:0|0:0,0:0:0:0:
427,239,36271,2,0,B|493:194|493:194|331:218,1,244.125002328157,8|0,3:2|0:0,0:0:0:0:
146,166,36564,1,0,3:0:0:0:
150,170,36711,1,0,0:0:0:0:
406,23,36857,6,0,P|422:55|427:89,2,69.7500026607514,10|0|0,0:0|0:0|0:0,0:0:0:0:
363,157,37296,1,2,0:0:0:0:
363,157,37369,1,2,0:0:0:0:
363,157,37442,2,0,P|351:189|330:217,1,69.7500026607514
94,235,37735,5,4,3:2:0:0:
225,281,37881,1,0,1:0:0:0:
146,166,38028,1,2,3:2:0:0:
142,306,38174,1,2,0:0:0:0:
227,194,38320,2,0,P|230:149|209:108,1,93,2|0,3:2|0:0,0:0:0:0:
58,153,38613,2,0,P|64:199|94:235,1,93,0|0,3:0|0:0,0:0:0:0:
260,46,38906,6,0,P|326:68|393:86,1,139.5,2|0,3:2|0:0,0:0:0:0:
440,24,39198,2,0,B|455:42|476:57|476:57|466:99|462:146,1,139.5,2|0,3:2|0:0,0:0:0:0:
398,191,39491,1,2,3:2:0:0:
493,284,39637,1,2,0:0:0:0:
368,384,39784,2,0,P|327:361|281:355,1,93,2|0,3:2|0:0,0:0:0:0:
121,280,40076,6,0,L|166:271,1,46.5,0|0,3:0|0:0,0:0:0:0:
261,250,40223,1,2,0:0:0:0:
50,335,40369,2,0,B|28:319|28:319|36:253,1,93,2|0,3:2|0:0,0:0:0:0:
160,98,40662,2,0,B|190:132|190:132|166:270,1,186,2|0,3:2|3:0,0:0:0:0:
292,66,41101,1,2,0:0:0:0:
292,66,41174,1,2,0:0:0:0:
292,66,41247,6,0,B|261:250,1,186,2|0,3:2|3:0,0:0:0:0:
202,32,41686,1,2,0:0:0:0:
384,83,41832,1,2,3:2:0:0:
185,29,41979,1,2,0:0:0:0:
399,85,42125,2,0,P|454:123|453:190,1,139.5,0|0,3:0|0:0,0:0:0:0:
417,268,42418,5,6,3:2:0:0:
261,249,42564,1,0,1:0:0:0:
121,327,42711,1,2,3:2:0:0:
277,346,42857,1,2,0:0:0:0:
291,171,43003,2,0,B|246:160|246:160|208:188,1,93,2|0,3:2|0:0,0:0:0:0:
121,327,43296,2,0,B|76:338|76:338|38:310,1,93,0|0,3:2|0:0,0:0:0:0:
79,86,43589,6,0,L|92:224,1,139.5,2|0,3:2|0:0,0:0:0:0:
13,209,43881,2,0,L|0:70,1,139.5,2|0,3:2|0:0,0:0:0:0:
53,10,44174,1,2,3:2:0:0:
193,90,44320,1,2,0:0:0:0:
334,10,44467,2,0,L|426:21,1,93,2|0,3:2|0:0,0:0:0:0:
400,188,44759,6,0,P|312:184|288:100,1,186,2|0,3:2|3:0,0:0:0:0:
450,272,45198,1,2,0:0:0:0:
282,382,45345,2,0,P|309:345|307:299,1,93,2|0,3:2|0:0,0:0:0:0:
233,276,45564,1,2,0:0:0:0:
233,276,45637,2,0,P|205:312|207:358,1,93,2|0,3:2|0:0,0:0:0:0:
391,209,45930,6,0,P|299:200|220:152,1,186,2|0,3:2|3:0,0:0:0:0:
360,19,46369,1,2,0:0:0:0:
375,113,46515,2,0,P|329:109|291:85,1,93,2|0,3:2|0:0,0:0:0:0:
220,152,46808,1,0,0:0:0:0:
212,151,46881,1,0,0:0:0:0:
203,149,46954,1,0,0:0:0:0:
194,147,47028,1,0,0:0:0:0:
185,145,47101,5,4,1:0:0:0:
92,154,47247,2,0,B|107:85,2,69.7500026607514,2|0|0,0:0|0:0|0:0,0:0:0:0:
182,60,47686,2,0,L|44:41,1,139.500005321503,10|0,0:0|0:0,0:0:0:0:
261,10,48271,2,0,L|270:80,1,69.7500026607514,2|0,0:0|0:0,0:0:0:0:
320,140,48564,2,0,B|345:102|345:102|438:90,1,139.500005321503,2|10,1:2|0:0,0:0:0:0:
442,93,49003,1,2,0:0:0:0:
487,158,49150,2,0,L|478:227,1,69.7500026607514,2|0,0:0|0:0,0:0:0:0:
410,374,49442,5,2,1:2:0:0:
367,311,49589,1,2,0:0:0:0:
297,286,49735,2,0,P|262:285|230:298,1,69.7500026607514,2|0,0:0|0:0,0:0:0:0:
143,338,50028,2,0,P|194:294|194:227,1,139.500005321503,10|0,0:0|1:0,0:0:0:0:
121,258,50467,1,2,0:0:0:0:
125,262,50613,2,0,P|61:233|-7:237,2,139.500005321503,2|0|8,0:0|1:0|0:0,0:0:0:0:
193,226,51345,1,0,0:0:0:0:
236,159,51491,2,0,P|244:126|238:92,1,69.7500026607514
8,30,51784,6,0,P|32:53|66:63,2,69.7500026607514,2|0|0,1:2|0:0|0:0,0:0:0:0:
113,0,52223,1,2,0:0:0:0:
143,73,52369,2,0,P|105:130|38:136,1,139.500005321503,10|0,0:0|0:0,0:0:0:0:
0,384,52954,2,0,P|29:365|63:358,1,69.7500026607514,2|0,0:0|0:0,0:0:0:0:
124,307,53247,2,0,B|160:299|188:324|188:324|216:348|252:341,1,139.500005321503,2|10,1:2|0:0,0:0:0:0:
257,345,53686,1,2,0:0:0:0:
319,294,53832,2,0,P|353:295|384:310,1,69.7500026607514,2|0,0:0|0:0,0:0:0:0:
512,177,54125,6,0,P|481:235|414:237,1,139.500005321503,0|0,1:0|0:0,0:0:0:0:
348,190,54564,1,2,0:0:0:0:
352,194,54711,2,0,P|347:159|357:126,1,69.7500026607514,10|0,0:0|0:0,0:0:0:0:
297,75,55003,2,0,P|324:54|358:45,1,69.7500026607514,0|0,1:0|0:0,0:0:0:0:
247,136,55296,1,2,0:0:0:0:
220,65,55442,1,2,0:0:0:0:
143,69,55589,1,0,1:0:0:0:
123,143,55735,1,2,0:0:0:0:
187,184,55881,2,0,P|177:265|96:277,1,174.375,10|0,0:0|0:0,0:0:0:0:
97,277,56174,6,0,P|127:260|162:258,1,69.75,0|0,3:0|0:0,0:0:0:0:
260,308,56467,6,0,L|338:296,1,79.0500015077591,4|0,1:0|0:0,0:0:0:0:
507,384,56759,2,0,P|468:376|438:351,1,79.0500015077591,2|2,0:0|0:0,0:0:0:0:
432,345,56979,1,2,0:0:0:0:
427,338,57052,2,0,L|433:259,1,79.0500015077591,8|0,0:0|0:0,0:0:0:0:
444,164,57345,1,0,0:0:0:0:
444,164,57637,6,0,B|429:126|429:126|441:89,1,79.0500015077591,2|0,0:0|0:0,0:0:0:0:
512,122,57930,2,0,L|355:132,1,158.100003015518,2|10,1:2|0:0,0:0:0:0:
277,185,58369,1,2,0:0:0:0:
354,253,58515,1,2,0:3:0:0:
358,257,58662,1,2,0:3:0:0:
260,353,58808,6,0,L|266:313,2,39.5250007538796,2|2|2,1:2|0:0|0:0,0:0:0:0:
197,248,59101,2,0,P|164:269|125:273,1,79.0500015077591,2|0,0:0|0:0,0:0:0:0:
0,383,59393,2,0,P|42:319|37:241,1,158.100003015518,10|0,0:0|1:0,0:0:0:0:
107,150,59832,5,2,0:0:0:0:
111,154,59979,2,0,P|37:140|22:67,1,158.100003015518,2|0,0:0|1:0,0:0:0:0:
4,151,60418,1,2,0:0:0:0:
82,18,60564,2,0,P|119:34|158:35,1,79.0500015077591,10|2,0:0|0:3,0:0:0:0:
157,35,60784,1,2,0:3:0:0:
157,35,60857,1,2,0:3:0:0:
436,18,61150,5,2,1:2:0:0:
459,141,61296,1,2,0:0:0:0:
427,32,61442,1,2,0:0:0:0:
446,131,61589,1,2,0:0:0:0:
418,45,61735,2,0,L|433:122,1,79.0500015077591,10|0,0:0|0:0,0:0:0:0:
284,187,62028,2,0,P|340:176|381:216,1,118.575002261639,2|0,0:0|0:0,0:0:0:0:
381,216,62320,6,0,L|374:294,1,79.0500015077591,2|0,0:0|0:0,0:0:0:0:
299,357,62613,2,0,L|222:338,1,79.0500015077591,2|0,1:2|0:0,0:0:0:0:
92,296,62906,1,10,0:0:0:0:
136,382,63052,1,2,0:0:0:0:
174,248,63198,1,2,0:3:0:0:
178,252,63345,1,2,0:3:0:0:
57,161,63491,6,0,P|94:126|103:75,1,104.625003991127,2|0,1:2|0:0,0:0:0:0:
104,77,63784,2,0,P|115:127|154:161,1,104.625003991127,2|0,0:0|0:0,0:0:0:0:
154,161,64076,2,0,P|104:146|55:162,1,104.625003991127,10|0,0:0|0:0,0:0:0:0:
5,220,64369,1,2,0:0:0:0:
1,300,64515,1,2,0:0:0:0:
53,360,64662,1,0,0:0:0:0:
53,359,65540,6,0,P|144:312|247:318,1,209.250007982254,8|0,0:0|0:0,0:0:0:0:
371,372,65832,6,0,L|364:318,1,53.4750010199547,4|0,1:2|0:0,0:0:0:0:
337,105,65979,1,0,1:0:0:0:
329,141,66052,1,0,1:0:0:0:
321,177,66125,1,8,1:0:0:0:
505,275,66271,1,0,0:0:0:0:
505,275,66345,1,0,0:0:0:0:
505,275,66418,1,0,1:0:0:0:
462,134,66564,1,0,0:0:0:0:
247,318,66711,2,0,L|140:305,1,106.950002039909,8|0,1:0|0:0,0:0:0:0:
0,36,67003,5,0,1:0:0:0:
164,153,67150,1,0,0:0:0:0:
1,263,67296,1,8,1:0:0:0:
96,79,67442,1,0,0:0:0:0:
117,62,67515,1,0,0:0:0:0:
138,47,67589,1,0,1:0:0:0:
165,49,67662,1,0,0:0:0:0:
192,52,67735,1,0,0:0:0:0:
291,302,67881,2,0,B|266:257|266:257|277:202,1,106.950002039909,8|0,1:0|0:0,0:0:0:0:
512,67,68174,5,0,1:0:0:0:
259,106,68320,1,0,0:0:0:0:
382,256,68467,2,0,L|397:139,1,106.950002039909,8|0,1:0|0:0,0:0:0:0:
397,133,68686,1,0,0:0:0:0:
398,118,68759,5,0,1:0:0:0:
140,156,68906,1,0,0:0:0:0:
263,307,69052,2,0,L|278:190,1,106.950002039909,8|0,1:0|0:0,0:0:0:0:
408,374,69345,6,0,L|512:352,1,106.950002039909,0|0,1:0|0:0,0:0:0:0:
382,256,69637,1,8,1:0:0:0:
254,384,69784,1,0,0:0:0:0:
74,269,69930,2,0,P|46:217|57:159,1,120.899994465637,2|0,1:2|0:0,0:0:0:0:
156,212,70223,6,0,P|134:185|139:219,1,90.6749958492281,2|0,0:0|0:0,0:0:0:0:
136,317,70515,5,4,1:2:0:0:
382,256,70662,1,0,1:0:0:0:
346,244,70735,1,0,1:0:0:0:
309,232,70808,1,8,1:0:0:0:
443,359,70954,1,0,0:0:0:0:
443,359,71028,1,0,0:0:0:0:
443,359,71101,1,0,1:0:0:0:
512,207,71247,1,0,0:0:0:0:
421,68,71393,2,0,P|379:101|327:111,1,106.950002039909,8|0,1:0|0:0,0:0:0:0:
38,74,71686,5,0,1:0:0:0:
225,153,71832,1,0,0:0:0:0:
19,232,71979,2,0,P|64:204|117:199,1,106.950002039909,8|0,1:0|0:0,0:0:0:0:
127,202,72198,1,0,0:0:0:0:
137,205,72271,1,0,1:0:0:0:
327,111,72418,1,0,0:0:0:0:
132,0,72564,2,0,L|147:105,1,106.950002039909,8|0,1:0|0:0,0:0:0:0:
274,263,72857,5,2,1:3:0:0:
274,263,72930,1,2,0:3:0:0:
274,263,73003,1,2,0:3:0:0:
512,228,73150,2,0,L|405:215,1,106.950002039909,8|0,1:0|0:0,0:0:0:0:
233,160,73442,5,2,1:3:0:0:
233,160,73515,1,2,0:3:0:0:
233,160,73589,1,2,0:3:0:0:
472,126,73735,2,0,L|365:113,1,106.950002039909,8|0,1:0|0:0,0:0:0:0:
137,205,74028,6,0,P|169:248|175:300,1,106.950002039909,0|2,1:0|0:3,0:0:0:0:
173,316,74247,1,2,0:3:0:0:
168,331,74320,1,8,1:0:0:0:
193,361,74393,1,2,0:3:0:0:
228,380,74467,1,2,0:3:0:0:
268,385,74540,1,2,0:3:0:0:
306,374,74613,2,0,L|357:359,1,53.4750010199547,0|0,1:0|0:0,0:0:0:0:
502,301,74759,2,0,L|450:285,1,53.4750010199547,0|0,1:0|0:0,0:0:0:0:
327,111,74906,6,0,B|297:57|353:16|415:36|439:119|387:172,1,244.125002328157,8|0,1:0|0:0,0:0:0:0:
311,252,75198,6,0,P|284:239|255:237,1,58.125,4|0,1:2|0:0,0:0:0:0:
192,190,75345,2,0,P|165:202|137:205,1,58.125,0|0,1:0|0:0,0:0:0:0:
58,358,75491,1,8,1:0:0:0:
58,358,75564,1,0,0:0:0:0:
58,358,75637,2,0,P|109:331|167:330,1,116.25,0|0,0:0|1:0,0:0:0:0:
356,358,75930,6,0,P|361:312|342:270,1,93,2|0,0:1|0:0,0:0:0:0:
236,111,76076,1,8,1:0:0:0:
370,374,76223,6,0,P|405:344|421:301,1,93,2|0,0:1|0:0,0:0:0:0:
405,67,76369,2,2,B|305:33|236:112|236:112|167:190|68:157,4,372,0|8|0|8|0,1:0|1:0|1:0|1:0|1:0,1:0:0:0:
512,269,77686,1,0,0:0:0:0:
275,344,77832,6,0,P|225:314|168:315,1,116.25,8|0,1:0|0:0,0:0:0:0:
168,315,78052,1,0,0:0:0:0:
168,315,78125,1,0,1:0:0:0:
0,200,78271,1,0,0:0:0:0:
59,380,78418,6,0,L|75:264,1,116.25,8|0,1:0|0:0,0:0:0:0:
75,264,78637,1,0,0:0:0:0:
75,264,78711,1,0,1:0:0:0:
231,152,78857,1,0,0:0:0:0:
105,31,79003,2,0,B|59:66|59:66|1:56,1,116.25,8|0,1:0|0:0,0:0:0:0:
290,10,79296,6,0,P|331:65|318:131,1,139.500005321503,2|0,1:2|0:0,0:0:0:0:
203,31,79589,2,0,P|190:97|230:151,1,139.500005321503,10|0,1:2|0:0,0:0:0:0:
454,289,79881,6,0,L|461:231,1,58.125,4|0,1:2|0:0,0:0:0:0:
488,18,80028,1,0,1:0:0:0:
496,54,80101,1,0,1:0:0:0:
504,90,80174,6,0,L|412:74,1,93,10|0,1:0|0:0,0:0:0:0:
203,31,80320,1,0,0:0:0:0:
461,231,80467,6,2,B|369:215|369:215|293:273|293:273|204:257,1,279,2|0,1:0|0:0,1:0:0:0:
204,257,80759,2,0,L|216:350,1,93,10|0,1:0|0:0,0:0:0:0:
191,153,80906,2,0,L|179:60,1,93,2|0,0:1|0:0,0:0:0:0:
72,306,81052,2,2,B|24:224|24:224|204:257,1,279,2|0,1:0|0:0,1:0:0:0:
378,373,81345,6,2,B|453:321|453:321|431:124|431:124|354:94,3,372,8|0|8|0,1:0|1:0|1:0|1:0,1:0:0:0:
355,239,82369,1,0,0:0:0:0:
258,12,82515,5,8,1:0:0:0:
140,184,82662,1,0,0:0:0:0:
168,176,82735,1,0,0:0:0:0:
196,169,82808,1,0,1:0:0:0:
224,162,82881,1,0,0:0:0:0:
252,155,82954,1,0,0:0:0:0:
31,37,83101,2,0,B|17:94|17:94|52:139,1,116.25,8|0,1:0|0:0,0:0:0:0:
193,257,83393,5,0,1:0:0:0:
59,353,83540,1,0,0:0:0:0:
0,226,83686,1,8,1:0:0:0:
0,226,83759,1,0,0:0:0:0:
0,226,83832,1,0,0:0:0:0:
214,378,83979,1,0,1:0:0:0:
218,382,84125,1,0,0:0:0:0:
436,315,84271,6,0,P|453:304|437:320,1,69.75,2|0,0:0|0:0,0:0:0:0:
447,314,84564,6,2,P|390:260|385:181,1,162.750001552105,6|0,1:0|1:0,1:0:0:0:
445,0,84857,1,8,1:0:0:0:
195,190,85003,5,2,0:1:0:0:
236,197,85076,1,2,0:0:0:0:
276,204,85150,1,0,1:0:0:0:
276,204,85296,2,0,B|309:216|309:216|274:215,1,69.7500026607514,2|0,0:1|0:0,0:0:0:0:
67,219,85442,6,0,L|91:216,1,23.25,10|0,1:2|0:0,0:0:0:0:
50,147,85589,2,0,L|74:144,1,23.25,2|0,0:0|0:0,0:0:0:0:
190,34,85735,6,0,L|170:31,1,20.9249993614197,2|0,1:2|0:0,0:0:0:0:
173,106,85881,2,0,L|153:103,1,20.9249993614197,2|0,0:0|0:0,0:0:0:0:
274,192,86028,6,0,L|293:189,1,18.6,10|0,1:2|0:0,0:0:0:0:
257,120,86174,2,0,L|276:117,1,18.6,2|0,0:0|0:0,0:0:0:0:
322,34,86320,5,2,1:2:0:0:
452,374,86467,6,0,P|462:330|431:362,1,122.062501164079,2|0,0:1|0:0,0:0:0:0:
452,351,86613,2,2,B|377:376|325:317|325:317|273:258|199:283,1,279,10|0,1:0|0:0,0:1:0:0:
6,384,86906,6,2,P|63:329|68:250,1,162.750001552105,2|0,1:0|1:0,1:0:0:0:
8,70,87198,1,8,1:0:0:0:
295,257,87345,5,2,0:1:0:0:
247,269,87418,1,2,0:0:0:0:
200,282,87491,1,0,1:0:0:0:
200,282,87637,2,0,B|170:262|170:262|203:271,1,69.7500026607514,2|0,0:1|0:0,0:0:0:0:
452,374,87784,6,0,L|448:350,1,23.25,10|0,1:2|0:0,0:0:0:0:
375,383,87930,2,0,L|371:359,1,23.25,2|0,0:0|0:0,0:0:0:0:
295,257,88076,6,0,L|297:236,1,20.9249993614197,2|0,1:2|0:0,0:0:0:0:
372,266,88223,2,0,L|374:245,1,20.9249993614197,2|0,0:0|0:0,0:0:0:0:
420,166,88369,6,0,L|417:147,1,18.6,10|0,1:2|0:0,0:0:0:0:
343,175,88515,2,0,L|340:156,1,18.6,2|0,0:0|0:0,0:0:0:0:
270,116,88662,6,0,P|242:136|207:138,1,69.7500026607514,2|0,1:0|0:0,0:0:0:0:
153,193,88808,2,0,P|132:165|130:130,1,69.7500026607514,2|0,0:1|0:0,0:0:0:0:
75,77,88954,2,0,P|102:56|137:54,1,69.7500026607514,10|0,1:0|0:0,0:0:0:0:
192,0,89101,2,0,P|212:27|214:62,1,69.7500026607514,2|0,0:0|0:0,0:0:0:0:
0,341,89247,6,0,B|43:300|43:300|146:307,1,162.750001552105,2|0,1:0|1:0,0:0:0:0:
314,321,89540,1,8,1:0:0:0:
472,105,89686,5,2,0:1:0:0:
484,152,89759,1,2,0:0:0:0:
497,198,89832,1,0,1:0:0:0:
497,198,89979,2,0,B|512:209|530:202|530:202|515:189|497:198,1,69.7500026607514,2|0,0:1|0:0,0:0:0:0:
361,129,90125,6,0,L|338:124,1,23.25,10|0,1:2|0:0,0:0:0:0:
342,202,90271,2,0,L|319:197,1,23.25,2|0,0:0|0:0,0:0:0:0:
230,65,90418,6,0,L|209:69,1,20.9249993614197,2|0,1:2|0:0,0:0:0:0:
249,139,90564,2,0,L|228:143,1,20.9249993614197,2|0,0:0|0:0,0:0:0:0:
135,199,90711,6,0,L|116:195,1,18.6,10|0,1:2|0:0,0:0:0:0:
154,125,90857,2,0,L|135:121,1,18.6,2|0,0:0|0:0,0:0:0:0:
63,143,91003,5,2,1:2:0:0:
155,355,91150,6,0,P|113:334|67:333,1,93,2|0,0:1|0:0,0:0:0:0:
0,261,91296,2,2,P|135:243|248:320,1,279,10|0,1:0|0:0,1:0:0:0:
375,384,91589,6,2,B|414:341|414:341|405:236,1,162.750001552105,2|0,1:0|1:0,1:0:0:0:
380,31,91881,1,8,1:0:0:0:
203,237,92028,5,2,0:1:0:0:
250,224,92101,1,2,0:0:0:0:
297,211,92174,1,0,0:0:0:0:
297,211,92320,2,0,B|327:230|327:230|293:224,1,69.7500026607514,2|0,0:1|0:0,0:0:0:0:
147,49,92467,6,0,L|145:72,1,23.25,10|0,1:2|0:0,0:0:0:0:
70,42,92613,2,0,L|68:65,1,23.25,2|0,0:0|0:0,0:0:0:0:
191,143,92759,6,0,L|189:163,1,20.9249993614197,2|0,1:2|0:0,0:0:0:0:
2,122,92906,2,0,L|0:142,1,20.9249993614197,2|0,1:2|0:0,0:0:0:0:
124,223,93052,6,0,L|123:241,1,18.6,10|0,1:2|0:0,0:0:0:0:
47,216,93198,2,0,L|46:234,1,18.6,2|0,0:0|0:0,0:0:0:0:
212,353,93345,6,0,P|240:350|260:330,1,58.0320005667188,2|0,0:0|0:0,0:0:0:0:
260,330,93637,2,0,P|209:284|212:353,1,174.375,2|0,0:0|0:0,0:0:0:0:
354,377,93930,6,0,B|374:348|374:348|371:313,1,69.7500026607514,4|0,3:2|0:0,0:0:0:0:
476,259,94076,2,0,B|468:223|468:223|442:201,1,69.7500026607514,0|0,3:0|0:0,0:0:0:0:
408,87,94223,6,0,B|368:137|368:137|224:116,1,209.250007982254,0|0,3:0|0:0,1:0:0:0:
48,26,94515,1,0,3:0:0:0:
40,33,94662,6,0,P|13:70|8:116,1,93,2|0,0:1|0:0,0:0:0:0:
50,265,94808,1,0,3:0:0:0:
48,26,94954,6,0,P|40:71|56:113,1,93,2|0,0:1|0:0,0:0:0:0:
175,225,95101,2,2,B|276:249|338:165|338:165|400:80|502:105,4,372,0|0|0|0|0,3:0|3:0|3:0|3:0|3:0,1:0:0:0:
254,99,96418,1,0,0:0:0:0:
427,210,96564,6,0,B|410:314|410:314|307:297,1,209.250007982254,0|0,3:0|0:0,1:0:0:0:
254,99,96857,2,0,B|358:116|358:116|341:219,1,209.250007982254,0|0,3:0|0:0,1:0:0:0:
307,384,97150,2,0,B|203:367|203:367|220:264,1,209.250007982254,0|0,3:0|0:0,1:0:0:0:
193,44,97442,6,0,B|200:9|200:9|124:52|124:52|106:136,1,209.250007982254,0|0,3:0|0:0,1:0:0:0:
79,288,97735,2,0,B|70:332|70:332|43:346|43:346|65:213,1,209.250007982254,0|0,3:0|0:0,0:0:0:0:
40,87,98028,2,0,B|185:119|185:119|173:178,1,209.250007982254,0|0,3:0|0:0,1:0:0:0:
169,354,98320,2,0,B|314:322|314:322|302:262,1,209.250007982254,0|0,3:0|0:0,1:0:0:0:
281,13,98613,6,0,B|350:22,1,69.7500026607514,4|0,3:2|0:0,0:0:0:0:
271,91,98759,2,0,B|340:100,1,69.7500026607514,0|0,3:0|0:0,0:0:0:0:
458,65,98906,6,0,P|483:104|489:150,1,93,2|0,3:1|0:0,0:0:0:0:
472,294,99052,1,0,0:0:0:0:
472,294,99125,1,0,0:0:0:0:
472,294,99198,2,2,B|439:287|425:256|425:256|371:243|332:296|332:296|293:349|238:335,1,279,2|0,3:1|0:0,1:0:0:0:
51,315,99491,6,0,B|26:328|15:352|15:352|31:331|56:320,1,93,2|0,3:1|0:0,0:0:0:0:
218,215,99637,2,0,B|243:228|254:252|254:252|238:231|213:220,1,93,2|0,0:1|0:0,0:0:0:0:
50,117,99784,6,2,B|-26:178|-26:178|157:134,1,279,2|0,3:1|0:0,1:0:0:0:
333,11,100076,2,2,B|202:59|202:59|429:114,4,372,0|0|0|0|0,3:0|3:0|3:0|3:0|3:0,1:0:0:0:
512,90,101393,1,0,0:0:0:0:
405,236,101540,6,0,B|377:212|377:212|514:200|514:200|493:228,1,209.250007982254,0|0,3:0|0:0,1:0:0:0:
413,341,101832,2,0,B|387:379|387:379|273:357|273:357|269:311,1,209.250007982254,0|0,3:0|0:0,1:0:0:0:
42,165,102125,6,0,P|109:165|156:215,1,139.500005321503,2|0,3:2|0:0,0:0:0:0:
24,361,102418,2,0,P|24:293|74:246,1,139.500005321503,2|0,3:2|0:0,1:0:0:0:
220,378,102711,2,0,P|152:377|105:327,1,139.500005321503,2|0,3:2|0:0,1:0:0:0:
237,181,103003,6,0,P|243:215|236:249,1,69.7500026607514,2|0,0:0|0:0,0:0:0:0:
247,177,103296,2,0,P|251:245|206:296,1,139.5,0|0,1:0|0:0,0:0:0:0:
24,361,103589,6,0,B|-5:357|-5:357|23:350,1,58.125,12|0,3:2|0:0,0:0:0:0:
220,378,103735,1,0,0:0:0:0:
237,380,103808,1,0,0:0:0:0:
254,383,103881,1,0,3:0:0:0:
88,224,104028,6,0,P|75:179|86:134,1,93,2|0,0:1|0:0,0:0:0:0:
172,0,104174,1,8,3:2:0:0:
96,237,104320,6,0,P|118:196|157:172,1,93,2|0,0:1|0:0,0:0:0:0:
313,120,104467,2,2,P|351:275|191:265,4,372,0|8|0|8|0,3:0|3:2|3:0|3:2|3:0,1:0:0:0:
185,64,105784,1,0,0:0:0:0:
427,0,105930,6,0,L|440:115,1,116.25,8|0,3:2|0:0,0:0:0:0:
440,115,106150,1,0,0:0:0:0:
440,115,106223,1,0,3:0:0:0:
272,15,106369,1,0,0:0:0:0:
101,129,106515,2,0,P|51:100|-6:100,1,116.25,8|0,3:2|0:0,0:0:0:0:
149,0,106808,5,0,3:0:0:0:
253,131,106954,1,0,0:0:0:0:
57,230,107101,1,8,3:2:0:0:
108,136,107247,5,0,0:0:0:0:
108,136,107320,1,0,0:0:0:0:
108,136,107393,1,0,3:0:0:0:
274,221,107540,1,0,0:0:0:0:
420,107,107686,1,8,3:2:0:0:
232,41,107832,1,0,0:0:0:0:
232,41,107906,1,0,0:0:0:0:
232,41,107979,6,0,L|296:32,1,65.0999980133057,6|0,3:2|0:0,0:0:0:0:
463,8,108125,2,0,L|399:17,1,65.0999980133057,2|0,3:2|0:0,0:0:0:0:
253,131,108271,6,0,L|317:122,1,65.0999980133057,10|0,3:1|0:0,0:0:0:0:
484,98,108418,2,0,L|419:106,1,65.0999980133057,2|0,0:0|0:0,0:0:0:0:
241,361,108564,6,0,P|254:329|253:294,1,69.7500026607514,2|0,3:1|0:0,0:0:0:0:
188,84,108711,2,0,P|174:115|175:150,1,69.7500026607514,2|0,0:0|0:0,0:0:0:0:
112,337,108857,6,0,P|146:333|175:314,1,69.7500026607514,10|0,3:1|0:0,0:0:0:0:
316,107,109003,2,0,P|282:111|253:130,1,69.7500026607514,2|0,0:1|0:0,0:0:0:0:
18,333,109150,6,0,L|7:259,1,74.4,2|0,3:1|0:0,0:0:0:0:
70,72,109296,2,0,L|80:145,1,74.4,2|0,0:0|0:0,0:0:0:0:
112,337,109442,6,0,L|101:263,1,74.4,10|0,3:1|0:0,0:0:0:0:
164,76,109589,2,0,L|175:150,1,74.4,2|0,0:0|0:0,0:0:0:0:
253,295,109735,6,0,P|291:301|329:291,1,79.0500015077591,2|0,3:2|0:0,0:0:0:0:
435,170,109881,2,0,P|451:134|452:95,1,79.0500015077591,2|0,0:0|0:0,0:0:0:0:
364,375,110028,6,0,P|395:351|416:318,1,79.0500015077591,10|0,3:2|0:0,0:0:0:0:
452,94,110174,2,0,P|437:57|410:28,1,79.0500015077591,2|0,0:0|0:0,0:0:0:0:
203,355,110320,5,2,3:2:0:0:
172,317,110393,1,2,0:0:0:0:
167,269,110467,1,2,0:0:0:0:
190,226,110540,1,2,0:0:0:0:
231,201,110613,1,10,3:2:0:0:
273,177,110686,1,2,0:0:0:0:
295,134,110759,1,2,0:0:0:0:
290,86,110832,1,2,0:0:0:0:
260,48,110906,5,2,3:2:0:0:
238,91,110979,1,2,0:0:0:0:
230,139,111052,1,2,0:0:0:0:
236,186,111125,1,2,0:0:0:0:
255,230,111198,1,10,3:2:0:0:
288,266,111271,1,2,0:0:0:0:
329,291,111345,1,2,0:0:0:0:
376,302,111418,1,2,0:0:0:0:
423,299,111491,6,0,B|461:262|461:262|442:141,1,174.375,0|0,3:0|0:0,0:0:0:0:
429,22,111784,5,2,0:3:0:0:
412,30,111857,1,4,0:3:0:0:
412,17,111930,1,2,0:3:0:0:
395,25,112003,1,4,0:3:0:0:
284,99,112150,5,2,0:0:0:0:
238,91,112223,1,2,0:0:0:0:
192,83,112296,1,2,0:0:0:0:
146,75,112369,1,2,0:3:0:0:
149,86,112442,1,2,0:3:0:0:
152,97,112515,1,2,0:3:0:0:
155,108,112589,1,2,0:3:0:0:
180,183,112662,6,0,B|198:180|198:180|212:189|212:189|195:191|195:191|180:183,1,69.7500026607514,12|0,1:2|0:0,0:0:0:0:
104,258,112954,5,8,0:3:0:0:
104,258,113247,1,8,0:3:0:0:
104,258,113540,1,8,0:3:0:0:
104,258,113832,2,0,L|95:326,1,69.7500026607514,8|0,0:3|0:0,0:0:0:0:
104,258,114125,1,8,0:3:0:0:
104,258,114418,5,8,0:3:0:0:
180,274,114564,1,0,0:0:0:0:
261,332,114711,1,8,0:3:0:0:
265,336,114857,1,8,0:3:0:0:
349,287,115003,6,0,L|418:297,1,69.7500026607514,2|0,0:0|0:0,0:0:0:0:
358,271,115296,2,0,L|427:281,1,69.7500026607514,2|0,0:0|0:0,0:0:0:0:
512,190,115589,6,0,L|434:201,1,79.0500015077591,2|0,0:0|0:0,0:0:0:0:
501,171,115881,2,0,L|423:182,1,79.0500015077591,2|0,0:0|0:0,0:0:0:0:
269,109,116174,6,0,L|360:122,1,93,2|0,0:0|0:0,0:0:0:0:
281,86,116467,2,0,L|372:99,1,93,2|0,0:0|0:0,0:0:0:0:
512,34,116759,6,0,L|434:45,1,79.0500015077591,2|8,0:0|0:3,0:0:0:0:
428,34,116979,1,8,0:3:0:0:
423,23,117052,2,0,L|500:11,1,79.0500015077591,8|0,0:3|0:0,0:0:0:0:
343,201,117345,6,0,B|344:219|344:219|335:233|335:233|333:216|333:216|343:201,1,69.7500026607514,0|0,3:0|0:0,0:0:0:0:
319,311,117637,5,8,0:3:0:0:
319,311,117930,1,8,0:3:0:0:
319,311,118223,1,8,0:3:0:0:
319,311,118515,2,0,L|411:293,1,69.7500026607514,8|0,0:3|0:0,0:0:0:0:
319,311,118808,1,8,0:3:0:0:
319,311,119101,5,8,0:3:0:0:
242,296,119247,1,0,0:0:0:0:
155,348,119393,1,8,0:3:0:0:
159,351,119540,1,8,0:3:0:0:
14,190,119686,6,0,P|1:222|3:257,1,69.7500026607514,2|0,0:0|0:0,0:0:0:0:
91,205,119979,2,0,P|93:240|80:272,1,69.7500026607514,2|0,0:0|0:0,0:0:0:0:
234,362,120271,6,0,P|247:330|246:296,1,69.7500026607514,2|0,0:0|0:0,0:0:0:0:
159,351,120564,2,0,P|157:316|170:284,1,69.7500026607514,2|0,0:0|0:0,0:0:0:0:
385,256,120857,6,2,B|433:200|433:200|339:183|339:183|274:262|274:262|161:242|161:242|224:176|224:176|303:190,1,558,0|0,3:0|1:0,0:1:0:0:
303,190,122028,6,0,L|289:97,1,93,2|0,1:2|0:0,0:0:0:0:
326,210,122320,1,10,0:0:0:0:
305,71,122467,1,2,0:0:0:0:
162,242,122613,6,0,L|175:149,1,93,2|0,0:0|1:0,0:0:0:0:
139,262,122906,1,10,0:0:0:0:
159,123,123052,1,2,0:0:0:0:
322,304,123198,6,0,P|364:282|410:281,1,93,2|0,1:2|0:0,0:0:0:0:
310,322,123491,1,10,0:0:0:0:
434,293,123637,1,2,0:0:0:0:
152,365,123784,6,0,P|110:343|64:342,1,93,2|0,0:0|1:0,0:0:0:0:
164,382,124076,1,10,0:0:0:0:
40,353,124223,1,2,0:0:0:0:
198,164,124369,5,2,1:2:0:0:
326,207,124515,1,2,0:0:0:0:
79,229,124662,1,10,0:0:0:0:
207,273,124808,5,2,0:0:0:0:
211,277,124954,1,2,0:0:0:0:
317,98,125101,1,0,1:0:0:0:
321,102,125247,1,10,0:0:0:0:
70,120,125393,1,2,0:0:0:0:
198,164,125540,6,0,L|188:71,1,93,2|0,1:2|0:0,0:0:0:0:
326,207,125832,1,8,0:0:0:0:
445,9,125979,2,0,P|357:20|321:102,1,186,2|0,0:0|1:0,0:0:0:0:
441,313,126418,1,8,0:0:0:0:
441,313,126491,1,0,1:0:0:0:
441,313,126711,6,0,B|382:304|382:304|337:338,1,116.25,2|0,3:2|0:0,0:0:0:0:
466,318,127003,1,10,0:0:0:0:
320,359,127150,1,2,0:0:0:0:
206,254,127296,6,0,B|262:261|262:261|308:224,1,116.25,2|0,0:0|1:0,0:0:0:0:
179,244,127589,1,10,0:0:0:0:
326,207,127735,1,0,0:0:0:0:
64,358,127881,6,0,P|95:310|96:253,1,116.25,2|0,1:2|0:0,0:0:0:0:
44,374,128174,1,10,0:0:0:0:
86,232,128320,1,2,0:0:0:0:
182,51,128467,6,0,P|183:108|215:157,1,116.25,2|0,0:0|1:0,0:0:0:0:
194,31,128759,1,10,0:0:0:0:
236,173,128906,1,2,0:0:0:0:
10,125,129052,5,2,1:2:0:0:
116,4,129198,1,2,0:0:0:0:
269,91,129345,1,10,0:0:0:0:
404,4,129491,1,2,0:0:0:0:
404,4,129637,1,2,0:0:0:0:
194,31,129784,1,0,1:0:0:0:
354,155,129930,2,0,B|386:125|386:125|458:129,1,116.25,8|0,0:0|0:0,0:0:0:0:
286,237,130223,6,0,B|228:232|228:232|182:272|182:272|127:267,1,174.375,0|0,3:0|0:0,0:0:0:0:
108,263,130515,1,8,0:0:0:0:
357,293,130662,1,0,0:0:0:0:
357,293,131393,6,0,L|391:287,1,34.8750013303757,0|0,1:0|0:0,0:0:0:0:
512,266,131540,1,0,1:0:0:0:
497,268,131613,1,0,1:0:0:0:
483,270,131686,2,0,L|472:200,1,69.7500026607514,2|0,1:2|0:0,0:0:0:0:
395,186,131979,2,0,L|420:121,1,69.7500026607514,2|0,1:2|0:0,0:0:0:0:
360,69,132271,2,0,L|414:25,1,69.7500026607514,2|0,1:2|0:0,0:0:0:0:
407,16,132564,6,0,L|344:65,1,79.0500015077591,2|0,1:2|0:0,0:0:0:0:
315,153,132857,2,0,L|235:150,1,79.0500015077591,2|0,1:2|0:0,0:0:0:0:
156,198,133150,2,0,L|96:145,1,79.0500015077591,2|0,1:2|0:0,0:0:0:0:
11,112,133442,2,0,L|0:33,1,79.0500015077591,2|0,1:2|0:0,0:0:0:0:
11,24,133735,6,0,L|17:70,1,46.5,2|0,1:2|0:0,0:0:0:0:
89,98,133881,2,0,L|96:145,1,46.5,0|0,1:0|0:0,0:0:0:0:
156,198,134028,2,0,L|235:246,1,93,2|0,1:2|0:0,0:0:0:0:
278,333,134320,2,0,L|366:303,1,93,2|0,1:2|0:0,0:0:0:0:
459,326,134613,2,0,L|493:239,1,93,2|0,1:2|0:0,0:0:0:0:
449,143,134832,1,0,1:0:0:0:
449,143,134906,2,0,L|412:238,1,102.300003121948,2|0,1:2|0:0,0:0:0:0:
354,329,135198,2,0,L|252:344,1,102.300003121948,2|0,1:2|0:0,0:0:0:0:
60,293,135491,6,0,P|87:276|119:273,1,65.0999980133057,2|0,1:2|0:0,0:0:0:0:
195,295,135637,1,0,1:0:0:0:
81,367,135784,2,0,P|113:367|142:353,1,65.0999980133057,2|0,1:2|0:0,0:0:0:0:
195,295,135930,1,0,1:0:0:0:
131,91,136076,6,0,P|119:146|146:196,1,116.25,2|0,1:2|1:0,0:0:0:0:
161,205,136296,1,0,1:0:0:0:
177,211,136369,2,0,L|291:193,1,116.25,2|0,1:2|0:0,0:0:0:0:
337,65,136662,2,0,L|222:82,1,116.25,2|0,1:2|0:0,0:0:0:0:
291,193,136954,2,0,L|405:175,1,116.25,2|0,1:2|0:0,0:0:0:0:
440,17,137247,6,0,P|379:20|337:65,1,125.550000478935,2|0,1:2|0:0,0:0:0:0:
136,59,137540,2,0,P|138:120|183:162,1,125.550000478935,2|0,1:2|0:0,0:0:0:0:
177,363,137832,2,0,P|238:360|280:315,1,125.550000478935,2|0,1:2|0:0,0:0:0:0:
481,321,138125,2,0,P|478:259|433:217,1,125.550000478935,2|0,1:2|0:0,0:0:0:0:
183,162,138418,6,0,L|116:171,1,67.4250020576478,2|0,1:2|0:0,0:0:0:0:
14,268,138564,2,0,L|80:258,1,67.4250020576478,0|0,1:0|0:0,0:0:0:0:
280,315,138711,2,0,L|146:334,1,134.850004115296,2|0,1:2|0:0,0:0:0:0:
234,89,139003,2,0,L|367:69,1,134.850004115296,2|0,1:2|0:0,0:0:0:0:
492,350,139296,2,0,L|358:369,1,134.850004115296,2|0,1:2|0:0,0:0:0:0:
183,162,139589,6,0,B|208:195|208:195|270:188,1,104.625003991127,0|0,3:0|0:0,0:0:0:0:
293,207,139881,5,8,1:2:0:0:
240,212,139954,1,0,1:0:0:0:
188,217,140028,1,0,1:0:0:0:
136,222,140101,1,0,1:0:0:0:
84,228,140174,6,0,L|37:232,1,46.5,2|0,0:0|0:0,0:0:0:0:
15,234,140759,6,0,L|84:228,1,69.7500026607514,4|0,1:2|0:0,0:0:0:0:
284,382,140906,1,0,1:0:0:0:
208,369,140979,1,0,1:0:0:0:
132,357,141052,1,8,1:0:0:0:
322,112,141198,5,2,0:0:0:0:
322,112,141271,1,2,0:0:0:0:
322,112,141345,1,2,1:2:0:0:
504,166,141491,1,0,0:0:0:0:
345,280,141637,1,10,1:2:0:0:
163,225,141784,1,0,0:0:0:0:
377,10,141930,6,0,B|429:56|429:56|490:23,1,139.500005321503,0|2,1:0|0:0,0:0:0:0:
345,280,142223,1,10,1:2:0:0:
148,103,142369,1,2,0:0:0:0:
148,103,142442,1,2,0:0:0:0:
148,103,142515,2,0,P|156:124|159:147,1,46.5,2|0,1:2|0:0,0:0:0:0:
201,214,142662,2,0,P|191:235|177:253,1,46.5,2|0,0:0|0:0,0:0:0:0:
0,310,142808,6,0,P|14:292|33:277,1,46.5,10|0,1:2|0:0,0:0:0:0:
69,208,142954,2,0,P|92:205|115:208,1,46.5,2|0,0:0|0:0,0:0:0:0:
255,309,143101,5,0,1:0:0:0:
417,239,143247,1,2,0:0:0:0:
231,384,143393,2,0,B|163:369|163:369|179:301,1,139.500005321503,10|0,1:2|0:0,0:0:0:0:
259,313,143613,1,0,0:0:0:0:
259,313,143686,1,2,1:2:0:0:
435,384,143832,1,2,0:0:0:0:
342,109,143979,2,0,B|312:139|312:139|320:235,1,139.500005321503,10|0,1:2|0:0,0:0:0:0:
493,12,144271,5,2,1:2:0:0:
275,175,144418,1,0,0:0:0:0:
60,37,144564,1,8,1:0:0:0:
125,153,144711,1,2,0:0:0:0:
153,132,144784,1,2,0:0:0:0:
175,105,144857,1,2,1:2:0:0:
189,74,144930,1,2,0:0:0:0:
195,40,145003,1,2,0:0:0:0:
93,250,145150,6,0,L|126:257,1,34.8750013303757,10|0,1:2|0:0,0:0:0:0:
294,298,145296,2,0,L|260:290,1,34.8750013303757,2|0,0:0|0:0,0:0:0:0:
0,360,145442,6,0,B|67:344,1,69.7500026607514,6|0,1:2|0:0,0:0:0:0:
353,189,145589,1,0,1:0:0:0:
275,175,145662,1,0,1:0:0:0:
197,161,145735,1,8,1:0:0:0:
355,381,145881,5,2,0:0:0:0:
371,360,145954,1,2,0:0:0:0:
393,347,146028,1,2,1:2:0:0:
419,343,146101,1,2,0:0:0:0:
445,349,146174,1,2,0:0:0:0:
512,198,146320,2,0,B|462:147|462:147|434:209,1,139.500005321503,10|0,1:2|0:0,0:0:0:0:
156,368,146613,5,0,1:0:0:0:
366,275,146759,2,0,L|355:206,1,69.7500026607514,2|0,0:0|0:0,0:0:0:0:
139,103,146906,2,0,L|160:241,1,139.500005321503,10|0,1:2|0:0,0:0:0:0:
160,241,147125,1,0,0:0:0:0:
160,241,147198,1,0,1:0:0:0:
341,130,147345,2,0,L|330:61,1,69.7500026607514,2|0,0:0|0:0,0:0:0:0:
31,42,147491,2,0,L|52:180,1,139.500005321503,10|0,1:2|0:0,0:0:0:0:
276,9,147784,6,0,P|290:37|291:69,1,65.0999980133057,0|0,3:0|0:0,0:0:0:0:
341,130,147930,2,0,P|332:160|309:183,1,65.0999980133057,0|0,3:0|0:0,0:0:0:0:
250,231,148076,2,0,L|379:220,1,130.199996026611,10|2,3:2|0:0,0:0:0:0:
380,220,148296,1,2,0:0:0:0:
380,220,148369,1,2,3:2:0:0:
480,75,148515,1,0,0:0:0:0:
344,344,148662,2,0,B|316:317|316:317|224:325,1,130.199996026611,10|0,3:2|0:0,0:0:0:0:
59,271,148881,1,0,1:0:0:0:
108,342,148954,6,0,L|92:193,1,148.8,2|0,3:2|0:0,0:0:0:0:
261,0,149247,1,8,3:2:0:0:
414,139,149393,5,2,0:0:0:0:
414,139,149467,1,2,0:0:0:0:
414,139,149540,2,0,L|340:129,1,74.4,0|0,3:0|0:0,0:0:0:0:
275,173,149686,2,0,L|201:163,1,74.4,0|0,3:0|0:0,0:0:0:0:
404,52,149832,2,0,L|330:42,1,74.4,8|0,3:2|0:0,0:0:0:0:
265,86,149979,2,0,L|191:76,1,74.4,0|0,3:0|0:0,0:0:0:0:
30,0,150125,6,0,P|48:29|54:63,1,69.7500026607514,6|0,1:2|0:0,0:0:0:0:
16,288,150271,1,0,1:0:0:0:
8,210,150345,1,0,1:0:0:0:
0,133,150418,1,8,1:0:0:0:
122,335,150564,1,2,0:0:0:0:
122,335,150637,1,2,0:0:0:0:
122,335,150711,1,2,1:2:0:0:
183,82,150857,6,0,P|158:127|161:179,1,104.625003991127,2|0,0:1|0:0,0:0:0:0:
245,383,151003,1,8,1:0:0:0:
195,73,151150,6,0,P|209:122|248:157,1,104.625003991127,2|0,0:1|0:0,0:0:0:0:
448,237,151296,2,2,B|494:293|463:367|378:395|275:322|302:190|376:124,4,418.500015964509,0|8|0|8|0,1:0|1:0|1:0|1:0|1:0,1:0:0:0:
287,65,152613,1,2,0:0:0:0:
92,286,152759,6,0,B|83:217,1,69.7500026607514,10|0,1:2|0:0,0:0:0:0:
11,109,152906,1,2,0:0:0:0:
38,86,152979,1,2,0:0:0:0:
64,63,153052,1,2,1:2:0:0:
95,79,153125,1,2,0:0:0:0:
127,94,153198,1,2,0:0:0:0:
60,366,153345,2,0,B|15:346|15:346|4:256,1,139.500005321503,10|0,1:2|0:0,0:0:0:0:
169,370,153637,5,2,1:2:0:0:
426,279,153784,1,2,0:0:0:0:
180,181,153930,1,8,1:2:0:0:
334,41,154076,1,2,0:0:0:0:
329,75,154150,1,2,0:0:0:0:
325,110,154223,1,2,1:2:0:0:
320,144,154296,1,2,0:0:0:0:
316,179,154369,1,2,0:0:0:0:
188,0,154515,6,0,B|211:24|211:24|246:12,1,69.7500026607514,10|0,1:2|0:0,0:0:0:0:
501,138,154662,2,0,B|466:126|466:126|443:150,1,69.7500026607514,2|0,0:0|0:0,0:0:0:0:
171,365,154808,6,0,L|160:296,1,69.7500026607514,6|0,1:2|0:0,0:0:0:0:
121,53,154954,1,0,1:0:0:0:
104,127,155028,1,0,1:0:0:0:
88,202,155101,6,0,L|191:186,1,104.625003991127,10|0,1:0|0:0,0:0:0:0:
501,138,155247,1,0,0:0:0:0:
70,205,155393,6,2,B|142:280|142:280|349:249,1,313.875011973381,2|0,1:0|0:0,1:0:0:0:
501,138,155686,2,0,L|397:153,1,104.625003991127,10|0,1:0|0:0,0:0:0:0:
191,186,155832,2,0,L|294:170,1,104.625003991127,2|0,0:1|0:0,0:0:0:0:
481,316,155979,6,2,L|171:364,1,313.875011973381,2|0,1:0|0:0,1:0:0:0:
15,127,156271,2,2,L|428:63,3,418.500015964509,8|0|8|0,1:0|1:0|1:0|1:0,1:0:0:0:
101,27,157296,5,0,1:0:0:0:
90,99,157369,1,0,1:0:0:0:
79,171,157442,1,8,1:0:0:0:
291,380,157589,1,0,0:0:0:0:
291,380,157662,1,0,1:0:0:0:
40,299,157808,1,0,1:0:0:0:
40,299,157881,1,0,0:0:0:0:
263,161,158028,1,8,1:0:0:0:
512,240,158174,1,0,1:0:0:0:
148,228,158320,6,0,L|153:263,1,34.8750013303757,2|0,1:2|0:0,0:0:0:0:
165,339,158467,2,0,L|160:304,1,34.8750013303757,0|0,1:0|0:0,0:0:0:0:
386,198,158613,6,0,L|391:233,1,34.8750013303757,10|0,1:2|0:0,0:0:0:0:
403,309,158759,2,0,L|398:274,1,34.8750013303757,2|0,0:0|0:0,0:0:0:0:
171,32,158906,5,0,1:0:0:0:
177,74,158979,1,0,1:0:0:0:
197,112,159052,1,0,1:0:0:0:
226,141,159125,1,0,1:0:0:0:
263,161,159198,1,8,1:0:0:0:
292,132,159271,1,0,1:0:0:0:
314,97,159345,1,0,1:0:0:0:
323,56,159418,1,0,1:0:0:0:
320,14,159491,6,0,L|292:35,1,34.875,4|0,0:1|0:0,0:0:0:0:
292,35,159784,6,0,L|300:105,1,69.7500026607514,8|0,1:0|0:0,0:0:0:0:
327,337,159930,1,2,0:0:0:0:
327,337,160003,1,2,0:0:0:0:
327,337,160076,2,0,P|258:339|200:302,1,139.500005321503,2|0,1:2|0:0,0:0:0:0:
431,183,160369,1,8,1:0:0:0:
102,356,160515,5,0,0:0:0:0:
102,356,160589,1,0,0:0:0:0:
102,356,160662,2,0,P|58:302|50:234,1,139.500005321503,2|0,1:2|0:0,0:0:0:0:
200,302,160881,1,2,0:0:0:0:
200,302,160954,2,0,P|191:233|147:180,1,139.500005321503,10|0,3:2|0:0,0:0:0:0:
86,135,161174,1,2,0:0:0:0:
86,135,161247,5,2,1:2:0:0:
344,186,161393,1,2,0:0:0:0:
49,234,161540,1,10,1:2:0:0:
376,83,161686,1,2,0:0:0:0:
402,357,161832,6,0,P|362:347|327:327,1,81.3750007760525,2|0,3:2|0:0,0:0:0:0:
266,256,161979,2,0,P|253:217|249:177,1,81.3750007760525,2|0,3:2|0:0,0:0:0:0:
497,261,162125,2,0,P|416:260|345:223,1,162.750001552105,10|0,3:2|0:0,0:0:0:0:
175,366,162345,1,2,0:0:0:0:
175,366,162418,2,0,P|255:365|327:327,1,162.750001552105,2|0,3:2|0:0,0:0:0:0:
116,221,162711,1,8,3:2:0:0:
459,113,162857,5,0,1:0:0:0:
417,88,162930,1,0,1:0:0:0:
375,63,163003,2,0,L|345:223,1,162.750001552105,2|0,3:2|0:0,0:0:0:0:
116,221,163296,2,0,L|146:61,1,162.750001552105,8|0,3:2|0:0,0:0:0:0:
251,343,163589,6,0,P|262:322|264:299,1,46.5,2|0,1:2|0:0,0:0:0:0:
193,278,163735,2,0,P|183:298|181:321,1,46.5,2|0,1:2|0:0,0:0:0:0:
26,382,163881,6,0,P|9:366|0:345,1,46.5,10|0,1:2|0:0,0:0:0:0:
61,298,164028,2,0,P|79:313|88:334,1,46.5,2|0,1:2|0:0,0:0:0:0:
397,383,164174,6,0,L|386:314,1,69.7500026607514,6|0,1:2|0:0,0:0:0:0:
342,92,164320,1,0,1:0:0:0:
332,165,164393,1,0,1:0:0:0:
375,229,164467,2,0,L|512:207,1,139.500005321503,10|0,1:2|0:0,0:0:0:0:
291,39,164759,2,0,B|223:49|223:49|197:93|197:93|108:107,1,209.250007982254,2|0,1:2|0:0,0:0:0:0:
54,25,165052,2,0,B|30:39|30:39|142:24,1,139.500005321503,8|0,1:2|0:0,0:0:0:0:
251,337,165345,6,0,B|219:307|219:307|124:321,1,139.500005321503,2|0,1:2|0:0,0:0:0:0:
0,204,165564,1,2,0:0:0:0:
0,204,165637,2,0,B|32:234|32:234|126:219,1,139.500005321503,10|0,1:2|0:0,0:0:0:0:
287,129,165857,1,2,0:0:0:0:
287,129,165930,1,2,1:2:0:0:
463,373,166076,1,2,0:0:0:0:
251,337,166223,1,10,1:2:0:0:
496,159,166369,1,2,0:0:0:0:
247,27,166515,6,0,L|185:37,1,62.7750002394676,2|0,3:2|0:0,0:0:0:0:
117,2,166662,2,0,L|80:53,1,62.7750002394676,2|0,3:2|0:0,0:0:0:0:
7,76,166808,2,0,L|17:137,1,62.7750002394676,10|0,3:2|0:0,0:0:0:0:
33,241,166954,5,2,0:0:0:0:
33,241,167028,1,2,0:0:0:0:
33,241,167101,2,0,P|60:227|91:222,1,62.7750002394676,2|0,3:2|0:0,0:0:0:0:
251,337,167247,1,2,0:0:0:0:
251,337,167320,1,2,0:0:0:0:
251,337,167393,2,0,P|199:302|137:292,1,125.550000478935,10|0,3:2|0:0,0:0:0:0:
325,174,167613,1,0,1:0:0:0:
287,243,167686,6,0,L|274:118,1,125.550000478935,2|0,3:2|0:0,0:0:0:0:
92,222,167979,2,0,L|79:97,1,125.550000478935,10|0,3:2|0:0,0:0:0:0:
251,337,168271,5,0,3:0:0:0:
441,278,168418,1,0,3:0:0:0:
464,59,168564,1,8,3:2:0:0:
274,118,168711,1,0,3:0:0:0:
31,0,168857,6,0,L|22:69,1,69.7500026607514,6|0,1:2|0:0,0:0:0:0:
44,358,169003,1,0,1:0:0:0:
22,287,169076,1,0,1:0:0:0:
0,216,169150,2,0,B|36:180|36:180|124:189,1,139.500005321503,10|0,1:2|0:0,0:0:0:0:
315,351,169442,2,0,B|253:383|253:383|215:324,1,139.500005321503,2|0,1:2|0:0,0:0:0:0:
302,143,169662,1,0,0:0:0:0:
302,143,169735,2,0,L|279:282,1,139.500005321503,8|0,1:0|0:0,0:0:0:0:
111,22,170028,6,0,P|159:70|227:74,1,139.500005321503,2|0,1:2|0:0,0:0:0:0:
283,284,170247,1,2,0:0:0:0:
283,284,170320,2,0,P|331:235|399:231,1,139.500005321503,10|0,1:2|0:0,0:0:0:0:
512,119,170540,1,2,0:0:0:0:
512,119,170613,1,2,1:2:0:0:
302,143,170759,1,2,0:0:0:0:
511,257,170906,1,10,1:2:0:0:
288,137,171052,1,2,0:0:0:0:
60,334,171198,6,0,L|46:253,1,81.3750007760525,2|0,3:2|0:0,0:0:0:0:
250,358,171345,2,0,L|282:283,1,81.3750007760525,2|0,3:2|0:0,0:0:0:0:
180,141,171491,2,0,L|160:301,1,162.750001552105,10|0,3:2|0:0,0:0:0:0:
117,73,171711,1,2,0:0:0:0:
117,73,171784,2,0,B|52:21|52:21|47:100,1,162.750001552105,2|0,3:2|0:0,0:0:0:0:
336,0,172076,6,0,B|308:32|308:32|318:69,1,81.3750007760525,8|0,3:2|0:0,0:0:0:0:
428,240,172223,1,0,1:0:0:0:
428,240,172296,1,0,1:0:0:0:
428,240,172369,2,0,B|481:175|481:175|463:98,1,162.750001552105,2|0,3:2|0:0,0:0:0:0:
275,265,172662,2,0,B|252:187|252:187|171:179,1,162.750001552105,10|0,3:2|0:0,0:0:0:0:
11,328,172954,6,0,L|56:317,1,46.5,2|0,1:2|0:0,0:0:0:0:
129,302,173101,2,0,L|174:291,1,46.5,2|0,1:2|0:0,0:0:0:0:
7,215,173247,6,0,L|52:205,1,46.5,10|0,1:2|0:0,0:0:0:0:
126,189,173393,2,0,L|171:179,1,46.5,2|0,1:2|0:0,0:0:0:0:
360,330,173540,6,0,P|369:296|367:261,1,69.7500026607514,6|0,1:2|0:0,0:0:0:0:
338,14,173686,1,0,1:0:0:0:
295,80,173759,1,0,1:0:0:0:
247,141,173832,2,0,L|109:119,1,139.500005321503,10|0,1:2|0:0,0:0:0:0:
410,25,174125,2,0,B|449:54|449:54|437:154,1,139.500005321503,2|0,1:2|0:0,0:0:0:0:
198,298,174418,2,0,B|159:269|159:269|170:179,1,139.500005321503,10|0,1:2|0:0,0:0:0:0:
432,301,174711,6,0,B|420:368|420:368|360:330,1,139.500005321503,2|0,1:2|0:0,0:0:0:0:
174,182,174930,1,2,0:0:0:0:
174,182,175003,2,0,B|185:249|185:249|244:211,1,139.500005321503,10|0,1:2|0:0,0:0:0:0:
374,111,175223,1,2,0:0:0:0:
374,111,175296,1,2,1:2:0:0:
266,368,175442,1,2,0:0:0:0:
183,101,175589,1,10,1:2:0:0:
75,358,175735,1,2,0:0:0:0:
7,45,175881,5,2,1:2:0:0:
263,92,176028,1,2,1:2:0:0:
183,101,176101,1,2,1:2:0:0:
103,111,176174,1,10,1:2:0:0:
341,3,176320,1,0,0:0:0:0:
341,3,176393,1,0,1:0:0:0:
26,205,176540,1,0,1:0:0:0:
26,205,176613,1,2,0:0:0:0:
173,24,176759,1,10,1:2:0:0:
356,161,176906,1,2,0:0:0:0:
183,101,177052,5,0,3:0:0:0:
183,101,177930,2,0,B|183:82|183:82|192:69|192:69|192:85|192:85|183:101,1,69.75,8|0,0:0|0:0,0:0:0:0:
126,164,178223,5,0,3:0:0:0:
156,240,178369,1,2,0:0:0:0:
367,232,178515,5,8,3:0:0:0:
337,308,178661,1,2,0:0:0:0:
296,186,178808,6,0,L|310:-17,1,186,0|8,3:0|3:0,0:0:0:0:
263,66,179247,1,2,0:0:0:0:
402,157,179393,6,0,P|479:184|484:71,1,209.250007982254,4|0,3:2|0:0,0:0:0:0:
479,45,179686,2,0,L|471:144,1,93,8|0,3:0|0:0,0:0:0:0:
461,286,179979,5,0,3:0:0:0:
319,364,180125,1,2,0:0:0:0:
287,287,180271,1,8,3:0:0:0:
134,254,180418,1,2,0:0:0:0:
7,352,180564,5,0,3:0:0:0:
208,289,180711,1,2,0:0:0:0:
192,370,180857,1,8,3:0:0:0:
134,254,181003,1,2,0:0:0:0:
69,306,181150,1,4,3:2:0:0:
223,205,181296,1,0,0:0:0:0:
71,119,181442,2,0,L|51:12,1,93,8|0,3:0|0:0,0:0:0:0:
137,1,181735,5,0,3:2:0:0:
317,92,181881,1,2,0:0:0:0:
236,116,182028,1,8,3:0:0:0:
297,12,182174,1,2,0:0:0:0:
337,172,182320,1,0,3:0:0:0:
497,100,182467,5,0,0:0:0:0:
483,270,182613,1,8,3:0:0:0:
489,186,182759,1,0,3:0:0:0:
442,198,182832,1,0,0:0:0:0:
395,209,182906,5,4,3:2:0:0:
297,12,183052,1,2,3:2:0:0:
284,232,183198,5,8,3:0:0:0:
297,12,183345,1,2,0:0:0:0:
176,197,183491,5,2,3:2:0:0:
297,12,183637,1,2,0:0:0:0:
120,91,183784,5,8,3:3:0:0:
235,104,183930,1,0,0:0:0:0:
348,117,184076,1,2,3:2:0:0:
336,328,184223,6,0,L|244:338,1,93,0|8,0:0|3:0,0:0:0:0:
165,376,184515,1,0,0:0:0:0:
59,276,184662,2,0,P|119:290|174:193,1,186,0|8,3:0|3:0,0:0:0:0:
96,203,185101,1,0,0:0:0:0:
323,239,185247,6,0,P|340:286|329:342,1,93,0|0,3:0|0:0,0:0:0:0:
419,367,185540,1,8,3:0:0:0:
503,275,185686,1,0,0:0:0:0:
396,170,185832,6,0,P|319:197|314:84,1,209.250007982254,2|0,3:2|0:0,0:0:0:0:
326,150,186125,2,0,L|319:58,1,93,8|0,3:0|0:0,0:0:0:0:
50,218,186418,5,2,3:2:0:0:
96,224,186491,1,0,0:0:0:0:
139,208,186564,1,2,0:3:0:0:
167,172,186637,1,2,0:3:0:0:
171,126,186711,1,8,3:2:0:0:
151,84,186784,1,0,0:0:0:0:
159,39,186857,1,2,0:3:0:0:
192,5,186930,1,2,0:3:0:0:
238,0,187003,1,0,3:0:0:0:
384,274,187150,5,0,0:3:0:0:
384,267,187223,1,0,0:3:0:0:
385,260,187296,1,0,0:3:0:0:
385,253,187369,1,0,0:3:0:0:
386,246,187442,2,0,L|390:203,2,23.25
406,28,187589,1,0,3:0:0:0:
332,103,187735,5,0,0:0:0:0:
332,103,187808,1,0,0:0:0:0:
332,103,187881,2,0,L|481:128,1,139.500005321503,8|0,3:0|0:0,0:0:0:0:
369,358,188174,5,0,3:0:0:0:
356,188,188320,2,0,L|452:205,1,69.7500026607514,2|0,0:1|0:0,0:0:0:0:
406,28,188467,1,8,3:0:0:0:
424,200,188613,2,0,L|356:188,1,69.7500026607514,2|0,0:1|0:0,0:0:0:0:
141,98,188759,6,2,P|170:254|14:227,4,372,4|8|0|8|0,3:1|3:0|3:1|3:0|3:1,1:0:0:0:
332,128,190076,5,2,0:0:0:0:
103,180,190223,1,8,3:0:0:0:
332,128,190369,1,0,0:0:0:0:
308,216,190515,5,2,3:2:0:0:
256,24,190662,1,0,0:0:0:0:
398,197,190808,5,8,3:0:0:0:
346,5,190955,1,0,0:0:0:0:
468,257,191101,5,2,3:2:0:0:
288,306,191247,1,0,0:0:0:0:
333,127,191393,5,8,3:0:0:0:
395,354,191540,1,2,0:0:0:0:
212,187,191686,5,2,3:2:0:0:
143,245,191832,1,2,0:0:0:0:
54,217,191979,1,8,3:0:0:0:
123,157,192125,2,0,L|116:116,2,34.8750013303757
159,330,192271,5,4,3:2:0:0:
99,38,192418,1,0,3:0:0:0:
159,330,192564,5,8,3:0:0:0:
99,38,192711,1,0,0:0:0:0:
333,127,192857,6,2,P|436:142|422:247,1,209.250007982254,2|0,3:1|0:0,1:0:0:0:
428,245,193150,2,0,L|342:233,1,69.7500026607514,8|0,3:0|0:0,0:0:0:0:
272,196,193296,2,0,L|202:205,1,69.7500026607514,2|2,0:1|0:2,0:0:0:0:
0,218,193442,6,0,P|-13:129|88:130,1,209.250007982254,2|0,3:1|0:0,0:0:0:0:
132,53,193735,6,2,P|200:184|32:189,2,372,8|0|8,3:0|3:2|3:0,1:0:0:0:
175,317,194467,1,0,0:0:0:0:
116,146,194613,6,0,L|334:188,1,209.250007982254,0|0,3:1|0:0,0:0:0:0:
292,267,194906,1,8,3:2:0:0:
337,275,194979,1,0,0:0:0:0:
381,260,195052,1,2,0:0:0:0:
409,223,195125,1,0,0:0:0:0:
408,176,195198,1,0,3:0:0:0:
420,131,195271,1,0,0:0:0:0:
456,100,195345,1,0,0:0:0:0:
502,94,195418,1,0,0:0:0:0:
491,172,195491,6,0,L|506:229,3,46.5,8|0|0|0,3:2|0:0|0:0|0:0,0:0:0:0:
473,243,195784,6,0,L|507:383,1,139.500005321503,0|0,3:0|0:0,0:0:0:0:
383,222,196076,6,0,L|413:347,1,116.25,8|0,3:2|0:0,0:0:0:0:
293,201,196369,6,0,L|316:301,1,93,0|2,3:0|0:0,0:0:0:0:
52,35,196954,5,0,1:2:0:0:
3,166,197101,2,0,B|106:188|106:188|74:107,1,186,2|0,0:0|0:0,0:0:0:0:
207,38,197540,1,2,0:0:0:0:
288,23,197686,1,0,1:0:0:0:
306,103,197832,1,8,0:0:0:0:
225,118,197978,1,0,0:0:0:0:
369,166,198125,6,0,L|356:264,1,93,2|0,1:2|0:0,0:0:0:0:
282,343,198418,1,8,0:0:0:0:
282,343,198564,1,2,1:2:0:0:
273,220,198711,6,0,P|232:247|185:239,1,93,2|0,0:0|0:0,0:0:0:0:
511,295,199003,2,0,P|467:285|441:248,1,93,10|2,0:0|0:0,0:0:0:0:
512,90,199296,6,0,B|458:53|458:53|487:193,1,186,2|8,1:2|0:0,0:0:0:0:
294,311,199735,5,2,0:0:0:0:
262,133,199881,1,2,0:0:0:0:
294,311,200028,1,2,1:2:0:0:
187,186,200174,2,0,P|165:141|171:96,1,93,10|0,0:0|0:0,0:0:0:0:
324,68,200467,6,0,B|378:31|378:31|349:171,1,186,2|8,1:2|0:0,0:0:0:0:
279,219,200906,1,2,1:2:0:0:
387,336,201052,5,2,0:0:0:0:
369,244,201198,1,0,0:0:0:0:
187,323,201345,5,8,0:0:0:0:
187,323,201418,1,0,1:0:0:0:
187,323,201491,1,0,1:0:0:0:
192,233,201637,6,0,B|155:293|155:293|39:263,1,186,2|8,3:2|0:0,0:0:0:0:
134,156,202076,1,2,0:0:0:0:
172,67,202223,6,0,L|268:89,1,93,2|0,0:0|0:0,0:0:0:0:
444,125,202515,2,0,L|354:105,1,93,10|0,0:0|0:0,0:0:0:0:
308,216,202808,5,2,1:2:0:0:
383,352,202954,1,0,0:0:0:0:
311,300,203101,1,8,0:0:0:0:
464,332,203247,1,2,1:2:0:0:
188,160,203393,5,0,0:0:0:0:
158,252,203540,1,2,1:2:0:0:
93,188,203686,1,8,0:0:0:0:
63,280,203833,1,0,0:0:0:0:
85,81,203979,5,2,1:2:0:0:
85,81,204052,1,2,0:0:0:0:
85,81,204125,2,0,L|-29:60,2,93,2|8|2,0:0|0:0|1:2,0:0:0:0:
155,134,204564,6,0,P|178:90|171:44,1,93,0|2,0:2|1:2,0:0:0:0:
219,19,204784,1,0,0:0:0:0:
271,43,204857,2,0,P|274:88|303:124,1,93,10|0,0:0|0:2,0:0:0:0:
363,60,205150,5,2,1:2:0:0:
383,261,205442,1,10,0:0:0:0:
466,223,205589,2,0,B|524:193|524:193|505:313,1,186
366,380,206028,5,10,0:0:0:0:
369,361,206101,1,0,1:0:0:0:
372,343,206174,1,0,1:0:0:0:
182,252,206320,6,0,P|88:212|41:327,1,232.5,6|8,3:2|0:0,0:0:0:0:
208,375,206759,1,2,0:2:0:0:
221,154,206906,5,2,0:0:0:0:
198,64,207052,1,0,0:0:0:0:
221,154,207198,2,0,L|247:268,1,93,10|0,0:0|0:0,0:0:0:0:
411,28,207491,5,2,1:2:0:0:
508,43,207637,1,0,0:0:0:0:
493,140,207784,1,8,0:0:0:0:
396,125,207930,1,0,1:2:0:0:
455,245,208076,5,0,0:0:0:0:
425,337,208223,1,0,1:0:0:0:
360,273,208369,1,8,0:0:0:0:
330,365,208516,1,0,0:0:0:0:
182,252,208662,6,0,P|103:239|41:327,1,186,2|8,1:2|0:0,0:0:0:0:
208,375,209101,1,2,0:2:0:0:
337,183,209247,5,2,0:0:0:0:
360,273,209393,1,0,0:0:0:0:
337,183,209539,2,0,L|311:69,1,93,10|0,0:0|0:0,0:0:0:0:
121,195,209832,6,0,P|171:133|126:35,1,186,2|8,1:2|0:0,0:0:0:0:
0,94,210271,2,0,L|97:114,1,93,2|0,1:2|0:0,0:0:0:0:
148,282,210564,1,0,1:0:0:0:
121,195,210711,6,0,L|338:237,1,209.250007982254,10|0,3:2|0:0,0:0:0:0:
334,319,211003,6,0,P|394:300|385:171,1,209.250007982254,2|0,3:2|0:0,0:0:0:0:
415,101,211296,1,8,0:0:0:0:
226,130,211442,1,2,0:0:0:0:
217,37,211589,6,0,L|227:141,1,93,2|0,0:0|0:0,0:0:0:0:
235,212,211881,2,0,L|244:305,1,93,10|0,0:0|0:0,0:0:0:0:
100,47,212174,5,2,1:2:0:0:
3,62,212320,1,0,0:0:0:0:
18,159,212467,1,8,0:0:0:0:
115,144,212613,1,0,1:0:0:0:
56,264,212759,5,0,0:0:0:0:
86,356,212906,1,0,1:0:0:0:
151,292,213052,1,8,0:0:0:0:
181,384,213199,1,0,0:0:0:0:
368,280,213345,5,2,1:2:0:0:
368,280,213637,1,8,0:2:0:0:
349,189,213784,1,0,0:0:0:0:
383,371,213930,1,0,0:0:0:0:
279,248,214076,1,2,1:2:0:0:
452,311,214223,1,8,0:0:0:0:
436,219,214369,1,2,0:0:0:0:
296,340,214515,6,0,B|523:95|523:95|200:23|200:23|292:322,1,976.50003725052,0|0,3:0|0:0,0:0:0:0:
19,168,215686,6,0,L|29:263,1,69.7500026607514,4|0,1:0|0:0,0:0:0:0:
19,168,215979,2,0,L|48:258,1,69.7500026607514,2|0,0:0|0:0,0:0:0:0:
19,168,216271,2,0,L|66:250,1,69.7500026607514,2|0,0:0|0:0,0:0:0:0:
19,168,216564,2,0,L|82:238,1,69.7500026607514,2|0,0:0|0:0,0:0:0:0:
19,168,216856,2,0,L|96:224,1,69.7500026607514,2|0,0:0|0:0,0:0:0:0:
19,168,217150,2,0,L|106:206,1,69.7500026607514,2|0,0:0|0:0,0:0:0:0:
19,168,217443,2,0,L|112:187,1,69.7500026607514,2|0,0:0|0:0,0:0:0:0:
19,168,217735,2,0,L|114:167,1,69.7500026607514,2|0,0:0|0:0,0:0:0:0:
180,145,218028,6,0,L|190:240,1,93,4|0,1:0|0:0,0:0:0:0:
180,145,218321,2,0,L|209:235,1,93,2|0,0:0|0:0,0:0:0:0:
180,145,218613,2,0,L|227:227,1,93,2|0,0:0|0:0,0:0:0:0:
180,145,218906,2,0,L|243:215,1,93,2|0,0:0|0:0,0:0:0:0:
180,145,219198,2,0,L|257:201,1,93,2|0,0:0|0:0,0:0:0:0:
180,145,219492,2,0,L|267:183,1,93,2|0,0:0|0:0,0:0:0:0:
180,145,219785,2,0,L|273:164,1,93,2|0,0:0|0:0,0:0:0:0:
201,58,220076,5,0,1:0:0:0:
247,64,220149,1,0,1:0:0:0:
293,70,220222,1,0,1:0:0:0:
339,76,220295,1,0,1:0:0:0:
385,83,220369,6,0,L|397:205,1,123.689994904129,4|0,1:0|0:0,0:0:0:0:
385,83,220662,2,0,L|422:199,1,123.689994904129,2|0,0:0|0:0,0:0:0:0:
385,83,220954,2,0,L|446:189,1,123.689994904129,2|0,0:0|0:0,0:0:0:0:
385,83,221247,2,0,L|467:174,1,123.689994904129,2|0,0:0|0:0,0:0:0:0:
385,83,221539,2,0,L|484:155,1,123.689994904129,2|0,0:0|0:0,0:0:0:0:
385,83,221833,2,0,L|497:132,1,123.689994904129,2|0,0:0|0:0,0:0:0:0:
385,83,222126,2,0,L|505:108,1,123.689994904129,2|0,0:0|0:0,0:0:0:0:
385,83,222418,2,0,L|507:82,1,123.689994904129,2|0,0:0|0:0,0:0:0:0:
214,20,222711,5,0,3:0:0:0:
193,42,222784,1,0,0:0:0:0:
180,70,222857,1,0,0:0:0:0:
177,101,222930,1,0,0:0:0:0:
184,131,223003,1,0,0:0:0:0:
200,157,223076,1,0,0:0:0:0:
224,176,223150,5,2,0:0:0:0:
255,228,223223,1,2,0:0:0:0:
242,287,223296,1,2,0:0:0:0:
193,322,223369,1,2,0:0:0:0:
133,313,223442,1,2,0:0:0:0:
95,266,223515,1,2,0:0:0:0:
97,205,223589,5,0,1:0:0:0:
354,228,223735,5,0,1:0:0:0:
370,284,223808,1,0,1:0:0:0:
386,342,223881,6,0,L|407:147,1,185.534992356194,4|0,1:0|0:0,0:0:0:0:
419,188,224174,6,0,L|401:355,1,139.5
421,312,224467,6,0,L|432:207,1,104.625003991127
447,111,224759,5,0,3:0:0:0:
130,193,225052,6,0,P|82:266|-7:245,1,186,2|10,3:2|0:0,0:0:0:0:
188,112,225491,2,0,L|174:2,1,93,2|0,0:2|0:0,0:0:0:0:
101,95,225784,1,0,1:2:0:0:
262,34,225930,2,0,L|274:127,1,93,10|0,0:2|0:0,0:0:0:0:
446,247,226223,6,0,P|476:210|451:124,1,139.5,2|0,1:2|0:0,0:0:0:0:
397,181,226515,1,10,0:0:0:0:
397,181,226662,2,0,L|409:274,1,93,0|0,1:2|0:0,0:0:0:0:
319,238,226954,2,0,L|331:331,1,93,0|10,1:2|0:2,0:0:0:0:
479,363,227247,1,0,0:0:0:0:
211,189,227393,6,0,P|168:217|113:211,1,93,2|0,3:2|0:0,0:0:0:0:
140,127,227686,1,10,0:0:0:0:
7,350,227832,6,0,P|50:378|105:372,1,93,0|0,0:2|0:0,0:0:0:0:
78,288,228125,1,0,1:2:0:0:
254,378,228271,1,10,0:2:0:0:
232,286,228418,1,0,0:0:0:0:
319,121,228564,6,0,L|426:130,1,93,2|0,1:2|0:0,0:0:0:0:
460,51,228857,1,10,0:0:0:0:
360,212,229003,6,0,L|467:221,1,93,0|2,0:0|0:0,0:0:0:0:
501,142,229296,1,0,0:0:0:0:
492,311,229442,5,0,1:0:0:0:
445,306,229515,1,0,1:0:0:0:
398,301,229589,1,0,1:0:0:0:
351,296,229662,1,0,1:0:0:0:
304,291,229735,1,2,3:2:0:0:
128,322,229881,5,2,0:2:0:0:
129,329,230027,1,2,0:2:0:0:
131,337,230173,1,2,0:2:0:0:
132,344,230320,1,0,0:2:0:0:
134,352,230466,1,2,0:2:0:0:
135,359,230612,1,2,0:2:0:0:
137,367,230759,1,2,0:2:0:0:
319,121,230906,5,2,3:2:0:0:
8,120,231052,5,2,0:2:0:0:
13,150,231198,1,2,0:0:0:0:
18,181,231344,1,2,0:2:0:0:
23,211,231491,1,2,0:2:0:0:
28,242,231637,1,2,0:2:0:0:
34,272,231783,1,2,0:0:0:0:
39,303,231930,1,2,0:2:0:0:
416,344,232076,5,4,1:0:0:0:
418,304,232149,1,0,0:0:0:0:
420,264,232222,1,0,0:0:0:0:
423,224,232295,1,0,0:0:0:0:
425,184,232368,1,8,1:0:0:0:
428,145,232441,1,0,0:0:0:0:
430,105,232515,1,0,0:0:0:0:
432,65,232588,1,0,0:0:0:0:
433,25,232662,5,0,1:0:0:0:
481,69,232735,1,0,0:0:0:0:
506,129,232808,1,0,0:0:0:0:
504,195,232881,1,0,0:0:0:0:
474,253,232954,1,8,1:0:0:0:
422,294,233027,1,0,1:0:0:0:
358,309,233101,1,0,1:0:0:0:
293,295,233174,1,0,1:0:0:0:
240,256,233247,1,4,1:0:0:0:
94,177,233393,5,0,0:0:0:0:
75,106,233467,1,0,0:0:0:0:
53,38,233540,2,2,B|144:15|144:15|82:122,1,186,0|0,0:0|0:0,0:1:0:0:
468,152,233832,5,0,0:0:0:0:
470,142,233906,1,2,0:3:0:0:
473,131,233979,1,10,0:3:0:0:
475,121,234052,2,0,P|527:232|397:213,1,279.000010643006
396,195,234418,5,0,3:2:0:0:
380,84,234711,6,0,L|373:21,4,61.3799998126831,8|8|8|8|8,0:3|0:3|0:3|0:3|0:3,0:0:0:0:
411,357,236174,5,8,0:3:0:0:
411,357,236320,1,8,0:3:0:0:
411,357,236467,1,2,0:0:0:0:
411,357,236613,1,2,0:0:0:0:
101,163,236759,6,0,L|113:256,1,69.7500026607514,6|0,1:2|0:0,0:0:0:0:
194,311,236906,1,0,1:0:0:0:
124,344,236979,1,0,1:0:0:0:
49,328,237052,1,10,1:2:0:0:
90,72,237198,5,0,0:0:0:0:
90,72,237271,1,0,0:0:0:0:
90,72,237345,1,2,1:2:0:0:
285,16,237491,2,0,L|277:119,1,69.7500026607514,2|0,0:0|0:0,0:0:0:0:
271,174,237637,1,10,1:2:0:0:
90,72,237784,1,2,0:0:0:0:
377,100,237930,5,0,1:0:0:0:
259,267,238076,1,2,0:0:0:0:
185,79,238223,1,10,1:2:0:0:
472,114,238369,5,2,0:0:0:0:
472,114,238442,1,0,0:0:0:0:
472,114,238515,2,0,L|481:199,1,69.7500026607514,2|0,1:2|0:0,0:0:0:0:
399,314,238662,2,0,L|408:229,1,69.7500026607514,2|0,0:0|0:0,0:0:0:0:
318,136,238808,2,0,L|327:221,1,69.7500026607514,10|0,1:2|0:0,0:0:0:0:
251,336,238955,2,0,L|260:251,1,69.7500026607514,2|0,0:2|0:0,0:0:0:0:
118,73,239101,6,0,P|39:39|59:172,1,279,2|0,1:2|0:0,0:0:0:0:
119,181,239393,6,0,L|33:170,1,69.7500026607514,10|0,1:2|0:0,0:0:0:0:
123,358,239540,2,0,L|37:369,1,69.7500026607514
87,264,239686,1,2,1:2:0:0:
71,265,239759,1,0,0:0:0:0:
56,266,239832,1,2,0:0:0:0:
195,131,239979,6,0,L|281:120,1,69.7500026607514,10|0,1:2|0:0,0:0:0:0:
340,283,240125,2,0,L|426:294,1,69.7500026607514,2|0,0:0|0:0,0:0:0:0:
466,201,240271,6,0,B|533:130|533:130|498:332,1,279,2|0,1:2|0:0,0:0:0:0:
502,308,240564,2,0,B|435:379|435:379|470:177,1,279,10|0,1:2|0:0,0:0:0:0:
424,98,240857,6,0,L|430:57,1,34.8750013303757,2|0,1:0|0:0,0:0:0:0:
424,98,241003,6,0,L|430:57,1,34.8750013303757,2|0,0:1|0:0,0:0:0:0:
424,98,241150,6,0,L|430:57,1,34.8750013303757,10|0,1:0|0:0,0:0:0:0:
424,98,241296,6,0,L|430:57,1,34.8750013303757,2|0,0:1|0:0,0:0:0:0:
80,27,241442,6,0,L|92:120,1,69.7500026607514,6|0,1:2|0:0,0:0:0:0:
173,175,241589,1,0,1:0:0:0:
103,208,241662,1,0,1:0:0:0:
28,192,241735,1,10,1:2:0:0:
273,90,241881,5,0,0:0:0:0:
275,76,241954,1,0,0:0:0:0:
278,62,242028,1,2,1:2:0:0:
456,341,242174,5,2,0:0:0:0:
346,349,242320,1,10,1:2:0:0:
260,276,242467,5,2,0:0:0:0:
262,262,242540,1,0,0:0:0:0:
265,248,242614,1,0,1:0:0:0:
496,191,242759,5,0,0:0:0:0:
498,177,242832,1,0,0:0:0:0:
501,162,242906,6,0,P|440:120|420:258,1,279,10|0,1:2|0:0,0:0:0:0:
438,190,243198,1,0,1:0:0:0:
353,119,243345,5,2,0:2:0:0:
355,105,243418,1,0,0:0:0:0:
358,90,243492,6,0,P|297:48|277:186,1,279,10|0,1:2|0:0,0:0:0:0:
295,118,243784,1,2,1:2:0:0:
92,140,243930,6,0,L|-5:151,1,69.7500026607514
128,332,244076,2,0,L|225:343,1,69.7500026607514,10|0,1:2|0:0,0:0:0:0:
152,70,244223,5,0,0:0:0:0:
152,70,244296,1,0,0:0:0:0:
152,70,244369,2,0,L|165:-4,1,69.7500026607514,2|2,1:2|0:0,0:0:0:0:
209,271,244515,2,0,L|196:345,1,69.7500026607514,2|0,0:2|0:0,0:0:0:0:
233,104,244662,2,0,L|246:30,1,69.7500026607514,10|0,1:2|0:0,0:0:0:0:
290,305,244808,2,0,L|277:379,1,69.7500026607514
496,72,244954,6,0,L|333:93,1,139.500005321503,0|0,3:0|3:0,0:0:0:0:
323,185,245174,1,0,0:0:0:0:
323,185,245247,1,10,3:2:0:0:
497,322,245393,1,2,0:2:0:0:
496,72,245540,6,0,B|525:195|525:195|442:152,1,209.250007982254,2|0,3:2|0:0,0:0:0:0:
434,151,245832,6,0,P|386:168|466:240,1,209.250007982254,8|0,0:0|0:0,0:0:0:0:
497,322,246125,5,4,1:2:0:0:
468,102,246271,1,0,1:0:0:0:
461,175,246345,1,0,1:0:0:0:
456,248,246418,1,10,1:2:0:0:
154,185,246564,5,0,0:0:0:0:
157,203,246638,1,0,0:0:0:0:
160,221,246711,1,0,1:0:0:0:
27,63,246857,6,0,L|115:82,1,69.7500026607514,2|0,0:1|0:0,0:0:0:0:
321,8,247003,1,8,1:2:0:0:
27,63,247150,6,0,L|118:46,1,69.7500026607514,2|0,0:1|0:0,0:0:0:0:
296,298,247296,6,2,B|216:275|216:275|153:183|153:183|132:304|132:304|40:374,4,418.500015964509,4|8|0|8|0,1:0|1:2|1:0|1:2|1:0,0:1:0:0:
272,194,248613,6,0,L|339:172,1,69.7500026607514
117,252,248759,1,8,1:2:0:0:
422,135,248906,5,0,0:0:0:0:
425,119,248979,1,0,0:0:0:0:
429,103,249052,2,0,P|483:86|477:207,1,209.250007982254,0|0,1:0|0:0,0:0:0:0:
366,4,249345,2,0,P|312:-13|318:108,1,209.250007982254,10|0,1:2|0:0,0:0:0:0:
309,111,249637,5,0,1:0:0:0:
291,364,249784,1,0,0:0:0:0:
29,38,249930,5,8,1:2:0:0:
47,337,250076,1,2,0:0:0:0:
59,346,250150,1,2,0:0:0:0:
72,353,250223,6,0,L|75:314,1,34.8750013303757,2|0,1:0|0:0,0:0:0:0:
72,353,250369,6,0,L|75:314,1,34.8750013303757,2|0,0:1|0:0,0:0:0:0:
72,353,250515,6,0,L|75:314,1,34.8750013303757,10|0,1:1|0:0,0:0:0:0:
72,353,250662,6,0,L|75:314,1,34.8750013303757,2|0,0:1|0:0,0:0:0:0:
413,219,250808,6,0,L|329:209,1,69.7500026607514,6|0,1:2|0:0,0:0:0:0:
256,269,250954,1,0,1:0:0:0:
237,195,251028,1,0,1:0:0:0:
263,125,251101,1,10,1:0:0:0:
505,239,251247,5,0,0:0:0:0:
506,225,251320,1,0,0:0:0:0:
507,210,251393,2,0,L|514:127,1,69.7500026607514,2|0,1:0|0:0,0:0:0:0:
205,141,251540,2,0,L|212:58,1,69.7500026607514
428,197,251686,2,0,L|435:114,1,69.7500026607514,10|0,1:0|0:0,0:0:0:0:
126,128,251833,2,0,L|133:45,1,69.7500026607514,2|2,0:1|0:0,0:0:0:0:
421,11,251979,6,2,P|348:13|362:134,1,209.250007982254,2|0,1:0|0:0,1:0:0:0:
358,137,252271,6,2,P|395:248|195:205,2,418.500015964509,10|0|8,1:0|1:0|1:2,1:1:0:0:
297,218,253003,1,2,0:0:0:0:
81,36,253150,5,0,1:0:0:0:
97,196,253296,1,0,0:0:0:0:
99,215,253369,1,0,1:0:0:0:
101,233,253442,1,8,1:0:0:0:
17,153,253589,5,0,0:0:0:0:
84,116,253662,2,0,L|235:135,1,139.500005321503,0|0,1:2|1:0,0:0:0:0:
302,168,253881,6,0,B|331:151|331:151|302:116,1,69.7500026607514,0|0,1:0|0:0,0:0:0:0:
388,80,254028,6,0,B|417:63|417:63|388:28,1,69.7500026607514,8|0,1:2|0:0,0:0:0:0:
458,186,254174,6,0,B|487:169|487:169|458:134,1,69.7500026607514,0|0,1:2|0:0,0:0:0:0:
458,186,254320,6,0,P|501:291|363:291,1,279,0|0,1:0|0:0,0:0:0:0:
376,180,254613,6,0,P|409:259|305:259,1,209.250007982254,0|0,1:0|0:0,0:0:0:0:
299,175,254906,6,0,P|325:238|242:238,1,167.399994891358,0|0,1:0|0:0,0:0:0:0:
234,241,255198,1,8,0:2:0:0:
465,85,255491,5,0,3:0:0:0:
493,243,255637,1,0,1:0:0:0:
414,170,255784,6,0,B|340:156|340:156|373:243,1,153.450004682922,10|0,1:2|0:0,0:0:0:0:
375,251,256076,2,0,P|367:322|244:323,1,204.600006243897,2|8,1:2|1:2,0:0:0:0:
106,193,256515,1,0,0:0:0:0:
83,281,256662,2,0,P|23:241|46:121,1,204.600006243897,2|10,1:2|1:2,0:0:0:0:
302,27,257247,5,2,1:2:0:0:
286,213,257393,1,2,0:0:0:0:
294,120,257540,1,10,1:2:0:0:
278,306,257686,1,0,0:0:0:0:
198,110,257832,5,2,1:2:0:0:
390,131,257979,1,2,0:0:0:0:
110,147,258125,2,0,L|95:23,1,102.300003121948,10|0,1:2|0:0,0:0:0:0:
110,147,258418,6,0,P|49:159|48:292,1,204.600006243897,2|8,1:2|1:2,0:0:0:0:
197,249,258857,1,2,0:0:0:0:
301,26,259003,2,0,P|362:38|363:171,1,204.600006243897,2|8,1:2|1:0,0:0:0:0:
375,161,259442,2,0,L|266:184,1,102.300003121948,2|2,1:2|0:0,0:0:0:0:
438,237,259735,1,2,1:2:0:0:
438,237,259881,2,0,L|329:260,1,102.300003121948,10|0,1:2|0:0,0:0:0:0:
202,361,260174,5,6,1:2:0:0:
25,332,260320,1,0,1:0:0:0:
114,344,260467,6,0,L|97:184,1,153.450004682922,10|0,1:2|0:0,0:0:0:0:
186,187,260759,2,0,P|142:111|20:136,1,204.600006243897,2|10,1:2|1:2,0:0:0:0:
301,29,261198,1,0,0:0:0:0:
259,108,261345,2,0,P|356:104|396:16,1,204.600006243897,2|10,1:2|1:2,0:0:0:0:
391,252,261930,5,2,1:2:0:0:
404,352,262076,1,2,0:0:0:0:
508,340,262223,1,10,1:2:0:0:
498,240,262369,1,0,0:0:0:0:
250,378,262515,5,2,1:2:0:0:
250,378,262808,1,8,1:2:0:0:
266,176,262954,1,2,0:0:0:0:
259,275,263101,1,2,1:2:0:0:
74,139,263247,5,2,0:0:0:0:
61,38,263393,2,0,L|77:161,1,102.300003121948,10|0,1:2|0:0,0:0:0:0:
160,203,263686,6,0,P|206:149|173:15,1,204.600006243897,2|8,3:2|3:2,0:0:0:0:
348,239,264125,1,2,0:0:0:0:
428,183,264271,6,0,P|474:237|441:371,1,204.600006243897,2|8,3:2|0:3,0:0:0:0:
414,329,264857,6,0,L|400:228,1,102.300003121948,2|2,1:2|1:2,0:0:0:0:
422,134,265150,2,0,B|481:156|481:156|495:255,1,153.450004682922,10|0,1:2|0:0,0:0:0:0:
400,228,265442,6,0,P|338:227|336:105,1,204.600006243897,2|10,1:2|1:2,0:0:0:0:
150,144,265881,1,0,0:0:0:0:
101,43,266028,2,0,P|119:134|29:161,1,204.600006243897,2|10,1:2|1:2,0:0:0:0:
300,27,266613,1,2,1:2:0:0:
316,213,266759,1,2,0:0:0:0:
308,120,266906,1,10,1:2:0:0:
324,306,267052,1,0,0:0:0:0:
404,110,267198,5,2,1:2:0:0:
212,131,267345,1,2,0:2:0:0:
492,147,267491,2,0,L|507:23,1,102.300003121948,10|0,1:2|0:0,0:0:0:0:
492,147,267784,6,0,P|414:147|371:257,1,204.600006243897,2|10,1:2|1:2,0:0:0:0:
495,288,268223,1,2,0:0:0:0:
237,39,268369,6,0,L|199:44,1,34.875,0|0,3:0|0:0,0:0:0:0:
199,248,268662,6,0,L|161:253,1,34.875,0|0,3:0|0:0,0:0:0:0:
54,148,268954,6,0,L|16:153,1,34.875,0|0,3:0|0:0,0:0:0:0:
79,384,269247,5,8,3:2:0:0:
474,252,269540,6,0,L|470:311,1,51.1500015609742,2|0,1:2|0:0,0:0:0:0:
398,268,269686,2,0,L|394:327,1,51.1500015609742,2|0,0:0|0:0,0:0:0:0:
401,135,269832,6,0,L|397:194,1,51.1500015609742,10|0,1:2|0:0,0:0:0:0:
325,151,269978,2,0,L|321:210,1,51.1500015609742,2|0,0:0|0:0,0:0:0:0:
261,300,270125,6,0,L|257:359,1,51.1500015609742,2|0,1:2|0:0,0:0:0:0:
185,316,270271,2,0,L|181:375,1,51.1500015609742,2|0,0:0|0:0,0:0:0:0:
188,183,270417,6,0,L|184:242,1,51.1500015609742,10|0,1:2|0:0,0:0:0:0:
112,199,270563,2,0,L|108:258,1,51.1500015609742,2|0,0:0|0:0,0:0:0:0:
7,120,270711,6,0,L|11:61,1,51.1500015609742,2|0,1:2|0:0,0:0:0:0:
83,104,270857,2,0,L|87:45,1,51.1500015609742,2|0,0:0|0:0,0:0:0:0:
108,250,271003,6,0,L|112:309,1,51.1500015609742,10|0,1:2|0:0,0:0:0:0:
184,266,271149,2,0,L|188:325,1,51.1500015609742,2|0,0:0|0:0,0:0:0:0:
190,93,271296,6,0,L|194:34,1,51.1500015609742,2|0,1:2|0:0,0:0:0:0:
266,77,271442,2,0,L|270:18,1,51.1500015609742,2|0,0:0|0:0,0:0:0:0:
291,223,271588,6,0,L|295:282,1,51.1500015609742,10|0,1:2|0:0,0:0:0:0:
367,239,271734,2,0,L|371:298,1,51.1500015609742,2|0,0:0|0:0,0:0:0:0:
290,133,271881,5,2,1:2:0:0:
239,123,271954,1,0,0:0:0:0:
189,137,272028,1,2,0:0:0:0:
161,179,272101,1,2,0:0:0:0:
158,229,272174,1,10,1:2:0:0:
130,271,272247,1,0,0:0:0:0:
83,290,272320,1,2,0:2:0:0:
32,282,272393,1,0,0:0:0:0:
0,242,272467,5,2,1:2:0:0:
18,230,272540,1,0,0:0:0:0:
37,217,272613,1,2,0:2:0:0:
57,204,272686,1,0,0:0:0:0:
76,189,272759,5,10,1:2:0:0:
74,167,272832,1,0,0:0:0:0:
72,144,272905,1,2,0:0:0:0:
69,122,272978,1,0,0:0:0:0:
0,75,273052,5,8,0:3:0:0:
17,156,273345,5,8,0:3:0:0:
34,235,273637,5,8,0:3:0:0:
51,314,273930,5,0,0:0:0:0:
420,52,274223,6,0,L|411:146,1,69.7500026607514,0|0,1:0|0:0,0:0:0:0:
478,224,274370,1,0,1:0:0:0:
400,234,274443,1,0,1:0:0:0:
330,201,274516,1,8,1:2:0:0:
332,61,274662,5,2,0:0:0:0:
331,75,274735,1,0,0:0:0:0:
330,89,274808,1,0,0:0:0:0:
502,102,274954,5,2,0:1:0:0:
239,69,275101,1,8,1:2:0:0:
502,102,275247,1,2,0:0:0:0:
314,166,275393,6,2,P|444:76|393:233,4,418.500015964509,0|8|0|8|0,1:0|1:2|1:0|1:2|1:0,1:1:0:0:
92,247,276711,6,0,P|45:298|-27:280,1,139.500005321503,2|8,0:0|1:2,0:0:0:0:
19,216,277003,1,2,0:0:0:0:
20,202,277076,1,0,0:0:0:0:
21,188,277149,1,0,1:0:0:0:
223,149,277296,6,0,P|225:218|162:256,1,139.500005321503,2|8,0:0|1:2,0:0:0:0:
149,175,277589,1,2,0:0:0:0:
139,164,277662,1,0,0:0:0:0:
130,153,277735,1,0,1:0:0:0:
255,0,277881,6,0,P|306:46|288:119,1,139.500005321503,2|8,0:0|1:2,0:0:0:0:
227,69,278174,1,2,0:0:0:0:
212,68,278247,1,0,0:0:0:0:
198,66,278320,1,0,1:0:0:0:
33,14,278467,5,0,0:2:0:0:
39,100,278613,1,8,1:2:0:0:
45,186,278759,1,0,0:2:0:0:
225,115,278906,6,0,L|303:110,1,69.7500026607514,0|0,1:0|0:0,0:0:0:0:
387,168,279052,1,0,1:0:0:0:
393,102,279125,1,0,1:0:0:0:
397,37,279198,1,10,1:0:0:0:
497,267,279345,5,0,0:0:0:0:
497,267,279491,2,0,L|405:256,1,69.7500026607514,2|0,1:0|0:0,0:0:0:0:
324,352,279637,2,0,L|232:363,1,69.7500026607514
487,187,279784,2,0,L|395:176,1,69.7500026607514,10|0,1:0|0:0,0:0:0:0:
314,272,279930,1,2,0:1:0:0:
314,272,280003,1,2,0:0:0:0:
314,272,280076,6,0,L|222:283,1,69.7500026607514,2|0,3:1|0:0,0:0:0:0:
196,40,280223,2,0,L|104:29,1,69.7500026607514
0,76,280369,6,2,P|96:-12|53:148,2,418.500015964509,8|0|8,1:2|1:2|1:2,1:1:0:0:
81,69,281101,1,0,0:0:0:0:
146,244,281247,5,0,1:2:0:0:
181,362,281393,1,0,1:0:0:0:
106,318,281540,2,0,P|160:331|222:279,1,139.5,10|0,1:2|2:0,0:0:0:0:
288,323,281832,6,0,P|300:278|277:225,1,104.625003991127,2|0,1:2|0:0,0:0:0:0:
352,158,282125,6,0,L|277:148,1,69.7500026607514,10|0,1:2|0:0,0:0:0:0:
207,136,282345,1,0,1:0:0:0:
190,134,282418,1,0,1:0:0:0:
419,264,282564,5,2,0:0:0:0:
383,0,282711,1,8,1:2:0:0:
418,264,282857,1,2,0:0:0:0:
393,79,283003,5,0,1:2:0:0:
478,105,283150,1,2,1:2:0:0:
484,328,283296,5,10,1:2:0:0:
399,354,283443,1,0,1:0:0:0:
386,360,283515,1,0,0:0:0:0:
373,366,283589,1,4,1:2:0:0:
306,139,283735,5,2,1:2:0:0:
299,219,283808,1,2,1:2:0:0:
292,299,283881,1,10,1:2:0:0:
227,151,284028,5,2,0:0:0:0:
221,216,284101,1,0,0:0:0:0:
216,280,284174,1,2,1:2:0:0:
434,232,284320,5,2,0:1:0:0:
144,215,284467,1,10,3:2:0:0:
434,232,284613,1,2,0:0:0:0:
57,220,284759,6,2,P|-8:92|168:136,4,418.500015964509,4|8|0|8|0,1:0|1:2|1:0|1:2|1:0,1:1:0:0:
307,197,286076,6,0,L|220:185,1,69.7500026607514,2|0,0:0|0:0,0:0:0:0:
78,172,286223,1,8,1:2:0:0:
338,283,286369,5,2,0:0:0:0:
379,257,286442,1,0,0:0:0:0:
398,209,286515,1,0,1:2:0:0:
389,158,286588,1,0,0:0:0:0:
355,120,286661,1,2,0:0:0:0:
358,9,286808,1,8,3:2:0:0:
512,167,286954,5,2,0:0:0:0:
498,174,287028,1,0,0:0:0:0:
484,181,287101,2,0,L|476:275,1,69.7500026607514,0|0,1:0|0:0,0:0:0:0:
468,341,287247,1,2,0:0:0:0:
237,187,287393,5,8,3:1:0:0:
161,235,287540,1,2,0:0:0:0:
148,184,287613,1,0,0:0:0:0:
162,133,287686,1,0,1:2:0:0:
389,206,287832,6,0,L|309:196,1,69.7500026607514,2|0,0:0|0:0,0:0:0:0:
237,187,287979,2,0,L|157:177,1,69.7500026607514,8|0,1:2|0:0,0:0:0:0:
19,267,288125,5,2,0:0:0:0:
19,267,288198,1,2,0:0:0:0:
19,267,288271,2,0,L|31:184,1,69.7500026607514,4|0,1:2|0:0,0:0:0:0:
43,114,288418,2,0,L|55:31,1,69.7500026607514,2|2,1:2|1:2,0:0:0:0:
398,136,288564,2,0,L|386:219,1,69.7500026607514,10|0,1:0|0:0,0:0:0:0:
374,289,288711,2,0,L|362:372,1,69.7500026607514,2|0,0:2|0:0,0:0:0:0:
139,354,288857,6,2,L|117:278,1,69.7500026607514,2|0,1:0|0:0,1:0:0:0:
257,267,289003,2,0,L|189:227,1,69.7500026607514
272,130,289150,2,0,L|191:145,1,69.7500026607514,8|0,3:2|0:0,0:0:0:0:
221,11,289296,2,0,L|165:62,1,69.7500026607514,2|2,0:1|0:0,0:0:0:0:
80,351,289442,6,2,P|155:351|171:237,1,209.250007982254,2|0,1:0|0:0,1:0:0:0:
58,179,289735,6,2,P|46:373|190:309,2,418.500015964509,8|0|8,1:2|1:0|1:2,0:1:0:0:
93,273,290467,1,0,0:0:0:0:
512,217,290613,6,0,B|538:227|538:227|503:395,1,186,10|0,3:0|0:0,0:0:0:0:
512,217,290906,6,0,B|523:242|523:242|379:336,1,186,10|0,3:0|0:0,0:0:0:0:
512,217,291198,6,0,B|502:242|502:242|334:207,1,186,10|0,3:0|0:0,0:0:0:0:
430,18,291491,6,0,B|51:82|51:82|195:102,1,488.250004656315,0|0,3:0|0:0,0:0:0:0:
153,96,291784,1,4,1:0:0:0:
256,192,292369,6,0,L|257:94,1,93,2|0,0:0|0:0,0:0:0:0:
256,191,292954,5,0,1:0:0:0:
111,250,293101,1,0,1:0:0:0:
111,250,293174,1,0,1:0:0:0:
111,250,293247,2,0,L|178:229,1,69.7500026607514,8|0,1:3|0:0,0:0:0:0:
256,191,293540,5,0,1:0:0:0:
132,95,293832,2,0,L|184:142,1,69.7500026607514,8|0,1:3|0:0,0:0:0:0:
256,191,294125,5,0,1:0:0:0:
277,36,294418,2,0,L|262:105,1,69.7500026607514,8|0,1:3|0:0,0:0:0:0:
256,192,294711,5,0,1:0:0:0:
400,133,295003,2,0,L|334:155,1,69.7500026607514,8|0,1:3|0:0,0:0:0:0:
256,192,295296,5,0,1:0:0:0:
256,192,295442,1,0,1:0:0:0:
256,192,295589,1,8,1:3:0:0:
378,288,295881,2,0,L|327:241,1,69.7500026607514,0|0,1:0|0:0,0:0:0:0:
256,192,296174,5,8,1:3:0:0:
233,346,296393,1,0,1:0:0:0:
234,346,296467,2,0,L|249:278,1,69.7500026607514,0|0,1:0|0:0,0:0:0:0:
256,192,296759,5,8,1:3:0:0:
178,229,297052,2,0,L|111:250,1,69.7500026607514,0|0,1:0|1:0,3:0:0:0:
262,105,297345,2,0,L|277:37,1,69.7500026607514,8|0,1:3|1:0,3:0:0:0:
327,241,297637,2,0,L|378:288,1,69.7500026607514,0|0,1:0|1:0,0:0:0:0:
256,192,297857,5,0,1:0:0:0:
256,192,297930,1,8,1:3:0:0:
134,96,298223,2,0,L|185:143,1,69.7500026607514,0|0,1:0|0:0,0:0:0:0:
256,192,298515,5,8,1:3:0:0:
309,46,298808,2,0,L|280:109,1,69.7500026607514,0|0,1:0|0:0,0:0:0:0:
256,192,299101,5,8,1:3:0:0:
411,197,299393,2,0,L|342:189,1,69.7500026607514,0|0,1:0|0:0,0:0:0:0:
256,192,299686,5,8,1:3:0:0:
256,192,299979,5,0,1:0:0:0:
256,192,300125,1,0,1:0:0:0:
256,192,300271,1,8,1:3:0:0:
298,341,300564,2,0,L|284:273,1,69.7500026607514,0|0,1:0|0:0,0:0:0:0:
256,192,300857,5,8,1:3:0:0:
127,277,301076,1,0,1:0:0:0:
127,277,301150,2,0,L|187:243,1,69.7500026607514,0|0,1:0|0:0,0:0:0:0:
256,192,301442,5,8,1:3:0:0:
256,192,301735,5,0,1:0:0:0:
256,192,301881,1,0,1:0:0:0:
256,192,302028,1,8,1:3:0:0:
256,192,302174,1,0,1:0:0:0:
256,192,302320,5,4,1:2:0:0:
246,277,302467,1,0,1:0:0:0:
246,277,302540,1,0,1:0:0:0:
246,277,302613,1,8,1:3:0:0:
270,113,302906,1,0,1:3:0:0:
181,225,303198,1,8,1:3:0:0:
335,163,303491,1,0,1:3:0:0:
191,145,303784,1,8,1:3:0:0:
321,247,304076,1,0,1:3:0:0:
270,113,304369,1,8,1:3:0:0:
256,192,304662,5,0,1:0:0:0:
256,192,304808,1,0,1:0:0:0:
256,192,304954,1,8,1:3:0:0:
372,96,305247,5,0,1:0:0:0:
217,337,305540,1,8,1:3:0:0:
201,51,305759,1,0,1:0:0:0:
201,51,305832,1,0,1:0:0:0:
382,273,306125,1,8,1:3:0:0:
106,200,306418,1,0,1:3:0:0:
256,192,306564,5,0,1:0:0:0:
256,192,306711,1,8,1:3:0:0:
256,192,306857,1,0,1:3:0:0:
256,192,307003,1,0,1:0:0:0:
153,74,307150,5,0,1:0:0:0:
153,74,307223,1,0,1:0:0:0:
153,74,307296,1,8,1:3:0:0:
374,89,307589,1,0,1:3:0:0:
138,295,307881,1,8,1:3:0:0:
359,310,308174,1,0,1:3:0:0:
153,74,308467,1,8,1:3:0:0:
374,89,308759,1,0,1:3:0:0:
138,295,309052,1,8,1:3:0:0:
256,192,309345,5,0,1:0:0:0:
256,192,309491,1,0,1:0:0:0:
256,192,309637,1,8,1:3:0:0:
256,192,309930,1,0,1:0:0:0:
256,192,310223,1,8,1:3:0:0:
244,291,310442,1,0,1:0:0:0:
270,329,310516,1,0,1:0:0:0:
256,192,310808,6,0,L|256:51,1,139.5,4|0,0:0|0:0,2:0:0:0:
