osu file format v14

[General]
AudioFilename: audio.mp3
AudioLeadIn: 0
PreviewTime: 96471
Countdown: 0
SampleSet: Normal
StackLeniency: 0.7
Mode: 1
LetterboxInBreaks: 0
WidescreenStoryboard: 1

[Editor]
Bookmarks: 97378,108165,129738,162097,237603,249738,271311,292884,314457,357603
DistanceSpacing: 0.1
BeatDivisor: 4
GridSize: 8
TimelineZoom: 4.299999

[Metadata]
Title:Showdown
TitleUnicode:Showdown
Artist:USAO
ArtistUnicode:USAO
Creator:radar
Version:Final Battle
Source:
Tags:vrnl electronic english instrumental collab diverse system ad:drum'n bass 2 drum and drumstep kicks kick's for liberation 5 uom records dnb dubstep house techno trance Japan
BeatmapID:2266075
BeatmapSetID:1083470

[Difficulty]
HPDrainRate:6
CircleSize:5
OverallDifficulty:7
ApproachRate:5
SliderMultiplier:1.4
SliderTickRate:1

[Events]
//Background and Video events
0,0,"sdada.jpg",0,0
//Break Periods
//Storyboard Layer 0 (Background)
//Storyboard Layer 1 (Fail)
//Storyboard Layer 2 (Pass)
//Storyboard Layer 3 (Foreground)
//Storyboard Layer 4 (Overlay)
//Storyboard Sound Samples

[TimingPoints]
741,337.078651685393,4,1,0,65,1,0
741,-125,4,1,0,65,0,0
11527,-111.111111111111,4,1,0,65,0,0
22314,-100,4,1,0,65,0,0
44055,-125,4,1,0,30,0,0
54673,-111.111111111111,4,1,0,40,0,0
65460,-100,4,1,0,65,0,0
92763,-95.2380952380952,4,1,0,65,0,0
93437,-90.9090909090909,4,1,0,65,0,0
94111,-86.9565217391304,4,1,0,65,0,0
94785,-83.3333333333333,4,1,0,65,0,0
96639,-100,4,1,0,65,0,0
97819,-90.9090909090909,4,1,0,75,0,1
107257,-90.9090909090909,4,1,0,65,0,0
107426,-100,4,1,0,65,0,0
108437,-90.9090909090909,4,1,0,65,0,0
108606,-90.9090909090909,4,1,0,75,0,1
128830,-90.9090909090909,4,1,0,65,0,0
128999,-100,4,1,0,65,0,0
130179,-90.9090909090909,4,1,0,75,0,1
151752,-90.9090909090909,4,1,0,65,0,0
151920,-100,4,1,0,65,0,0
195066,-125,4,1,0,30,0,0
205853,-111.111111111111,4,1,0,40,0,0
216471,-100,4,1,0,65,0,0
232988,-95.2380952380952,4,1,0,65,0,0
233662,-90.9090909090909,4,1,0,65,0,0
234336,-86.9565217391304,4,1,0,65,0,0
235010,-83.3333333333333,4,1,0,65,0,0
235516,-80,4,1,0,65,0,0
235769,-76.9230769230769,4,1,0,65,0,0
236021,-74.0740740740741,4,1,0,65,0,0
236274,-71.4285714285714,4,1,0,65,0,0
236864,-100,4,1,0,65,0,0
239392,-90.9090909090909,4,1,0,75,0,1
248830,-90.9090909090909,4,1,0,65,0,0
248999,-100,4,1,0,65,0,0
250010,-90.9090909090909,4,1,0,65,0,0
250179,-90.9090909090909,4,1,0,75,0,1
270403,-90.9090909090909,4,1,0,65,0,0
270572,-100,4,1,0,65,0,0
271752,-90.9090909090909,4,1,0,75,0,1
293325,-90.9090909090909,4,1,0,65,0,0
293493,-100,4,1,0,65,0,0

[HitObjects]
85,48,741,5,12,0:0:0:0:
74,276,1415,1,8,0:0:0:0:
73,292,1920,1,0,0:0:0:0:
73,292,2426,1,0,0:0:0:0:
73,292,2763,1,8,0:0:0:0:
73,292,3437,1,0,0:0:0:0:
77,284,4111,1,8,0:0:0:0:
77,290,4448,1,0,0:0:0:0:
77,290,4617,1,0,0:0:0:0:
77,290,5123,1,0,0:0:0:0:
85,267,5460,1,8,0:0:0:0:
96,273,5628,1,0,0:0:0:0:
96,273,5965,1,0,0:0:0:0:
96,273,6134,1,0,0:0:0:0:
96,273,6808,1,8,0:0:0:0:
96,273,7314,1,0,0:0:0:0:
96,273,7819,1,0,0:0:0:0:
96,273,8156,1,8,0:0:0:0:
96,273,8830,1,0,0:0:0:0:
96,273,9505,1,8,0:0:0:0:
96,273,9842,1,0,0:0:0:0:
96,273,10010,1,0,0:0:0:0:
96,273,10516,1,0,0:0:0:0:
96,273,10853,1,8,0:0:0:0:
96,273,11021,1,0,0:0:0:0:
96,273,11358,1,0,0:0:0:0:
91,35,11527,1,12,0:0:0:0:
113,310,11696,1,0,0:0:0:0:
134,290,11864,1,8,0:0:0:0:
129,305,12033,1,0,0:0:0:0:
95,283,12201,1,8,0:0:0:0:
71,284,12370,1,8,0:0:0:0:
69,302,12538,1,0,0:0:0:0:
76,314,12875,1,0,0:0:0:0:
82,314,13044,1,0,0:0:0:0:
88,296,13212,1,8,0:0:0:0:
88,314,13381,1,0,0:0:0:0:
92,300,13549,1,8,0:0:0:0:
91,300,13718,1,8,0:0:0:0:
91,313,13887,1,0,0:0:0:0:
93,307,14055,1,0,0:0:0:0:
94,309,14392,1,0,0:0:0:0:
98,291,14561,1,8,0:0:0:0:
97,317,14729,1,0,0:0:0:0:
97,317,14898,1,8,0:0:0:0:
84,300,15066,1,8,0:0:0:0:
90,323,15235,1,0,0:0:0:0:
88,301,15572,1,8,0:0:0:0:
91,313,15740,1,0,0:0:0:0:
96,303,15909,1,8,0:0:0:0:
92,303,16078,1,8,0:0:0:0:
96,309,16246,1,8,0:0:0:0:
98,322,16415,1,0,0:0:0:0:
104,308,16499,1,8,0:0:0:0:
104,308,16583,1,0,0:0:0:0:
100,296,16667,1,8,0:0:0:0:
99,313,16752,1,0,0:0:0:0:
98,325,16920,1,0,0:0:0:0:
145,317,17089,1,8,0:0:0:0:
153,335,17257,1,0,0:0:0:0:
134,340,17426,1,0,0:0:0:0:
134,326,17594,1,8,0:0:0:0:
128,338,17763,1,0,0:0:0:0:
107,330,17932,1,8,0:0:0:0:
105,341,18100,1,0,0:0:0:0:
105,341,18437,1,8,0:0:0:0:
111,318,18606,1,8,0:0:0:0:
107,345,18774,1,0,0:0:0:0:
105,312,18943,1,8,0:0:0:0:
121,331,19111,1,0,0:0:0:0:
118,336,19280,1,0,0:0:0:0:
109,327,19448,1,8,0:0:0:0:
87,335,19785,1,0,0:0:0:0:
98,314,19954,1,0,0:0:0:0:
82,310,20123,1,8,0:0:0:0:
73,322,20291,1,8,0:0:0:0:
52,328,20460,1,0,0:0:0:0:
71,312,20628,1,8,0:0:0:0:
80,328,20965,1,8,0:0:0:0:
92,307,21134,1,8,0:0:0:0:
80,318,21302,1,0,0:0:0:0:
92,318,21471,1,8,0:0:0:0:
102,277,21639,1,8,0:0:0:0:
102,293,21808,1,0,0:0:0:0:
76,37,22314,1,12,0:0:0:0:
86,329,22482,1,0,0:0:0:0:
118,307,22651,1,8,0:0:0:0:
110,331,22819,1,0,0:0:0:0:
114,331,22903,1,0,0:0:0:0:
122,313,22988,1,8,0:0:0:0:
101,332,23156,1,0,0:0:0:0:
92,312,23325,1,8,0:0:0:0:
71,333,23493,1,8,0:0:0:0:
71,333,23662,1,0,0:0:0:0:
112,335,23830,1,8,0:0:0:0:
114,316,23999,1,8,0:0:0:0:
59,319,24167,1,0,0:0:0:0:
71,333,24252,1,0,0:0:0:0:
80,319,24336,1,8,0:0:0:0:
71,333,24505,1,0,0:0:0:0:
74,311,24673,1,8,0:0:0:0:
51,342,25010,1,0,0:0:0:0:
86,341,25179,1,8,0:0:0:0:
98,329,25347,1,8,0:0:0:0:
118,339,25516,1,0,0:0:0:0:
118,339,25600,1,0,0:0:0:0:
123,323,25684,1,8,0:0:0:0:
124,337,25853,1,0,0:0:0:0:
126,312,26021,1,8,0:0:0:0:
123,312,26190,1,8,0:0:0:0:
121,344,26358,1,0,0:0:0:0:
121,344,26527,1,0,0:0:0:0:
125,326,26696,1,8,0:0:0:0:
133,323,26864,1,0,0:0:0:0:
136,324,26948,1,0,0:0:0:0:
138,312,27033,1,8,0:0:0:0:
127,310,27201,1,0,0:0:0:0:
144,292,27370,1,8,0:0:0:0:
140,309,27707,1,0,0:0:0:0:
144,310,27875,1,8,0:0:0:0:
161,291,28044,1,8,0:0:0:0:
154,314,28212,1,0,0:0:0:0:
158,315,28297,1,0,0:0:0:0:
156,298,28381,1,8,0:0:0:0:
154,304,28549,1,0,0:0:0:0:
156,289,28718,1,8,0:0:0:0:
161,291,28887,1,8,0:0:0:0:
152,303,29055,1,0,0:0:0:0:
152,303,29224,1,0,0:0:0:0:
152,292,29392,1,8,0:0:0:0:
155,306,29561,1,0,0:0:0:0:
155,304,29645,1,0,0:0:0:0:
155,306,29729,1,8,0:0:0:0:
144,303,29898,1,0,0:0:0:0:
152,292,30066,1,8,0:0:0:0:
149,292,30403,1,0,0:0:0:0:
149,296,30572,1,0,0:0:0:0:
159,281,30740,1,8,0:0:0:0:
146,289,30909,1,0,0:0:0:0:
146,289,30993,1,0,0:0:0:0:
146,282,31078,1,8,0:0:0:0:
149,292,31246,1,0,0:0:0:0:
150,276,31415,1,8,0:0:0:0:
150,276,31583,1,8,0:0:0:0:
150,292,31752,1,0,0:0:0:0:
150,292,31920,1,8,0:0:0:0:
151,279,32089,1,8,0:0:0:0:
155,293,32257,1,0,0:0:0:0:
155,293,32342,1,0,0:0:0:0:
159,284,32426,1,8,0:0:0:0:
158,297,32594,1,0,0:0:0:0:
161,284,32763,1,8,0:0:0:0:
161,305,32932,1,0,0:0:0:0:
97,52,33100,1,12,0:0:0:0:
140,288,33437,1,8,0:0:0:0:
131,317,33606,1,0,0:0:0:0:
131,317,33690,1,0,0:0:0:0:
85,312,33943,1,0,0:0:0:0:
72,291,34111,1,8,0:0:0:0:
78,310,34196,1,0,0:0:0:0:
88,293,34280,1,8,0:0:0:0:
100,309,34448,1,0,0:0:0:0:
149,293,34617,1,0,0:0:0:0:
151,307,34701,1,0,0:0:0:0:
156,307,34785,1,8,0:0:0:0:
100,295,34954,1,8,0:0:0:0:
103,313,35038,1,0,0:0:0:0:
82,324,35207,1,0,0:0:0:0:
100,309,35291,1,8,0:0:0:0:
72,295,35460,1,8,0:0:0:0:
56,315,35628,1,8,0:0:0:0:
56,315,35712,1,0,0:0:0:0:
123,322,35797,1,0,0:0:0:0:
116,314,35965,1,0,0:0:0:0:
130,303,36134,1,8,0:0:0:0:
100,298,36302,1,8,0:0:0:0:
99,316,36387,1,0,0:0:0:0:
92,319,36555,1,0,0:0:0:0:
104,304,36639,1,8,0:0:0:0:
90,283,36808,1,8,0:0:0:0:
93,303,36892,1,0,0:0:0:0:
101,282,36976,1,8,0:0:0:0:
101,282,37061,1,8,0:0:0:0:
95,318,37145,1,0,0:0:0:0:
75,304,37314,1,8,0:0:0:0:
79,317,37482,1,8,0:0:0:0:
79,309,37651,1,0,0:0:0:0:
96,291,37735,1,8,0:0:0:0:
81,309,37819,1,0,0:0:0:0:
83,313,37988,1,0,0:0:0:0:
91,294,38156,1,8,0:0:0:0:
77,302,38325,1,0,0:0:0:0:
77,302,38409,1,8,0:0:0:0:
79,309,38493,1,0,0:0:0:0:
68,293,38662,1,0,0:0:0:0:
74,312,38830,1,8,0:0:0:0:
65,326,38999,1,0,0:0:0:0:
77,302,39083,1,8,0:0:0:0:
59,314,39252,1,0,0:0:0:0:
60,315,39336,1,0,0:0:0:0:
67,300,39505,1,8,0:0:0:0:
74,312,39589,1,0,0:0:0:0:
76,304,39673,1,8,0:0:0:0:
77,302,39757,1,8,0:0:0:0:
80,324,39842,1,0,0:0:0:0:
89,325,40010,1,0,0:0:0:0:
94,322,40094,1,0,0:0:0:0:
93,308,40179,1,8,0:0:0:0:
85,302,40347,1,0,0:0:0:0:
85,302,40432,1,0,0:0:0:0:
84,307,40600,1,0,0:0:0:0:
99,296,40684,1,8,0:0:0:0:
98,283,40853,1,8,0:0:0:0:
127,326,41021,1,8,0:0:0:0:
127,326,41106,1,0,0:0:0:0:
127,326,41190,1,0,0:0:0:0:
113,328,41358,1,0,0:0:0:0:
120,305,41527,1,8,0:0:0:0:
91,303,41696,1,8,0:0:0:0:
98,318,41780,1,0,0:0:0:0:
88,333,41948,1,0,0:0:0:0:
93,332,42033,1,0,0:0:0:0:
99,313,42201,1,8,0:0:0:0:
105,319,42285,1,0,0:0:0:0:
110,308,42370,1,8,0:0:0:0:
136,308,42538,1,0,0:0:0:0:
136,308,42623,1,0,0:0:0:0:
136,308,42707,1,8,0:0:0:0:
136,308,42791,1,8,0:0:0:0:
136,308,42875,1,0,0:0:0:0:
136,308,42960,1,0,0:0:0:0:
136,308,43044,1,8,0:0:0:0:
136,308,43128,1,8,0:0:0:0:
136,308,43212,1,0,0:0:0:0:
139,304,43297,1,8,0:0:0:0:
140,303,43381,1,0,0:0:0:0:
144,308,43465,1,0,0:0:0:0:
144,308,43549,1,8,0:0:0:0:
144,308,43634,1,8,0:0:0:0:
144,308,43718,1,8,0:0:0:0:
144,308,43802,1,8,0:0:0:0:
140,310,43887,1,0,0:0:0:0:
113,309,44224,1,8,0:0:0:0:
114,326,44392,1,0,0:0:0:0:
114,326,44729,1,0,0:0:0:0:
114,326,44982,1,0,0:0:0:0:
126,305,45066,1,8,0:0:0:0:
104,326,45235,1,0,0:0:0:0:
104,326,45572,1,0,0:0:0:0:
104,326,45825,1,0,0:0:0:0:
104,326,46078,1,0,0:0:0:0:
104,326,46415,1,0,0:0:0:0:
108,317,46583,1,8,0:0:0:0:
106,317,46920,1,8,0:0:0:0:
104,326,47089,1,0,0:0:0:0:
106,328,47426,1,0,0:0:0:0:
106,328,47679,1,8,0:0:0:0:
106,328,47763,1,0,0:0:0:0:
104,326,47932,1,0,0:0:0:0:
106,328,48269,1,0,0:0:0:0:
106,328,48521,1,0,0:0:0:0:
110,323,48774,1,0,0:0:0:0:
110,313,48943,1,8,0:0:0:0:
107,313,49111,1,8,0:0:0:0:
109,333,49280,1,0,0:0:0:0:
110,323,49617,1,8,0:0:0:0:
107,331,49785,1,0,0:0:0:0:
109,333,50123,1,0,0:0:0:0:
107,331,50375,1,8,0:0:0:0:
107,331,50460,1,0,0:0:0:0:
107,331,50628,1,0,0:0:0:0:
109,333,50965,1,0,0:0:0:0:
107,331,51218,1,0,0:0:0:0:
104,325,51471,1,0,0:0:0:0:
105,321,51808,1,0,0:0:0:0:
111,301,51976,1,8,0:0:0:0:
101,299,52314,1,8,0:0:0:0:
105,321,52482,1,0,0:0:0:0:
101,323,52819,1,0,0:0:0:0:
100,305,53072,1,8,0:0:0:0:
101,312,53156,1,0,0:0:0:0:
104,303,53325,1,8,0:0:0:0:
103,299,53662,1,8,0:0:0:0:
103,299,53915,1,0,0:0:0:0:
104,303,54167,1,0,0:0:0:0:
103,299,54336,1,8,0:0:0:0:
103,299,54505,1,8,0:0:0:0:
103,299,54673,1,0,0:0:0:0:
104,303,55010,1,8,0:0:0:0:
103,299,55179,1,0,0:0:0:0:
103,299,55516,1,0,0:0:0:0:
104,303,55769,1,8,0:0:0:0:
104,303,55853,1,0,0:0:0:0:
103,299,56021,1,0,0:0:0:0:
103,299,56358,1,0,0:0:0:0:
104,303,56611,1,0,0:0:0:0:
103,299,56864,1,0,0:0:0:0:
103,299,57201,1,0,0:0:0:0:
104,303,57370,1,8,0:0:0:0:
103,299,57707,1,8,0:0:0:0:
103,299,57875,1,0,0:0:0:0:
104,303,58212,1,0,0:0:0:0:
103,299,58465,1,8,0:0:0:0:
103,299,58549,1,0,0:0:0:0:
103,299,58718,1,0,0:0:0:0:
104,303,59055,1,8,0:0:0:0:
103,299,59308,1,0,0:0:0:0:
103,299,59561,1,0,0:0:0:0:
104,303,59729,1,8,0:0:0:0:
104,303,59898,1,8,0:0:0:0:
103,299,60066,1,0,0:0:0:0:
103,299,60403,1,0,0:0:0:0:
113,292,60572,1,8,0:0:0:0:
98,283,60909,1,8,0:0:0:0:
102,292,61162,1,8,0:0:0:0:
103,299,61246,1,0,0:0:0:0:
102,301,61415,1,0,0:0:0:0:
97,303,61752,1,0,0:0:0:0:
97,303,62005,1,0,0:0:0:0:
99,306,62257,1,0,0:0:0:0:
106,293,62594,1,0,0:0:0:0:
109,282,62763,1,8,0:0:0:0:
109,282,63100,1,8,0:0:0:0:
110,298,63269,1,0,0:0:0:0:
110,298,63606,1,0,0:0:0:0:
110,298,63858,1,0,0:0:0:0:
113,286,63943,1,8,0:0:0:0:
110,286,64111,1,8,0:0:0:0:
110,298,64448,1,0,0:0:0:0:
110,298,64701,1,0,0:0:0:0:
109,296,64954,1,0,0:0:0:0:
110,298,65123,1,0,0:0:0:0:
110,298,65291,1,0,0:0:0:0:
127,43,65460,1,12,0:0:0:0:
132,279,65797,1,8,0:0:0:0:
132,279,66134,1,8,0:0:0:0:
132,279,66471,1,8,0:0:0:0:
132,279,66808,1,8,0:0:0:0:
132,279,67145,1,8,0:0:0:0:
132,279,67482,1,8,0:0:0:0:
132,279,67819,1,8,0:0:0:0:
126,291,67988,1,8,0:0:0:0:
132,279,68156,1,8,0:0:0:0:
132,279,68493,1,8,0:0:0:0:
132,279,68830,1,8,0:0:0:0:
132,279,69167,1,8,0:0:0:0:
132,279,69505,1,8,0:0:0:0:
132,279,69842,1,8,0:0:0:0:
132,279,70179,1,8,0:0:0:0:
132,279,70516,1,8,0:0:0:0:
121,300,70684,1,0,0:0:0:0:
165,11,70853,1,12,0:0:0:0:
132,279,71190,1,8,0:0:0:0:
131,303,71358,1,0,0:0:0:0:
132,279,71527,1,8,0:0:0:0:
166,282,71696,1,0,0:0:0:0:
152,275,71864,1,8,0:0:0:0:
150,293,71948,1,0,0:0:0:0:
162,270,72033,1,8,0:0:0:0:
161,268,72201,1,8,0:0:0:0:
165,256,72538,1,8,0:0:0:0:
155,302,72791,1,0,0:0:0:0:
165,256,72875,1,8,0:0:0:0:
100,286,73044,1,0,0:0:0:0:
100,286,73128,1,0,0:0:0:0:
87,279,73381,1,8,0:0:0:0:
91,295,73465,1,0,0:0:0:0:
105,268,73549,1,8,0:0:0:0:
100,286,73887,1,0,0:0:0:0:
100,274,73971,1,8,0:0:0:0:
114,266,74055,1,0,0:0:0:0:
117,265,74224,1,0,0:0:0:0:
120,286,74392,1,0,0:0:0:0:
120,265,74561,1,8,0:0:0:0:
124,277,74645,1,0,0:0:0:0:
129,263,74729,1,8,0:0:0:0:
129,260,74814,1,8,0:0:0:0:
117,33,74898,1,4,0:0:0:0:
111,37,75403,1,4,0:0:0:0:
111,37,75909,1,4,0:0:0:0:
151,47,76246,1,12,0:0:0:0:
105,306,76415,1,0,0:0:0:0:
118,295,76583,1,8,0:0:0:0:
125,282,76752,1,8,0:0:0:0:
137,278,77089,1,8,0:0:0:0:
143,292,77173,1,0,0:0:0:0:
115,300,77342,1,0,0:0:0:0:
127,289,77426,1,8,0:0:0:0:
125,282,77510,1,8,0:0:0:0:
123,299,77594,1,0,0:0:0:0:
121,308,77932,1,0,0:0:0:0:
121,308,78184,1,0,0:0:0:0:
121,308,78437,1,0,0:0:0:0:
140,284,78606,1,8,0:0:0:0:
151,302,78774,1,0,0:0:0:0:
169,278,78943,1,8,0:0:0:0:
157,290,79280,1,8,0:0:0:0:
157,290,79448,1,0,0:0:0:0:
128,286,79785,1,0,0:0:0:0:
123,277,79870,1,0,0:0:0:0:
134,290,80038,1,0,0:0:0:0:
112,279,80123,1,8,0:0:0:0:
131,266,80291,1,0,0:0:0:0:
138,290,80375,1,0,0:0:0:0:
116,271,80460,1,8,0:0:0:0:
124,280,80544,1,0,0:0:0:0:
131,271,80628,1,8,0:0:0:0:
134,283,80712,1,0,0:0:0:0:
140,269,80797,1,8,0:0:0:0:
140,269,80881,1,8,0:0:0:0:
133,284,80965,1,0,0:0:0:0:
118,264,81049,1,0,0:0:0:0:
118,264,81134,1,8,0:0:0:0:
114,279,81218,1,8,0:0:0:0:
129,282,81302,1,0,0:0:0:0:
129,282,81387,1,0,0:0:0:0:
137,268,81471,1,8,0:0:0:0:
139,280,81555,1,8,0:0:0:0:
139,286,81639,1,0,0:0:0:0:
110,283,81976,1,8,0:0:0:0:
101,301,82145,1,0,0:0:0:0:
86,310,82482,1,0,0:0:0:0:
86,310,82566,1,0,0:0:0:0:
71,296,82735,1,8,0:0:0:0:
75,304,82819,1,0,0:0:0:0:
65,319,82988,1,0,0:0:0:0:
67,318,83325,1,0,0:0:0:0:
62,292,83578,1,0,0:0:0:0:
62,292,83830,1,0,0:0:0:0:
95,285,83999,1,8,0:0:0:0:
90,299,84167,1,0,0:0:0:0:
89,297,84252,1,0,0:0:0:0:
90,287,84336,1,8,0:0:0:0:
74,282,84673,1,8,0:0:0:0:
80,299,84842,1,0,0:0:0:0:
82,284,85179,1,0,0:0:0:0:
82,284,85263,1,0,0:0:0:0:
76,273,85432,1,8,0:0:0:0:
80,286,85516,1,0,0:0:0:0:
87,273,85684,1,8,0:0:0:0:
82,284,86021,1,0,0:0:0:0:
84,283,86274,1,0,0:0:0:0:
84,283,86527,1,0,0:0:0:0:
91,268,86696,1,8,0:0:0:0:
87,282,86864,1,0,0:0:0:0:
109,24,87033,1,12,0:0:0:0:
102,287,87370,1,8,0:0:0:0:
107,312,87538,1,0,0:0:0:0:
101,319,87875,1,0,0:0:0:0:
118,300,88128,1,8,0:0:0:0:
126,315,88212,1,0,0:0:0:0:
95,48,88381,1,12,0:0:0:0:
99,294,88718,1,8,0:0:0:0:
99,312,88887,1,0,0:0:0:0:
92,313,89224,1,0,0:0:0:0:
83,302,89561,1,8,0:0:0:0:
86,315,89645,1,0,0:0:0:0:
110,47,89729,1,12,0:0:0:0:
95,298,90066,1,8,0:0:0:0:
96,313,90235,1,0,0:0:0:0:
79,313,90572,1,0,0:0:0:0:
78,310,90825,1,8,0:0:0:0:
82,293,90909,1,0,0:0:0:0:
51,284,90993,1,0,0:0:0:0:
79,41,91078,1,12,0:0:0:0:
93,284,91246,1,0,0:0:0:0:
104,271,91330,1,0,0:0:0:0:
102,267,91415,1,8,0:0:0:0:
110,285,91499,1,0,0:0:0:0:
108,268,91583,1,8,0:0:0:0:
95,270,91752,1,8,0:0:0:0:
98,283,91836,1,0,0:0:0:0:
98,283,91920,1,0,0:0:0:0:
100,276,92089,1,8,0:0:0:0:
102,287,92173,1,8,0:0:0:0:
109,271,92257,1,0,0:0:0:0:
109,271,92342,1,0,0:0:0:0:
126,55,92426,1,12,0:0:0:0:
97,248,92763,1,8,0:0:0:0:
94,296,92932,1,0,0:0:0:0:
157,54,93100,1,12,0:0:0:0:
79,257,93437,1,8,0:0:0:0:
87,282,93606,1,0,0:0:0:0:
159,58,93774,1,12,0:0:0:0:
77,266,94111,1,8,0:0:0:0:
89,289,94280,1,0,0:0:0:0:
173,50,94448,1,12,0:0:0:0:
79,275,94785,1,8,0:0:0:0:
94,301,94954,1,0,0:0:0:0:
131,68,95123,1,12,0:0:0:0:
110,293,95291,1,0,0:0:0:0:
110,293,95375,1,0,0:0:0:0:
141,62,95460,1,12,0:0:0:0:
115,282,95628,1,0,0:0:0:0:
115,282,95712,1,0,0:0:0:0:
147,59,95797,1,12,0:0:0:0:
110,275,95965,1,0,0:0:0:0:
110,275,96049,1,0,0:0:0:0:
148,63,96134,1,12,0:0:0:0:
123,264,96302,1,0,0:0:0:0:
123,264,96387,1,8,0:0:0:0:
180,79,96471,1,4,0:0:0:0:
58,241,97482,2,0,L|132:237,1,70
232,191,97819,1,6,0:0:0:0:
159,201,97988,1,0,0:0:0:0:
159,201,98072,1,0,0:0:0:0:
159,201,98156,1,2,0:0:0:0:
159,201,98240,1,2,0:0:0:0:
159,201,98325,1,0,0:0:0:0:
159,201,98493,1,2,0:0:0:0:
159,201,98578,1,2,0:0:0:0:
159,201,98662,1,0,0:0:0:0:
159,201,98830,1,2,0:0:0:0:
159,201,98999,1,2,0:0:0:0:
159,201,99083,1,0,0:0:0:0:
159,201,99167,1,2,0:0:0:0:
173,140,99252,1,2,0:0:0:0:
173,140,99336,1,0,0:0:0:0:
160,107,99505,1,2,0:0:0:0:
160,107,99589,1,0,0:0:0:0:
160,107,99673,1,2,0:0:0:0:
160,107,99757,1,2,0:0:0:0:
160,107,99842,1,0,0:0:0:0:
143,165,99926,1,2,0:0:0:0:
143,165,100010,1,0,0:0:0:0:
143,165,100179,1,0,0:0:0:0:
143,165,100347,1,0,0:0:0:0:
143,165,100432,1,0,0:0:0:0:
143,165,100516,1,2,0:0:0:0:
143,165,100600,1,2,0:0:0:0:
143,165,100684,1,0,0:0:0:0:
201,167,100853,1,2,0:0:0:0:
201,167,100937,1,0,0:0:0:0:
201,167,101021,1,2,0:0:0:0:
201,167,101106,1,2,0:0:0:0:
201,167,101190,1,0,0:0:0:0:
201,167,101358,1,0,0:0:0:0:
201,167,101443,1,0,0:0:0:0:
201,167,101527,1,2,0:0:0:0:
201,167,101696,1,2,0:0:0:0:
201,167,101780,1,2,0:0:0:0:
201,167,101864,1,0,0:0:0:0:
207,105,101948,1,0,0:0:0:0:
207,105,102033,1,2,0:0:0:0:
119,158,102201,1,2,0:0:0:0:
119,158,102285,1,0,0:0:0:0:
119,158,102370,1,2,0:0:0:0:
119,158,102454,1,2,0:0:0:0:
119,158,102538,1,0,0:0:0:0:
119,158,102623,1,2,0:0:0:0:
119,158,102707,1,0,0:0:0:0:
109,157,102791,1,0,0:0:0:0:
109,157,102875,1,2,0:0:0:0:
109,157,103044,1,0,0:0:0:0:
109,157,103212,1,6,0:0:0:0:
159,201,103381,1,0,0:0:0:0:
159,201,103465,1,0,0:0:0:0:
159,201,103549,1,2,0:0:0:0:
159,201,103633,1,2,0:0:0:0:
159,201,103718,1,0,0:0:0:0:
159,201,103886,1,2,0:0:0:0:
159,201,103971,1,2,0:0:0:0:
159,201,104055,1,0,0:0:0:0:
159,201,104223,1,2,0:0:0:0:
159,201,104392,1,2,0:0:0:0:
159,201,104476,1,0,0:0:0:0:
159,201,104560,1,2,0:0:0:0:
173,140,104645,1,2,0:0:0:0:
173,140,104729,1,0,0:0:0:0:
160,107,104898,1,2,0:0:0:0:
160,107,104982,1,0,0:0:0:0:
160,107,105066,1,2,0:0:0:0:
160,107,105150,1,2,0:0:0:0:
160,107,105235,1,0,0:0:0:0:
143,165,105319,1,2,0:0:0:0:
143,165,105403,1,0,0:0:0:0:
143,165,105572,1,0,0:0:0:0:
143,165,105656,1,2,0:0:0:0:
143,165,105740,1,2,0:0:0:0:
143,165,105909,1,2,0:0:0:0:
41,170,106078,1,0,0:0:0:0:
41,170,106162,1,2,0:0:0:0:
106,186,106246,1,0,0:0:0:0:
106,186,106330,1,0,0:0:0:0:
106,186,106415,1,2,0:0:0:0:
106,186,106499,1,2,0:0:0:0:
232,142,106583,1,0,0:0:0:0:
232,142,106667,1,2,0:0:0:0:
232,142,106752,1,0,0:0:0:0:
232,142,106920,1,0,0:0:0:0:
232,142,107005,1,2,0:0:0:0:
232,142,107089,1,0,0:0:0:0:
232,142,107173,1,2,0:0:0:0:
232,142,107257,5,2,0:0:0:0:
232,142,107594,1,2,0:0:0:0:
232,142,107763,1,0,0:0:0:0:
232,142,108100,1,0,0:0:0:0:
232,142,108269,1,2,0:0:0:0:
125,171,108437,1,0,0:0:0:0:
85,319,108493,1,0,0:0:0:0:
125,171,108549,1,0,0:0:0:0:
125,171,108606,1,2,0:0:0:0:
136,311,108774,1,0,0:0:0:0:
123,297,108943,1,8,0:0:0:0:
124,297,109027,1,8,0:0:0:0:
124,314,109111,1,0,0:0:0:0:
150,285,109280,1,8,0:0:0:0:
150,285,109322,1,8,0:0:0:0:
150,285,109448,1,0,0:0:0:0:
150,285,109490,1,0,0:0:0:0:
150,285,109617,1,8,0:0:0:0:
150,285,109659,1,8,0:0:0:0:
150,285,109785,1,8,0:0:0:0:
150,285,109828,1,8,0:0:0:0:
150,285,109954,1,0,0:0:0:0:
142,288,109996,1,0,0:0:0:0:
143,288,110123,1,0,0:0:0:0:
143,288,110165,1,0,0:0:0:0:
146,281,110291,1,8,0:0:0:0:
146,281,110333,1,8,0:0:0:0:
146,290,110460,1,0,0:0:0:0:
139,300,110502,1,0,0:0:0:0:
146,290,110628,1,0,0:0:0:0:
146,290,110670,1,0,0:0:0:0:
146,290,110797,1,8,0:0:0:0:
146,290,110839,1,8,0:0:0:0:
143,288,110965,1,0,0:0:0:0:
110,299,111007,1,0,0:0:0:0:
92,289,111134,1,0,0:0:0:0:
92,289,111302,1,0,0:0:0:0:
121,299,111387,1,0,0:0:0:0:
128,284,111471,1,8,0:0:0:0:
126,303,111555,1,0,0:0:0:0:
128,284,111639,1,8,0:0:0:0:
123,282,111808,1,0,0:0:0:0:
116,287,111976,1,8,0:0:0:0:
116,286,112019,1,8,0:0:0:0:
116,292,112145,1,0,0:0:0:0:
116,292,112187,1,0,0:0:0:0:
122,281,112314,1,8,0:0:0:0:
122,281,112356,1,8,0:0:0:0:
122,281,112482,1,8,0:0:0:0:
123,282,112524,1,8,0:0:0:0:
123,282,112651,1,0,0:0:0:0:
122,281,112693,1,0,0:0:0:0:
122,281,112819,1,0,0:0:0:0:
122,281,112861,1,0,0:0:0:0:
122,281,112988,1,8,0:0:0:0:
122,281,113030,1,8,0:0:0:0:
122,281,113156,1,0,0:0:0:0:
116,298,113198,1,0,0:0:0:0:
122,281,113325,1,0,0:0:0:0:
123,282,113367,1,0,0:0:0:0:
123,282,113493,1,8,0:0:0:0:
122,281,113535,1,8,0:0:0:0:
122,281,113662,1,0,0:0:0:0:
121,290,113704,1,0,0:0:0:0:
122,281,113830,1,8,0:0:0:0:
128,308,113915,1,0,0:0:0:0:
106,40,113999,1,12,0:0:0:0:
160,308,114167,1,0,0:0:0:0:
160,308,114252,1,0,0:0:0:0:
161,275,114336,1,8,0:0:0:0:
170,299,114420,1,0,0:0:0:0:
169,274,114505,1,8,0:0:0:0:
88,278,114673,1,8,0:0:0:0:
88,278,114715,1,8,0:0:0:0:
81,295,114842,1,0,0:0:0:0:
81,295,114884,1,0,0:0:0:0:
88,278,115010,1,8,0:0:0:0:
88,278,115052,1,8,0:0:0:0:
88,278,115179,1,8,0:0:0:0:
88,278,115221,1,8,0:0:0:0:
88,278,115347,1,0,0:0:0:0:
88,278,115389,1,0,0:0:0:0:
88,278,115516,1,0,0:0:0:0:
88,278,115558,1,0,0:0:0:0:
94,268,115684,1,8,0:0:0:0:
94,268,115726,1,8,0:0:0:0:
94,268,115853,1,0,0:0:0:0:
94,268,115895,1,0,0:0:0:0:
86,268,116021,1,0,0:0:0:0:
87,268,116064,1,0,0:0:0:0:
84,289,116190,1,8,0:0:0:0:
84,289,116232,1,8,0:0:0:0:
83,287,116358,1,0,0:0:0:0:
91,298,116401,1,0,0:0:0:0:
95,298,116527,1,0,0:0:0:0:
140,266,116611,1,0,0:0:0:0:
95,279,116696,1,8,0:0:0:0:
124,269,116780,1,8,0:0:0:0:
89,276,116864,1,0,0:0:0:0:
89,276,116948,1,8,0:0:0:0:
85,255,117033,1,8,0:0:0:0:
128,279,117117,1,0,0:0:0:0:
73,255,117201,1,8,0:0:0:0:
126,276,117370,1,8,0:0:0:0:
126,276,117412,1,8,0:0:0:0:
126,276,117538,1,8,0:0:0:0:
126,276,117580,1,8,0:0:0:0:
126,276,117707,1,0,0:0:0:0:
112,277,117749,1,0,0:0:0:0:
137,264,117875,1,8,0:0:0:0:
139,263,117917,1,8,0:0:0:0:
131,277,118044,1,0,0:0:0:0:
127,295,118128,1,0,0:0:0:0:
126,276,118212,1,8,0:0:0:0:
138,288,118297,1,0,0:0:0:0:
139,278,118381,1,8,0:0:0:0:
139,292,118465,1,0,0:0:0:0:
136,279,118549,1,8,0:0:0:0:
136,280,118634,1,8,0:0:0:0:
138,291,118718,1,0,0:0:0:0:
139,273,118802,1,0,0:0:0:0:
131,277,118887,1,8,0:0:0:0:
133,275,118971,1,8,0:0:0:0:
121,293,119055,1,0,0:0:0:0:
116,264,119224,1,8,0:0:0:0:
108,31,119392,1,12,0:0:0:0:
116,274,119561,1,0,0:0:0:0:
116,273,119645,1,0,0:0:0:0:
117,261,119729,1,8,0:0:0:0:
133,275,119814,1,0,0:0:0:0:
120,252,119898,1,8,0:0:0:0:
81,275,120066,1,8,0:0:0:0:
81,275,120108,1,8,0:0:0:0:
81,275,120235,1,8,0:0:0:0:
81,275,120277,1,8,0:0:0:0:
81,275,120403,1,0,0:0:0:0:
81,275,120446,1,0,0:0:0:0:
81,275,120572,1,8,0:0:0:0:
81,275,120614,1,8,0:0:0:0:
81,275,120740,1,0,0:0:0:0:
81,275,120783,1,0,0:0:0:0:
72,263,120909,1,0,0:0:0:0:
76,263,120951,1,0,0:0:0:0:
99,264,121078,1,8,0:0:0:0:
99,264,121120,1,8,0:0:0:0:
100,264,121246,1,0,0:0:0:0:
102,264,121288,1,0,0:0:0:0:
108,263,121415,1,0,0:0:0:0:
108,263,121457,1,0,0:0:0:0:
109,263,121583,1,8,0:0:0:0:
109,263,121625,1,8,0:0:0:0:
106,275,121752,1,0,0:0:0:0:
106,282,121794,1,0,0:0:0:0:
106,272,121920,1,0,0:0:0:0:
124,268,122089,1,0,0:0:0:0:
129,260,122257,1,8,0:0:0:0:
126,253,122342,1,8,0:0:0:0:
126,270,122426,1,0,0:0:0:0:
123,258,122510,1,8,0:0:0:0:
123,268,122594,1,0,0:0:0:0:
161,257,122763,1,8,0:0:0:0:
161,257,122805,1,8,0:0:0:0:
161,257,122932,1,8,0:0:0:0:
161,257,122974,1,8,0:0:0:0:
161,257,123100,1,0,0:0:0:0:
161,257,123142,1,0,0:0:0:0:
161,257,123269,1,8,0:0:0:0:
161,257,123311,1,8,0:0:0:0:
161,257,123437,1,0,0:0:0:0:
161,257,123479,1,0,0:0:0:0:
161,257,123606,1,0,0:0:0:0:
161,257,123648,1,0,0:0:0:0:
161,257,123774,1,8,0:0:0:0:
161,257,123816,1,8,0:0:0:0:
161,257,123943,1,0,0:0:0:0:
161,257,123985,1,0,0:0:0:0:
161,257,124111,1,0,0:0:0:0:
161,257,124153,1,0,0:0:0:0:
161,257,124280,1,8,0:0:0:0:
161,257,124322,1,8,0:0:0:0:
161,257,124448,1,0,0:0:0:0:
132,277,124533,1,0,0:0:0:0:
161,257,124617,1,8,0:0:0:0:
155,246,124673,1,8,0:0:0:0:
155,246,124729,1,8,0:0:0:0:
156,252,124785,1,0,0:0:0:0:
128,273,125123,1,0,0:0:0:0:
115,259,125460,1,8,0:0:0:0:
111,278,125628,1,0,0:0:0:0:
111,278,125670,1,0,0:0:0:0:
111,278,125797,1,0,0:0:0:0:
111,278,125839,1,0,0:0:0:0:
111,278,125965,1,0,0:0:0:0:
111,278,126007,1,0,0:0:0:0:
112,267,126134,1,8,0:0:0:0:
83,287,126471,1,0,0:0:0:0:
87,281,126639,1,0,0:0:0:0:
87,281,126682,1,0,0:0:0:0:
87,281,126808,1,8,0:0:0:0:
87,288,126976,1,0,0:0:0:0:
90,280,127145,1,8,0:0:0:0:
90,280,127187,1,8,0:0:0:0:
93,290,127314,1,0,0:0:0:0:
106,291,127482,1,8,0:0:0:0:
117,313,127819,1,0,0:0:0:0:
121,313,127903,1,0,0:0:0:0:
127,298,127988,1,8,0:0:0:0:
105,39,128156,1,12,0:0:0:0:
102,313,128493,1,0,0:0:0:0:
105,313,128578,1,0,0:0:0:0:
101,304,128662,1,8,0:0:0:0:
107,319,128746,1,8,0:0:0:0:
148,54,128830,1,4,0:0:0:0:
153,71,129336,1,0,0:0:0:0:
153,71,129842,1,0,0:0:0:0:
140,160,130179,5,2,0:0:0:0:
140,160,130263,1,0,0:0:0:0:
140,160,130347,1,0,0:0:0:0:
140,160,130432,1,2,0:0:0:0:
140,160,130516,1,0,0:0:0:0:
140,160,130684,1,2,0:0:0:0:
140,160,130769,1,2,0:0:0:0:
140,160,130853,1,0,0:0:0:0:
87,134,131021,1,2,0:0:0:0:
87,134,131106,1,0,0:0:0:0:
87,134,131190,1,2,0:0:0:0:
87,134,131274,1,2,0:0:0:0:
87,134,131358,1,0,0:0:0:0:
87,134,131443,1,0,0:0:0:0:
87,134,131527,1,2,0:0:0:0:
154,200,131696,1,2,0:0:0:0:
154,200,131780,1,2,0:0:0:0:
154,200,131864,1,0,0:0:0:0:
154,200,131948,1,2,0:0:0:0:
154,200,132033,1,2,0:0:0:0:
154,200,132117,1,0,0:0:0:0:
154,200,132201,1,2,0:0:0:0:
154,200,132370,1,0,0:0:0:0:
154,200,132454,1,0,0:0:0:0:
154,200,132538,1,2,0:0:0:0:
154,200,132623,1,0,0:0:0:0:
154,200,132707,1,2,0:0:0:0:
154,200,132791,1,0,0:0:0:0:
154,200,132875,1,2,0:0:0:0:
159,214,132960,1,2,0:0:0:0:
159,214,133044,1,0,0:0:0:0:
159,214,133128,1,2,0:0:0:0:
159,214,133212,1,0,0:0:0:0:
159,214,133381,1,2,0:0:0:0:
159,214,133465,1,0,0:0:0:0:
159,214,133549,1,0,0:0:0:0:
159,214,133718,1,2,0:0:0:0:
159,214,133802,1,0,0:0:0:0:
159,214,133887,1,2,0:0:0:0:
159,214,133971,1,2,0:0:0:0:
159,214,134055,1,0,0:0:0:0:
159,214,134139,1,2,0:0:0:0:
159,214,134224,1,2,0:0:0:0:
159,214,134308,1,0,0:0:0:0:
159,214,134392,1,0,0:0:0:0:
159,214,134476,1,0,0:0:0:0:
159,214,134561,1,2,0:0:0:0:
159,214,134729,1,2,0:0:0:0:
159,214,134814,1,0,0:0:0:0:
56,156,134898,1,2,0:0:0:0:
56,156,134982,1,2,0:0:0:0:
56,156,135066,1,2,0:0:0:0:
56,156,135151,1,2,0:0:0:0:
56,156,135235,1,0,0:0:0:0:
56,156,135403,1,0,0:0:0:0:
140,160,135572,1,2,0:0:0:0:
140,160,135656,1,0,0:0:0:0:
140,160,135740,1,0,0:0:0:0:
140,160,135825,1,2,0:0:0:0:
140,160,135909,1,0,0:0:0:0:
140,160,136077,1,2,0:0:0:0:
140,160,136162,1,2,0:0:0:0:
140,160,136246,1,0,0:0:0:0:
143,73,136330,1,0,0:0:0:0:
87,134,136414,1,2,0:0:0:0:
87,134,136499,1,0,0:0:0:0:
87,134,136583,1,2,0:0:0:0:
87,134,136667,1,2,0:0:0:0:
87,134,136751,1,0,0:0:0:0:
87,134,136836,1,0,0:0:0:0:
87,134,136920,1,2,0:0:0:0:
154,200,137089,1,2,0:0:0:0:
154,200,137173,1,2,0:0:0:0:
154,200,137257,1,0,0:0:0:0:
154,200,137341,1,2,0:0:0:0:
154,200,137426,1,2,0:0:0:0:
154,200,137510,1,0,0:0:0:0:
154,200,137594,1,2,0:0:0:0:
154,200,137763,1,0,0:0:0:0:
154,200,137847,1,0,0:0:0:0:
154,200,137931,1,2,0:0:0:0:
154,200,138016,1,0,0:0:0:0:
154,200,138100,1,2,0:0:0:0:
154,200,138184,1,0,0:0:0:0:
154,200,138268,1,2,0:0:0:0:
159,214,138353,1,2,0:0:0:0:
159,214,138437,1,0,0:0:0:0:
159,214,138605,1,0,0:0:0:0:
202,46,138690,1,0,0:0:0:0:
159,214,138774,1,2,0:0:0:0:
159,214,138858,1,0,0:0:0:0:
159,214,138942,1,2,0:0:0:0:
186,56,139027,1,2,0:0:0:0:
159,214,139111,1,2,0:0:0:0:
159,214,139280,1,0,0:0:0:0:
159,214,139364,1,2,0:0:0:0:
159,214,139448,1,0,0:0:0:0:
159,214,139533,1,2,0:0:0:0:
68,132,139617,1,2,0:0:0:0:
68,132,139954,1,2,0:0:0:0:
68,132,140123,1,0,0:0:0:0:
68,132,140460,1,0,0:0:0:0:
68,132,140628,1,2,0:0:0:0:
68,132,140797,1,0,0:0:0:0:
140,160,140965,5,6,0:0:0:0:
140,160,141133,1,0,0:0:0:0:
140,160,141218,1,2,0:0:0:0:
140,160,141302,1,0,0:0:0:0:
116,143,141387,1,0,0:0:0:0:
140,160,141470,1,2,0:0:0:0:
140,160,141555,1,2,0:0:0:0:
140,160,141639,1,0,0:0:0:0:
87,134,141807,1,2,0:0:0:0:
87,134,141892,1,0,0:0:0:0:
87,134,141976,1,2,0:0:0:0:
87,134,142060,1,2,0:0:0:0:
87,134,142144,1,0,0:0:0:0:
87,134,142229,1,0,0:0:0:0:
87,134,142313,1,2,0:0:0:0:
154,200,142482,1,2,0:0:0:0:
154,200,142566,1,2,0:0:0:0:
154,200,142650,1,0,0:0:0:0:
154,200,142734,1,2,0:0:0:0:
154,200,142819,1,2,0:0:0:0:
154,200,142903,1,0,0:0:0:0:
154,200,142987,1,2,0:0:0:0:
154,200,143156,1,0,0:0:0:0:
154,200,143240,1,0,0:0:0:0:
154,200,143324,1,2,0:0:0:0:
154,200,143409,1,0,0:0:0:0:
154,200,143493,1,2,0:0:0:0:
154,200,143577,1,0,0:0:0:0:
154,200,143661,1,2,0:0:0:0:
159,214,143746,1,2,0:0:0:0:
159,214,143830,1,0,0:0:0:0:
159,214,143914,1,2,0:0:0:0:
159,214,143998,1,0,0:0:0:0:
159,214,144167,1,2,0:0:0:0:
159,214,144251,1,0,0:0:0:0:
159,214,144335,1,0,0:0:0:0:
159,214,144504,1,2,0:0:0:0:
159,214,144588,1,0,0:0:0:0:
159,214,144673,1,2,0:0:0:0:
159,214,144757,1,2,0:0:0:0:
159,214,144841,1,0,0:0:0:0:
159,214,144925,1,2,0:0:0:0:
186,156,145010,1,0,0:0:0:0:
159,214,145094,1,0,0:0:0:0:
159,214,145179,1,2,0:0:0:0:
159,214,145262,1,0,0:0:0:0:
159,214,145347,1,2,0:0:0:0:
186,156,145432,1,0,0:0:0:0:
159,214,145515,1,2,0:0:0:0:
159,214,145600,1,2,0:0:0:0:
56,156,145684,1,0,0:0:0:0:
56,156,145768,1,2,0:0:0:0:
56,156,145852,1,2,0:0:0:0:
56,156,145937,1,2,0:0:0:0:
56,156,146021,1,0,0:0:0:0:
193,169,146106,1,2,0:0:0:0:
56,156,146189,1,0,0:0:0:0:
193,169,146274,1,2,0:0:0:0:
202,54,146358,1,0,0:0:0:0:
140,160,146526,1,0,0:0:0:0:
140,160,146611,1,2,0:0:0:0:
140,160,146695,1,0,0:0:0:0:
140,160,146863,1,2,0:0:0:0:
140,160,146948,1,2,0:0:0:0:
140,160,147032,1,0,0:0:0:0:
87,134,147200,1,2,0:0:0:0:
87,134,147285,1,0,0:0:0:0:
87,134,147369,1,2,0:0:0:0:
87,134,147453,1,2,0:0:0:0:
87,134,147537,1,0,0:0:0:0:
87,134,147706,1,2,0:0:0:0:
154,200,147875,1,2,0:0:0:0:
154,200,147959,1,0,0:0:0:0:
154,200,148043,1,2,0:0:0:0:
154,200,148127,1,0,0:0:0:0:
154,200,148212,1,2,0:0:0:0:
154,200,148380,1,2,0:0:0:0:
154,200,148549,1,0,0:0:0:0:
154,200,148633,1,0,0:0:0:0:
154,200,148717,1,2,0:0:0:0:
154,200,148802,1,0,0:0:0:0:
154,200,148886,1,2,0:0:0:0:
154,200,148970,1,0,0:0:0:0:
154,200,149054,1,2,0:0:0:0:
159,214,149139,1,2,0:0:0:0:
159,214,149223,1,0,0:0:0:0:
159,214,149391,1,2,0:0:0:0:
202,46,149476,1,2,0:0:0:0:
159,214,149560,1,0,0:0:0:0:
159,214,149728,1,2,0:0:0:0:
186,56,149813,1,2,0:0:0:0:
159,214,149898,1,0,0:0:0:0:
152,157,149982,1,0,0:0:0:0:
159,214,150066,1,2,0:0:0:0:
159,214,150150,1,0,0:0:0:0:
159,214,150234,1,2,0:0:0:0:
159,214,150318,1,0,0:0:0:0:
68,132,150403,1,2,0:0:0:0:
163,180,150488,1,2,0:0:0:0:
163,180,150572,1,0,0:0:0:0:
163,180,150656,1,0,0:0:0:0:
163,180,150740,1,0,0:0:0:0:
163,180,150825,1,0,0:0:0:0:
163,180,150909,1,2,0:0:0:0:
163,180,150993,1,0,0:0:0:0:
286,171,151078,1,2,0:0:0:0:
286,171,151134,1,2,0:0:0:0:
286,171,151190,1,2,0:0:0:0:
286,171,151246,1,0,0:0:0:0:
230,166,151330,1,0,0:0:0:0:
230,166,151415,1,2,0:0:0:0:
321,128,151471,1,0,0:0:0:0:
321,128,151527,1,0,0:0:0:0:
321,128,151583,1,2,0:0:0:0:
321,128,151639,1,0,0:0:0:0:
321,128,151696,1,0,0:0:0:0:
321,128,151752,1,2,0:0:0:0:
212,183,152089,1,2,0:0:0:0:
212,183,152257,1,0,0:0:0:0:
212,183,152594,1,0,0:0:0:0:
212,183,152763,1,2,0:0:0:0:
82,132,152932,1,2,0:0:0:0:
82,132,153016,1,2,0:0:0:0:
82,132,153100,1,0,0:0:0:0:
212,183,153437,1,2,0:0:0:0:
237,98,153521,1,0,0:0:0:0:
237,98,153606,1,2,0:0:0:0:
237,98,153690,1,2,0:0:0:0:
212,183,153943,1,0,0:0:0:0:
212,183,154111,1,2,0:0:0:0:
212,183,154448,1,0,0:0:0:0:
212,183,154785,1,2,0:0:0:0:
212,183,154954,1,0,0:0:0:0:
212,183,155291,1,0,0:0:0:0:
212,183,155460,1,2,0:0:0:0:
69,136,155544,1,0,0:0:0:0:
74,136,155628,1,2,0:0:0:0:
90,131,155797,1,0,0:0:0:0:
212,183,156134,1,2,0:0:0:0:
90,131,156218,1,0,0:0:0:0:
90,131,156302,1,0,0:0:0:0:
212,183,156387,1,2,0:0:0:0:
212,183,156639,1,0,0:0:0:0:
212,183,156808,1,2,0:0:0:0:
212,183,156976,1,0,0:0:0:0:
212,183,157145,1,6,0:0:0:0:
212,183,157482,1,2,0:0:0:0:
212,183,157651,1,0,0:0:0:0:
212,183,157988,1,0,0:0:0:0:
212,183,158156,1,2,0:0:0:0:
127,140,158240,1,2,0:0:0:0:
127,140,158325,1,0,0:0:0:0:
212,183,158493,1,0,0:0:0:0:
212,183,158830,1,2,0:0:0:0:
85,126,158915,1,0,0:0:0:0:
85,126,158999,1,2,0:0:0:0:
212,183,159083,1,2,0:0:0:0:
212,183,159336,1,0,0:0:0:0:
212,183,159505,1,2,0:0:0:0:
57,142,159673,1,0,0:0:0:0:
212,183,159842,1,0,0:0:0:0:
212,183,160179,1,2,0:0:0:0:
212,183,160347,1,0,0:0:0:0:
212,183,160684,1,0,0:0:0:0:
212,183,160853,1,2,0:0:0:0:
106,142,160937,1,0,0:0:0:0:
106,142,161021,1,2,0:0:0:0:
106,142,161190,1,0,0:0:0:0:
179,70,161274,1,0,0:0:0:0:
179,70,161358,5,2,0:0:0:0:
179,70,161443,1,0,0:0:0:0:
179,70,161527,1,0,0:0:0:0:
179,70,161611,1,0,0:0:0:0:
179,70,161696,1,2,0:0:0:0:
179,70,161780,1,2,0:0:0:0:
179,70,161864,1,0,0:0:0:0:
179,70,162033,1,2,0:0:0:0:
179,70,162117,1,2,0:0:0:0:
179,70,162201,1,0,0:0:0:0:
179,70,162370,1,0,0:0:0:0:
114,49,162538,1,12,0:0:0:0:
98,279,162875,1,8,0:0:0:0:
91,319,163044,1,0,0:0:0:0:
71,336,163381,1,0,0:0:0:0:
107,322,163549,1,8,0:0:0:0:
109,317,163634,1,8,0:0:0:0:
119,339,163718,1,0,0:0:0:0:
91,341,163887,1,0,0:0:0:0:
117,309,164055,1,0,0:0:0:0:
121,295,164139,1,0,0:0:0:0:
102,281,164224,1,8,0:0:0:0:
97,296,164392,1,0,0:0:0:0:
101,283,164476,1,8,0:0:0:0:
86,283,164645,1,8,0:0:0:0:
103,298,164729,1,0,0:0:0:0:
117,281,164898,1,8,0:0:0:0:
121,295,164982,1,0,0:0:0:0:
134,280,165066,1,8,0:0:0:0:
134,279,165151,1,8,0:0:0:0:
125,299,165235,1,0,0:0:0:0:
77,309,165403,1,0,0:0:0:0:
88,297,165572,1,8,0:0:0:0:
74,299,165740,1,8,0:0:0:0:
83,309,165825,1,0,0:0:0:0:
74,316,165909,1,0,0:0:0:0:
76,316,166078,1,0,0:0:0:0:
84,296,166246,1,8,0:0:0:0:
64,290,166415,1,8,0:0:0:0:
71,303,166499,1,0,0:0:0:0:
92,295,166583,1,8,0:0:0:0:
95,307,166752,1,0,0:0:0:0:
96,307,166836,1,0,0:0:0:0:
93,290,166920,1,8,0:0:0:0:
88,291,167089,1,8,0:0:0:0:
96,307,167173,1,0,0:0:0:0:
91,305,167342,1,0,0:0:0:0:
99,299,167426,1,0,0:0:0:0:
100,287,167594,1,8,0:0:0:0:
101,298,167679,1,0,0:0:0:0:
110,290,167763,1,8,0:0:0:0:
108,45,167932,1,12,0:0:0:0:
108,318,168100,1,0,0:0:0:0:
121,317,168269,1,0,0:0:0:0:
121,305,168353,1,8,0:0:0:0:
121,310,168437,1,8,0:0:0:0:
121,323,168606,1,0,0:0:0:0:
85,328,168774,1,0,0:0:0:0:
81,313,168943,1,8,0:0:0:0:
83,322,169027,1,0,0:0:0:0:
90,312,169111,1,8,0:0:0:0:
91,322,169280,1,0,0:0:0:0:
96,315,169448,1,0,0:0:0:0:
98,303,169533,1,8,0:0:0:0:
80,299,169617,1,8,0:0:0:0:
73,279,169785,1,8,0:0:0:0:
78,300,169870,1,0,0:0:0:0:
72,292,170038,1,0,0:0:0:0:
86,280,170123,1,0,0:0:0:0:
99,281,170291,1,8,0:0:0:0:
101,290,170375,1,0,0:0:0:0:
106,280,170460,1,8,0:0:0:0:
106,290,170628,1,8,0:0:0:0:
106,294,170712,1,0,0:0:0:0:
106,290,170797,1,8,0:0:0:0:
113,274,170881,1,0,0:0:0:0:
106,290,170965,1,8,0:0:0:0:
109,279,171049,1,8,0:0:0:0:
112,287,171134,1,0,0:0:0:0:
112,287,171218,1,0,0:0:0:0:
114,281,171302,1,8,0:0:0:0:
115,290,171387,1,0,0:0:0:0:
120,275,171471,1,8,0:0:0:0:
117,293,171555,1,0,0:0:0:0:
121,277,171639,1,8,0:0:0:0:
121,277,171724,1,8,0:0:0:0:
120,286,171808,1,0,0:0:0:0:
120,286,171892,1,0,0:0:0:0:
141,296,171976,1,8,0:0:0:0:
141,300,172033,1,8,0:0:0:0:
141,300,172089,1,8,0:0:0:0:
141,300,172145,1,0,0:0:0:0:
130,318,172229,1,0,0:0:0:0:
139,293,172314,1,8,0:0:0:0:
139,293,172370,1,8,0:0:0:0:
140,299,172426,1,8,0:0:0:0:
137,312,172482,1,0,0:0:0:0:
138,308,172538,1,0,0:0:0:0:
138,308,172594,1,0,0:0:0:0:
116,315,172819,1,0,0:0:0:0:
117,323,172903,1,0,0:0:0:0:
127,306,172988,1,8,0:0:0:0:
107,303,173156,1,8,0:0:0:0:
113,49,173325,1,12,0:0:0:0:
109,297,173662,1,8,0:0:0:0:
104,320,173830,1,0,0:0:0:0:
112,311,173915,1,8,0:0:0:0:
98,324,173999,1,0,0:0:0:0:
117,318,174167,1,0,0:0:0:0:
127,294,174336,1,8,0:0:0:0:
130,311,174420,1,0,0:0:0:0:
133,298,174505,1,8,0:0:0:0:
133,298,174589,1,8,0:0:0:0:
131,308,174673,1,0,0:0:0:0:
113,327,174842,1,0,0:0:0:0:
87,298,175010,1,8,0:0:0:0:
93,316,175179,1,0,0:0:0:0:
100,299,175263,1,8,0:0:0:0:
87,298,175432,1,8,0:0:0:0:
97,309,175516,1,0,0:0:0:0:
106,299,175684,1,8,0:0:0:0:
109,310,175769,1,0,0:0:0:0:
112,298,175853,1,8,0:0:0:0:
102,309,176021,1,0,0:0:0:0:
122,300,176358,1,8,0:0:0:0:
124,310,176527,1,0,0:0:0:0:
124,310,176611,1,8,0:0:0:0:
135,308,176696,1,0,0:0:0:0:
135,308,176864,1,0,0:0:0:0:
134,302,177033,1,8,0:0:0:0:
141,311,177117,1,0,0:0:0:0:
149,298,177201,1,8,0:0:0:0:
149,298,177285,1,8,0:0:0:0:
136,311,177370,1,0,0:0:0:0:
108,297,177538,1,8,0:0:0:0:
114,308,177623,1,0,0:0:0:0:
114,304,177707,1,8,0:0:0:0:
118,315,177791,1,0,0:0:0:0:
125,308,177875,1,8,0:0:0:0:
131,306,177960,1,8,0:0:0:0:
122,311,178044,1,0,0:0:0:0:
122,311,178128,1,0,0:0:0:0:
122,307,178212,1,8,0:0:0:0:
121,305,178381,1,8,0:0:0:0:
121,305,178465,1,8,0:0:0:0:
121,305,178549,1,0,0:0:0:0:
121,305,178634,1,0,0:0:0:0:
101,46,178718,1,12,0:0:0:0:
113,295,179055,1,8,0:0:0:0:
106,316,179224,1,0,0:0:0:0:
98,306,179308,1,8,0:0:0:0:
106,316,179392,1,0,0:0:0:0:
109,303,179561,1,0,0:0:0:0:
113,295,179729,1,8,0:0:0:0:
113,289,179814,1,8,0:0:0:0:
108,305,179898,1,0,0:0:0:0:
111,294,179982,1,8,0:0:0:0:
111,306,180066,1,0,0:0:0:0:
139,326,180235,1,0,0:0:0:0:
103,286,180403,1,8,0:0:0:0:
98,310,180572,1,0,0:0:0:0:
103,289,180656,1,8,0:0:0:0:
87,290,180740,1,0,0:0:0:0:
89,298,180909,1,0,0:0:0:0:
90,288,181078,1,8,0:0:0:0:
96,304,181162,1,0,0:0:0:0:
103,286,181246,1,8,0:0:0:0:
102,290,181330,1,8,0:0:0:0:
97,300,181415,1,0,0:0:0:0:
91,303,181752,1,8,0:0:0:0:
96,312,181920,1,0,0:0:0:0:
106,293,182005,1,8,0:0:0:0:
91,298,182173,1,8,0:0:0:0:
100,304,182257,1,0,0:0:0:0:
102,302,182426,1,8,0:0:0:0:
102,309,182510,1,0,0:0:0:0:
103,279,182594,1,8,0:0:0:0:
105,293,182763,1,0,0:0:0:0:
104,291,183100,1,0,0:0:0:0:
104,291,183353,1,0,0:0:0:0:
108,282,183437,1,8,0:0:0:0:
105,293,183606,1,0,0:0:0:0:
111,275,183690,1,8,0:0:0:0:
108,287,183774,1,0,0:0:0:0:
111,273,183858,1,8,0:0:0:0:
111,273,183943,1,8,0:0:0:0:
116,57,184111,1,12,0:0:0:0:
122,296,184448,1,8,0:0:0:0:
117,306,184617,1,0,0:0:0:0:
122,296,184701,1,8,0:0:0:0:
118,306,184785,1,0,0:0:0:0:
119,302,184954,1,0,0:0:0:0:
119,280,185123,1,8,0:0:0:0:
127,295,185207,1,0,0:0:0:0:
129,273,185291,1,8,0:0:0:0:
129,273,185375,1,8,0:0:0:0:
130,293,185460,1,0,0:0:0:0:
113,296,185628,1,0,0:0:0:0:
109,310,185797,1,0,0:0:0:0:
107,276,185881,1,8,0:0:0:0:
121,278,186049,1,8,0:0:0:0:
114,299,186134,1,0,0:0:0:0:
78,294,186302,1,0,0:0:0:0:
92,281,186471,1,8,0:0:0:0:
92,291,186555,1,0,0:0:0:0:
97,280,186639,1,8,0:0:0:0:
97,292,186808,1,0,0:0:0:0:
91,275,187145,1,8,0:0:0:0:
98,287,187314,1,0,0:0:0:0:
97,275,187398,1,8,0:0:0:0:
85,281,187482,1,0,0:0:0:0:
94,287,187651,1,0,0:0:0:0:
101,273,187735,1,8,0:0:0:0:
96,273,187819,1,8,0:0:0:0:
98,282,187903,1,0,0:0:0:0:
98,282,187988,1,8,0:0:0:0:
98,287,188156,1,0,0:0:0:0:
95,282,188493,1,8,0:0:0:0:
93,283,188746,1,0,0:0:0:0:
101,261,188830,1,8,0:0:0:0:
91,266,188999,1,8,0:0:0:0:
101,279,189083,1,0,0:0:0:0:
107,265,189167,1,8,0:0:0:0:
102,263,189336,1,8,0:0:0:0:
103,46,189505,1,12,0:0:0:0:
86,296,189842,1,8,0:0:0:0:
89,311,190010,1,0,0:0:0:0:
89,311,190094,1,8,0:0:0:0:
88,312,190179,1,0,0:0:0:0:
105,315,190347,1,0,0:0:0:0:
109,303,190432,1,8,0:0:0:0:
91,289,190516,1,8,0:0:0:0:
104,306,190600,1,0,0:0:0:0:
110,284,190684,1,8,0:0:0:0:
82,300,190853,1,0,0:0:0:0:
81,288,191190,1,8,0:0:0:0:
84,297,191443,1,0,0:0:0:0:
87,282,191527,1,8,0:0:0:0:
83,279,191696,1,0,0:0:0:0:
71,269,191780,1,8,0:0:0:0:
72,268,191864,1,8,0:0:0:0:
74,276,191948,1,0,0:0:0:0:
82,266,192033,1,8,0:0:0:0:
72,264,192201,1,8,0:0:0:0:
78,270,192285,1,0,0:0:0:0:
78,270,192370,1,8,0:0:0:0:
86,271,192454,1,0,0:0:0:0:
92,261,192538,1,8,0:0:0:0:
93,260,192623,1,8,0:0:0:0:
92,268,192707,1,0,0:0:0:0:
92,268,192791,1,0,0:0:0:0:
93,261,192875,1,8,0:0:0:0:
93,270,192960,1,8,0:0:0:0:
96,260,193044,1,0,0:0:0:0:
97,260,193128,1,8,0:0:0:0:
103,253,193212,1,8,0:0:0:0:
100,265,193297,1,0,0:0:0:0:
100,265,193381,1,8,0:0:0:0:
97,258,193465,1,8,0:0:0:0:
98,273,193549,1,0,0:0:0:0:
96,260,193887,1,8,0:0:0:0:
95,273,194139,1,0,0:0:0:0:
103,261,194224,1,8,0:0:0:0:
103,251,194392,1,0,0:0:0:0:
105,239,194476,1,8,0:0:0:0:
96,239,194561,1,8,0:0:0:0:
104,253,194645,1,0,0:0:0:0:
104,253,194729,1,0,0:0:0:0:
104,253,194814,1,0,0:0:0:0:
122,47,194898,1,12,0:0:0:0:
113,309,195235,1,8,0:0:0:0:
114,326,195403,1,0,0:0:0:0:
114,326,195740,1,0,0:0:0:0:
114,326,195993,1,0,0:0:0:0:
126,305,196077,1,8,0:0:0:0:
104,326,196246,1,0,0:0:0:0:
104,326,196583,1,0,0:0:0:0:
104,326,196836,1,0,0:0:0:0:
104,326,197089,1,0,0:0:0:0:
104,326,197426,1,0,0:0:0:0:
108,317,197594,1,8,0:0:0:0:
106,317,197931,1,8,0:0:0:0:
104,326,198100,1,0,0:0:0:0:
106,328,198437,1,0,0:0:0:0:
106,328,198690,1,8,0:0:0:0:
106,328,198774,1,0,0:0:0:0:
104,326,198943,1,0,0:0:0:0:
106,328,199280,1,0,0:0:0:0:
106,328,199532,1,0,0:0:0:0:
110,323,199785,1,0,0:0:0:0:
110,313,199954,1,8,0:0:0:0:
107,313,200122,1,8,0:0:0:0:
109,333,200291,1,0,0:0:0:0:
110,323,200628,1,8,0:0:0:0:
107,331,200796,1,0,0:0:0:0:
109,333,201134,1,0,0:0:0:0:
107,331,201386,1,8,0:0:0:0:
107,331,201471,1,0,0:0:0:0:
107,331,201639,1,0,0:0:0:0:
109,333,201976,1,0,0:0:0:0:
107,331,202229,1,0,0:0:0:0:
104,325,202482,1,0,0:0:0:0:
105,321,202819,1,0,0:0:0:0:
111,301,202987,1,8,0:0:0:0:
101,299,203325,1,8,0:0:0:0:
105,321,203493,1,0,0:0:0:0:
101,323,203830,1,0,0:0:0:0:
100,305,204083,1,8,0:0:0:0:
101,312,204167,1,0,0:0:0:0:
104,303,204336,1,8,0:0:0:0:
103,299,204673,1,8,0:0:0:0:
103,299,204926,1,0,0:0:0:0:
104,303,205178,1,0,0:0:0:0:
103,299,205347,1,8,0:0:0:0:
103,299,205516,1,8,0:0:0:0:
103,299,205684,1,0,0:0:0:0:
104,303,206021,1,8,0:0:0:0:
103,299,206190,1,0,0:0:0:0:
103,299,206527,1,0,0:0:0:0:
104,303,206780,1,8,0:0:0:0:
104,303,206864,1,0,0:0:0:0:
103,299,207032,1,0,0:0:0:0:
103,299,207369,1,0,0:0:0:0:
104,303,207622,1,0,0:0:0:0:
103,299,207875,1,0,0:0:0:0:
103,299,208212,1,0,0:0:0:0:
104,303,208381,1,8,0:0:0:0:
103,299,208718,1,8,0:0:0:0:
103,299,208886,1,0,0:0:0:0:
104,303,209223,1,0,0:0:0:0:
103,299,209476,1,8,0:0:0:0:
103,299,209560,1,0,0:0:0:0:
103,299,209729,1,0,0:0:0:0:
104,303,210066,1,8,0:0:0:0:
103,299,210319,1,0,0:0:0:0:
103,299,210572,1,0,0:0:0:0:
104,303,210740,1,8,0:0:0:0:
104,303,210909,1,8,0:0:0:0:
103,299,211077,1,0,0:0:0:0:
103,299,211414,1,0,0:0:0:0:
113,292,211583,1,8,0:0:0:0:
98,283,211920,1,8,0:0:0:0:
102,292,212173,1,8,0:0:0:0:
103,299,212257,1,0,0:0:0:0:
102,301,212426,1,0,0:0:0:0:
97,303,212763,1,0,0:0:0:0:
97,303,213016,1,0,0:0:0:0:
99,306,213268,1,0,0:0:0:0:
106,293,213605,1,0,0:0:0:0:
109,282,213774,1,8,0:0:0:0:
109,282,214111,1,8,0:0:0:0:
110,298,214280,1,0,0:0:0:0:
110,298,214617,1,0,0:0:0:0:
110,298,214785,1,0,0:0:0:0:
113,286,214869,1,8,0:0:0:0:
110,298,214954,1,0,0:0:0:0:
129,284,215038,1,8,0:0:0:0:
135,9,215122,1,4,0:0:0:0:
179,40,215628,1,4,0:0:0:0:
173,56,216134,1,4,0:0:0:0:
127,43,216471,1,12,0:0:0:0:
105,306,216639,1,0,0:0:0:0:
118,295,216807,1,8,0:0:0:0:
125,282,216976,1,8,0:0:0:0:
137,278,217313,1,8,0:0:0:0:
143,292,217397,1,0,0:0:0:0:
115,300,217566,1,0,0:0:0:0:
127,289,217650,1,8,0:0:0:0:
125,282,217734,1,8,0:0:0:0:
123,299,217818,1,0,0:0:0:0:
121,308,218156,1,0,0:0:0:0:
127,289,218409,1,0,0:0:0:0:
129,293,218493,1,0,0:0:0:0:
127,291,218662,1,0,0:0:0:0:
131,280,218830,1,8,0:0:0:0:
128,271,218999,1,8,0:0:0:0:
169,278,219167,1,8,0:0:0:0:
157,290,219504,1,8,0:0:0:0:
157,290,219672,1,0,0:0:0:0:
128,286,220009,1,0,0:0:0:0:
123,277,220094,1,0,0:0:0:0:
134,290,220262,1,0,0:0:0:0:
112,279,220347,1,8,0:0:0:0:
131,266,220515,1,0,0:0:0:0:
138,290,220599,1,0,0:0:0:0:
116,271,220684,1,8,0:0:0:0:
124,280,220768,1,0,0:0:0:0:
131,271,220852,1,8,0:0:0:0:
134,283,220936,1,0,0:0:0:0:
140,269,221021,1,8,0:0:0:0:
140,269,221105,1,8,0:0:0:0:
133,284,221189,1,0,0:0:0:0:
118,264,221273,1,0,0:0:0:0:
118,264,221358,1,8,0:0:0:0:
114,279,221442,1,8,0:0:0:0:
129,282,221526,1,0,0:0:0:0:
129,282,221611,1,0,0:0:0:0:
137,268,221695,1,8,0:0:0:0:
139,280,221779,1,8,0:0:0:0:
139,286,221863,1,0,0:0:0:0:
110,283,222200,1,8,0:0:0:0:
101,301,222369,1,0,0:0:0:0:
86,310,222706,1,0,0:0:0:0:
86,310,222790,1,0,0:0:0:0:
71,296,222959,1,8,0:0:0:0:
75,304,223043,1,0,0:0:0:0:
65,319,223212,1,0,0:0:0:0:
67,318,223549,1,0,0:0:0:0:
62,292,223802,1,0,0:0:0:0:
62,292,224054,1,0,0:0:0:0:
95,285,224223,1,8,0:0:0:0:
90,299,224391,1,0,0:0:0:0:
89,297,224476,1,0,0:0:0:0:
90,287,224560,1,8,0:0:0:0:
74,282,224897,1,8,0:0:0:0:
80,299,225066,1,0,0:0:0:0:
82,284,225403,1,0,0:0:0:0:
82,284,225487,1,0,0:0:0:0:
76,273,225656,1,8,0:0:0:0:
80,286,225740,1,0,0:0:0:0:
87,273,225908,1,8,0:0:0:0:
82,284,226245,1,0,0:0:0:0:
84,283,226498,1,0,0:0:0:0:
84,283,226751,1,0,0:0:0:0:
91,268,226920,1,8,0:0:0:0:
87,282,227088,1,0,0:0:0:0:
109,24,227257,1,12,0:0:0:0:
102,287,227594,1,8,0:0:0:0:
107,312,227762,1,0,0:0:0:0:
101,319,228099,1,0,0:0:0:0:
118,300,228352,1,8,0:0:0:0:
126,315,228436,1,0,0:0:0:0:
95,48,228605,1,12,0:0:0:0:
99,294,228942,1,8,0:0:0:0:
99,312,229111,1,0,0:0:0:0:
92,313,229448,1,0,0:0:0:0:
83,302,229785,1,8,0:0:0:0:
86,315,229869,1,0,0:0:0:0:
110,47,229953,1,12,0:0:0:0:
95,298,230290,1,8,0:0:0:0:
96,313,230459,1,0,0:0:0:0:
79,313,230796,1,0,0:0:0:0:
78,310,231049,1,8,0:0:0:0:
82,293,231133,1,0,0:0:0:0:
51,284,231217,1,0,0:0:0:0:
79,41,231302,1,12,0:0:0:0:
93,284,231470,1,0,0:0:0:0:
104,271,231554,1,0,0:0:0:0:
102,267,231639,1,8,0:0:0:0:
110,285,231723,1,0,0:0:0:0:
108,268,231807,1,8,0:0:0:0:
95,270,231976,1,8,0:0:0:0:
98,283,232060,1,0,0:0:0:0:
98,283,232144,1,0,0:0:0:0:
100,276,232313,1,8,0:0:0:0:
102,287,232397,1,8,0:0:0:0:
109,271,232481,1,0,0:0:0:0:
109,271,232566,1,0,0:0:0:0:
126,55,232650,1,12,0:0:0:0:
99,263,232988,1,8,0:0:0:0:
104,286,233156,1,0,0:0:0:0:
154,46,233325,1,12,0:0:0:0:
93,270,233662,1,8,0:0:0:0:
101,293,233830,1,0,0:0:0:0:
130,50,233999,1,12,0:0:0:0:
78,256,234336,1,8,0:0:0:0:
84,279,234505,1,0,0:0:0:0:
154,38,234673,1,12,0:0:0:0:
69,255,235010,1,8,0:0:0:0:
71,273,235179,1,0,0:0:0:0:
108,58,235347,1,12,0:0:0:0:
76,274,235516,1,0,0:0:0:0:
133,74,235600,1,12,0:0:0:0:
76,276,235769,1,0,0:0:0:0:
126,62,235853,1,12,0:0:0:0:
76,278,236021,1,0,0:0:0:0:
94,81,236106,1,12,0:0:0:0:
85,275,236274,1,0,0:0:0:0:
94,242,236358,1,8,0:0:0:0:
82,286,236443,1,0,0:0:0:0:
92,274,236527,1,8,0:0:0:0:
92,275,236611,1,8,0:0:0:0:
87,288,236696,1,0,0:0:0:0:
124,285,237707,2,0,L|184:322,1,70
285,157,238044,5,4,0:0:0:0:
178,155,238212,1,2,0:0:0:0:
178,155,238297,1,2,0:0:0:0:
178,155,238381,1,0,0:0:0:0:
226,177,238437,1,0,0:0:0:0:
226,177,238493,1,0,0:0:0:0:
226,177,238549,1,0,0:0:0:0:
249,154,238718,1,2,0:0:0:0:
249,154,238830,1,0,0:0:0:0:
249,154,238943,1,0,0:0:0:0:
249,154,239055,1,2,0:0:0:0:
249,154,239167,1,0,0:0:0:0:
164,73,239224,1,2,0:0:0:0:
249,154,239280,1,0,0:0:0:0:
249,154,239392,1,6,0:0:0:0:
159,201,239561,1,0,0:0:0:0:
159,201,239645,1,0,0:0:0:0:
159,201,239729,1,2,0:0:0:0:
159,201,239813,1,2,0:0:0:0:
159,201,239898,1,0,0:0:0:0:
159,201,240066,1,2,0:0:0:0:
159,201,240151,1,2,0:0:0:0:
159,201,240235,1,0,0:0:0:0:
159,201,240403,1,2,0:0:0:0:
87,158,240488,1,0,0:0:0:0:
159,201,240572,1,2,0:0:0:0:
159,201,240656,1,0,0:0:0:0:
159,201,240740,1,2,0:0:0:0:
173,140,240825,1,2,0:0:0:0:
173,140,240909,1,0,0:0:0:0:
160,107,241078,1,2,0:0:0:0:
160,107,241162,1,0,0:0:0:0:
160,107,241246,1,2,0:0:0:0:
160,107,241330,1,2,0:0:0:0:
160,107,241415,1,0,0:0:0:0:
143,165,241499,1,2,0:0:0:0:
143,165,241583,1,0,0:0:0:0:
143,165,241752,1,0,0:0:0:0:
143,165,241920,1,0,0:0:0:0:
143,165,242005,1,0,0:0:0:0:
143,165,242089,1,2,0:0:0:0:
143,165,242173,1,2,0:0:0:0:
143,165,242257,1,0,0:0:0:0:
201,167,242426,1,2,0:0:0:0:
201,167,242510,1,0,0:0:0:0:
201,167,242594,1,2,0:0:0:0:
201,167,242679,1,2,0:0:0:0:
201,167,242763,1,0,0:0:0:0:
201,167,242931,1,0,0:0:0:0:
201,167,243016,1,0,0:0:0:0:
201,167,243100,1,2,0:0:0:0:
189,193,243184,1,0,0:0:0:0:
201,167,243269,1,2,0:0:0:0:
201,167,243353,1,2,0:0:0:0:
201,167,243437,1,0,0:0:0:0:
207,105,243521,1,0,0:0:0:0:
207,105,243606,1,2,0:0:0:0:
119,158,243774,1,2,0:0:0:0:
119,158,243858,1,0,0:0:0:0:
119,158,243943,1,2,0:0:0:0:
119,158,244027,1,2,0:0:0:0:
119,158,244111,1,0,0:0:0:0:
119,158,244196,1,2,0:0:0:0:
119,158,244280,1,0,0:0:0:0:
109,157,244364,1,0,0:0:0:0:
109,157,244448,1,2,0:0:0:0:
109,157,244617,1,0,0:0:0:0:
109,157,244785,1,6,0:0:0:0:
159,201,244954,1,0,0:0:0:0:
159,201,245038,1,0,0:0:0:0:
159,201,245122,1,2,0:0:0:0:
159,201,245206,1,2,0:0:0:0:
159,201,245291,1,0,0:0:0:0:
159,201,245459,1,2,0:0:0:0:
159,201,245544,1,2,0:0:0:0:
159,201,245628,1,0,0:0:0:0:
189,193,245712,1,0,0:0:0:0:
159,201,245796,1,2,0:0:0:0:
189,193,245881,1,0,0:0:0:0:
159,201,245965,1,2,0:0:0:0:
159,201,246049,1,0,0:0:0:0:
159,201,246133,1,2,0:0:0:0:
173,140,246218,1,2,0:0:0:0:
173,140,246302,1,0,0:0:0:0:
160,107,246471,1,2,0:0:0:0:
160,107,246555,1,0,0:0:0:0:
160,107,246639,1,2,0:0:0:0:
160,107,246723,1,2,0:0:0:0:
160,107,246808,1,0,0:0:0:0:
143,165,246892,1,2,0:0:0:0:
143,165,246976,1,0,0:0:0:0:
143,165,247145,1,0,0:0:0:0:
143,165,247229,1,2,0:0:0:0:
143,165,247313,1,2,0:0:0:0:
143,165,247482,1,2,0:0:0:0:
41,170,247651,1,0,0:0:0:0:
41,170,247735,1,0,0:0:0:0:
106,186,247819,1,2,0:0:0:0:
106,186,247903,1,2,0:0:0:0:
106,186,247988,1,2,0:0:0:0:
106,186,248072,1,0,0:0:0:0:
232,142,248156,1,2,0:0:0:0:
232,142,248240,1,2,0:0:0:0:
232,142,248325,1,0,0:0:0:0:
30,136,248409,1,2,0:0:0:0:
232,142,248493,1,0,0:0:0:0:
232,142,248578,1,2,0:0:0:0:
232,142,248662,1,0,0:0:0:0:
232,142,248746,1,2,0:0:0:0:
232,142,248830,5,2,0:0:0:0:
232,142,249167,1,2,0:0:0:0:
232,142,249336,1,0,0:0:0:0:
232,142,249673,1,0,0:0:0:0:
232,142,249842,1,2,0:0:0:0:
125,171,250010,1,0,0:0:0:0:
85,319,250066,1,0,0:0:0:0:
125,171,250123,1,0,0:0:0:0:
88,286,250179,1,8,0:0:0:0:
136,311,250347,1,0,0:0:0:0:
123,297,250516,1,8,0:0:0:0:
124,297,250600,1,8,0:0:0:0:
124,314,250684,1,0,0:0:0:0:
150,285,250853,1,8,0:0:0:0:
150,285,250895,1,8,0:0:0:0:
150,285,251021,1,0,0:0:0:0:
150,285,251063,1,0,0:0:0:0:
150,285,251190,1,8,0:0:0:0:
150,285,251232,1,8,0:0:0:0:
150,285,251358,1,8,0:0:0:0:
150,285,251401,1,8,0:0:0:0:
150,285,251527,1,0,0:0:0:0:
142,288,251569,1,0,0:0:0:0:
143,288,251696,1,0,0:0:0:0:
143,288,251738,1,0,0:0:0:0:
146,281,251864,1,8,0:0:0:0:
146,281,251906,1,8,0:0:0:0:
146,290,252033,1,0,0:0:0:0:
139,300,252075,1,0,0:0:0:0:
146,290,252201,1,0,0:0:0:0:
146,290,252243,1,0,0:0:0:0:
146,290,252370,1,8,0:0:0:0:
146,290,252412,1,8,0:0:0:0:
143,288,252538,1,0,0:0:0:0:
130,295,252580,1,0,0:0:0:0:
92,289,252707,1,0,0:0:0:0:
92,289,252875,1,0,0:0:0:0:
121,299,252960,1,0,0:0:0:0:
128,284,253044,1,8,0:0:0:0:
126,303,253128,1,0,0:0:0:0:
128,284,253212,1,8,0:0:0:0:
123,282,253381,1,0,0:0:0:0:
116,287,253549,1,8,0:0:0:0:
116,286,253592,1,8,0:0:0:0:
116,292,253718,1,0,0:0:0:0:
116,292,253760,1,0,0:0:0:0:
122,281,253887,1,8,0:0:0:0:
122,281,253929,1,8,0:0:0:0:
122,281,254055,1,8,0:0:0:0:
123,282,254097,1,8,0:0:0:0:
123,282,254224,1,0,0:0:0:0:
122,281,254266,1,0,0:0:0:0:
122,281,254392,1,0,0:0:0:0:
122,281,254434,1,0,0:0:0:0:
122,281,254561,1,8,0:0:0:0:
122,281,254603,1,8,0:0:0:0:
122,281,254729,1,0,0:0:0:0:
116,298,254771,1,0,0:0:0:0:
122,281,254898,1,0,0:0:0:0:
123,282,254940,1,0,0:0:0:0:
123,282,255066,1,8,0:0:0:0:
122,281,255108,1,8,0:0:0:0:
122,281,255235,1,0,0:0:0:0:
134,300,255277,1,0,0:0:0:0:
122,281,255403,1,8,0:0:0:0:
128,308,255488,1,0,0:0:0:0:
106,40,255572,1,12,0:0:0:0:
160,308,255740,1,0,0:0:0:0:
160,308,255825,1,0,0:0:0:0:
161,275,255909,1,8,0:0:0:0:
170,299,255993,1,0,0:0:0:0:
169,274,256078,1,8,0:0:0:0:
88,278,256246,1,8,0:0:0:0:
88,278,256288,1,8,0:0:0:0:
81,295,256415,1,0,0:0:0:0:
81,295,256457,1,0,0:0:0:0:
88,278,256583,1,8,0:0:0:0:
88,278,256625,1,8,0:0:0:0:
88,278,256752,1,8,0:0:0:0:
88,278,256794,1,8,0:0:0:0:
88,278,256920,1,0,0:0:0:0:
88,278,256962,1,0,0:0:0:0:
88,278,257089,1,0,0:0:0:0:
88,278,257131,1,0,0:0:0:0:
94,268,257257,1,8,0:0:0:0:
94,268,257299,1,8,0:0:0:0:
94,268,257426,1,0,0:0:0:0:
94,268,257468,1,0,0:0:0:0:
86,268,257594,1,0,0:0:0:0:
87,268,257637,1,0,0:0:0:0:
84,289,257763,1,8,0:0:0:0:
84,289,257805,1,8,0:0:0:0:
83,287,257931,1,0,0:0:0:0:
81,291,257974,1,0,0:0:0:0:
95,298,258100,1,0,0:0:0:0:
140,266,258184,1,0,0:0:0:0:
95,279,258269,1,8,0:0:0:0:
124,269,258353,1,8,0:0:0:0:
89,276,258437,1,0,0:0:0:0:
89,276,258521,1,8,0:0:0:0:
85,255,258606,1,8,0:0:0:0:
128,279,258690,1,0,0:0:0:0:
73,255,258774,1,8,0:0:0:0:
126,276,258943,1,8,0:0:0:0:
126,276,258985,1,8,0:0:0:0:
126,276,259111,1,8,0:0:0:0:
126,276,259153,1,8,0:0:0:0:
126,276,259280,1,0,0:0:0:0:
112,277,259322,1,0,0:0:0:0:
137,264,259448,1,8,0:0:0:0:
139,263,259490,1,8,0:0:0:0:
131,277,259617,1,0,0:0:0:0:
127,295,259701,1,0,0:0:0:0:
126,276,259785,1,8,0:0:0:0:
138,288,259870,1,0,0:0:0:0:
139,278,259954,1,8,0:0:0:0:
139,292,260038,1,0,0:0:0:0:
136,279,260122,1,8,0:0:0:0:
136,280,260207,1,8,0:0:0:0:
138,291,260291,1,0,0:0:0:0:
139,273,260375,1,0,0:0:0:0:
131,277,260460,1,8,0:0:0:0:
133,275,260544,1,8,0:0:0:0:
121,293,260628,1,0,0:0:0:0:
116,264,260797,1,8,0:0:0:0:
108,31,260965,1,12,0:0:0:0:
116,274,261134,1,0,0:0:0:0:
116,273,261218,1,0,0:0:0:0:
117,261,261302,1,8,0:0:0:0:
133,275,261387,1,0,0:0:0:0:
120,252,261471,1,8,0:0:0:0:
81,275,261639,1,8,0:0:0:0:
81,275,261681,1,8,0:0:0:0:
81,275,261808,1,8,0:0:0:0:
81,275,261850,1,8,0:0:0:0:
81,275,261976,1,0,0:0:0:0:
81,275,262019,1,0,0:0:0:0:
81,275,262145,1,8,0:0:0:0:
81,275,262187,1,8,0:0:0:0:
81,275,262313,1,0,0:0:0:0:
81,275,262356,1,0,0:0:0:0:
72,263,262482,1,0,0:0:0:0:
76,263,262524,1,0,0:0:0:0:
99,264,262651,1,8,0:0:0:0:
99,264,262693,1,8,0:0:0:0:
100,264,262819,1,0,0:0:0:0:
102,264,262861,1,0,0:0:0:0:
108,263,262988,1,0,0:0:0:0:
108,263,263030,1,0,0:0:0:0:
109,263,263156,1,8,0:0:0:0:
109,263,263198,1,8,0:0:0:0:
106,275,263325,1,0,0:0:0:0:
104,283,263367,1,0,0:0:0:0:
106,272,263493,1,0,0:0:0:0:
124,268,263662,1,0,0:0:0:0:
129,260,263830,1,8,0:0:0:0:
126,253,263915,1,8,0:0:0:0:
126,270,263999,1,0,0:0:0:0:
123,258,264083,1,8,0:0:0:0:
123,268,264167,1,0,0:0:0:0:
161,257,264336,1,8,0:0:0:0:
161,257,264378,1,8,0:0:0:0:
161,257,264505,1,8,0:0:0:0:
161,257,264547,1,8,0:0:0:0:
161,257,264673,1,0,0:0:0:0:
161,257,264715,1,0,0:0:0:0:
161,257,264842,1,8,0:0:0:0:
161,257,264884,1,8,0:0:0:0:
161,257,265010,1,0,0:0:0:0:
161,257,265052,1,0,0:0:0:0:
161,257,265179,1,0,0:0:0:0:
161,257,265221,1,0,0:0:0:0:
161,257,265347,1,8,0:0:0:0:
161,257,265389,1,8,0:0:0:0:
161,257,265516,1,0,0:0:0:0:
161,257,265558,1,0,0:0:0:0:
161,257,265684,1,0,0:0:0:0:
161,257,265726,1,0,0:0:0:0:
161,257,265853,1,8,0:0:0:0:
161,257,265895,1,8,0:0:0:0:
161,257,266021,1,0,0:0:0:0:
116,309,266106,1,0,0:0:0:0:
161,257,266190,1,8,0:0:0:0:
155,246,266246,1,8,0:0:0:0:
155,246,266302,1,8,0:0:0:0:
156,252,266358,1,0,0:0:0:0:
128,273,266696,1,0,0:0:0:0:
115,259,267033,1,8,0:0:0:0:
111,278,267201,1,0,0:0:0:0:
111,278,267285,1,0,0:0:0:0:
111,278,267370,1,8,0:0:0:0:
111,278,267426,1,8,0:0:0:0:
103,283,267482,1,8,0:0:0:0:
111,278,267538,1,0,0:0:0:0:
111,278,267623,1,0,0:0:0:0:
112,267,267707,1,8,0:0:0:0:
83,287,268044,1,0,0:0:0:0:
87,281,268212,1,0,0:0:0:0:
87,281,268381,1,8,0:0:0:0:
87,288,268549,1,0,0:0:0:0:
90,280,268718,1,8,0:0:0:0:
90,280,268760,1,8,0:0:0:0:
93,290,268887,1,0,0:0:0:0:
106,291,269055,1,8,0:0:0:0:
117,313,269392,1,0,0:0:0:0:
121,313,269476,1,0,0:0:0:0:
127,298,269561,1,8,0:0:0:0:
105,39,269729,1,12,0:0:0:0:
102,313,270066,1,0,0:0:0:0:
105,313,270151,1,0,0:0:0:0:
101,304,270235,1,8,0:0:0:0:
107,319,270319,1,8,0:0:0:0:
148,54,270403,1,4,0:0:0:0:
153,71,270909,1,0,0:0:0:0:
153,71,271415,1,0,0:0:0:0:
140,160,271752,5,2,0:0:0:0:
140,160,271836,1,0,0:0:0:0:
140,160,271920,1,0,0:0:0:0:
140,160,272005,1,2,0:0:0:0:
140,160,272089,1,0,0:0:0:0:
140,160,272257,1,2,0:0:0:0:
140,160,272342,1,2,0:0:0:0:
140,160,272426,1,0,0:0:0:0:
231,155,272510,1,0,0:0:0:0:
87,134,272594,1,2,0:0:0:0:
87,134,272679,1,0,0:0:0:0:
87,134,272763,1,2,0:0:0:0:
87,134,272847,1,2,0:0:0:0:
87,134,272931,1,0,0:0:0:0:
87,134,273016,1,0,0:0:0:0:
87,134,273100,1,2,0:0:0:0:
154,200,273269,1,2,0:0:0:0:
154,200,273353,1,2,0:0:0:0:
154,200,273437,1,0,0:0:0:0:
154,200,273521,1,2,0:0:0:0:
154,200,273606,1,2,0:0:0:0:
154,200,273690,1,0,0:0:0:0:
154,200,273774,1,2,0:0:0:0:
154,200,273943,1,0,0:0:0:0:
154,200,274027,1,0,0:0:0:0:
154,200,274111,1,2,0:0:0:0:
154,200,274196,1,0,0:0:0:0:
154,200,274280,1,2,0:0:0:0:
154,200,274364,1,0,0:0:0:0:
154,200,274448,1,2,0:0:0:0:
159,214,274533,1,2,0:0:0:0:
159,214,274617,1,0,0:0:0:0:
159,214,274701,1,2,0:0:0:0:
159,214,274785,1,0,0:0:0:0:
159,214,274954,1,2,0:0:0:0:
159,214,275038,1,0,0:0:0:0:
159,214,275122,1,0,0:0:0:0:
194,148,275207,1,0,0:0:0:0:
194,148,275291,1,2,0:0:0:0:
159,214,275375,1,0,0:0:0:0:
159,214,275460,1,2,0:0:0:0:
159,214,275544,1,2,0:0:0:0:
159,214,275628,1,0,0:0:0:0:
159,214,275712,1,2,0:0:0:0:
159,214,275797,1,2,0:0:0:0:
159,214,275881,1,0,0:0:0:0:
159,214,275965,1,0,0:0:0:0:
159,214,276049,1,0,0:0:0:0:
159,214,276134,1,2,0:0:0:0:
159,214,276302,1,2,0:0:0:0:
159,214,276387,1,0,0:0:0:0:
56,156,276471,1,2,0:0:0:0:
56,156,276555,1,2,0:0:0:0:
56,156,276639,1,2,0:0:0:0:
56,156,276724,1,2,0:0:0:0:
56,156,276808,1,0,0:0:0:0:
56,156,276976,1,0,0:0:0:0:
140,160,277145,1,2,0:0:0:0:
140,160,277229,1,0,0:0:0:0:
140,160,277313,1,0,0:0:0:0:
140,160,277398,1,2,0:0:0:0:
140,160,277482,1,0,0:0:0:0:
140,160,277650,1,2,0:0:0:0:
140,160,277735,1,2,0:0:0:0:
140,160,277819,1,0,0:0:0:0:
143,73,277903,1,0,0:0:0:0:
87,134,277987,1,2,0:0:0:0:
87,134,278072,1,0,0:0:0:0:
87,134,278156,1,2,0:0:0:0:
87,134,278240,1,2,0:0:0:0:
87,134,278324,1,0,0:0:0:0:
87,134,278409,1,0,0:0:0:0:
87,134,278493,1,2,0:0:0:0:
154,200,278662,1,2,0:0:0:0:
154,200,278746,1,2,0:0:0:0:
154,200,278830,1,0,0:0:0:0:
154,200,278914,1,2,0:0:0:0:
154,200,278999,1,2,0:0:0:0:
154,200,279083,1,0,0:0:0:0:
154,200,279167,1,2,0:0:0:0:
194,148,279252,1,2,0:0:0:0:
154,200,279336,1,0,0:0:0:0:
154,200,279420,1,0,0:0:0:0:
154,200,279504,1,2,0:0:0:0:
154,200,279589,1,0,0:0:0:0:
154,200,279673,1,2,0:0:0:0:
154,200,279757,1,0,0:0:0:0:
154,200,279841,1,2,0:0:0:0:
159,214,279926,1,2,0:0:0:0:
159,214,280010,1,0,0:0:0:0:
159,214,280178,1,0,0:0:0:0:
202,46,280263,1,0,0:0:0:0:
159,214,280347,1,2,0:0:0:0:
159,214,280431,1,0,0:0:0:0:
159,214,280515,1,2,0:0:0:0:
186,56,280600,1,2,0:0:0:0:
159,214,280684,1,2,0:0:0:0:
191,220,280769,1,2,0:0:0:0:
159,214,280853,1,0,0:0:0:0:
159,214,280937,1,2,0:0:0:0:
159,214,281021,1,0,0:0:0:0:
159,214,281106,1,2,0:0:0:0:
68,132,281190,1,2,0:0:0:0:
68,132,281527,1,2,0:0:0:0:
68,132,281696,1,0,0:0:0:0:
68,132,282033,1,0,0:0:0:0:
68,132,282201,1,2,0:0:0:0:
68,132,282370,1,0,0:0:0:0:
140,160,282538,5,6,0:0:0:0:
140,160,282706,1,0,0:0:0:0:
140,160,282791,1,2,0:0:0:0:
140,160,282875,1,0,0:0:0:0:
116,143,282960,1,0,0:0:0:0:
140,160,283043,1,2,0:0:0:0:
140,160,283128,1,2,0:0:0:0:
140,160,283212,1,0,0:0:0:0:
87,134,283380,1,2,0:0:0:0:
87,134,283465,1,0,0:0:0:0:
87,134,283549,1,2,0:0:0:0:
87,134,283633,1,2,0:0:0:0:
87,134,283717,1,0,0:0:0:0:
87,134,283802,1,0,0:0:0:0:
87,134,283886,1,2,0:0:0:0:
189,145,283971,1,2,0:0:0:0:
154,200,284055,1,2,0:0:0:0:
154,200,284139,1,2,0:0:0:0:
154,200,284223,1,0,0:0:0:0:
154,200,284307,1,2,0:0:0:0:
154,200,284392,1,2,0:0:0:0:
154,200,284476,1,0,0:0:0:0:
154,200,284560,1,2,0:0:0:0:
154,200,284729,1,0,0:0:0:0:
154,200,284813,1,0,0:0:0:0:
154,200,284897,1,2,0:0:0:0:
154,200,284982,1,0,0:0:0:0:
154,200,285066,1,2,0:0:0:0:
154,200,285150,1,0,0:0:0:0:
154,200,285234,1,2,0:0:0:0:
159,214,285319,1,2,0:0:0:0:
159,214,285403,1,0,0:0:0:0:
159,214,285487,1,2,0:0:0:0:
159,214,285571,1,0,0:0:0:0:
159,214,285740,1,2,0:0:0:0:
159,214,285824,1,0,0:0:0:0:
159,214,285908,1,2,0:0:0:0:
189,145,285993,1,0,0:0:0:0:
159,214,286077,1,2,0:0:0:0:
159,214,286161,1,0,0:0:0:0:
159,214,286246,1,2,0:0:0:0:
159,214,286330,1,2,0:0:0:0:
159,214,286414,1,0,0:0:0:0:
159,214,286498,1,2,0:0:0:0:
186,156,286583,1,0,0:0:0:0:
159,214,286667,1,0,0:0:0:0:
159,214,286752,1,2,0:0:0:0:
159,214,286835,1,0,0:0:0:0:
159,214,286920,1,2,0:0:0:0:
186,156,287005,1,0,0:0:0:0:
159,214,287088,1,2,0:0:0:0:
159,214,287173,1,2,0:0:0:0:
56,156,287257,1,0,0:0:0:0:
56,156,287341,1,2,0:0:0:0:
56,156,287425,1,2,0:0:0:0:
56,156,287510,1,2,0:0:0:0:
56,156,287594,1,0,0:0:0:0:
193,169,287679,1,2,0:0:0:0:
56,156,287762,1,0,0:0:0:0:
193,169,287847,1,2,0:0:0:0:
202,54,287931,1,0,0:0:0:0:
140,160,288099,1,0,0:0:0:0:
140,160,288184,1,2,0:0:0:0:
140,160,288268,1,0,0:0:0:0:
189,124,288353,1,0,0:0:0:0:
140,160,288436,1,2,0:0:0:0:
140,160,288521,1,2,0:0:0:0:
140,160,288605,1,0,0:0:0:0:
87,134,288773,1,2,0:0:0:0:
87,134,288858,1,0,0:0:0:0:
87,134,288942,1,2,0:0:0:0:
87,134,289026,1,2,0:0:0:0:
87,134,289110,1,0,0:0:0:0:
189,124,289196,1,0,0:0:0:0:
87,134,289279,1,2,0:0:0:0:
154,200,289448,1,2,0:0:0:0:
154,200,289532,1,0,0:0:0:0:
154,200,289616,1,2,0:0:0:0:
154,200,289700,1,0,0:0:0:0:
154,200,289785,1,2,0:0:0:0:
189,124,289870,1,0,0:0:0:0:
154,200,289954,1,2,0:0:0:0:
154,200,290122,1,0,0:0:0:0:
154,200,290206,1,0,0:0:0:0:
154,200,290290,1,2,0:0:0:0:
154,200,290375,1,0,0:0:0:0:
154,200,290459,1,2,0:0:0:0:
154,200,290543,1,0,0:0:0:0:
154,200,290627,1,2,0:0:0:0:
159,214,290712,1,2,0:0:0:0:
159,214,290796,1,0,0:0:0:0:
187,149,290881,1,0,0:0:0:0:
159,214,290964,1,2,0:0:0:0:
202,46,291049,1,2,0:0:0:0:
159,214,291133,1,0,0:0:0:0:
124,150,291218,1,0,0:0:0:0:
124,150,291302,1,2,0:0:0:0:
186,56,291386,1,2,0:0:0:0:
159,214,291471,1,2,0:0:0:0:
152,157,291555,1,0,0:0:0:0:
159,214,291639,1,2,0:0:0:0:
159,214,291723,1,2,0:0:0:0:
159,214,291807,1,0,0:0:0:0:
159,214,291891,1,0,0:0:0:0:
68,132,291976,1,2,0:0:0:0:
163,180,292145,5,0,0:0:0:0:
163,180,292229,1,0,0:0:0:0:
163,180,292313,1,0,0:0:0:0:
163,180,292482,1,2,0:0:0:0:
163,180,292651,1,0,0:0:0:0:
168,169,292735,1,0,0:0:0:0:
168,169,292819,1,2,0:0:0:0:
168,169,292903,1,0,0:0:0:0:
168,169,292988,1,2,0:0:0:0:
168,169,293156,1,0,0:0:0:0:
108,46,293325,5,12,0:0:0:0:
82,284,293662,1,8,0:0:0:0:
82,322,293830,1,0,0:0:0:0:
72,328,294167,1,0,0:0:0:0:
96,301,294336,1,8,0:0:0:0:
85,291,294420,1,8,0:0:0:0:
91,317,294505,1,0,0:0:0:0:
98,332,294673,1,0,0:0:0:0:
99,306,295010,1,8,0:0:0:0:
118,331,295179,1,0,0:0:0:0:
121,318,295263,1,8,0:0:0:0:
112,322,295347,1,8,0:0:0:0:
116,324,295432,1,0,0:0:0:0:
113,322,295516,1,0,0:0:0:0:
101,301,295684,1,8,0:0:0:0:
82,322,295853,1,0,0:0:0:0:
82,322,295937,1,8,0:0:0:0:
83,313,296021,1,0,0:0:0:0:
108,288,296358,1,8,0:0:0:0:
121,310,296527,1,0,0:0:0:0:
111,313,296864,1,0,0:0:0:0:
115,293,297033,1,8,0:0:0:0:
115,293,297117,1,8,0:0:0:0:
117,314,297201,1,0,0:0:0:0:
105,315,297370,1,0,0:0:0:0:
65,296,297707,1,8,0:0:0:0:
81,314,297875,1,0,0:0:0:0:
92,298,297960,1,8,0:0:0:0:
68,287,298128,1,8,0:0:0:0:
77,299,298212,1,0,0:0:0:0:
95,284,298381,1,8,0:0:0:0:
101,291,298465,1,0,0:0:0:0:
106,281,298549,1,8,0:0:0:0:
94,34,298718,1,12,0:0:0:0:
89,286,299055,1,8,0:0:0:0:
93,311,299224,1,0,0:0:0:0:
91,308,299561,1,0,0:0:0:0:
103,291,299729,1,8,0:0:0:0:
103,291,299814,1,8,0:0:0:0:
105,309,299898,1,0,0:0:0:0:
98,318,300066,1,0,0:0:0:0:
76,302,300235,1,8,0:0:0:0:
87,324,300403,1,8,0:0:0:0:
76,302,300572,1,0,0:0:0:0:
76,302,300656,1,8,0:0:0:0:
65,317,300740,1,8,0:0:0:0:
67,318,300825,1,0,0:0:0:0:
73,318,300909,1,0,0:0:0:0:
79,286,301078,1,8,0:0:0:0:
86,304,301246,1,0,0:0:0:0:
109,285,301330,1,8,0:0:0:0:
111,308,301415,1,0,0:0:0:0:
126,294,301583,1,0,0:0:0:0:
127,294,301667,1,0,0:0:0:0:
127,293,301752,1,8,0:0:0:0:
110,307,301920,1,0,0:0:0:0:
103,310,302257,1,0,0:0:0:0:
106,292,302426,1,8,0:0:0:0:
84,313,302510,1,0,0:0:0:0:
91,297,302594,1,8,0:0:0:0:
88,312,302679,1,8,0:0:0:0:
102,21,302763,1,4,0:0:0:0:
84,308,303100,1,0,0:0:0:0:
84,313,303353,1,0,0:0:0:0:
84,308,303606,1,0,0:0:0:0:
84,308,303690,1,0,0:0:0:0:
84,308,303774,1,8,0:0:0:0:
86,300,303943,1,8,0:0:0:0:
107,36,304111,1,12,0:0:0:0:
100,292,304448,1,8,0:0:0:0:
99,308,304617,1,0,0:0:0:0:
79,313,304954,1,0,0:0:0:0:
86,303,305123,1,8,0:0:0:0:
86,303,305207,1,8,0:0:0:0:
88,320,305291,1,0,0:0:0:0:
88,320,305460,1,0,0:0:0:0:
94,300,305797,1,8,0:0:0:0:
104,304,305965,1,0,0:0:0:0:
98,309,306049,1,8,0:0:0:0:
86,303,306218,1,0,0:0:0:0:
97,305,306302,1,0,0:0:0:0:
94,300,306471,1,8,0:0:0:0:
108,313,306555,1,0,0:0:0:0:
112,293,306639,1,8,0:0:0:0:
110,310,306808,1,0,0:0:0:0:
98,295,307145,1,8,0:0:0:0:
96,313,307314,1,0,0:0:0:0:
96,313,307651,1,0,0:0:0:0:
99,300,307819,1,8,0:0:0:0:
99,300,307903,1,8,0:0:0:0:
97,313,307988,1,0,0:0:0:0:
96,313,308156,1,0,0:0:0:0:
94,292,308325,1,8,0:0:0:0:
95,292,308493,1,8,0:0:0:0:
81,318,308746,1,8,0:0:0:0:
99,285,308830,1,0,0:0:0:0:
89,319,308999,1,0,0:0:0:0:
92,319,309083,1,0,0:0:0:0:
94,292,309167,1,8,0:0:0:0:
75,291,309336,1,8,0:0:0:0:
121,8,309505,1,12,0:0:0:0:
111,291,309673,1,0,0:0:0:0:
113,291,309842,1,8,0:0:0:0:
113,291,310010,1,8,0:0:0:0:
111,291,310179,1,0,0:0:0:0:
111,291,310347,1,0,0:0:0:0:
111,291,310516,1,8,0:0:0:0:
119,322,310600,1,0,0:0:0:0:
113,291,310684,1,8,0:0:0:0:
113,291,310853,1,8,0:0:0:0:
99,316,311021,1,0,0:0:0:0:
105,302,311190,1,8,0:0:0:0:
105,322,311358,1,0,0:0:0:0:
113,312,311443,1,8,0:0:0:0:
105,322,311527,1,0,0:0:0:0:
106,321,311696,1,0,0:0:0:0:
110,301,311864,1,8,0:0:0:0:
99,299,312033,1,8,0:0:0:0:
106,290,312201,1,8,0:0:0:0:
106,294,312285,1,0,0:0:0:0:
106,290,312370,1,8,0:0:0:0:
113,274,312454,1,0,0:0:0:0:
106,290,312538,1,8,0:0:0:0:
109,279,312622,1,8,0:0:0:0:
112,287,312707,1,0,0:0:0:0:
112,287,312791,1,0,0:0:0:0:
114,281,312875,1,8,0:0:0:0:
115,290,312960,1,0,0:0:0:0:
120,275,313044,1,8,0:0:0:0:
117,293,313128,1,0,0:0:0:0:
121,277,313212,1,8,0:0:0:0:
121,277,313297,1,8,0:0:0:0:
120,286,313381,1,0,0:0:0:0:
120,286,313465,1,0,0:0:0:0:
141,296,313549,1,8,0:0:0:0:
141,300,313606,1,8,0:0:0:0:
141,300,313662,1,8,0:0:0:0:
141,300,313718,1,0,0:0:0:0:
130,318,313802,1,0,0:0:0:0:
139,293,313887,1,8,0:0:0:0:
139,293,313943,1,8,0:0:0:0:
140,299,313999,1,8,0:0:0:0:
137,312,314055,1,0,0:0:0:0:
138,308,314111,1,0,0:0:0:0:
138,308,314167,1,0,0:0:0:0:
128,307,314392,1,0,0:0:0:0:
128,307,314476,1,0,0:0:0:0:
126,293,314561,1,8,0:0:0:0:
105,287,314729,1,8,0:0:0:0:
131,47,314898,1,12,0:0:0:0:
