osu file format v14

[General]
AudioFilename: showdown.mp3
AudioLeadIn: 0
PreviewTime: 54252
Countdown: 0
SampleSet: Normal
StackLeniency: 0.7
Mode: 0
LetterboxInBreaks: 0
WidescreenStoryboard: 0

[Editor]
Bookmarks: 11106,21893,27286,32679,43466,54252,65039,75825,86612,97398,108185,118971,157657,220234,265774,331861,385480
DistanceSpacing: 1
BeatDivisor: 2
GridSize: 8
TimelineZoom: 1.7

[Metadata]
Title:Showdown
TitleUnicode:Showdown
Artist:USAO
ArtistUnicode:USAO
Creator:Side
Version:Normal
Source:
Tags:drumstep hardcore j-core ad:drum'n'bass 2 Kicks for Liberation 5 ProBox ProfessionalBox Atsuro Nerova Riuz GX tasuke912 puxtu Eedow EedowChyan0w0
BeatmapID:944543
BeatmapSetID:438839

[Difficulty]
HPDrainRate:4
CircleSize:3
OverallDifficulty:4
ApproachRate:6
SliderMultiplier:1.1
SliderTickRate:1

[Events]
//Background and Video events
0,0,"fastsssss.jpg",0,0
//Break Periods
2,13833,15299
2,19226,20693
//Storyboard Layer 0 (Background)
//Storyboard Layer 1 (Fail)
//Storyboard Layer 2 (Pass)
//Storyboard Layer 3 (Foreground)
//Storyboard Sound Samples

[TimingPoints]
320,337.078651685393,4,2,1,50,1,0
21893,-100,4,2,1,55,0,0
32679,-100,4,2,1,60,0,0
54252,-100,4,1,5,70,0,1
63690,-100,4,2,1,70,0,0
65039,-100,4,1,1,70,0,1
73128,-100,4,1,2,70,0,1
74477,-100,4,2,1,70,0,0
75825,-100,4,1,3,60,0,0
85263,-100,4,1,1,60,0,0
86612,-100,4,2,1,70,0,1
96050,-100,4,2,1,70,0,0
97398,-100,4,1,1,70,0,1
108185,-100,4,2,1,60,0,0

[Colours]
Combo1 : 140,115,172
Combo2 : 239,92,67
Combo3 : 226,187,69
Combo4 : 192,192,192
Combo5 : 26,227,207

[HitObjects]
38,120,11106,6,0,P|93:103|154:117,1,110,2|0,0:0|0:0,0:0:0:0:
187,144,11612,2,0,P|178:197|200:248,2,110,2|0|0,0:0|0:0|0:0,0:0:0:0:
221,101,12454,6,0,P|322:94|264:285,1,385,2|0,0:0|0:0,0:0:0:0:
474,120,16499,6,0,P|419:103|358:117,1,110,2|0,0:0|0:0,0:0:0:0:
325,144,17005,2,0,P|334:197|312:248,2,110,2|0|0,0:0|0:0|0:0,0:0:0:0:
291,101,17847,6,0,P|190:94|248:285,1,385,2|0,0:0|0:0,0:0:0:0:
204,95,21893,6,0,P|297:146|413:162,1,220,8|8,0:0|0:0,0:0:0:0:
337,371,23241,2,0,P|244:320|127:303,1,220,8|8,0:0|0:0,0:0:0:0:
113,181,24252,1,8,0:0:0:0:
204,95,24589,6,0,P|285:90|347:38,2,165,2|2|8,0:0|0:0|0:0,0:0:0:0:
104,47,25937,2,0,L|84:166,1,110,2|8,0:0|0:0,0:0:0:0:
185,204,26612,2,0,L|204:95,1,110,2|8,0:0|0:0,0:0:0:0:
304,52,27286,6,0,P|374:134|398:241,1,220,12|8,0:0|0:0,0:0:0:0:
201,340,28634,2,0,P|130:257|106:150,1,220,8|8,0:0|0:0,0:0:0:0:
175,52,29645,1,8,0:0:0:0:
304,52,29982,6,0,P|357:61|412:55,1,110,2|8,0:0|0:0,0:0:0:0:
461,31,30488,2,0,P|509:102|509:185,1,165,2|8,0:0|0:0,0:0:0:0:
432,258,31331,6,0,B|372:268|372:268|271:245,2,165,2|2|8,0:0|0:0|0:0,0:0:0:0:
423,145,32679,6,0,P|369:155|315:145,1,110,4|8,3:2|0:0,0:0:0:0:
267,122,33185,2,0,P|213:108|159:109,2,110,2|2|2,0:0|0:0|0:0,0:0:0:0:
316,146,34027,2,0,P|380:234|402:341,1,220,2|8,0:0|0:0,0:0:0:0:
293,360,35039,1,8,0:0:0:0:
183,342,35376,6,0,P|158:294|150:240,1,110,2|8,0:0|0:0,0:0:0:0:
162,187,35881,2,0,P|154:132|128:84,1,110,2|2,0:0|0:0,0:0:0:0:
90,44,36387,1,8,0:0:0:0:
6,115,36724,2,0,B|16:176|16:176|-7:235|-7:235|55:266|55:266|30:329|30:329|100:361,1,330,2|8,0:0|0:0,0:0:0:0:
202,367,38072,6,0,P|253:349|297:316,1,110,2|8,0:0|0:0,0:0:0:0:
307,262,38578,2,0,L|255:163,2,110,2|2|2,0:0|0:0|0:0,0:0:0:0:
360,267,39421,2,0,P|441:194|480:90,1,220,2|8,0:0|0:0,0:0:0:0:
399,16,40432,1,8,0:0:0:0:
289,28,40769,6,0,P|247:64|218:110,1,110,2|8,0:0|0:0,0:0:0:0:
208,165,41275,2,0,P|242:207|258:259,1,110,2|0,0:0|0:0,0:0:0:0:
259,314,41780,1,8,0:0:0:0:
151,336,42117,2,0,P|116:293|100:241,1,110,2|8,0:0|0:0,0:0:0:0:
158,148,42791,2,0,P|169:94|161:40,1,110,2|8,0:0|0:0,0:0:0:0:
63,94,43466,6,0,P|23:165|9:246,2,165,2|2|8,3:2|0:0|0:0,0:0:0:0:
158,148,44814,6,0,P|158:230|186:306,2,165,2|2|8,3:2|0:0|0:0,0:0:0:0:
266,147,46162,6,0,P|307:218|370:270,2,165,2|2|8,3:2|0:0|0:0,0:0:0:0:
357,90,47511,6,0,P|427:134|508:145,2,165,2|2|8,3:2|0:0|0:0,0:0:0:0:
248,80,48859,6,0,P|196:99|142:105,1,110,2|8,3:2|0:0,0:0:0:0:
82,197,49533,2,0,P|101:248|107:302,1,110,2|8,3:2|0:0,0:0:0:0:
201,361,50207,2,0,P|253:341|307:335,1,110,2|8,3:2|0:0,0:0:0:0:
368,244,50881,2,0,P|349:191|343:137,1,110,2|8,3:2|0:0,0:0:0:0:
256,192,51555,12,4,52904,0:0:0:0:
238,310,54252,6,0,B|292:319|292:319|346:307,1,110,4|8,3:1|0:0,0:0:0:0:
413,220,54926,2,0,L|401:160,1,55,2|2,0:0|3:1,0:0:0:0:
372,119,55263,2,0,L|377:64,1,55,8|2,0:0|0:0,0:0:0:0:
332,31,55600,6,0,B|304:34|280:49|280:49|253:41|223:47,1,110,2|8,3:0|0:0,0:0:0:0:
114,65,56275,2,0,L|102:117,1,55,2|2,0:0|3:1,0:0:0:0:
110,172,56612,2,0,L|98:243,1,55,8|2,0:0|0:0,0:0:0:0:
119,278,56949,6,0,B|174:280|174:280|225:298,1,110,0|8,3:1|0:0,0:0:0:0:
335,301,57623,2,0,L|391:282,1,55,2|2,0:0|3:1,3:1:0:0:
414,238,57960,2,0,L|417:178,1,55,8|2,0:0|0:0,0:0:0:0:
385,137,58297,6,0,B|334:125|334:125|285:93,1,110,0|8,3:0|0:0,0:0:0:0:
176,89,58971,2,0,L|113:99,1,55,2|2,0:0|3:1,0:0:0:0:
84,137,59308,2,0,L|70:191,1,55,8|2,0:0|0:0,0:0:0:0:
84,243,59645,6,0,B|144:241|144:241|191:264,1,110,4|8,3:1|0:0,0:0:0:0:
289,217,60319,2,0,L|297:157,1,55,2|2,0:0|3:1,0:0:0:0:
334,122,60657,2,0,L|396:108,1,55,8|2,0:0|0:0,0:0:0:0:
442,116,60994,6,0,B|440:149|450:171|450:171|434:194|432:222,1,110,2|8,3:0|0:0,0:0:0:0:
384,321,61668,2,0,L|330:333,1,55,2|2,0:0|3:1,0:0:0:0:
275,334,62005,1,8,0:0:0:0:
173,294,62342,6,0,B|169:253|169:253|151:230|151:230|147:190,1,110,4|8,3:0|0:0,0:0:0:0:
148,80,63016,2,0,L|203:49,1,55,2|2,0:0|3:1,0:0:0:0:
250,56,63353,2,0,L|316:42,1,55,8|0,0:0|0:0,0:0:0:0:
358,50,63690,6,0,P|402:118|414:199,1,165,2|2,3:2|0:2,0:0:0:0:
250,178,64702,1,2,3:2:0:0:
140,165,65039,6,0,B|122:218|122:218|142:273,1,110,4|8,3:1|0:0,0:0:0:0:
244,304,65713,2,0,L|301:278,1,55,2|2,0:0|3:1,0:0:0:0:
338,247,66050,2,0,L|407:273,1,55,8|2,0:0|0:0,0:0:0:0:
443,255,66387,2,0,B|451:231|475:212|475:212|455:185|453:154,2,110,2|8|2,3:1|0:0|0:0,0:0:0:0:
349,196,67398,1,10,0:0:0:0:
240,206,67735,6,0,B|193:233|193:233|137:228,1,110,0|8,3:0|0:0,0:0:0:0:
52,158,68409,2,0,L|66:105,1,55,2|2,0:0|3:1,0:0:0:0:
110,71,68746,2,0,L|169:51,1,55,8|2,0:0|0:0,0:0:0:0:
217,50,69084,2,0,B|274:68|274:68|299:121,1,110,2|8,3:1|0:0,0:0:0:0:
240,206,69758,2,0,P|223:257|233:310,1,110,2|10,0:0|0:0,0:0:0:0:
334,266,70432,6,0,B|385:242|385:242|439:249,1,110,4|8,3:1|0:0,0:0:0:0:
499,340,71106,2,0,L|448:362,1,55,2|2,0:0|3:1,0:0:0:0:
393,365,71443,2,0,L|337:358,1,55,8|2,0:0|0:0,0:0:0:0:
283,351,71780,2,0,B|258:342|243:313|243:313|218:314|191:299,1,110,2|8,3:1|0:0,0:0:0:0:
139,311,72286,1,2,0:0:0:0:
92,284,72454,2,0,P|84:234|100:175,1,110,2|10,0:0|0:0,0:0:0:0:
181,103,73128,6,0,B|203:135|203:135|209:171|209:171|232:203,1,110,4|8,3:0|0:0,0:0:0:0:
335,227,73803,2,0,L|392:201,1,55,2|2,0:0|3:1,0:0:0:0:
439,193,74140,2,0,L|460:134,1,55,10|2,0:0|0:0,0:0:0:0:
504,111,74477,6,0,B|475:53|475:53|373:43,1,165,2|2,3:2|3:2,0:0:0:0:
217,86,75488,2,0,L|185:139,1,55,2|0,3:2|0:0,0:0:0:0:
176,186,75825,6,0,B|186:239|186:239|239:256,1,110,4|2,3:1|0:0,0:0:0:0:
312,177,76499,2,0,P|359:150|471:183,1,165,8|0,0:0|0:0,0:0:0:0:
491,227,77173,2,0,P|498:256|493:285,1,55,0|0,0:0|3:0,0:0:0:0:
472,331,77511,1,2,3:1:0:0:
362,365,77848,2,0,P|304:370|256:338,1,110,8|0,0:0|0:0,0:0:0:0:
217,243,78522,6,0,B|173:208|173:208|115:222,1,110,0|2,3:0|0:0,0:0:0:0:
24,274,79196,2,0,P|9:221|58:121,1,165,8|0,0:0|0:0,0:0:0:0:
107,101,79870,2,0,L|170:118,1,55,0|0,0:0|3:0,0:0:0:0:
215,117,80207,1,2,3:1:0:0:
308,59,80544,1,8,0:0:0:0:
414,89,80881,2,0,L|429:151,1,55
439,196,81218,6,0,B|413:218|402:238|402:238|375:225|343:223,1,110,4|2,3:0|0:0,0:0:0:0:
247,182,81893,2,0,L|193:196,1,55,8|0,0:0|0:0,0:0:0:0:
146,225,82230,2,8,L|125:279,1,55,2|0,0:0|0:0,0:0:0:0:
138,330,82567,2,0,P|186:345|237:314,1,110,2|2,3:0|3:1,0:0:0:0:
271,275,83072,1,0,0:0:0:0:
324,262,83241,2,0,P|366:230|372:176,1,110,8|0,0:0|0:0,0:0:0:0:
317,81,83915,6,0,B|266:58|266:58|211:85,1,110,0|2,3:1|0:0,0:0:0:0:
178,120,84421,1,0,0:0:0:0:
156,170,84589,2,0,B|154:199|154:199|137:218|137:218|152:241|152:241|152:270,1,110,8|0,0:0|0:0,0:0:0:0:
251,219,85263,2,0,B|287:201|333:212|333:212|377:223|413:201,1,165,2|2,3:2|2:0,0:0:0:0:
511,70,86275,1,2,2:0:0:0:
409,28,86612,6,0,B|353:44|353:44|317:81,1,110,6|8,3:2|0:1,0:0:0:0:
288,127,87117,2,0,P|227:130|172:106,1,110,2|0,0:0|3:0,0:0:0:0:
135,83,87623,2,0,L|72:109,1,55,8|0,0:1|0:0,0:0:0:0:
49,147,87960,6,0,B|53:176|44:205|44:205|68:219|84:247,1,110,2|8,3:0|0:1,0:0:0:0:
190,245,88634,1,2,0:0:0:0:
162,351,88971,2,0,L|89:356,1,55,8|2,0:1|0:0,0:0:0:0:
51,339,89308,6,0,B|47:285|47:285|80:240,1,110,0|8,3:0|0:1,0:0:0:0:
119,204,89814,2,0,P|171:184|227:198,1,110,2|0,0:0|3:0,0:0:0:0:
264,230,90319,1,8,0:1:0:0:
285,280,90488,1,2,0:0:0:0:
271,333,90657,6,0,B|318:360|318:360|374:350,1,110,0|8,3:0|0:1,0:0:0:0:
445,267,91331,1,2,0:0:0:0:
402,165,91668,2,0,L|371:116,1,55,8|2,0:1|0:0,0:0:0:0:
323,94,92005,6,0,P|271:111|216:113,1,110,0|8,3:0|0:1,0:0:0:0:
168,140,92511,2,0,P|152:192|156:247,1,110,2|0,0:0|3:0,0:0:0:0:
207,268,93016,2,0,L|270:270,1,55,8|2,0:1|0:0,0:0:0:0:
315,254,93353,6,0,B|335:237|362:226|362:226|370:202|390:179,1,110,2|8,3:0|0:1,0:0:0:0:
323,94,94027,1,2,0:0:0:0:
222,50,94364,2,0,L|159:44,1,55,8|2,0:1|0:0,0:0:0:0:
112,55,94702,6,0,B|77:95|77:95|68:157,1,110,0|8,3:0|0:1,0:0:0:0:
103,194,95207,2,0,B|140:200|140:200|160:224|160:224|201:229,1,110,2|0,0:0|0:0,0:0:0:0:
257,228,95713,2,0,L|325:214,1,55,8|0,0:1|0:0,0:0:0:0:
358,187,96050,5,2,3:2:0:0:
491,283,96555,1,2,3:2:0:0:
340,350,97061,2,0,L|275:335,1,55,2|0,3:2|3:0,0:0:0:0:
232,347,97398,6,0,P|178:320|164:267,1,110,6|8,3:1|0:0,0:0:0:0:
170,221,97904,2,0,L|209:168,2,55,2|0|2,0:0|0:0|3:1,0:0:0:0:
117,235,98409,2,0,P|91:224|69:208,1,55,0|2,0:0|0:0,0:0:0:0:
56,154,98746,2,0,B|77:131|89:107|89:107|123:108|140:99,1,110,2|8,3:0|0:0,0:0:0:0:
242,134,99421,2,0,B|295:120|295:120|323:73,1,110,2|8,0:2|0:0,0:0:0:0:
372,48,99926,1,2,0:2:0:0:
420,74,100095,6,0,L|449:121,1,55,2|0,3:1|0:0,0:0:0:0:
456,175,100432,1,8,0:0:0:0:
497,210,100600,2,0,P|497:268|463:311,1,110,2|2,0:0|3:1,0:0:0:0:
417,332,101106,2,0,L|349:332,1,55,8|2,0:0|0:0,0:0:0:0:
311,355,101443,2,0,B|207:321|207:321|263:241|263:241|133:204,1,330,0|8,3:0|0:0,0:0:0:0:
34,204,102791,6,0,B|48:150|48:150|87:111,1,110,2|8,3:1|0:0,0:0:0:0:
136,90,103297,1,2,0:0:0:0:
191,91,103466,2,0,L|256:104,1,55,0|2,0:0|3:1,0:0:0:0:
291,130,103803,2,0,L|348:92,1,55,8|2,0:0|0:0,0:0:0:0:
390,88,104140,2,0,B|419:100|445:101|445:101|449:127|468:147,1,110,2|8,3:0|0:0,0:0:0:0:
500,252,104814,6,0,L|438:272,1,55,2|0,0:2|3:0,0:0:0:0:
402,302,105151,2,0,L|349:285,1,55,8|2,0:0|0:2,0:0:0:0:
295,295,105488,2,0,P|261:248|197:232,1,110,2|8,3:1|0:0,0:0:0:0:
157,234,105994,2,0,P|105:216|75:171,1,110,2|2,0:0|3:1,0:0:0:0:
57,119,106499,1,8,0:0:0:0:
101,18,106836,6,0,L|213:69,1,110,2|0,0:0|3:0,0:0:0:0:
234,107,107342,2,0,P|288:101|344:117,1,110,2|0,0:0|3:0,0:0:0:0:
382,151,107848,2,0,P|402:169|427:180,1,55,2|2,0:0|0:0,0:0:0:0:
477,154,108185,6,0,P|491:99|477:48,1,110,2|8,3:2|0:0,0:0:0:0:
426,29,108690,2,0,P|361:48|315:41,1,110,2|0,0:0|3:0,0:0:0:0:
269,20,109196,1,8,0:0:0:0:
169,66,109533,2,0,P|180:121|168:181,1,110,2|8,3:2|0:0,0:0:0:0:
148,223,110039,2,0,P|138:276|149:330,1,110,2|0,0:0|3:2,0:0:0:0:
191,366,110544,2,0,P|221:367|246:362,1,55,8|0,0:0|0:0,0:0:0:0:
293,335,110881,6,0,P|341:295|459:299,2,165,2|2|10,3:2|0:0|0:0,0:0:0:0:
191,366,112230,2,0,P|166:319|118:285,1,110,2|8,3:2|0:0,0:0:0:0:
13,260,112904,2,0,P|38:213|86:179,1,110,2|8,0:2|0:0,0:0:0:0:
137,172,113409,1,0,0:0:0:0:
182,140,113578,6,0,L|311:161,1,110,6|8,3:2|0:0,0:0:0:0:
332,194,114084,2,0,P|329:256|353:314,1,110,2|0,0:0|3:2,0:0:0:0:
381,341,114589,1,8,0:0:0:0:
448,254,114926,2,0,P|451:192|427:134,1,110,2|8,3:2|0:0,0:0:0:0:
403,102,115432,2,0,P|348:106|296:89,1,110,2|0,0:0|3:2,0:0:0:0:
253,55,115937,2,0,L|179:70,1,55,8|0,0:0|0:0,0:0:0:0:
144,78,116275,6,0,B|156:133|156:133|142:185,1,110,2|8,3:2|0:0,0:0:0:0:
103,224,116780,2,0,P|90:278|122:319,1,110,2|0,0:0|3:2,0:0:0:0:
175,329,117286,1,8,0:0:0:0:
256,192,117623,12,4,118971,0:0:0:0:
