osu file format v14

[General]
AudioFilename: audio.mp3
AudioLeadIn: 0
PreviewTime: 106813
Countdown: 0
SampleSet: Soft
StackLeniency: 0.2
Mode: 0
LetterboxInBreaks: 0
WidescreenStoryboard: 0

[Editor]
Bookmarks: 194457,207940,336030
DistanceSpacing: 1.2
BeatDivisor: 4
GridSize: 8
TimelineZoom: 3.399999

[Metadata]
Title:Showdown
TitleUnicode:Showdown
Artist:USAO
ArtistUnicode:USAO
Creator:Hikaru Rose
Version:Crisis
Source:
Tags:Kicks For Liberation 5 UOM RECORDS Drumstep Diverse System AD:Drum'n'Bass 2
BeatmapID:959194
BeatmapSetID:446658

[Difficulty]
HPDrainRate:6
CircleSize:4
OverallDifficulty:8.4
ApproachRate:9.4
SliderMultiplier:1.6
SliderTickRate:1

[Events]
//Background and Video events
0,0,"sdada.jpg",0,0
//Break Periods
2,197153,207400
//Storyboard Layer 0 (Background)
//Storyboard Layer 1 (Fail)
//Storyboard Layer 2 (Pass)
//Storyboard Layer 3 (Foreground)
//Storyboard Sound Samples

[TimingPoints]
300,337.078651685393,4,2,1,30,1,0
300,-200,4,2,1,30,0,0
11086,-133.333333333333,4,2,1,30,0,0
21873,-100,4,2,1,30,0,0
32322,-83.3333333333333,4,2,1,30,0,0
32575,-100,4,2,1,5,0,0
32659,-100,4,2,1,40,0,0
42182,-100,4,2,1,20,0,0
42434,-100,4,2,1,40,0,0
42519,-100,4,2,1,30,0,0
42940,-100,4,2,1,50,0,0
43446,-133.333333333333,4,2,1,40,0,0
43951,-200,4,2,1,40,0,0
44794,-133.333333333333,4,2,1,40,0,0
58193,-133.333333333333,4,2,1,5,0,0
58277,-133.333333333333,4,2,1,40,0,0
60889,-133.333333333333,4,2,1,5,0,0
60974,-133.333333333333,4,2,1,40,0,0
65019,-100,4,2,1,60,0,0
74457,-83.3333333333333,4,2,1,60,0,0
74878,-83.3333333333333,4,2,1,5,0,0
74962,-83.3333333333333,4,2,1,60,0,0
75384,-83.3333333333333,4,2,1,5,0,0
75468,-83.3333333333333,4,2,1,60,0,0
76311,-100,4,2,1,60,0,0
79850,-111.111111111111,4,2,1,60,0,0
80187,-100,4,2,1,60,0,0
91816,-100,4,2,1,40,0,0
91985,-100,4,2,1,60,0,0
95019,-83.3333333333333,4,2,1,60,0,0
97378,-66.6666666666667,4,2,1,70,0,1
102771,-66.6666666666667,4,2,1,70,0,1
105131,-58.8235294117647,4,2,1,70,0,1
105468,-83.3333333333333,4,2,1,70,0,1
106142,-66.6666666666667,4,2,1,70,0,1
106816,-133.333333333333,4,2,1,70,0,0
107996,-100,4,2,1,50,0,0
108165,-66.6666666666667,4,2,1,70,0,1
108881,-66.6666666666667,4,2,1,5,0,1
109007,-66.6666666666667,4,2,1,70,0,1
109049,-66.6666666666667,4,2,1,5,0,1
109176,-66.6666666666667,4,2,1,70,0,1
109218,-66.6666666666667,4,2,1,5,0,1
109344,-66.6666666666667,4,2,1,70,0,1
109387,-66.6666666666667,4,2,1,5,0,1
109513,-66.6666666666667,4,2,1,70,0,1
109555,-66.6666666666667,4,2,1,5,0,1
109682,-66.6666666666667,4,2,1,70,0,1
109724,-66.6666666666667,4,2,1,5,0,1
109850,-66.6666666666667,4,2,1,70,0,1
110061,-66.6666666666667,4,2,1,5,0,1
110187,-66.6666666666667,4,2,1,70,0,1
111578,-66.6666666666667,4,2,1,5,0,1
111704,-66.6666666666667,4,2,1,70,0,1
111746,-66.6666666666667,4,2,1,5,0,1
111873,-66.6666666666667,4,2,1,70,0,1
111915,-66.6666666666667,4,2,1,5,0,1
112041,-66.6666666666667,4,2,1,70,0,1
112083,-66.6666666666667,4,2,1,5,0,1
112210,-66.6666666666667,4,2,1,70,0,1
112252,-66.6666666666667,4,2,1,5,0,1
112378,-66.6666666666667,4,2,1,70,0,1
112420,-66.6666666666667,4,2,1,5,0,1
112547,-66.6666666666667,4,2,1,70,0,1
112757,-66.6666666666667,4,2,1,5,0,1
112884,-66.6666666666667,4,2,1,70,0,1
114274,-66.6666666666667,4,2,1,5,0,1
114401,-66.6666666666667,4,2,1,70,0,1
114443,-66.6666666666667,4,2,1,5,0,1
114569,-66.6666666666667,4,2,1,70,0,1
114611,-66.6666666666667,4,2,1,5,0,1
114738,-66.6666666666667,4,2,1,70,0,1
114780,-66.6666666666667,4,2,1,5,0,1
114906,-66.6666666666667,4,2,1,70,0,1
114948,-66.6666666666667,4,2,1,5,0,1
115075,-66.6666666666667,4,2,1,70,0,1
115117,-66.6666666666667,4,2,1,5,0,1
115243,-66.6666666666667,4,2,1,70,0,1
115454,-66.6666666666667,4,2,1,5,0,1
115580,-66.6666666666667,4,2,1,70,0,1
116929,-66.6666666666667,4,2,1,70,0,1
116971,-66.6666666666667,4,2,1,5,0,1
117097,-66.6666666666667,4,2,1,70,0,1
117139,-66.6666666666667,4,2,1,5,0,1
117266,-66.6666666666667,4,2,1,70,0,1
117603,-100,4,2,1,70,0,0
118951,-66.6666666666667,4,2,1,70,0,1
119625,-66.6666666666667,4,2,1,70,0,0
119667,-66.6666666666667,4,2,1,5,0,0
119794,-66.6666666666667,4,2,1,70,0,0
119836,-66.6666666666667,4,2,1,5,0,0
119962,-66.6666666666667,4,2,1,70,0,0
120005,-66.6666666666667,4,2,1,5,0,0
120131,-66.6666666666667,4,2,1,70,0,0
120173,-66.6666666666667,4,2,1,5,0,0
120299,-66.6666666666667,4,2,1,70,0,0
122322,-66.6666666666667,4,2,1,70,0,0
122364,-66.6666666666667,4,2,1,5,0,0
122491,-66.6666666666667,4,2,1,70,0,0
122533,-66.6666666666667,4,2,1,5,0,0
122659,-66.6666666666667,4,2,1,70,0,0
122701,-66.6666666666667,4,2,1,5,0,0
122828,-66.6666666666667,4,2,1,70,0,0
122870,-66.6666666666667,4,2,1,5,0,0
122996,-66.6666666666667,4,2,1,70,0,0
123038,-66.6666666666667,4,2,1,5,0,0
123165,-66.6666666666667,4,2,1,70,0,0
123207,-66.6666666666667,4,2,1,5,0,0
123333,-66.6666666666667,4,2,1,70,0,0
124007,-50,4,2,1,70,0,0
124176,-66.6666666666667,4,2,1,40,0,0
124344,-66.6666666666667,4,2,1,70,0,0
124597,-66.6666666666667,4,2,1,5,0,0
124682,-66.6666666666667,4,2,1,70,0,0
128389,-66.6666666666667,4,2,1,70,0,0
129738,-50,4,2,1,70,0,1
131086,-66.6666666666667,4,2,1,70,0,1
131592,-55.5555555555556,4,2,1,70,0,1
132940,-50,4,2,1,70,0,1
135131,-55.5555555555556,4,2,1,70,0,1
135805,-50,4,2,1,70,0,1
136479,-55.5555555555556,4,2,1,70,0,1
136816,-50,4,2,1,70,0,1
137659,-55.5555555555556,4,2,1,70,0,1
137828,-50,4,2,1,70,0,1
139176,-111.111111111111,4,2,1,70,0,0
140524,-55.5555555555556,4,2,1,70,0,1
141030,-50,4,2,1,70,0,1
141873,-66.6666666666667,4,2,1,70,0,1
142378,-55.5555555555556,4,2,1,70,0,1
143726,-50,4,2,1,70,0,1
145917,-55.5555555555556,4,2,1,70,0,1
146592,-50,4,2,1,70,0,1
147940,-55.5555555555556,4,2,1,70,0,1
148277,-66.6666666666667,4,2,1,70,0,1
149962,-66.6666666666667,4,2,1,70,0,0
151311,-66.6666666666667,4,2,1,70,0,1
151395,-66.6666666666667,4,2,1,70,0,0
156704,-83.3333333333333,4,2,1,70,0,0
160749,-133.333333333333,4,2,1,70,0,0
161592,-133.333333333333,4,2,1,5,0,0
161676,-133.333333333333,4,2,1,70,0,0
162097,-83.3333333333333,4,2,1,70,0,0
171535,-83.3333333333333,4,2,1,20,0,0
171704,-83.3333333333333,4,2,1,28,0,0
171873,-83.3333333333333,4,2,1,36,0,0
172041,-83.3333333333333,4,2,1,44,0,0
172210,-83.3333333333333,4,2,1,70,0,0
172884,-55.5555555555556,4,2,1,70,0,1
173389,-66.6666666666667,4,2,1,70,0,1
174232,-55.5555555555556,4,2,1,70,0,1
176255,-66.6666666666667,4,2,1,70,0,1
178277,-55.5555555555556,4,2,1,70,0,1
182322,-55.5555555555556,4,2,1,70,0,0
182996,-66.6666666666667,4,2,1,70,0,0
183670,-58.8235294117647,4,2,1,70,0,1
191844,-58.8235294117647,4,2,1,50,0,1
192097,-58.8235294117647,4,2,1,70,0,1
192182,-58.8235294117647,4,2,1,50,0,1
192434,-58.8235294117647,4,2,1,80,0,1
192519,-58.8235294117647,4,2,1,50,0,1
192603,-58.8235294117647,4,2,1,70,0,1
192687,-58.8235294117647,4,2,1,80,0,1
192771,-58.8235294117647,4,2,1,70,0,1
192856,-58.8235294117647,4,2,1,50,0,1
192940,-58.8235294117647,4,2,1,80,0,1
193024,-58.8235294117647,4,2,1,50,0,1
193108,-66.6666666666667,4,2,1,70,0,0
194120,-83.3333333333333,4,2,1,70,0,0
194288,-100,4,2,1,70,0,0
194457,-200,4,2,1,70,0,1
194541,-200,4,2,1,70,0,0
194794,-200,4,2,1,50,0,0
195131,-200,4,2,1,30,0,0
195468,-200,4,2,1,5,0,0
214682,-83.3333333333333,4,2,1,70,0,0
215103,-83.3333333333333,4,2,1,5,0,0
215187,-83.3333333333333,4,2,1,70,0,0
215608,-83.3333333333333,4,2,1,5,0,0
215693,-83.3333333333333,4,2,1,70,0,0
220075,-100,4,2,1,70,0,0
220412,-83.3333333333333,4,2,1,70,0,0
232041,-83.3333333333333,4,2,1,40,0,0
232210,-83.3333333333333,4,2,1,70,0,0
237603,-66.6666666666667,4,2,1,70,0,0
238193,-66.6666666666667,4,2,1,5,0,0
238277,-66.6666666666667,4,2,1,70,0,0
238530,-66.6666666666667,4,2,1,5,0,0
238614,-66.6666666666667,4,2,1,50,0,0
238951,-66.6666666666667,4,2,1,70,0,1
247041,-83.3333333333333,4,2,1,70,0,1
247715,-66.6666666666667,4,2,1,70,0,1
248389,-133.333333333333,4,2,1,70,0,0
249738,-66.6666666666667,4,2,1,70,0,1
250454,-66.6666666666667,4,2,1,5,0,1
250580,-66.6666666666667,4,2,1,70,0,1
250623,-66.6666666666667,4,2,1,5,0,1
250749,-66.6666666666667,4,2,1,70,0,1
250791,-66.6666666666667,4,2,1,5,0,1
250917,-66.6666666666667,4,2,1,70,0,1
250960,-66.6666666666667,4,2,1,5,0,1
251086,-66.6666666666667,4,2,1,70,0,1
251128,-66.6666666666667,4,2,1,5,0,1
251255,-66.6666666666667,4,2,1,70,0,1
251297,-66.6666666666667,4,2,1,5,0,1
251423,-66.6666666666667,4,2,1,70,0,1
251634,-66.6666666666667,4,2,1,5,0,1
251760,-66.6666666666667,4,2,1,70,0,1
253151,-66.6666666666667,4,2,1,5,0,1
253277,-66.6666666666667,4,2,1,70,0,1
253319,-66.6666666666667,4,2,1,5,0,1
253446,-66.6666666666667,4,2,1,70,0,1
253488,-66.6666666666667,4,2,1,5,0,1
253614,-66.6666666666667,4,2,1,70,0,1
253656,-66.6666666666667,4,2,1,5,0,1
253783,-66.6666666666667,4,2,1,70,0,1
253825,-66.6666666666667,4,2,1,5,0,1
253951,-66.6666666666667,4,2,1,70,0,1
253993,-66.6666666666667,4,2,1,5,0,1
254120,-66.6666666666667,4,2,1,70,0,1
254330,-66.6666666666667,4,2,1,5,0,1
254457,-66.6666666666667,4,2,1,70,0,1
255847,-66.6666666666667,4,2,1,5,0,1
255974,-66.6666666666667,4,2,1,70,0,1
256016,-66.6666666666667,4,2,1,5,0,1
256142,-66.6666666666667,4,2,1,70,0,1
256184,-66.6666666666667,4,2,1,5,0,1
256311,-66.6666666666667,4,2,1,70,0,1
256353,-66.6666666666667,4,2,1,5,0,1
256479,-66.6666666666667,4,2,1,70,0,1
256521,-66.6666666666667,4,2,1,5,0,1
256648,-66.6666666666667,4,2,1,70,0,1
256690,-66.6666666666667,4,2,1,5,0,1
256816,-66.6666666666667,4,2,1,70,0,1
257027,-66.6666666666667,4,2,1,5,0,1
257153,-66.6666666666667,4,2,1,70,0,1
258544,-66.6666666666667,4,2,1,5,0,1
258670,-66.6666666666667,4,2,1,70,0,1
258712,-66.6666666666667,4,2,1,5,0,1
258839,-66.6666666666667,4,2,1,70,0,1
259176,-83.3333333333333,4,2,1,70,0,0
260524,-66.6666666666667,4,2,1,70,0,1
261198,-66.6666666666667,4,2,1,70,0,0
261241,-66.6666666666667,4,2,1,5,0,0
261367,-66.6666666666667,4,2,1,70,0,0
261409,-66.6666666666667,4,2,1,5,0,0
261535,-66.6666666666667,4,2,1,70,0,0
261578,-66.6666666666667,4,2,1,5,0,0
261704,-66.6666666666667,4,2,1,70,0,0
261746,-66.6666666666667,4,2,1,5,0,0
261873,-66.6666666666667,4,2,1,70,0,0
263937,-66.6666666666667,4,2,1,5,0,0
264064,-66.6666666666667,4,2,1,70,0,0
264106,-66.6666666666667,4,2,1,5,0,0
264232,-66.6666666666667,4,2,1,70,0,0
264274,-66.6666666666667,4,2,1,5,0,0
264401,-66.6666666666667,4,2,1,70,0,0
264443,-66.6666666666667,4,2,1,5,0,0
264569,-66.6666666666667,4,2,1,70,0,0
264611,-66.6666666666667,4,2,1,5,0,0
264738,-66.6666666666667,4,2,1,70,0,0
264780,-66.6666666666667,4,2,1,5,0,0
264906,-66.6666666666667,4,2,1,70,0,0
265580,-50,4,2,1,70,0,0
265749,-66.6666666666667,4,2,1,40,0,0
265917,-66.6666666666667,4,2,1,70,0,0
266676,-66.6666666666667,4,2,1,30,0,0
266929,-66.6666666666667,4,2,1,70,0,0
271311,-50,4,2,1,70,0,1
272659,-66.6666666666667,4,2,1,70,0,1
273165,-55.5555555555556,4,2,1,70,0,1
274513,-50,4,2,1,70,0,1
276704,-55.5555555555556,4,2,1,70,0,1
277378,-50,4,2,1,70,0,1
278052,-55.5555555555556,4,2,1,70,0,1
278389,-50,4,2,1,70,0,1
279232,-55.5555555555556,4,2,1,70,0,1
279401,-50,4,2,1,70,0,1
280749,-111.111111111111,4,2,1,70,0,0
281255,-90.9090909090909,4,2,1,70,0,0
282097,-50,4,2,1,70,0,1
283446,-55.5555555555556,4,2,1,70,0,1
283951,-50,4,2,1,70,0,1
287491,-55.5555555555556,4,2,1,70,0,1
288165,-50,4,2,1,70,0,1
289850,-55.5555555555556,4,2,1,70,0,1
292547,-66.6666666666667,4,2,1,70,0,1
292884,-66.6666666666667,4,2,1,70,0,1
292968,-66.6666666666667,4,2,1,70,0,0
296086,-83.3333333333333,4,2,1,70,0,0
302322,-133.333333333333,4,2,1,70,0,0
303670,-83.3333333333333,4,2,1,70,0,0
313108,-83.3333333333333,4,2,1,30,0,0
313783,-83.3333333333333,4,2,1,70,0,0

[Colours]
Combo1 : 130,38,232
Combo2 : 74,157,147
Combo3 : 95,97,177
Combo4 : 19,160,236

[HitObjects]
212,107,300,102,0,B|205:157|205:157|208:174|208:174|203:206|203:206|209:226|209:226|203:278,1,160,4|8,3:2|0:0,0:0:0:0:
204,265,1479,2,0,B|252:269|252:269|275:264|275:264|323:268,1,120,0|0,3:0|3:0,0:0:0:0:
204,265,2322,1,8,0:0:0:0:
323,268,2996,6,0,B|330:216|330:216|327:204|327:204|333:155|333:155|330:145|330:145|335:100,1,160,0|8,3:0|0:0,0:0:0:0:
334,110,4007,1,0,3:0:0:0:
334,110,4176,2,0,B|284:104|284:104|263:109|263:109|204:103,1,120,0|0,3:0|3:0,0:0:0:0:
56,121,5019,1,8,0:0:0:0:
215,104,5187,2,0,L|136:112,1,80,0|0,3:0|3:0,0:0:0:0:
135,112,5693,102,0,B|141:159|141:159|135:183|135:183|140:216|140:216|135:234|135:234|139:281,1,160,0|8,3:0|0:0,0:0:0:0:
138,270,6873,2,0,B|187:266|187:266|214:274|214:274|263:268,1,120,0|0,3:0|3:0,0:0:0:0:
138,270,7715,1,8,0:0:0:0:
257,269,8389,6,0,B|292:265|292:265|308:269|308:269|356:261|356:261|375:265|375:265|430:255,1,160,0|8,3:0|0:0,0:0:0:0:
415,258,9401,1,0,3:0:0:0:
415,258,9569,2,0,B|419:211|419:211|415:196|415:196|421:130,1,120,0|0,3:0|3:0,0:0:0:0:
315,29,10412,1,8,0:0:0:0:
420,139,10580,2,0,P|418:96|390:63,1,80,0|0,3:0|3:0,0:0:0:0:
283,121,11086,6,0,L|343:124,1,60.0000022888184,4|0,3:2|0:0,0:0:0:0:
214,59,11423,2,0,L|154:56,1,60.0000022888184,2|0,0:0|0:0,0:0:0:0:
26,52,11760,1,8,0:0:0:0:
25,171,11929,2,0,B|22:125|22:125|28:102|28:102|25:51,1,120.000004577637,2|0,0:0|3:0,0:0:0:0:
102,135,12434,6,0,P|108:175|101:210,1,60.0000022888184,0|0,3:0|0:0,0:0:0:0:
48,320,12771,2,0,P|42:280|49:245,1,60.0000022888184,2|0,3:2|0:0,0:0:0:0:
207,163,13108,1,8,0:0:0:0:
125,277,13277,1,2,0:0:0:0:
128,285,13446,1,0,0:0:0:0:
131,293,13614,1,0,0:0:0:0:
207,163,13783,102,0,L|199:98,1,60.0000022888184,0|0,3:0|0:0,0:0:0:0:
278,211,14120,2,0,L|286:276,1,60.0000022888184,2|0,0:0|0:0,0:0:0:0:
339,79,14457,1,8,0:0:0:0:
360,234,14625,2,0,P|390:236|423:226,1,60.0000022888184,2|0,0:0|3:0,0:0:0:0:
457,80,14962,6,0,B|419:77|419:77|399:84|399:84|331:78,1,120.000004577637,0|0,3:0|0:0,0:0:0:0:
199,103,15468,2,0,L|262:110,1,60.0000022888184,2|0,3:2|0:0,0:0:0:0:
134,41,15805,1,8,0:0:0:0:
79,135,15974,2,0,L|96:160,1,30.0000011444092,2|0,3:2|0:0,0:0:0:0:
211,179,16142,2,0,L|182:182,1,30.0000011444092
121,247,16311,2,0,L|104:282,1,30.0000011444092,0|0,3:0|0:0,0:0:0:0:
224,292,16479,102,0,P|251:299|310:294,1,60.0000022888184,0|0,3:0|0:0,0:0:0:0:
410,231,16816,2,0,P|377:227|341:239,1,60.0000022888184,2|0,0:0|0:0,0:0:0:0:
493,240,17153,1,8,0:0:0:0:
488,358,17322,2,0,B|493:313|493:313|488:290|488:290|493:240,1,120.000004577637,2|0,0:0|3:0,0:0:0:0:
404,290,17828,6,0,L|410:231,1,60.0000022888184,0|0,3:0|0:0,0:0:0:0:
448,108,18165,2,0,L|453:167,1,60.0000022888184,2|0,3:2|0:0,0:0:0:0:
317,20,18502,1,8,0:0:0:0:
466,18,18670,1,2,0:0:0:0:
468,26,18839,1,0,0:0:0:0:
470,34,19007,1,0,0:0:0:0:
317,20,19176,102,0,L|251:30,1,60.0000022888184,0|0,3:0|0:0,0:0:0:0:
128,78,19513,2,0,L|194:86,1,60.0000022888184,2|0,0:0|0:0,0:0:0:0:
342,107,19850,1,8,0:0:0:0:
187,85,20019,2,0,L|192:158,1,60.0000022888184,2|0,0:0|3:0,0:0:0:0:
197,284,20356,6,0,B|192:239|192:239|197:218|197:218|193:161,1,120.000004577637,0|0,3:0|0:0,0:0:0:0:
276,252,20861,2,0,P|282:284|273:320,1,60.0000022888184,2|0,3:2|0:0,0:0:0:0:
55,271,21198,1,8,0:0:0:0:
197,284,21367,1,2,3:2:0:0:
197,284,21873,6,0,L|192:238,1,40,4|0,3:2|0:0,0:0:0:0:
183,164,22041,1,2,0:0:0:0:
120,324,22210,1,8,0:0:0:0:
276,252,22378,1,2,0:0:0:0:
272,232,22462,1,0,0:0:0:0:
269,212,22546,1,0,0:0:0:0:
93,164,22715,2,0,L|101:213,1,40,2|0,3:2|0:0,0:0:0:0:
40,329,22884,2,0,B|67:326|67:326|84:328|84:328|125:323,1,80,8|2,0:0|0:0,0:0:0:0:
269,212,23221,5,0,3:0:0:0:
283,292,23390,1,2,0:0:0:0:
256,133,23558,1,8,0:0:0:0:
346,240,23726,2,0,L|395:259,2,40,2|0|0,0:0|0:0|0:0,0:0:0:0:
194,184,24064,2,0,L|135:189,1,40,2|0,3:2|0:0,0:0:0:0:
215,63,24232,2,0,P|247:52|300:65,1,80,8|2,0:0|0:0,0:0:0:0:
391,179,24569,102,0,L|384:92,1,80,0|2,3:0|0:0,0:0:0:0:
468,233,24906,2,0,B|462:262|462:262|467:314,1,80,8|2,0:0|0:0,0:0:0:0:
467,331,25159,1,0,0:0:0:0:
469,351,25243,1,0,0:0:0:0:
346,240,25412,2,0,L|293:255,1,40,2|0,3:2|0:0,0:0:0:0:
206,284,25580,1,8,0:0:0:0:
366,322,25749,1,2,0:0:0:0:
319,165,25917,5,0,3:0:0:0:
307,250,26086,1,2,0:0:0:0:
331,80,26255,2,0,L|323:0,1,80,8|2,0:0|0:0,0:0:0:0:
308,14,26508,1,0,0:0:0:0:
296,30,26592,1,0,0:0:0:0:
456,20,26760,2,0,L|448:76,1,40,2|0,3:2|0:0,0:0:0:0:
440,161,26929,2,0,B|444:126|444:126|442:111|442:111|447:77,1,80,8|2,0:0|0:0,0:0:0:0:
259,139,27266,6,0,L|168:124,1,80,0|2,3:0|0:0,0:0:0:0:
331,80,27603,1,8,0:0:0:0:
211,209,27771,1,2,0:0:0:0:
191,206,27855,1,0,0:0:0:0:
171,204,27939,1,0,0:0:0:0:
171,44,28108,2,0,L|219:38,1,40,2|0,3:2|0:0,0:0:0:0:
384,21,28277,2,0,B|359:46|359:46|354:57|354:57|324:85,1,80,8|2,0:0|0:0,0:0:0:0:
211,209,28614,5,0,3:0:0:0:
307,172,28783,1,2,0:0:0:0:
115,246,28951,1,8,0:0:0:0:
291,273,29120,2,0,L|315:343,2,40,2|0|0,0:0|0:0|0:0,0:0:0:0:
227,108,29457,2,0,L|287:111,1,40,2|0,3:2|0:0,0:0:0:0:
387,236,29625,2,0,P|395:275|371:337,1,80,8|2,0:0|0:0,0:0:0:0:
127,350,29962,6,0,B|163:347|163:347|206:355,1,80,0|2,3:0|0:0,0:0:0:0:
386,313,30299,2,0,B|350:316|350:316|292:305,1,80,8|2,0:0|0:0,0:0:0:0:
286,302,30553,1,0,0:0:0:0:
267,297,30637,1,0,0:0:0:0:
228,173,30805,2,0,L|232:221,1,40,2|0,3:2|0:0,0:0:0:0:
303,382,30974,1,8,0:0:0:0:
386,313,31142,1,2,0:0:0:0:
232,213,31311,5,0,3:0:0:0:
267,297,31479,1,2,0:0:0:0:
197,129,31648,2,0,B|191:102|191:102|199:38,1,80,8|2,0:0|0:0,0:0:0:0:
210,66,31901,1,0,0:0:0:0:
224,80,31985,1,0,0:0:0:0:
66,220,32153,2,0,L|114:211,1,40,2|0,3:2|0:0,0:0:0:0:
247,197,32322,2,0,B|189:209|189:209|160:203|160:203|100:214,1,143.999995605469,8|0,0:0|0:0,0:0:0:0:
47,302,32659,5,4,3:2:0:0:
81,140,32828,1,0,0:0:0:0:
208,343,32996,1,8,0:0:0:0:
247,197,33165,1,2,0:0:0:0:
247,197,33249,1,0,0:0:0:0:
247,197,33333,1,0,0:0:0:0:
208,343,33502,1,0,3:0:0:0:
80,139,33670,2,0,L|74:179,1,40,10|0,0:0|0:0,0:0:0:0:
156,272,33839,2,0,L|147:219,1,40
169,66,34007,5,2,3:2:0:0:
247,197,34176,1,0,0:0:0:0:
374,9,34344,1,10,0:0:0:0:
176,73,34513,1,0,0:0:0:0:
182,80,34597,2,0,L|238:78,1,40,2|0,0:0|0:0,0:0:0:0:
350,101,34766,1,0,0:0:0:0:
344,94,34850,2,0,L|288:96,1,40,2|0,3:2|0:0,0:0:0:0:
93,40,35019,2,0,P|87:67|94:93,1,40,8|0,0:0|0:0,0:0:0:0:
247,197,35187,2,0,P|252:177|251:158,1,40,2|0,0:0|0:0,0:0:0:0:
374,9,35356,5,2,3:2:0:0:
415,156,35524,1,0,0:0:0:0:
341,364,35693,1,8,0:0:0:0:
340,206,35861,2,0,B|317:290|364:270|340:366,1,160,2|0,0:0|3:0,0:0:0:0:
455,239,36367,2,0,L|409:250,1,40,8|0,0:0|0:0,0:0:0:0:
266,317,36535,2,0,L|220:306,1,40,2|0,0:0|0:0,0:0:0:0:
45,254,36704,6,0,B|42:210|42:210|51:184|51:184|45:114,1,120,2|0,3:2|0:0,0:0:0:0:
36,61,37041,1,10,0:0:0:0:
125,218,37210,1,0,0:0:0:0:
125,218,37294,2,0,L|137:158,1,40,2|0,0:0|0:0,0:0:0:0:
192,53,37462,1,0,0:0:0:0:
192,53,37546,2,0,L|204:113,1,40,2|0,3:2|0:0,0:0:0:0:
233,224,37715,1,8,0:0:0:0:
120,96,37884,1,2,0:0:0:0:
300,137,38052,6,0,L|385:131,1,80,0|0,3:0|0:0,0:0:0:0:
233,224,38389,2,0,L|193:227,1,40,8|0,0:0|0:0,0:0:0:0:
383,315,38558,1,2,0:0:0:0:
413,316,38642,1,0,0:0:0:0:
442,317,38726,1,0,0:0:0:0:
265,330,38895,1,0,3:0:0:0:
379,131,39064,1,8,0:0:0:0:
442,317,39232,1,2,0:0:0:0:
258,153,39401,6,0,B|192:136|197:169|138:153,1,120,2|0,3:2|0:0,0:0:0:0:
71,122,39738,1,10,0:0:0:0:
233,224,39906,1,0,0:0:0:0:
233,224,39991,2,0,L|223:281,1,40,2|0,0:0|0:0,0:0:0:0:
171,82,40159,1,0,0:0:0:0:
171,82,40244,2,0,L|181:25,1,40,2|0,3:2|0:0,0:0:0:0:
111,256,40412,1,8,0:0:0:0:
305,211,40580,1,2,0:0:0:0:
305,53,40749,6,0,B|301:112|301:112|313:147|313:147|304:214,1,160,0|8,3:0|0:0,0:0:0:0:
454,74,41255,2,0,L|437:13,2,40,2|0|0,0:0|0:0|0:0,0:0:0:0:
305,211,41592,1,0,3:0:0:0:
482,269,41760,1,8,0:0:0:0:
379,100,41929,1,2,0:0:0:0:
355,290,42097,5,0,3:0:0:0:
321,302,42181,1,2,0:0:0:0:
287,301,42265,1,2,0:0:0:0:
255,289,42349,1,2,0:0:0:0:
215,225,42434,1,8,0:0:0:0:
175,217,42518,1,2,0:0:0:0:
138,232,42602,1,2,0:0:0:0:
115,264,42687,1,2,0:0:0:0:
119,313,42771,6,0,L|136:357,1,40,2|2,0:0|0:0,0:0:0:0:
305,211,42940,2,0,L|301:159,1,40,0|2,3:0|0:0,0:0:0:0:
232,5,43108,1,8,0:0:0:0:
179,27,43193,1,2,0:0:0:0:
169,84,43276,1,2,0:0:0:0:
212,122,43360,1,2,0:0:0:0:
267,107,43446,6,0,P|300:98|341:109,2,60.0000022888184,2|0|0,0:0|0:0|0:0,0:0:0:0:
139,158,43951,2,0,P|110:166|47:150,1,80,2|2,0:0|0:0,0:0:0:0:
325,101,44541,1,0,0:0:0:0:
325,101,44625,1,2,0:0:0:0:
477,46,44794,6,0,P|449:38|403:48,1,60.0000022888184,2|0,0:0|0:0,0:0:0:0:
443,204,45131,2,0,L|439:111,2,90.0000034332277,2|2|2,0:0|0:0|0:0,0:0:0:0:
443,204,45974,1,0,0:0:0:0:
477,46,46142,6,0,P|449:38|403:48,1,60.0000022888184,2|0,0:0|0:0,0:0:0:0:
418,41,46479,1,2,0:0:0:0:
299,37,46648,2,0,B|350:35|350:35|370:42|370:42|428:40,1,120.000004577637,2|2,0:0|0:0,0:0:0:0:
328,113,47238,1,0,0:0:0:0:
328,113,47322,1,2,0:0:0:0:
154,171,47491,6,0,P|183:172|210:186,1,60.0000022888184,2|0,0:0|0:0,0:0:0:0:
152,340,47828,2,0,L|164:225,2,90.0000034332277,2|2|2,0:0|0:0|0:0,0:0:0:0:
79,287,48502,1,2,0:0:0:0:
152,340,48670,1,0,0:0:0:0:
6,234,48839,6,0,L|16:163,2,60.0000022888184,2|0|0,0:0|0:0|0:0,0:0:0:0:
29,56,49344,2,0,B|20:103|20:103|22:125|22:125|11:188,1,120.000004577637,2|2,0:0|0:0,0:0:0:0:
101,90,49934,1,0,0:0:0:0:
101,90,50019,1,2,0:0:0:0:
163,190,50187,6,0,P|200:200|233:188,1,60.0000022888184,2|0,0:0|0:0,0:0:0:0:
205,31,50524,2,0,L|198:133,2,90.0000034332277,2|2|2,0:0|0:0|0:0,0:0:0:0:
205,31,51367,1,0,0:0:0:0:
163,190,51535,6,0,P|200:200|233:188,1,60.0000022888184,2|0,0:0|0:0,0:0:0:0:
220,195,51873,1,0,0:0:0:0:
339,189,52041,2,0,B|293:193|293:193|269:189|269:189|211:195,1,120.000004577637,2|2,0:0|0:0,0:0:0:0:
311,114,52631,1,0,0:0:0:0:
311,114,52715,1,0,0:0:0:0:
466,211,52884,6,0,P|429:213|404:232,1,60.0000022888184,2|0,0:0|0:0,0:0:0:0:
473,372,53221,2,0,L|453:265,2,90.0000034332277,2|2|2,0:0|0:0|0:0,0:0:0:0:
388,342,53895,1,2,0:0:0:0:
473,372,54064,1,0,0:0:0:0:
382,126,54232,5,2,0:0:0:0:
250,238,54401,1,0,0:0:0:0:
324,276,54569,1,2,0:0:0:0:
353,201,54738,2,0,P|303:197|246:249,1,120.000004577637,2|2,0:0|0:0,0:0:0:0:
324,276,55327,1,0,0:0:0:0:
324,276,55412,1,2,0:0:0:0:
224,165,55580,6,0,P|253:159|281:167,1,60.0000022888184,2|0,0:0|0:0,0:0:0:0:
242,328,55917,2,0,L|253:212,2,90.0000034332277,2|2|2,0:0|0:0|0:0,0:0:0:0:
242,328,56760,1,0,0:0:0:0:
224,165,56929,6,0,P|253:159|281:167,1,60.0000022888184,2|0,0:0|0:0,0:0:0:0:
281,167,57266,1,2,0:0:0:0:
400,180,57434,2,0,B|353:173|353:173|326:175|326:175|282:167,1,120.000004577637,2|2,0:0|0:0,0:0:0:0:
377,258,58024,1,0,0:0:0:0:
377,258,58108,2,0,L|430:263,1,30.0000011444092,2|0,0:0|0:0,0:0:0:0:
328,99,58277,6,0,P|318:70|324:31,1,60.0000022888184,2|0,0:0|0:0,0:0:0:0:
487,39,58614,2,0,L|392:57,2,90.0000034332277,2|2|2,0:0|0:0|0:0,0:0:0:0:
459,131,59288,1,2,0:0:0:0:
487,39,59457,1,0,0:0:0:0:
256,169,59625,5,2,0:0:0:0:
306,245,59794,1,0,0:0:0:0:
275,81,59962,1,2,0:0:0:0:
342,141,60131,2,0,P|345:195|297:250,1,120.000004577637,2|2,0:0|0:0,0:0:0:0:
256,169,60721,1,0,0:0:0:0:
256,169,60805,2,0,P|241:184|230:201,1,30.0000011444092,2|0,0:0|0:0,0:0:0:0:
190,333,60974,6,0,P|190:298|172:269,1,60.0000022888184,2|0,0:0|0:0,0:0:0:0:
25,339,61311,2,0,L|121:318,2,90.0000034332277,2|2|2,0:0|0:0|0:0,0:0:0:0:
25,339,62153,1,0,0:0:0:0:
91,154,62322,5,2,0:0:0:0:
160,260,62491,1,0,0:0:0:0:
53,246,62659,1,2,0:0:0:0:
195,165,62828,2,0,P|237:160|265:168,1,60.0000022888184,2|0,0:0|0:0,0:0:0:0:
125,74,63165,2,0,P|83:69|54:76,1,60.0000022888184,2|0,0:0|0:0,0:0:0:0:
50,77,63417,1,0,0:0:0:0:
35,83,63501,1,0,0:0:0:0:
201,33,63670,6,0,P|211:69|206:102,1,60.0000022888184,2|0,0:0|0:0,0:0:0:0:
35,83,64007,2,0,L|136:72,2,90.0000034332277,2|2|2,0:0|0:0|0:0,0:0:0:0:
290,31,64682,1,0,0:0:0:0:
270,124,64850,1,0,0:0:0:0:
415,226,65019,6,0,P|368:211|319:226,1,80,4|0,0:0|0:0,0:0:0:0:
254,271,65356,1,0,0:0:0:0:
386,140,65524,2,0,L|377:52,2,80,2|0|2,0:0|0:0|0:0,0:0:0:0:
369,292,66030,1,0,0:0:0:0:
387,309,66114,2,0,P|339:307|305:340,1,80,2|0,0:0|0:0,0:0:0:0:
254,373,66367,6,0,L|167:359,1,80,2|0,0:0|0:0,0:0:0:0:
56,341,66704,2,0,L|34:200,2,120,2|2|2,0:0|0:0|0:0,0:0:0:0:
126,243,67378,2,0,L|137:190,1,40
61,111,67547,2,0,L|74:158,1,40,2|0,0:0|0:0,0:0:0:0:
212,231,67715,6,0,P|256:238|299:220,1,80,2|0,0:0|0:0,0:0:0:0:
375,142,68052,1,0,0:0:0:0:
232,72,68221,2,0,L|244:155,1,80,2|0,0:0|0:0,0:0:0:0:
368,221,68558,2,0,L|377:115,1,80,2|0,0:0|0:0,0:0:0:0:
376,121,68811,1,2,0:0:0:0:
378,101,68895,1,0,0:0:0:0:
416,290,69064,6,0,P|338:299|322:292,1,80,2|0,0:0|0:0,0:0:0:0:
162,338,69401,2,0,L|175:222,1,80,2|0,0:0|0:0,0:0:0:0:
177,215,69653,2,0,L|181:169,2,40,2|0|0,0:0|0:0|0:0,0:0:0:0:
257,296,69906,2,0,L|247:228,1,40,2|0,0:0|0:0,0:0:0:0:
228,111,70075,1,0,0:0:0:0:
274,181,70243,1,0,0:0:0:0:
358,39,70412,6,0,L|462:43,2,80,6|0|2,0:0|0:0|0:0,0:0:0:0:
228,111,70917,2,0,P|183:102|137:117,1,80,0|2,0:0|0:0,0:0:0:0:
5,194,71255,2,0,L|86:189,1,80
101,189,71507,1,2,0:0:0:0:
268,191,71676,1,0,0:0:0:0:
268,191,71760,6,0,P|206:178|183:189,1,80,2|0,0:0|0:0,0:0:0:0:
31,288,72097,2,0,L|117:279,1,80,2|0,0:0|0:0,0:0:0:0:
143,257,72350,2,0,L|235:262,1,80,2|0,0:0|0:0,0:0:0:0:
259,284,72603,2,0,L|310:277,1,40,2|0,0:0|0:0,0:0:0:0:
474,188,72771,2,0,L|467:243,1,40
393,318,72940,2,0,L|386:273,1,40
366,50,73108,5,2,0:0:0:0:
412,143,73277,1,0,0:0:0:0:
262,65,73446,1,0,0:0:0:0:
246,169,73614,2,0,B|211:178|211:178|145:170,1,80,2|0,0:0|0:0,0:0:0:0:
340,218,73951,1,0,0:0:0:0:
318,83,74120,1,0,0:0:0:0:
372,107,74204,1,0,0:0:0:0:
365,167,74288,1,0,0:0:0:0:
305,179,74373,1,0,0:0:0:0:
276,127,74457,6,0,P|283:70|134:68,1,239.999992675781,0|0,3:0|0:0,0:0:0:0:
108,285,74962,2,0,B|123:222|123:222|120:200|120:200|131:146|131:146|126:126|126:126|135:88|135:88|146:137,1,239.999992675781,0|0,3:0|0:0,0:0:0:0:
40,253,75468,2,0,P|32:285|39:320,1,47.9999985351563,0|0,3:0|0:0,0:0:0:0:
215,136,75637,2,0,P|215:112|208:89,1,47.9999985351563
283,373,75805,5,6,3:2:0:0:
108,285,75974,1,0,0:0:0:0:
264,172,76142,1,2,0:0:0:0:
280,352,76311,2,0,B|272:292|272:292|277:265|277:265|266:190,1,160,2|0,0:0|0:0,0:0:0:0:
435,276,76816,1,0,0:0:0:0:
435,276,76901,2,0,B|492:283,2,40,2|0|2,0:0|0:0|0:0,0:0:0:0:
456,166,77153,6,0,P|426:129|342:142,1,120,2|0,0:0|0:0,0:0:0:0:
336,151,77491,2,0,P|289:159|251:147,1,80,2|0,0:0|0:0,0:0:0:0:
180,153,77743,2,0,P|226:143|265:154,1,80,2|0,0:0|0:0,0:0:0:0:
223,220,77996,2,0,L|219:260,1,40,2|0,0:0|0:0,0:0:0:0:
224,300,78165,2,0,L|219:260,1,40,2|0,0:0|0:0,0:0:0:0:
220,339,78333,2,0,L|224:299,1,40,2|0,0:0|0:0,0:0:0:0:
396,359,78502,5,2,0:0:0:0:
223,220,78670,1,0,0:0:0:0:
419,185,78839,1,2,0:0:0:0:
220,338,79007,2,0,B|224:300|224:300|218:262|218:262|224:218,1,120,2|0,0:0|0:0,0:0:0:0:
241,144,79344,2,0,L|234:99,1,40,2|0,0:0|0:0,0:0:0:0:
238,1,79513,1,0,0:0:0:0:
238,1,79597,2,0,L|252:89,1,80,2|0,0:0|0:0,0:0:0:0:
419,185,79850,5,2,0:0:0:0:
386,170,79934,1,2,0:0:0:0:
350,164,80019,1,2,0:0:0:0:
314,171,80103,1,2,0:0:0:0:
249,225,80187,1,2,0:0:0:0:
211,254,80271,1,2,0:0:0:0:
163,257,80356,1,2,0:0:0:0:
124,230,80440,1,2,0:0:0:0:
75,166,80524,5,2,0:0:0:0:
104,118,80608,1,2,0:0:0:0:
158,102,80693,1,2,0:0:0:0:
204,133,80777,1,2,0:0:0:0:
205,213,80861,2,0,L|197:260,1,40,2|2,0:0|0:0,0:0:0:0:
56,347,81030,2,0,L|44:303,1,40,2|2,0:0|0:0,0:0:0:0:
124,230,81198,5,2,0:0:0:0:
126,384,81367,1,0,0:0:0:0:
274,276,81535,1,2,0:0:0:0:
124,230,81704,2,0,B|114:266|132:297|132:297|129:313|129:313|146:356|120:395,1,160,2|0,0:0|0:0,0:0:0:0:
198,252,82210,1,0,0:0:0:0:
204,231,82294,2,0,B|201:205|201:205|213:135,1,80,2|0,0:0|0:0,0:0:0:0:
325,14,82547,6,0,L|334:94,1,80,2|0,0:0|0:0,0:0:0:0:
311,252,82884,2,0,L|324:159,1,80,2|0,0:0|0:0,0:0:0:0:
334,93,83137,2,0,L|322:172,1,80,2|0,0:0|0:0,0:0:0:0:
395,209,83389,2,0,L|390:253,1,40,2|0,0:0|0:0,0:0:0:0:
397,288,83558,2,0,L|390:248,1,40,2|0,0:0|0:0,0:0:0:0:
393,327,83726,2,0,L|398:288,1,40,2|0,0:0|0:0,0:0:0:0:
462,89,83895,5,2,0:0:0:0:
395,209,84064,1,0,0:0:0:0:
258,122,84232,1,2,0:0:0:0:
395,209,84401,2,0,B|391:248|391:248|400:287|400:287|392:331,1,120,2|0,0:0|0:0,0:0:0:0:
321,345,84738,2,0,L|315:384,1,40,2|0,0:0|0:0,0:0:0:0:
238,199,84906,1,0,0:0:0:0:
203,181,84991,2,0,L|155:185,2,40,2|0|0,0:0|0:0|0:0,0:0:0:0:
245,318,85243,6,0,B|239:274|239:274|242:238|242:238|234:174,1,120,2|0,0:0|0:0,0:0:0:0:
240,114,85580,2,0,L|247:51,1,40,2|0,0:0|0:0,0:0:0:0:
315,196,85749,1,0,0:0:0:0:
338,205,85833,2,0,L|383:197,1,40,2|0,0:0|0:0,0:0:0:0:
166,260,86002,1,0,0:0:0:0:
149,274,86086,2,0,L|100:265,1,40,2|0,0:0|0:0,0:0:0:0:
5,241,86255,2,0,L|37:203,1,40,2|0,0:0|0:0,0:0:0:0:
105,132,86423,2,0,L|121:178,1,40,2|0,0:0|0:0,0:0:0:0:
245,318,86592,6,0,P|285:322|350:304,1,80,4|0,3:2|0:0,0:0:0:0:
377,197,86929,1,0,0:0:0:0:
325,315,87097,1,2,0:0:0:0:
297,162,87266,1,0,0:0:0:0:
405,317,87434,1,2,0:0:0:0:
436,138,87603,1,0,0:0:0:0:
436,138,87687,2,0,P|411:121|342:126,1,80,2|0,0:0|0:0,0:0:0:0:
297,162,87940,6,0,P|263:172|188:160,1,80,0|0,3:0|0:0,0:0:0:0:
59,143,88277,1,0,0:0:0:0:
218,170,88446,1,2,0:0:0:0:
3,197,88614,1,0,0:0:0:0:
249,102,88783,1,2,0:0:0:0:
75,216,88951,1,0,0:0:0:0:
79,240,89035,1,2,0:0:0:0:
150,251,89120,1,0,0:0:0:0:
139,278,89204,1,2,0:0:0:0:
89,331,89288,6,0,P|126:350|180:336,1,80,0|0,3:0|0:0,0:0:0:0:
343,243,89625,1,0,0:0:0:0:
163,345,89794,1,2,0:0:0:0:
249,102,89962,1,0,0:0:0:0:
305,322,90131,1,2,0:0:0:0:
145,204,90299,1,0,0:0:0:0:
121,211,90384,1,2,0:0:0:0:
87,273,90468,1,0,0:0:0:0:
117,284,90552,1,2,0:0:0:0:
190,263,90637,6,0,P|216:226|208:168,1,80,0|0,3:0|0:0,0:0:0:0:
186,48,90974,1,0,0:0:0:0:
87,273,91142,1,2,0:0:0:0:
217,192,91311,2,0,P|276:179|310:189,1,80,0|2,0:0|0:0,0:0:0:0:
364,208,91564,2,0,P|406:217|446:207,1,80,0|2,0:0|0:0,0:0:0:0:
403,133,91816,2,0,L|394:112,2,20,0|0|0,3:0|3:0|3:0,3:0:0:0:
441,209,91985,6,0,B|429:306,1,80,0|0,3:0|0:0,0:0:0:0:
488,138,92322,1,2,0:0:0:0:
391,360,92491,1,0,0:0:0:0:
326,152,92659,2,0,L|336:248,1,80,0|0,3:0|0:0,0:0:0:0:
345,65,92996,1,2,0:0:0:0:
310,311,93165,1,0,0:0:0:0:
186,150,93333,6,0,L|177:229,1,80,0|0,3:0|0:0,0:0:0:0:
158,52,93670,1,2,0:0:0:0:
196,322,93839,1,0,0:0:0:0:
71,209,94007,2,0,B|80:288,1,80,0|0,3:0|0:0,0:0:0:0:
0,132,94344,1,2,0:0:0:0:
107,376,94513,1,0,0:0:0:0:
186,150,94682,6,0,L|239:155,1,40,0|0,3:0|0:0,0:0:0:0:
326,234,94850,2,0,L|273:229,1,40,0|0,3:0|0:0,0:0:0:0:
71,209,95019,2,0,L|123:201,1,47.9999985351563,0|0,3:0|0:0,0:0:0:0:
441,175,95187,2,0,L|389:183,1,47.9999985351563,0|0,3:0|0:0,0:0:0:0:
226,30,95356,5,0,3:0:0:0:
197,67,95440,1,0,3:0:0:0:
197,115,95524,1,0,3:0:0:0:
225,153,95608,1,0,3:0:0:0:
272,93,95693,5,0,3:0:0:0:
301,155,95778,1,0,3:0:0:0:
268,216,95862,1,0,3:0:0:0:
199,225,95946,1,0,3:0:0:0:
152,175,96030,1,0,3:0:0:0:
152,175,97378,6,0,B|184:189|219:174|219:174|252:182|252:182|291:162|332:182,1,180.000006866455,0|0,3:0|0:0,0:0:0:0:
352,252,97715,2,0,P|323:256|295:248,1,60.0000022888184,8|0,0:0|0:0,0:0:0:0:
179,101,97884,2,0,L|166:24,1,60.0000022888184
145,259,98052,1,0,0:0:0:0:
326,179,98221,1,0,3:0:0:0:
212,321,98389,2,0,L|225:244,1,60.0000022888184,8|0,0:0|0:0,0:0:0:0:
316,119,98558,2,0,L|325:178,1,60.0000022888184
434,330,98726,6,0,B|363:337|363:337|334:328|334:328|287:336|287:336|308:335|320:342,1,180.000006866455,0|0,3:0|0:0,0:0:0:0:
440,337,99064,2,0,P|443:301|423:271,1,60.0000022888184,8|0,0:0|0:0,0:0:0:0:
145,259,99232,2,0,B|115:265|115:265|79:256,1,60.0000022888184
325,178,99401,1,0,0:0:0:0:
212,321,99569,1,0,3:0:0:0:
136,58,99738,2,0,L|115:133,1,60.0000022888184,8|0,0:0|0:0,0:0:0:0:
325,178,99906,2,0,L|312:109,1,60.0000022888184
167,184,100075,6,0,B|146:184|146:184|119:192|119:192|87:181|87:181|26:187|9:247,1,180.000006866455,0|0,3:0|0:0,0:0:0:0:
86,257,100412,2,0,B|115:265|115:265|145:259,1,60.0000022888184,8|0,0:0|0:0,0:0:0:0:
325,178,100580,2,0,L|313:116,1,60.0000022888184
230,331,100749,1,0,0:0:0:0:
167,184,100917,1,0,3:0:0:0:
326,264,101086,2,0,L|395:248,1,60.0000022888184,8|0,0:0|0:0,0:0:0:0:
202,115,101255,2,0,P|170:106|133:116,1,60.0000022888184
151,362,101423,6,0,B|161:281|161:281|157:253|157:253|167:178,1,180.000006866455,0|0,3:0|0:0,0:0:0:0:
80,305,101760,2,0,L|71:372,1,60.0000022888184,8|0,0:0|0:0,0:0:0:0:
238,240,101929,2,0,L|247:173,1,60.0000022888184
61,85,102097,1,0,0:0:0:0:
159,267,102266,1,0,3:0:0:0:
302,112,102434,2,0,L|312:40,2,60.0000022888184,8|0|0,0:0|0:0|0:0,0:0:0:0:
329,202,102687,1,0,0:0:0:0:
347,188,102771,6,0,B|337:238|337:238|341:257|341:257|335:300|335:300|339:317|339:317|329:368,1,180.000006866455,4|0,3:2|0:0,0:0:0:0:
329,364,103108,2,0,P|360:356|402:362,1,60.0000022888184,8|0,0:0|0:0,0:0:0:0:
425,186,103277,2,0,P|421:157|386:120,1,60.0000022888184
159,267,103446,1,0,0:0:0:0:
338,279,103614,1,0,3:0:0:0:
210,138,103783,2,0,B|213:170|213:170|208:207,1,60.0000022888184,8|0,0:0|0:0,0:0:0:0:
248,357,103951,2,0,B|245:325|245:325|250:288,1,60.0000022888184
302,112,104120,6,0,P|276:58|209:125,1,180.000006866455,0|0,3:0|0:0,0:0:0:0:
383,149,104457,2,0,P|390:117|386:78,1,60.0000022888184,8|0,0:0|0:0,0:0:0:0:
130,62,104625,2,0,P|123:94|127:133,1,60.0000022888184
306,232,104794,2,0,P|239:212|175:247,1,120.000004577637,0|0,0:0|3:0,0:0:0:0:
155,306,105047,1,0,0:0:0:0:
148,327,105131,2,0,L|153:380,6,34.0000006484985,8|0|0|0|0|0|0,0:0|0:0|0:0|0:0|0:0|0:0|0:0,0:0:0:0:
267,368,105468,6,0,P|282:291|237:295,1,143.999995605469,0|0,3:0|0:0,0:0:0:0:
373,371,105805,2,0,P|380:344|375:308,1,47.9999985351563,10|0,0:0|0:0,0:0:0:0:
240,211,105974,2,0,P|213:218|184:240,1,47.9999985351563,2|0,0:0|0:0,0:0:0:0:
451,355,106142,2,0,P|457:318|446:283,1,60.0000022888184,2|0,0:0|0:0,0:0:0:0:
392,190,106311,2,0,P|386:153|397:118,1,60.0000022888184,2|0,3:2|0:0,0:0:0:0:
436,21,106479,1,10,0:0:0:0:
478,23,106563,1,2,0:0:0:0:
490,63,106647,1,2,0:0:0:0:
457,88,106731,1,2,0:0:0:0:
421,65,106816,6,0,P|377:57|349:71,1,60.0000022888184,2|0,3:2|0:0,0:0:0:0:
265,146,107153,1,0,0:0:0:0:
197,19,107322,2,0,P|239:13|266:24,1,60.0000022888184,2|0,0:0|0:0,0:0:0:0:
390,131,107659,1,0,0:0:0:0:
230,84,107828,2,0,L|190:94,1,30.0000011444092,2|0,0:0|0:0,0:0:0:0:
108,104,107996,2,0,L|111:81,2,20,0|0|0,3:0|3:0|3:0,3:0:0:0:
103,141,108165,6,0,B|97:191|97:191|100:213|100:213|92:288,1,120.000004577637,4|0,3:2|0:0,0:0:0:0:
75,328,108417,1,0,0:0:0:0:
88,319,108502,2,0,L|96:245,1,60.0000022888184,8|0,0:0|0:0,0:0:0:0:
200,91,108670,2,0,L|209:167,1,60.0000022888184
319,317,108839,6,0,L|314:367,1,30.0000011444092,2|0,0:0|0:0,0:0:0:0:
207,151,109007,2,0,L|212:201,1,30.0000011444092,2|0,3:2|0:0,0:0:0:0:
405,246,109176,2,0,L|400:296,1,30.0000011444092,10|0,0:0|0:0,0:0:0:0:
167,267,109344,2,0,L|172:317,1,30.0000011444092,2|0,0:0|0:0,0:0:0:0:
378,135,109513,6,0,L|373:185,1,30.0000011444092,2|0,3:2|0:0,0:0:0:0:
230,352,109682,2,0,L|235:402,1,30.0000011444092,2|0,0:0|0:0,0:0:0:0:
287,122,109850,2,0,L|290:93,2,30.0000011444092,10|2|2,0:0|0:0|0:0,0:0:0:0:
395,353,110019,2,0,L|400:403,1,30.0000011444092,2|0,0:0|0:0,0:0:0:0:
207,151,110187,6,0,L|141:164,2,60.0000022888184,2|0|0,0:0|0:0|3:0,0:0:0:0:
346,234,110524,2,0,L|412:247,2,60.0000022888184,10|0|0,0:2|0:0|0:0,0:0:0:0:
230,352,110861,6,0,B|236:313|236:313|245:300|245:300|253:257|253:257|242:276,1,120.000004577637,0|0,3:0|0:0,0:0:0:0:
246,288,111114,1,0,0:0:0:0:
257,298,111198,2,0,P|287:304|320:299,1,60.0000022888184,8|0,0:0|0:0,0:0:0:0:
88,278,111367,2,0,P|75:313|77:348,1,60.0000022888184
183,117,111535,6,0,L|178:167,1,30.0000011444092,2|0,0:0|0:0,0:0:0:0:
343,204,111704,2,0,L|348:254,1,30.0000011444092,2|0,3:2|0:0,0:0:0:0:
104,165,111873,2,0,L|99:215,1,30.0000011444092,10|0,0:0|0:0,0:0:0:0:
331,94,112041,2,0,L|336:144,1,30.0000011444092,2|0,0:0|0:0,0:0:0:0:
169,259,112210,6,0,L|164:309,1,30.0000011444092,2|0,3:2|0:0,0:0:0:0:
254,65,112378,2,0,L|259:115,1,30.0000011444092,2|0,0:0|0:0,0:0:0:0:
326,339,112547,2,0,L|329:310,2,30.0000011444092,10|2|2,0:0|0:0|0:0,0:0:0:0:
180,146,112715,2,0,L|185:196,1,30.0000011444092,2|0,0:0|0:0,0:0:0:0:
345,233,112884,6,0,L|421:220,2,60.0000022888184,2|0|0,0:0|0:0|3:0,0:0:0:0:
180,146,113221,2,0,L|104:133,2,60.0000022888184,10|0|0,0:0|0:0|0:0,0:0:0:0:
245,34,113474,1,0,0:0:0:0:
256,24,113558,6,0,B|217:78|233:166|342:138|279:66,1,180.000006866455,4|0,3:2|0:0,0:0:0:0:
266,13,113895,2,0,P|234:6|206:7,1,60.0000022888184,8|0,0:0|0:0,0:0:0:0:
56,178,114064,2,0,P|45:148|52:111,1,60.0000022888184
218,269,114232,6,0,L|223:319,1,30.0000011444092,2|0,0:0|0:0,0:0:0:0:
332,146,114401,2,0,L|327:196,1,30.0000011444092,2|0,3:2|0:0,0:0:0:0:
312,300,114569,2,0,L|317:350,1,30.0000011444092,10|0,0:0|0:0,0:0:0:0:
217,83,114738,2,0,L|212:133,1,30.0000011444092,2|0,0:0|0:0,0:0:0:0:
395,236,114906,6,0,L|400:286,1,30.0000011444092,2|0,3:2|0:0,0:0:0:0:
147,165,115075,2,0,L|142:215,1,30.0000011444092,2|0,0:0|0:0,0:0:0:0:
425,144,115243,2,0,L|422:114,2,30.0000011444092,10|2|2,0:0|0:0|0:0,0:0:0:0:
220,298,115412,2,0,L|215:348,1,30.0000011444092,2|0,0:0|0:0,0:0:0:0:
292,86,115580,6,0,L|282:17,2,60.0000022888184,2|0|0,0:0|0:0|3:0,0:0:0:0:
220,298,115917,2,0,L|230:367,2,60.0000022888184,10|0|0,0:0|0:0|0:0,0:0:0:0:
56,179,116255,6,0,B|68:163|100:158|100:158|143:199|183:167|183:167|166:170|141:163,1,180.000006866455,0|0,3:0|0:0,0:0:0:0:
140,168,116592,2,0,B|136:138|136:138|142:102,1,60.0000022888184,8|0,0:0|0:0,0:0:0:0:
298,269,116760,2,0,B|302:299|302:299|296:335,1,60.0000022888184
292,86,116929,6,0,L|287:36,1,30.0000011444092,2|0,0:0|0:0,0:0:0:0:
220,298,117097,2,0,L|225:248,1,30.0000011444092,2|0,3:2|0:0,0:0:0:0:
401,196,117266,1,8,0:0:0:0:
401,196,117350,1,0,0:0:0:0:
401,196,117434,2,0,L|396:146,2,30.0000011444092,2|0|0,0:0|0:0|0:0,0:0:0:0:
445,270,117603,6,0,L|438:314,1,40,0|0,3:0|0:0,0:0:0:0:
485,169,117771,1,0,0:0:0:0:
474,141,117855,1,0,0:0:0:0:
464,113,117939,1,0,0:0:0:0:
454,85,118023,1,0,0:0:0:0:
442,59,118108,6,0,L|436:110,1,40,0|0,3:0|0:0,0:0:0:0:
445,270,118277,1,0,0:0:0:0:
407,281,118361,1,0,0:0:0:0:
368,274,118445,1,0,0:0:0:0:
336,250,118529,1,0,0:0:0:0:
319,204,118614,6,0,L|326:153,1,40,0|0,3:0|0:0,0:0:0:0:
221,54,118783,2,0,L|235:107,1,40
267,295,118951,6,0,B|218:302|218:302|175:273|175:273|137:303|95:290,1,180.000006866455,4|0,3:2|0:0,0:0:0:0:
60,222,119288,2,0,P|88:213|118:215,1,60.0000022888184
324,164,119457,2,0,P|288:151|253:157,1,60.0000022888184
127,111,119625,2,0,L|132:140,1,30.0000011444092,10|0,0:0|0:0,0:0:0:0:
51,97,119794,2,0,L|56:126,1,30.0000011444092,2|0,0:0|0:0,0:0:0:0:
221,54,119962,2,0,L|215:24,1,30.0000011444092,2|0,0:0|0:0,0:0:0:0:
297,68,120131,2,0,L|291:38,1,30.0000011444092,2|0,0:2|0:0,0:0:0:0:
389,49,120299,6,0,P|455:76|418:146,1,120.000004577637,2|2,0:0|3:2,0:0:0:0:
439,134,120552,1,0,0:0:0:0:
415,135,120637,2,0,P|382:124|350:130,1,60.0000022888184,0|0,3:0|0:0,0:0:0:0:
209,144,120805,2,0,P|242:155|274:149,1,60.0000022888184,2|0,0:0|0:0,0:0:0:0:
403,263,120974,2,0,L|479:253,2,60.0000022888184,10|0|0,0:2|0:0|0:0,0:0:0:0:
231,225,121311,2,0,L|155:215,2,60.0000022888184,2|0|0,0:0|0:0|3:0,0:0:0:0:
53,322,121648,6,0,B|117:354|208:337|171:265|123:299,1,180.000006866455,0|0,3:0|0:0,0:0:0:0:
128,309,121985,2,0,P|170:317|194:309,1,60.0000022888184
209,144,122153,2,0,P|194:102|175:85,1,60.0000022888184
304,278,122322,2,0,L|296:315,1,30.0000011444092,10|0,0:0|0:0,0:0:0:0:
392,248,122491,2,0,L|384:285,1,30.0000011444092,2|0,0:0|0:0,0:0:0:0:
297,248,122659,2,0,L|303:277,1,30.0000011444092,2|0,0:0|0:0,0:0:0:0:
209,218,122828,2,0,L|215:247,1,30.0000011444092,2|0,0:0|0:0,0:0:0:0:
303,218,122996,2,0,L|295:255,1,30.0000011444092,2|0,0:0|0:0,0:0:0:0:
391,188,123165,2,0,L|383:225,1,30.0000011444092,2|0,3:2|0:0,0:0:0:0:
134,151,123333,6,0,L|142:188,2,30.0000011444092,2|2|2,3:2|0:0|0:0,0:0:0:0:
129,257,123502,2,0,L|122:328,1,60.0000022888184,2|0,0:0|0:0,0:0:0:0:
37,169,123670,1,8,0:0:0:0:
209,218,123839,2,0,L|217:255,2,30.0000011444092,2|2|2,3:2|0:0|0:0,0:0:0:0:
115,69,124007,2,0,P|98:39|91:65,1,80,2|0,0:0|0:0,0:0:0:0:
219,109,124176,2,0,L|223:144,2,30.0000011444092,0|0|0,3:0|3:0|3:0,3:0:0:0:
328,53,124344,6,0,B|339:117|339:117|332:138|332:138|341:198|341:198|363:148,1,180.000006866455,0|0,3:0|0:0,0:0:0:0:
379,283,124682,2,0,B|368:219|368:219|375:198|375:198|366:138|366:138|344:188,1,180.000006866455
353,167,125019,1,8,0:0:0:0:
142,300,125187,2,0,P|105:308|75:302,1,60.0000022888184,2|0,0:0|0:0,0:0:0:0:
209,218,125356,2,0,P|234:246|244:275,1,60.0000022888184,2|0,0:0|0:0,0:0:0:0:
130,147,125524,2,0,P|112:172|105:201,1,60.0000022888184,2|0,0:0|0:0,0:0:0:0:
220,350,125693,6,0,B|274:374|274:374|301:363|339:359|339:359|301:351|287:311,1,180.000006866455,0|0,3:0|0:0,0:0:0:0:
133,359,126030,1,0,3:0:0:0:
359,282,126198,2,0,L|369:213,1,60.0000022888184,2|0,0:0|0:0,0:0:0:0:
130,147,126367,1,8,0:0:0:0:
354,106,126535,1,0,3:0:0:0:
242,266,126704,2,0,P|245:239|236:198,1,60.0000022888184,2|0,0:0|0:0,0:0:0:0:
242,127,126873,1,0,3:0:0:0:
19,189,127041,6,0,B|86:171|86:171|126:138|126:138|175:144|175:144|244:126,1,240.000009155274,0|2,3:0|0:0,0:0:0:0:
354,106,127462,2,0,P|378:80|379:32,1,75.000002861023,2|2,0:0|0:0,0:0:0:0:
319,206,127715,2,2,B|308:268|308:268|312:288|312:288|299:349|299:349|299:328|286:303,1,180.000006866455,8|0,0:0|0:0,0:1:0:0:
298,324,128052,2,0,P|264:315|227:325,3,60.0000022888184
303,331,128389,6,0,B|312:288|312:288|308:266|308:266|319:206|319:206|317:180|317:180|334:171|347:151|347:151|354:102,1,240.000009155274,0|0,3:0|0:0,0:0:0:0:
353,106,128895,2,0,P|316:46|239:140,1,240.000009155274
239,140,129401,2,0,B|160:129|160:129|129:136|129:136|48:125,1,180.000006866455,2|0,0:0|0:0,0:0:0:0:
62,126,129738,5,4,3:2:0:0:
222,254,129906,1,0,0:0:0:0:
155,35,130075,1,8,0:0:0:0:
95,287,130243,2,0,B|100:253|100:253|99:243|99:243|106:206,1,80
250,61,130412,2,0,B|244:94|244:94|245:104|245:104|238:141,1,80
222,254,130580,1,0,3:0:0:0:
61,125,130749,2,0,B|94:130|94:130|104:129|104:129|141:136,1,80,8|0,0:0|0:0,0:0:0:0:
300,265,130917,2,0,B|266:259|266:259|256:260|256:260|219:253,1,80
361,76,131086,6,0,B|450:117|459:200|341:188|388:132,1,180.000006866455,0|0,3:0|0:0,0:0:0:0:
379,144,131423,1,8,0:0:0:0:
319,334,131592,2,0,L|296:250,1,71.9999978027344
361,76,131760,2,0,L|384:160,1,71.9999978027344
407,239,131929,1,0,3:0:0:0:
263,155,132097,1,8,0:0:0:0:
401,229,132266,1,0,0:0:0:0:
199,299,132434,5,0,3:0:0:0:
226,46,132603,1,0,0:0:0:0:
7,174,132771,1,8,0:0:0:0:
194,378,132940,2,0,B|198:345|198:345|195:330|195:330|199:292,1,80
118,109,133108,2,0,B|114:142|114:142|117:157|117:157|113:195,1,80
102,292,133277,1,0,3:0:0:0:
291,211,133446,2,0,B|258:207|258:207|243:210|243:210|205:206,1,80,8|0,0:0|0:0,0:0:0:0:
22,287,133614,2,0,B|55:291|55:291|70:288|70:288|108:292,1,80
282,289,133783,6,0,B|321:294|321:294|336:290|336:290|367:295|367:295|398:287|398:287|460:280|447:339|425:368|358:332|410:308,1,240,0|0,3:0|0:0,0:0:0:0:
392,327,134120,1,8,0:0:0:0:
405,66,134288,2,0,B|399:96|399:96|401:112|401:112|395:153,1,80
282,289,134457,2,0,B|288:259|288:259|286:243|286:243|292:202,1,80
305,82,134625,1,0,3:0:0:0:
421,234,134794,1,8,0:0:0:0:
211,206,134962,2,0,B|181:200|181:200|165:202|165:202|132:197,1,80
55,356,135131,6,0,B|-2:301|4:227|60:206|133:259|54:291,1,215.999993408203,0|0,3:0|0:0,0:0:0:0:
66,284,135468,2,0,B|123:229|117:155|61:134|-12:187|67:219,1,215.999993408203,8|0,0:0|0:0,0:0:0:0:
66,284,135805,2,0,B|61:312|61:312|53:316|53:316|59:322|59:322|51:383,1,80,2|0,0:0|0:0,0:0:0:0:
187,368,135974,2,0,B|181:339|181:339|174:336|174:336|179:329|179:329|171:268,1,80,2|0,3:2|0:0,0:0:0:0:
144,102,136142,1,8,0:0:0:0:
54,212,136311,2,0,B|59:240|59:240|67:244|67:244|61:250|61:250|69:311,1,80,2|0,0:0|0:0,0:0:0:0:
144,102,136479,6,0,B|218:30|317:74|268:163|215:115,1,215.999993408203,0|0,3:0|0:0,0:0:0:0:
144,102,136816,2,0,B|172:107|172:107|182:102|182:102|188:110|188:110|217:116,1,80,10|0,0:0|0:0,0:0:0:0:
393,215,136985,2,0,B|365:210|365:210|355:215|355:215|349:207|349:207|311:199,1,80,2|0,0:0|0:0,0:0:0:0:
164,223,137153,2,0,B|153:267|153:267|164:337|164:337|163:316|176:292,1,160,0|0,0:0|3:0,0:0:0:0:
177,303,137406,1,0,0:0:0:0:
180,311,137491,2,0,P|218:301|260:313,1,80,8|0,0:0|0:0,0:0:0:0:
459,257,137659,2,0,P|471:220|461:179,1,71.9999978027344
295,113,137828,6,0,B|188:25|104:115|188:198|221:108,1,240,0|0,3:0|0:0,0:0:0:0:
294,113,138165,2,0,P|257:124|218:117,1,80,10|2,0:0|0:0,0:0:0:0:
13,64,138333,2,0,P|50:53|89:60,1,80,2|0,0:0|0:0,0:0:0:0:
84,266,138502,2,2,B|77:219|77:219|65:198|65:198|59:138|59:138|66:157|84:166,1,160,2|0,0:1|3:0,0:1:0:0:
80,167,138755,1,0,0:0:0:0:
86,173,138839,5,8,0:0:0:0:
126,131,138923,1,0,0:0:0:0:
183,135,139007,1,0,0:0:0:0:
216,183,139091,1,0,0:0:0:0:
199,239,139176,6,0,B|243:233|243:233|264:238|264:238|312:233|312:233|277:219,1,143.999995605469,0|2,3:0|0:0,0:0:0:0:
444,152,139682,2,0,B|400:158|400:158|379:153|379:153|331:158|331:158|366:172,1,143.999995605469,0|2,3:0|0:0,0:0:0:0:
279,97,140187,1,0,3:0:0:0:
258,301,140356,1,2,0:0:0:0:
93,85,140524,5,0,3:0:0:0:
359,169,140693,1,0,0:0:0:0:
47,290,140861,1,8,0:0:0:0:
250,380,141030,2,0,B|254:349|254:349|252:337|252:337|259:288,1,80
203,62,141198,2,0,B|199:93|199:93|201:105|201:105|194:154,1,80
186,236,141367,1,0,3:0:0:0:
359,169,141535,2,0,B|328:165|328:165|316:167|316:167|279:161,1,80,8|0,0:0|0:0,0:0:0:0:
106,228,141703,2,0,B|137:232|137:232|149:230|149:230|185:235,1,80
358,373,141873,6,0,B|397:331|425:234|310:234|327:306|363:304,1,180.000006866455,0|0,3:0|0:0,0:0:0:0:
352,301,142210,1,8,0:0:0:0:
444,106,142378,2,0,L|449:177,1,71.9999978027344
358,373,142547,2,0,L|352:302,1,71.9999978027344
332,172,142715,1,0,3:0:0:0:
257,300,142884,1,8,0:0:0:0:
106,228,143052,1,0,0:0:0:0:
449,177,143221,5,0,3:0:0:0:
202,44,143389,1,0,0:0:0:0:
352,301,143558,1,8,0:0:0:0:
408,26,143726,2,0,B|415:58|415:58|414:71|414:71|423:124,1,80
352,301,143895,2,0,B|345:269|345:269|346:256|346:256|337:203,1,80
310,102,144064,1,0,3:0:0:0:
184,216,144232,2,0,B|152:223|152:223|139:222|139:222|86:231,1,80,8|0,0:0|0:0,0:0:0:0:
1,123,144401,2,0,B|33:116|33:116|46:117|46:117|99:108,1,80
259,299,144569,6,0,B|221:294|221:294|196:300|196:300|136:296|136:296|83:302|103:364|161:363|172:304,1,240,0|0,3:0|0:0,0:0:0:0:
168,337,144906,2,0,P|175:297|162:246,1,80,10|2,0:0|0:0,0:0:0:0:
79,111,145075,2,0,P|72:151|85:202,1,80,2|2,0:0|0:0,0:0:0:0:
260,190,145243,5,2,0:0:0:0:
286,185,145327,1,2,0:0:0:0:
312,180,145411,1,0,3:0:0:0:
338,175,145495,1,2,0:0:0:0:
328,116,145580,5,8,0:0:0:0:
369,75,145665,1,2,0:0:0:0:
426,85,145748,1,2,0:0:0:0:
452,136,145832,1,2,0:0:0:0:
425,188,145917,6,0,B|495:269|432:382|328:275|428:246,1,215.999993408203,0|0,3:0|0:0,0:0:0:0:
405,256,146255,2,0,B|335:337|398:450|502:343|402:314,1,215.999993408203,8|0,0:0|0:0,0:0:0:0:
405,256,146592,2,0,B|411:230|411:230|404:222|404:222|413:218|413:218|426:183,1,80,2|0,0:0|0:0,0:0:0:0:
369,75,146760,2,0,B|362:101|362:101|369:109|369:109|360:113|360:113|347:148,1,80,2|0,3:2|0:0,0:0:0:0:
303,272,146929,1,8,0:0:0:0:
493,167,147097,2,0,B|467:173|467:173|459:166|459:166|455:175|455:175|420:188,1,80,2|0,0:0|0:0,0:0:0:0:
253,186,147266,6,0,B|209:174|209:174|187:179|187:179|131:168|131:168|154:171|175:157,1,160,0|0,3:0|0:0,0:0:0:0:
170,169,147519,1,0,0:0:0:0:
170,177,147603,2,0,P|185:217|165:269,1,80,8|0,0:0|0:0,0:0:0:0:
20,342,147771,2,0,B|50:346|50:346|69:342|69:342|105:347,1,80,2|0,3:2|0:0,0:0:0:0:
303,342,147940,2,0,B|309:308|309:308|301:263,1,71.9999978027344,0|0,3:0|0:0,0:0:0:0:
252,115,148108,2,0,B|246:149|246:149|254:194,1,71.9999978027344,0|0,3:0|0:0,0:0:0:0:
371,207,148277,2,0,B|398:199|398:199|433:207,1,60.0000022888184,8|0,0:0|0:0,0:0:0:0:
280,44,148446,2,0,B|253:36|253:36|218:44,1,60.0000022888184,0|0,3:0|0:0,0:0:0:0:
113,274,148614,5,0,3:0:0:0:
350,114,148783,1,0,3:0:0:0:
162,114,148951,1,8,0:0:0:0:
399,274,149120,1,0,3:0:0:0:
251,361,149288,5,2,3:1:0:0:
255,321,149372,1,0,3:0:0:0:
260,281,149456,1,0,3:0:0:0:
265,241,149540,1,0,3:0:0:0:
204,252,149625,5,8,0:0:0:0:
155,198,149709,1,0,3:0:0:0:
176,129,149793,1,0,3:0:0:0:
245,110,149877,1,0,3:0:0:0:
298,160,149962,6,0,P|334:168|375:156,1,60.0000022888184,8|0,0:0|0:0,0:0:0:0:
437,56,150131,1,0,3:0:0:0:
437,56,150215,1,0,0:0:0:0:
437,56,150299,2,0,L|428:17,2,30.0000011444092,0|0|0,3:0|3:0|3:0,3:0:0:0:
467,139,150468,2,0,L|457:220,1,60.0000022888184,8|0,0:0|0:0,0:0:0:0:
377,311,150637,5,0,3:0:0:0:
377,311,150721,1,0,3:0:0:0:
377,311,150805,2,0,L|388:361,2,30.0000011444092,0|0|0,3:0|3:0|3:0,3:0:0:0:
298,160,150974,1,8,0:0:0:0:
260,115,151058,1,0,0:0:0:0:
202,106,151142,2,0,L|194:73,1,30.0000011444092,0|0,3:0|3:0,3:0:0:0:
152,138,151226,2,0,L|123:113,1,30.0000011444092,0|0,3:0|3:0,3:0:0:0:
137,195,151311,5,4,3:2:0:0:
298,160,151479,1,2,0:0:0:0:
26,148,151648,1,8,0:0:0:0:
129,280,151816,1,2,0:0:0:0:
127,310,151900,1,0,0:0:0:0:
126,340,151984,1,0,0:0:0:0:
137,195,152153,1,0,3:0:0:0:
244,327,152322,2,0,P|272:317|308:315,1,60.0000022888184,8|0,0:0|0:0,0:0:0:0:
424,282,152491,2,0,P|395:274|360:275,1,60.0000022888184,2|0,0:0|0:0,0:0:0:0:
291,109,152659,5,0,3:0:0:0:
222,243,152828,2,0,L|217:178,1,60.0000022888184
207,59,152996,1,8,0:0:0:0:
375,159,153165,2,0,L|436:149,2,60.0000022888184
217,183,153502,1,0,3:0:0:0:
403,19,153670,2,0,L|392:80,1,60.0000022888184,8|0,0:0|0:0,0:0:0:0:
329,259,153839,2,0,L|295:185,1,60.0000022888184
207,59,154007,5,2,3:2:0:0:
147,247,154176,1,0,0:0:0:0:
309,126,154344,1,10,0:0:0:0:
111,137,154513,2,0,B|119:188|119:188|112:232|112:232|132:308|132:308|150:275|150:275|146:223,1,240.000009155274,2|0,0:0|3:0,0:0:0:0:
22,207,155019,2,0,L|33:133,1,60.0000022888184,10|0,0:0|0:0,0:0:0:0:
46,47,155187,1,0,0:0:0:0:
147,247,155356,6,0,B|242:273|222:210|326:245,1,180.000006866455,2|0,3:2|0:0,0:0:0:0:
322,243,155693,1,10,0:0:0:0:
185,172,155861,1,0,0:0:0:0:
185,172,155946,2,0,L|193:98,1,60.0000022888184,2|0,0:0|0:0,0:0:0:0:
274,317,156114,1,0,0:0:0:0:
274,317,156199,2,0,L|266:391,1,60.0000022888184,2|0,3:2|0:0,0:0:0:0:
367,177,156367,2,0,P|328:163|294:170,1,60.0000022888184,8|0,0:0|0:0,0:0:0:0:
437,327,156535,2,0,L|444:261,1,60.0000022888184,2|0,0:0|0:0,0:0:0:0:
473,89,156704,5,4,3:2:0:0:
331,248,156873,1,0,0:0:0:0:
74,160,157041,1,10,0:0:0:0:
328,98,157210,2,0,B|390:172|358:259|244:199|331:146,1,191.999994140625,2|0,0:0|3:0,0:0:0:0:
432,174,157715,2,0,P|429:206|417:234,1,47.9999985351563,8|0,0:0|0:0,0:0:0:0:
107,280,157884,2,0,B|95:233|95:233|103:198|103:198|87:127|87:127|66:176,1,191.999994140625,2|0,0:0|0:0,0:0:0:0:
77,167,158389,6,0,P|99:178|125:175,1,47.9999985351563,8|0,0:0|0:0,0:0:0:0:
227,41,158558,1,0,0:0:0:0:
227,41,158642,1,2,0:0:0:0:
227,41,158726,2,0,L|218:104,1,47.9999985351563
197,209,158895,1,2,3:2:0:0:
324,82,159064,1,8,0:0:0:0:
77,167,159232,1,0,0:0:0:0:
310,244,159401,5,2,3:2:0:0:
227,41,159569,1,0,0:0:0:0:
197,209,159738,1,8,0:0:0:0:
410,51,159906,2,0,B|403:74|403:74|405:92|405:92|398:114|398:114|368:167|421:193|456:160|428:122,1,191.999994140625,2|0,0:0|0:0,0:0:0:0:
436,135,160412,2,0,P|436:168|430:192,1,47.9999985351563,8|0,0:0|0:0,0:0:0:0:
359,297,160580,2,0,P|330:313|306:320,1,47.9999985351563,2|0,0:0|0:0,0:0:0:0:
140,284,160749,6,0,B|125:235|125:235|135:173|135:173|106:93|106:93|89:144|89:144|105:194,1,300.000011444092,0|0,3:0|3:0,0:0:0:0:
103,188,161676,1,0,3:0:0:0:
103,188,161760,1,8,0:2:0:0:
140,284,161929,1,2,3:2:0:0:
106,93,162097,6,0,B|143:82|143:82|223:89,1,95.9999970703126,4|0,3:2|0:0,0:0:0:0:
330,100,162434,1,8,0:0:0:0:
194,225,162603,1,2,0:0:0:0:
192,213,162687,1,0,0:0:0:0:
191,201,162771,1,0,0:0:0:0:
190,189,162855,1,0,0:0:0:0:
189,177,162940,1,0,3:0:0:0:
330,100,163108,2,0,B|326:125|326:125|329:147,1,47.9999985351563,8|0,0:0|0:0,0:0:0:0:
272,329,163277,2,0,B|276:304|276:304|270:267,1,47.9999985351563,2|0,0:0|0:0,0:0:0:0:
449,228,163446,6,0,P|454:180|446:120,1,95.9999970703126,0|0,3:0|0:0,0:0:0:0:
442,105,163698,1,0,0:0:0:0:
428,79,163783,1,10,0:0:0:0:
359,232,163951,1,0,0:0:0:0:
380,242,164035,1,2,0:0:0:0:
404,244,164119,1,0,0:0:0:0:
427,239,164203,1,0,0:0:0:0:
448,227,164288,1,2,3:2:0:0:
272,329,164457,2,0,B|248:334|248:334|223:326,1,47.9999985351563,8|0,0:0|0:0,0:0:0:0:
212,126,164625,2,0,B|188:121|188:121|163:129,1,47.9999985351563
39,319,164794,5,2,3:2:0:0:
87,111,164962,1,0,0:0:0:0:
254,254,165131,1,8,0:0:0:0:
136,222,165299,1,2,0:0:0:0:
131,241,165383,1,0,0:0:0:0:
130,262,165467,1,0,0:0:0:0:
132,283,165551,1,0,0:0:0:0:
136,303,165636,1,0,3:0:0:0:
254,254,165805,2,0,L|264:195,1,47.9999985351563,8|0,0:0|0:0,0:0:0:0:
298,43,165974,2,0,L|313:108,1,47.9999985351563,2|0,0:0|0:0,0:0:0:0:
368,271,166142,5,0,3:0:0:0:
200,115,166311,1,0,0:0:0:0:
405,76,166479,1,10,0:0:0:0:
368,271,166648,1,0,0:0:0:0:
340,293,166732,1,2,0:0:0:0:
305,297,166816,1,0,0:0:0:0:
273,282,166900,1,0,0:0:0:0:
254,252,166985,2,0,L|264:197,1,47.9999985351563,2|0,3:2|0:0,0:0:0:0:
298,43,167153,2,0,L|341:79,1,47.9999985351563,8|0,0:0|0:0,0:0:0:0:
457,185,167322,2,0,L|403:204,1,47.9999985351563
147,278,167491,5,0,3:2:0:0:
200,115,167659,1,0,3:0:0:0:
189,72,167743,1,0,0:0:0:0:
178,30,167827,1,8,0:0:0:0:
6,187,167996,1,0,3:0:0:0:
21,218,168080,1,0,0:0:0:0:
53,232,168164,1,0,3:0:0:0:
87,222,168248,1,0,0:0:0:0:
106,193,168333,2,0,L|101:135,1,47.9999985351563,0|0,3:0|0:0,0:0:0:0:
290,77,168502,2,0,L|285:19,1,47.9999985351563,8|0,0:0|0:0,0:0:0:0:
243,253,168670,2,0,L|238:195,1,47.9999985351563,0|0,3:0|0:0,0:0:0:0:
178,30,168839,6,0,L|185:86,1,47.9999985351563,0|0,3:0|0:0,0:0:0:0:
232,157,169007,2,0,L|239:213,1,47.9999985351563,0|0,3:0|0:0,0:0:0:0:
147,278,169176,2,0,L|154:334,1,47.9999985351563,8|0,0:0|0:0,0:0:0:0:
290,77,169344,1,0,3:0:0:0:
292,100,169428,1,2,0:0:0:0:
295,124,169512,1,0,3:0:0:0:
95,97,169682,2,0,L|100:144,1,47.9999985351563,2|0,3:2|0:0,0:0:0:0:
237,204,169851,2,0,L|242:251,1,47.9999985351563,8|0,0:0|0:0,0:0:0:0:
12,310,170019,2,0,L|19:366,1,47.9999985351563,0|0,3:0|0:0,0:0:0:0:
248,334,170187,5,0,3:0:0:0:
277,321,170271,1,0,3:0:0:0:
309,318,170355,1,0,3:0:0:0:
340,322,170439,1,0,3:0:0:0:
378,350,170524,5,8,0:0:0:0:
369,302,170608,1,0,3:0:0:0:
360,255,170692,1,0,3:0:0:0:
352,208,170776,1,0,3:0:0:0:
407,225,170861,5,0,3:0:0:0:
449,186,170945,1,0,3:0:0:0:
441,129,171029,1,0,3:0:0:0:
389,104,171113,1,0,3:0:0:0:
340,133,171198,2,0,P|314:141|276:139,1,47.9999985351563,8|0,0:0|0:0,0:0:0:0:
83,64,171367,2,0,L|95:128,1,47.9999985351563,0|0,3:0|0:0,0:0:0:0:
131,259,171535,6,0,L|126:292,16,23.9999992675781,0|0|0|0|0|0|0|0|0|0|0|0|0|0|0|0|0,3:0|3:0|3:0|3:0|3:0|3:0|3:0|3:0|3:0|3:0|3:0|3:0|3:0|3:0|3:0|3:0|3:0,3:0:0:0:
163,140,172378,5,0,0:0:0:0:
169,163,172462,1,0,3:0:0:0:
175,186,172546,1,0,3:0:0:0:
229,78,172715,1,0,3:0:0:0:
263,304,172884,6,0,B|217:293|172:306|172:306|159:282|131:258|131:258|83:255|47:247,1,215.999993408203,4|0,3:2|0:0,0:0:0:0:
0,245,173221,1,8,0:0:0:0:
257,226,173389,2,0,B|288:230|288:230|322:249,1,60.0000022888184,2|0,0:0|0:0,0:0:0:0:
84,333,173558,2,0,B|53:329|53:329|19:310,1,60.0000022888184,2|0,0:0|0:0,0:0:0:0:
206,374,173726,1,0,3:0:0:0:
80,192,173895,1,8,0:0:0:0:
75,222,173979,1,2,0:0:0:0:
70,251,174063,1,2,0:0:0:0:
116,66,174232,6,0,B|248:47|202:121|340:99,1,215.999993408203,0|0,3:0|0:0,0:0:0:0:
409,99,174569,1,8,0:0:0:0:
86,158,174738,2,0,L|163:153,1,71.9999978027344,2|0,0:0|0:0,0:0:0:0:
361,13,174906,2,0,L|286:17,1,71.9999978027344,2|0,0:0|0:0,0:0:0:0:
116,66,175075,1,0,3:0:0:0:
409,99,175243,2,0,B|415:132|415:132|405:182,1,71.9999978027344,8|0,0:0|0:0,0:0:0:0:
288,298,175412,2,0,B|282:265|282:265|292:215,1,71.9999978027344
289,17,175580,6,0,B|276:90|276:90|297:149|297:149|287:209|287:209|293:241,1,215.999993408203,0|0,3:0|0:0,0:0:0:0:
288,298,175917,1,8,0:0:0:0:
289,17,176086,1,0,0:0:0:0:
212,213,176255,2,0,L|190:135,1,60.0000022888184,2|0,0:0|0:0,0:0:0:0:
163,64,176423,1,0,3:0:0:0:
75,271,176592,1,8,0:0:0:0:
25,144,176760,1,0,0:0:0:0:
75,271,176929,5,0,3:0:0:0:
96,303,177013,1,2,0:0:0:0:
135,308,177097,1,2,0:0:0:0:
165,283,177181,1,2,0:0:0:0:
182,339,177266,5,8,0:0:0:0:
230,361,177350,1,2,0:0:0:0:
274,332,177434,1,2,0:0:0:0:
273,279,177518,1,2,0:0:0:0:
221,229,177603,5,2,0:0:0:0:
150,210,177687,1,2,0:0:0:0:
145,139,177771,1,0,3:0:0:0:
212,112,177856,1,2,0:0:0:0:
258,167,177940,2,0,P|289:176|328:169,1,60.0000022888184,8|0,0:0|0:0,0:0:0:0:
69,184,178108,2,0,P|65:213|74:252,1,60.0000022888184,2|0,0:0|0:0,0:0:0:0:
409,319,178277,6,0,B|410:282|430:253|430:253|423:218|400:190|400:190|405:168|405:168|404:108,1,215.999993408203,4|0,3:2|0:0,0:0:0:0:
402,38,178614,1,8,0:0:0:0:
273,279,178783,2,0,P|304:261|350:254,1,71.9999978027344,2|0,0:0|0:0,0:0:0:0:
481,148,178951,2,0,P|487:116|472:69,1,71.9999978027344,2|0,0:0|0:0,0:0:0:0:
294,92,179120,1,0,3:0:0:0:
425,249,179288,1,8,0:0:0:0:
417,284,179372,1,2,0:0:0:0:
409,319,179456,1,2,0:0:0:0:
239,175,179625,6,0,B|126:127|64:176|126:276|182:166,1,215.999993408203,0|0,3:0|0:0,0:0:0:0:
164,192,179962,1,8,0:0:0:0:
212,94,180131,1,2,0:0:0:0:
199,88,180215,2,0,P|154:84|106:98,1,71.9999978027344,0|2,0:0|0:0,0:0:0:0:
82,269,180384,1,0,0:0:0:0:
90,279,180468,2,0,P|135:289|186:270,1,71.9999978027344,0|0,3:0|0:0,0:0:0:0:
320,178,180637,1,8,0:0:0:0:
164,192,180805,2,0,P|117:191|89:153,1,71.9999978027344
61,50,180974,6,0,B|67:140|67:140|52:176|52:176|72:211|72:211|74:258,1,215.999993408203,0|0,3:0|0:0,0:0:0:0:
78,333,181311,1,8,0:0:0:0:
199,88,181479,2,0,B|230:92|230:92|240:90|240:90|282:98,1,71.9999978027344,2|0,0:0|0:0,0:0:0:0:
391,170,181648,2,0,B|360:174|360:174|350:172|350:172|308:180,1,71.9999978027344,2|0,0:0|0:0,0:0:0:0:
164,192,181816,1,0,3:0:0:0:
360,340,181985,1,10,0:0:0:0:
346,288,182069,1,2,0:0:0:0:
302,260,182153,1,2,0:0:0:0:
250,270,182237,1,2,0:0:0:0:
219,312,182322,5,0,3:0:0:0:
219,312,182996,6,0,L|232:191,1,120.000004577637,8|0,0:0|0:0,0:0:0:0:
311,182,183249,2,0,L|318:123,2,60.0000022888184,8|0|0,0:0|0:0|0:0,0:0:0:0:
146,218,183502,2,0,L|139:277,1,60.0000022888184,8|0,0:0|0:0,0:0:0:0:
165,100,183670,6,0,B|151:131|117:136|117:136|160:124|210:138|231:193,1,204.000003890991,4|0,3:2|0:0,0:0:0:0:
231,193,184007,1,10,0:0:0:0:
99,66,184176,2,0,B|65:58|65:58|12:63,1,68.0000012969971,2|0,0:0|0:0,0:0:0:0:
251,113,184344,2,0,B|284:113|284:113|322:124,1,68.0000012969971
93,143,184513,1,0,3:0:0:0:
245,81,184682,1,8,0:0:0:0:
239,47,184766,1,2,0:0:0:0:
233,13,184850,1,0,0:0:0:0:
326,252,185019,6,0,B|332:278|332:278|274:260|274:260|221:271|221:271|151:260,1,204.000003890991,2|0,3:2|0:0,0:0:0:0:
167,154,185356,2,0,P|190:236|123:261,1,136.000002593994,10|0,0:0|0:0,0:0:0:0:
165,270,185608,1,0,0:0:0:0:
172,280,185693,2,0,P|205:273|242:286,1,68.0000012969971,2|0,0:0|0:0,0:0:0:0:
316,340,185861,1,0,3:0:0:0:
41,284,186030,1,8,0:0:0:0:
239,198,186198,1,2,0:0:0:0:
153,26,186367,6,0,B|152:62|141:91|141:91|147:115|147:115|142:135|142:135|126:176|166:223|194:139|154:155,1,204.000003890991,2|0,3:2|0:0,0:0:0:0:
172,163,186704,2,0,P|133:153|95:161,1,68.0000012969971,10|0,0:0|0:0,0:0:0:0:
346,91,186873,2,0,P|376:84|417:93,1,68.0000012969971
316,340,187041,2,0,L|323:263,1,68.0000012969971,2|0,0:0|0:0,0:0:0:0:
333,184,187210,1,0,3:0:0:0:
167,357,187378,1,8,0:0:0:0:
133,353,187462,1,0,0:0:0:0:
99,349,187546,1,2,0:0:0:0:
252,178,187715,6,0,B|313:116|408:156|403:215|351:221|319:165,1,204.000003890991,2|0,3:2|0:0,0:0:0:0:
328,69,188052,2,0,P|361:139|330:184,1,136.000002593994,10|0,0:0|0:0,0:0:0:0:
329,172,188305,1,0,0:0:0:0:
325,162,188389,2,0,P|360:156|398:170,1,68.0000012969971,2|0,0:0|0:0,0:0:0:0:
455,294,188558,1,0,3:0:0:0:
467,310,188642,2,0,P|436:301|408:277,1,68.0000012969971,2|8,0:0|0:0,0:0:0:0:
265,328,188811,1,0,0:0:0:0:
253,360,188895,2,0,B|236:322|260:277,1,68.0000012969971,2|0,0:0|0:0,0:0:0:0:
251,177,189064,6,0,P|252:259|116:260,1,204.000003890991,4|0,3:2|0:0,0:0:0:0:
149,290,189401,1,10,0:0:0:0:
89,84,189569,2,0,B|93:112|93:112|92:129|92:129|98:165,1,68.0000012969971
53,373,189738,2,0,B|49:345|49:345|50:328|50:328|44:292,1,68.0000012969971,2|0,0:0|0:0,0:0:0:0:
75,222,189906,1,0,3:0:0:0:
60,236,189991,2,0,P|81:238|124:219,1,68.0000012969971,2|8,0:0|0:0,0:0:0:0:
173,104,190159,1,0,0:0:0:0:
176,70,190243,2,0,P|203:111|204:143,1,68.0000012969971,2|0,0:0|0:0,0:0:0:0:
356,296,190412,6,0,B|347:232|347:232|352:207|352:207|339:123,1,136.000002593994,2|0,3:2|0:0,0:0:0:0:
340,168,190665,1,0,0:0:0:0:
335,174,190749,2,0,P|301:181|267:172,1,68.0000012969971,10|0,0:0|0:0,0:0:0:0:
133,206,190917,2,0,P|167:199|201:208,1,68.0000012969971
291,33,191086,2,0,L|303:101,1,68.0000012969971,2|0,0:0|0:0,0:0:0:0:
462,221,191255,1,0,3:0:0:0:
478,208,191339,2,0,L|410:220,1,68.0000012969971,2|8,0:0|0:0,0:0:0:0:
221,286,191507,1,0,0:0:0:0:
244,310,191592,2,0,L|172:288,1,68.0000012969971,2|0,0:0|0:0,0:0:0:0:
61,89,191760,5,2,3:2:0:0:
63,111,191844,1,0,3:0:0:0:
66,134,191928,1,0,3:0:0:0:
68,156,192012,1,0,3:0:0:0:
52,195,192097,5,10,0:2:0:0:
93,177,192181,1,0,3:0:0:0:
138,180,192265,1,0,3:0:0:0:
177,202,192349,1,0,3:0:0:0:
234,179,192434,5,2,3:2:0:0:
298,172,192518,1,0,3:0:0:0:
334,117,192602,1,0,3:0:0:0:
352,35,192687,5,2,3:2:0:0:
342,108,192771,1,8,0:0:0:0:
397,158,192856,1,0,3:0:0:0:
489,155,192940,5,2,3:2:0:0:
448,233,193024,1,0,3:0:0:0:
414,303,193108,6,0,B|356:284|356:284|324:296|279:289|279:289|306:298|313:309,1,180.000006866455,2|0,3:2|0:0,0:0:0:0:
313,309,193446,2,0,B|287:287|253:282|253:282|232:291|232:291|152:291,1,120.000004577637,8|0,0:0|0:0,0:0:0:0:
205,300,193698,1,0,0:0:0:0:
209,309,193783,2,0,P|176:303|140:306,1,60.0000022888184,8|0,0:0|0:0,0:0:0:0:
25,193,193951,5,0,0:0:0:0:
28,200,194035,1,8,0:0:0:0:
31,207,194120,2,0,P|59:197|98:197,1,47.9999985351563
278,172,194288,2,0,P|253:150|235:118,1,40,8|0,0:0|0:0,0:0:0:0:
158,0,194457,5,4,3:2:0:0:
256,192,207940,12,0,214513,0:0:0:0:
111,210,214682,6,0,B|162:211|187:175|187:175|202:213|247:226|247:226|279:213|279:213|322:215,1,239.999992675781,0|0,3:0|0:0,0:0:0:0:
447,142,215187,2,0,P|371:102|316:217,1,239.999992675781,0|0,3:0|0:0,0:0:0:0:
454,149,215693,2,0,L|459:101,1,47.9999985351563,0|0,3:0|0:0,0:0:0:0:
260,8,215861,2,0,L|254:55,1,47.9999985351563
382,177,216030,5,4,3:2:0:0:
146,79,216198,1,0,0:0:0:0:
358,41,216367,1,2,0:0:0:0:
314,214,216535,2,0,B|334:257|334:257|289:247|289:247|252:259|252:259|177:249,1,191.999994140625,2|0,0:0|0:0,0:0:0:0:
19,224,217041,1,0,0:0:0:0:
40,238,217125,2,0,L|106:226,2,47.9999985351563,2|0|0,0:0|0:0|0:0,0:0:0:0:
192,251,217378,6,0,B|254:259|254:259|292:246|292:246|349:261,1,143.999995605469,2|0,0:0|0:0,0:0:0:0:
425,258,217715,2,0,B|381:268|381:268|331:256,1,95.9999970703126,2|0,0:0|0:0,0:0:0:0:
386,188,217968,2,0,B|430:178|430:178|479:190,1,95.9999970703126,2|0,0:0|0:0,0:0:0:0:
481,314,218221,2,0,P|461:328|414:331,1,47.9999985351563
306,327,218389,2,0,P|283:316|257:277,1,47.9999985351563
207,181,218558,2,0,P|204:156|225:114,1,47.9999985351563
452,64,218726,6,0,B|478:38|478:38|470:76|482:109|482:109|473:145|473:145|485:178|478:205,1,191.999994140625,2|2,0:0|0:0,0:0:0:0:
283,167,219232,1,2,0:0:0:0:
480,190,219401,1,0,0:0:0:0:
267,300,219569,1,0,0:0:0:0:
166,64,219738,1,0,0:0:0:0:
123,57,219822,1,2,0:0:0:0:
80,50,219906,1,0,0:0:0:0:
70,248,220075,5,2,0:0:0:0:
94,279,220159,1,2,0:0:0:0:
132,288,220243,1,2,0:0:0:0:
170,277,220328,1,2,0:0:0:0:
207,189,220412,1,2,0:0:0:0:
200,132,220496,1,2,0:0:0:0:
143,138,220580,1,2,0:0:0:0:
149,193,220665,1,2,0:0:0:0:
219,128,220749,5,2,0:0:0:0:
265,93,220833,1,2,0:0:0:0:
323,101,220917,1,2,0:0:0:0:
358,148,221001,1,2,0:0:0:0:
350,205,221086,2,0,P|346:229|352:264,1,47.9999985351563,2|2,0:0|0:0,0:0:0:0:
189,321,221255,2,0,L|167:270,1,47.9999985351563,2|2,0:0|0:0,0:0:0:0:
282,166,221423,5,0,0:0:0:0:
320,351,221592,1,0,0:0:0:0:
504,216,221760,1,2,0:0:0:0:
275,191,221929,2,0,B|270:246|270:246|281:276|281:276|276:315|276:315|292:347|292:347|311:318,1,191.999994140625,2|0,0:0|0:0,0:0:0:0:
192,205,222434,1,0,0:0:0:0:
185,180,222519,2,0,P|227:199|276:190,1,95.9999970703126,2|0,0:0|0:0,0:0:0:0:
92,34,222771,6,0,L|104:153,1,95.9999970703126,2|0,0:0|0:0,0:0:0:0:
90,316,223108,2,0,B|83:270|83:270|97:216,1,95.9999970703126,2|0,0:0|0:0,0:0:0:0:
101,129,223361,2,0,B|108:175|108:175|94:229,1,95.9999970703126,2|0,0:0|0:0,0:0:0:0:
95,222,223614,2,0,L|154:231,1,47.9999985351563
199,235,223783,2,0,L|140:243,1,47.9999985351563
258,255,223951,2,0,L|210:248,1,47.9999985351563
387,197,224120,5,2,0:0:0:0:
174,312,224288,1,0,0:0:0:0:
425,342,224457,1,2,0:0:0:0:
282,144,224625,2,0,B|237:137|237:137|199:158|199:158|130:157,1,143.999995605469,2|0,0:0|0:0,0:0:0:0:
172,83,224962,2,0,L|113:82,1,47.9999985351563,2|0,0:0|0:0,0:0:0:0:
244,222,225131,1,0,0:0:0:0:
262,232,225215,2,0,L|324:223,2,47.9999985351563,2|0|0,0:0|0:0|0:0,0:0:0:0:
304,367,225468,6,0,P|297:293|321:192,1,143.999995605469,2|0,0:0|0:0,0:0:0:0:
338,151,225805,2,0,L|370:94,1,47.9999985351563,2|0,0:0|0:0,0:0:0:0:
252,309,225974,1,0,0:0:0:0:
231,316,226058,2,0,L|181:304,1,47.9999985351563,2|0,0:0|0:0,0:0:0:0:
72,220,226226,1,0,0:0:0:0:
60,197,226311,2,0,L|79:143,1,47.9999985351563
130,23,226479,2,0,L|167:66,1,47.9999985351563,2|0,0:0|0:0,0:0:0:0:
245,170,226648,2,0,L|188:180,1,47.9999985351563
11,317,226816,6,0,P|51:298|127:305,1,95.9999970703126,4|0,3:2|0:0,0:0:0:0:
283,375,227153,1,0,0:0:0:0:
101,296,227322,1,2,0:0:0:0:
308,224,227491,1,0,0:0:0:0:
173,377,227659,1,2,0:0:0:0:
371,304,227828,1,0,0:0:0:0:
389,271,227912,2,0,P|400:222|383:171,1,95.9999970703126,2|0,0:0|0:0,0:0:0:0:
308,224,228165,6,0,P|252:238|206:220,1,95.9999970703126,0|0,3:0|0:0,0:0:0:0:
144,82,228502,1,0,0:0:0:0:
216,226,228671,1,2,0:0:0:0:
228,38,228840,1,0,0:0:0:0:
61,128,229008,1,2,0:0:0:0:
297,114,229176,1,0,0:0:0:0:
333,114,229260,1,2,0:0:0:0:
341,183,229344,1,0,0:0:0:0:
374,170,229428,1,2,0:0:0:0:
418,105,229513,6,0,P|452:164|441:206,1,95.9999970703126,0|0,3:0|0:0,0:0:0:0:
216,226,229850,1,0,0:0:0:0:
448,188,230019,1,2,0:0:0:0:
220,130,230187,1,0,0:0:0:0:
403,275,230356,1,2,0:0:0:0:
161,356,230524,1,0,0:0:0:0:
125,348,230608,1,2,0:0:0:0:
86,286,230693,1,0,0:0:0:0:
122,279,230777,1,2,0:0:0:0:
197,296,230861,6,0,P|192:244|205:186,1,95.9999970703126,0|0,3:0|0:0,0:0:0:0:
270,36,231198,1,0,0:0:0:0:
108,155,231367,1,2,0:0:0:0:
278,250,231535,2,0,L|385:239,1,95.9999970703126,2|0,0:0|0:0,0:0:0:0:
453,312,231788,2,0,L|346:323,1,95.9999970703126,2|0,0:0|0:0,0:0:0:0:
454,231,232041,2,0,L|481:205,2,23.9999992675781,0|0|0,3:0|3:0|3:0,3:0:0:0:
453,142,232210,6,0,L|429:45,1,95.9999970703126,0|0,3:0|0:0,0:0:0:0:
453,312,232547,1,2,0:0:0:0:
429,48,232715,1,0,0:0:0:0:
297,235,232884,2,0,L|311:131,1,95.9999970703126,0|0,3:0|0:0,0:0:0:0:
299,337,233221,1,2,0:0:0:0:
292,49,233389,1,0,0:0:0:0:
215,235,233558,6,0,L|202:139,1,95.9999970703126,0|0,3:0|0:0,0:0:0:0:
208,351,233895,1,2,0:0:0:0:
216,34,234063,1,0,0:0:0:0:
51,260,234232,2,0,L|74:166,1,95.9999970703126,0|0,3:0|0:0,0:0:0:0:
119,365,234569,1,2,0:0:0:0:
37,56,234737,1,0,0:0:0:0:
215,235,234906,5,0,3:0:0:0:
210,211,234990,1,0,0:0:0:0:
213,187,235074,1,0,0:0:0:0:
283,154,235159,1,0,3:0:0:0:
288,178,235243,1,0,0:0:0:0:
285,202,235327,1,0,0:0:0:0:
213,187,235412,5,0,3:0:0:0:
205,145,235496,1,0,0:0:0:0:
223,106,235580,1,0,0:0:0:0:
293,73,235665,1,0,3:0:0:0:
301,115,235749,1,0,0:0:0:0:
283,154,235833,1,0,0:0:0:0:
223,106,235917,5,0,3:0:0:0:
264,49,236002,1,0,3:0:0:0:
333,47,236086,1,0,3:0:0:0:
377,101,236170,1,0,3:0:0:0:
360,168,236254,5,0,3:0:0:0:
360,168,237603,6,0,B|285:180|285:180|257:174|257:174|179:183|179:183|144:176|144:176|40:191|40:191|60:199|78:213|78:213|101:204|101:204|155:200,1,420.000016021729,0|0,3:0|0:0,0:0:0:0:
128,201,238277,2,0,P|115:142|219:113,1,180.000006866455,8|0,0:0|0:0,0:0:0:0:
209,105,238614,2,0,L|197:54,6,30.0000011444092,2|2|2|2|2|2|2,0:0|0:0|0:0|0:0|0:0|0:0|0:0,0:0:0:0:
209,105,238951,6,0,B|203:139|230:168|230:168|230:196|230:196|275:235|251:308,1,180.000006866455,4|0,3:2|0:0,0:0:0:0:
195,315,239288,2,0,P|182:288|183:259,1,60.0000022888184,8|0,0:0|0:0,0:0:0:0:
287,109,239457,2,0,P|288:86|264:47,1,60.0000022888184
128,201,239625,1,0,0:0:0:0:
258,270,239794,1,0,3:0:0:0:
36,344,239962,2,0,L|45:282,1,60.0000022888184,8|0,0:0|0:0,0:0:0:0:
121,141,240131,2,0,L|129:218,1,60.0000022888184
265,343,240299,6,0,B|322:349|322:349|348:342|348:342|412:348|412:348|386:352|365:369,1,180.000006866455,0|0,3:0|0:0,0:0:0:0:
379,366,240637,2,0,P|381:332|404:305,1,60.0000022888184,8|0,0:0|0:0,0:0:0:0:
303,163,240805,2,0,P|301:129|278:102,1,60.0000022888184
265,343,240974,1,0,0:0:0:0:
416,237,241142,1,0,3:0:0:0:
203,153,241311,2,0,L|215:229,1,60.0000022888184,8|0,0:0|0:0,0:0:0:0:
265,343,241479,2,0,L|280:268,1,60.0000022888184
401,118,241648,6,0,B|420:92|420:92|416:137|416:137|428:180|428:180|413:247,1,180.000006866455,0|0,3:0|0:0,0:0:0:0:
492,126,241985,2,0,L|499:49,1,60.0000022888184,8|0,0:0|0:0,0:0:0:0:
343,226,242153,2,0,P|343:255|368:295,1,60.0000022888184
286,108,242322,1,0,0:0:0:0:
401,118,242491,1,0,3:0:0:0:
212,212,242659,2,0,L|200:132,1,60.0000022888184,8|0,0:0|0:0,0:0:0:0:
303,50,242828,2,0,L|276:139,1,60.0000022888184
69,178,242996,6,0,B|75:140|75:140|66:114|66:114|77:41|77:41|77:63|97:98,1,180.000006866455,0|0,3:0|0:0,0:0:0:0:
93,87,243333,2,0,P|128:94|159:90,1,60.0000022888184,8|0,0:0|0:0,0:0:0:0:
270,216,243502,2,0,P|235:209|204:213,1,60.0000022888184
36,286,243670,1,0,0:0:0:0:
96,95,243839,1,0,3:0:0:0:
211,211,244007,2,0,P|182:213|152:206,2,60.0000022888184,8|0|0,0:0|0:0|0:0,0:0:0:0:
309,135,244260,1,0,0:0:0:0:
321,123,244344,6,0,B|311:177|311:177|315:193|315:193|308:232|308:232|313:249|313:249|303:314,1,180.000006866455,4|0,3:2|0:0,0:0:0:0:
305,299,244682,2,0,P|269:286|239:291,1,60.0000022888184,8|0,0:0|0:0,0:0:0:0:
394,141,244850,2,0,P|396:110|378:75,1,60.0000022888184
211,211,245019,1,0,0:0:0:0:
387,227,245187,1,0,3:0:0:0:
303,75,245356,2,0,B|308:103|308:103|306:115|306:115|310:142,1,60.0000022888184,8|0,0:0|0:0,0:0:0:0:
305,299,245524,2,0,B|300:271|300:271|302:259|302:259|298:232,1,60.0000022888184
116,138,245693,6,0,P|41:182|97:224,1,180.000006866455,0|0,3:0|0:0,0:0:0:0:
108,127,246030,2,0,P|70:117|33:126,1,60.0000022888184,8|0,0:0|0:0,0:0:0:0:
68,299,246198,2,0,P|110:300|151:277,1,60.0000022888184
243,97,246367,2,0,P|301:59|350:70,1,120.000004577637,0|0,0:0|3:0,0:0:0:0:
403,123,246620,1,0,0:0:0:0:
422,129,246704,2,0,L|471:118,6,30.0000011444092,8|0|0|0|0|0|0,0:0|0:0|0:0|0:0|0:0|0:0|0:0,0:0:0:0:
310,133,247041,6,0,P|273:182|346:197,1,143.999995605469,0|0,3:0|0:0,0:0:0:0:
347,68,247378,2,0,P|312:58|276:68,1,47.9999985351563,10|0,0:0|0:0,0:0:0:0:
205,210,247547,2,0,P|214:236|238:257,1,47.9999985351563,2|0,0:0|0:0,0:0:0:0:
238,15,247715,2,0,P|225:44|233:94,1,60.0000022888184,2|0,0:0|0:0,0:0:0:0:
299,278,247884,2,0,P|277:309|241:325,1,60.0000022888184,2|0,3:2|0:0,0:0:0:0:
58,148,248052,1,10,0:0:0:0:
14,134,248137,1,2,0:0:0:0:
14,89,248221,1,2,0:0:0:0:
58,75,248305,1,2,0:0:0:0:
97,118,248389,6,0,P|127:127|171:120,1,60.0000022888184,2|0,3:2|0:0,0:0:0:0:
238,15,248726,1,2,0:0:0:0:
285,165,248895,2,0,P|250:172|214:160,1,60.0000022888184,2|0,0:0|0:0,0:0:0:0:
134,37,249232,1,2,0:0:0:0:
292,84,249401,2,0,L|328:76,1,30.0000011444092,2|0,0:0|0:0,0:0:0:0:
413,64,249569,2,0,L|416:40,2,15.0000005722046,0|0|0,3:0|3:0|3:0,3:0:0:0:
408,100,249738,6,0,B|401:149|401:149|405:174|405:174|390:257,1,120.000004577637,0|0,3:0|0:0,0:0:0:0:
378,263,249991,1,0,0:0:0:0:
386,277,250075,2,0,L|398:209,1,60.0000022888184,8|0,0:0|0:0,0:0:0:0:
217,107,250243,2,0,L|228:176,1,60.0000022888184
326,344,250412,6,0,L|321:377,1,30.0000011444092,2|0,0:0|0:0,0:0:0:0:
226,166,250580,2,0,L|231:199,1,30.0000011444092,2|0,3:2|0:0,0:0:0:0:
468,248,250749,2,0,L|463:281,1,30.0000011444092,10|0,0:0|0:0,0:0:0:0:
213,288,250917,2,0,L|218:321,1,30.0000011444092,2|0,0:0|0:0,0:0:0:0:
408,100,251086,6,0,L|403:133,1,30.0000011444092,2|0,3:2|0:0,0:0:0:0:
326,344,251255,2,0,L|330:373,1,30.0000011444092,2|0,0:0|0:0,0:0:0:0:
309,134,251423,2,0,L|313:104,2,30.0000011444092,10|2|2,0:0|0:0|0:0,0:0:0:0:
424,350,251592,2,0,L|429:383,1,30.0000011444092,2|0,0:0|0:0,0:0:0:0:
213,288,251760,6,0,L|124:304,2,60.0000022888184,2|0|0,0:0|0:0|3:0,0:0:0:0:
408,239,252097,2,0,L|474:249,2,60.0000022888184,10|0|0,0:0|0:0|0:0,0:0:0:0:
217,107,252434,6,0,B|184:101|184:101|163:89|163:89|123:81|123:81|144:105,1,120.000004577637,0|0,3:0|0:0,0:0:0:0:
137,108,252687,1,0,0:0:0:0:
134,119,252771,2,0,P|168:111|192:117,1,60.0000022888184,8|0,0:0|0:0,0:0:0:0:
313,32,252940,2,0,P|345:36|383:22,1,60.0000022888184
319,234,253108,6,0,L|314:267,1,30.0000011444092,2|0,0:0|0:0,0:0:0:0:
191,116,253277,2,0,L|196:149,1,30.0000011444092,2|0,3:2|0:0,0:0:0:0:
402,151,253446,2,0,L|397:184,1,30.0000011444092,10|0,0:0|0:0,0:0:0:0:
144,231,253614,2,0,L|149:264,1,30.0000011444092,2|0,0:0|0:0,0:0:0:0:
313,32,253783,6,0,L|308:65,1,30.0000011444092,2|0,3:2|0:0,0:0:0:0:
397,262,253951,2,0,L|402:295,1,30.0000011444092,2|0,0:0|0:0,0:0:0:0:
191,116,254120,2,0,L|195:86,2,30.0000011444092,10|2|2,0:0|0:0|0:0,0:0:0:0:
447,52,254288,2,0,L|452:85,1,30.0000011444092,2|0,0:0|0:0,0:0:0:0:
397,262,254457,6,0,L|407:328,2,60.0000022888184,2|0|0,0:0|0:0|3:0,0:0:0:0:
304,91,254794,2,0,L|314:25,2,60.0000022888184,10|0|0,0:0|0:0|0:0,0:0:0:0:
191,116,255047,1,0,0:0:0:0:
203,114,255131,6,0,B|118:194|184:268|231:222|213:164,1,180.000006866455,4|0,3:2|0:0,0:0:0:0:
108,262,255468,2,0,P|78:256|49:263,1,60.0000022888184,8|0,0:0|0:0,0:0:0:0:
28,92,255637,2,0,P|24:61|34:17,1,60.0000022888184
187,269,255805,6,0,L|192:302,1,30.0000011444092,2|0,0:0|0:0,0:0:0:0:
304,91,255974,2,0,L|299:124,1,30.0000011444092,2|0,3:2|0:0,0:0:0:0:
357,287,256142,2,0,L|362:320,1,30.0000011444092,10|0,0:0|0:0,0:0:0:0:
157,169,256311,2,0,L|152:202,1,30.0000011444092,2|0,0:0|0:0,0:0:0:0:
274,314,256479,6,0,L|279:347,1,30.0000011444092,2|0,3:2|0:0,0:0:0:0:
386,138,256648,2,0,L|381:171,1,30.0000011444092,2|0,0:0|0:0,0:0:0:0:
107,304,256816,2,0,L|103:275,2,30.0000011444092,10|2|2,0:0|0:0|0:0,0:0:0:0:
223,79,256985,2,0,L|218:112,1,30.0000011444092,2|0,0:0|0:0,0:0:0:0:
274,314,257153,6,0,L|284:380,2,60.0000022888184,2|0|0,0:0|0:0|3:2,0:0:0:0:
381,167,257491,2,0,L|389:107,2,60.0000022888184,10|0|0,0:2|0:0|0:0,0:0:0:0:
157,169,257828,2,0,B|124:176|124:176|96:167|96:167|49:168|33:198|33:198|56:178|94:187,1,180.000006866455,0|0,3:0|0:0,0:0:0:0:
78,193,258165,2,0,P|110:190|150:208,1,60.0000022888184,8|0,0:0|0:0,0:0:0:0:
281,73,258333,2,0,P|249:70|209:88,1,60.0000022888184
96,268,258502,6,0,L|91:301,1,30.0000011444092,2|0,0:0|0:0,0:0:0:0:
262,149,258670,2,0,L|267:182,1,30.0000011444092,2|0,3:2|0:0,0:0:0:0:
72,82,258839,1,8,0:0:0:0:
72,82,258923,1,0,0:0:0:0:
72,82,259007,2,0,L|67:115,2,30.0000011444092,2|0|0,0:0|0:0|0:0,0:0:0:0:
146,67,259176,6,0,L|153:130,1,47.9999985351563,0|0,3:0|0:0,0:0:0:0:
174,265,259344,1,0,0:0:0:0:
188,297,259428,1,0,0:0:0:0:
218,315,259512,1,0,0:0:0:0:
254,314,259596,1,0,0:0:0:0:
282,292,259682,6,0,L|293:235,1,47.9999985351563,0|0,3:0|0:0,0:0:0:0:
281,73,259850,1,0,0:0:0:0:
316,42,259934,1,0,0:0:0:0:
363,37,260018,1,0,0:0:0:0:
404,62,260102,1,0,0:0:0:0:
422,105,260187,6,0,L|409:175,1,47.9999985351563,0|0,3:0|0:0,0:0:0:0:
282,292,260356,2,0,L|293:235,1,47.9999985351563
201,64,260524,6,0,B|143:38|42:86|95:153|161:87,1,180.000006866455,4|0,3:2|0:0,0:0:0:0:
270,99,260861,2,0,P|278:66|268:29,1,60.0000022888184
22,84,261030,2,0,P|21:111|35:149,1,60.0000022888184
193,242,261198,2,0,L|204:289,1,30.0000011444092,10|0,0:0|0:0,0:0:0:0:
291,244,261367,2,0,L|302:291,1,30.0000011444092,2|0,0:0|0:0,0:0:0:0:
461,177,261535,2,0,L|450:130,1,30.0000011444092,2|0,0:0|0:0,0:0:0:0:
363,175,261704,2,0,L|352:128,1,30.0000011444092,2|0,0:0|0:0,0:0:0:0:
193,242,261873,6,0,P|141:229|155:163,1,120.000004577637,2|2,0:0|3:2,0:0:0:0:
158,166,262125,1,0,0:0:0:0:
174,165,262210,2,0,P|163:138|164:96,1,60.0000022888184,0|0,3:0|0:0,0:0:0:0:
20,25,262378,2,0,P|26:60|16:95,1,60.0000022888184,2|0,0:0|0:0,0:0:0:0:
58,238,262547,2,0,L|68:312,2,60.0000022888184,10|0|0,0:0|0:0|0:0,0:0:0:0:
161,107,262884,2,0,L|167:40,2,60.0000022888184,2|0|0,0:0|0:0|3:0,0:0:0:0:
264,252,263221,6,0,B|324:340|270:415|204:352|266:300,1,180.000006866455,0|0,3:0|0:0,0:0:0:0:
240,330,263558,2,0,P|244:297|228:256,1,60.0000022888184
161,107,263726,2,0,P|163:143|150:174,1,60.0000022888184
319,148,263895,2,0,L|326:186,1,30.0000011444092,10|0,0:0|0:0,0:0:0:0:
436,232,264064,2,0,L|429:270,1,30.0000011444092,2|0,0:0|0:0,0:0:0:0:
310,143,264232,2,0,L|317:181,1,30.0000011444092,2|0,0:0|0:0,0:0:0:0:
427,227,264401,2,0,L|420:265,1,30.0000011444092,2|0,0:0|0:0,0:0:0:0:
301,138,264569,2,0,L|308:176,1,30.0000011444092,2|0,0:0|0:0,0:0:0:0:
418,222,264738,2,0,L|411:260,1,30.0000011444092,2|0,3:2|0:0,0:0:0:0:
231,333,264906,6,0,L|238:371,2,30.0000011444092,2|2|2,3:2|0:0|0:0,0:0:0:0:
212,249,265075,2,0,L|221:173,1,60.0000022888184
121,318,265243,1,8,0:0:0:0:
319,267,265412,2,0,L|326:305,2,30.0000011444092,2|2|2,3:2|0:0|0:0,0:0:0:0:
122,150,265580,2,0,P|100:170|134:188,1,80,2|0,0:0|0:0,0:0:0:0:
38,238,265749,2,0,L|43:267,2,30.0000011444092,0|0|0,3:0|3:0|3:0,3:0:0:0:
9,138,265917,6,0,B|64:143|64:143|90:136|90:136|154:139|154:139|110:153,1,180.000006866455,0|0,3:0|0:0,0:0:0:0:
234,160,266255,2,0,B|179:155|179:155|153:162|153:162|89:159|89:159|133:145,1,180.000006866455
194,71,266592,2,0,L|203:31,8,30.0000011444092,8|0|0|0|0|0|0|0|0,0:0|0:0|3:0|3:0|3:0|3:0|3:0|3:0|3:0,3:0:0:0:
234,160,267097,1,0,3:0:0:0:
114,275,267266,6,0,P|97:322|181:302,1,180.000006866455,0|0,3:0|0:0,0:0:0:0:
30,263,267603,2,0,B|20:292|20:292|20:323,1,60.0000022888184,0|0,3:0|0:0,0:0:0:0:
193,313,267771,2,0,B|223:306|223:306|255:316,1,60.0000022888184,0|0,3:0|0:0,0:0:0:0:
394,346,267940,2,0,L|462:332,1,60.0000022888184,8|0,0:0|0:0,0:0:0:0:
304,248,268108,1,0,3:0:0:0:
458,191,268277,2,0,P|483:212|472:230,1,60.0000022888184,2|0,0:0|0:0,0:0:0:0:
250,314,268446,1,0,3:0:0:0:
308,162,268614,6,0,B|300:113|300:113|305:86|305:86|286:1|286:1|285:20|276:34|276:34|285:51|285:51|290:86,1,240.000009155274,0|2,3:0|0:0,0:0:0:0:
380,115,269035,2,0,P|416:117|458:95,1,75.000002861023,2|2,0:0|0:0,0:0:0:0:
229,206,269288,2,2,B|188:199|188:199|170:202|170:202|103:191|103:191|125:213|125:213|151:218,1,180.000006866455,8|0,0:0|0:0,0:1:0:0:
149,224,269625,2,0,P|157:248|147:282,3,60.0000022888184,2|2|2|2,0:0|0:0|0:0|0:0,0:0:0:0:
152,231,269962,6,0,B|134:222|134:222|103:191|103:191|168:202|168:202|190:199|190:199|292:218,1,240.000009155274,0|0,3:0|0:0,0:0:0:0:
276,215,270468,2,0,P|345:204|286:65,1,240.000009155274
326,68,270974,2,0,B|278:51|278:51|249:57|226:78|226:78|196:73|196:73|173:83|145:80,1,180.000006866455
157,80,271311,5,4,3:2:0:0:
57,223,271479,1,0,0:0:0:0:
326,68,271648,1,8,0:0:0:0:
269,294,271816,2,0,B|273:263|273:263|271:248|271:248|276:208,1,80
163,1,271985,2,0,B|159:32|159:32|161:47|161:47|156:87,1,80
298,140,272153,1,0,3:0:0:0:
57,223,272322,2,0,B|88:227|88:227|103:225|103:225|143:230,1,80,8|0,0:0|0:0,0:0:0:0:
377,146,272491,2,0,B|346:142|346:142|331:144|331:144|291:139,1,80
283,365,272659,6,0,B|350:284|301:228|238:248|275:303,1,180.000006866455,0|0,3:0|0:0,0:0:0:0:
269,294,272996,1,8,0:0:0:0:
192,144,273165,2,0,L|206:224,1,71.9999978027344
283,365,273333,2,0,L|269:285,1,71.9999978027344
297,139,273502,1,0,3:0:0:0:
182,298,273670,1,8,0:0:0:0:
430,246,273839,1,0,0:0:0:0:
164,32,274007,5,0,3:0:0:0:
270,294,274176,1,0,0:0:0:0:
457,78,274344,1,8,0:0:0:0:
164,32,274513,2,0,B|167:68|167:68|164:84|164:84|166:118,1,80
270,294,274682,2,0,B|267:258|267:258|270:242|270:242|268:208,1,80
266,100,274850,1,0,3:0:0:0:
83,204,275019,2,0,B|119:201|119:201|135:204|135:204|169:202,1,80,8|0,0:0|0:0,0:0:0:0:
345,98,275188,2,0,B|309:101|309:101|293:98|293:98|259:100,1,80
52,95,275356,6,0,B|43:133|43:133|51:169|51:169|12:218|14:285|134:255|70:187,1,240,0|0,3:0|0:0,0:0:0:0:
82,203,275693,1,8,0:0:0:0:
268,214,275861,2,0,B|231:207|231:207|218:208|218:208|174:200,1,80
52,95,276030,2,0,B|89:88|89:88|102:89|102:89|146:81,1,80
302,34,276198,1,0,3:0:0:0:
189,202,276367,1,8,0:0:0:0:
83,6,276535,2,0,B|120:13|120:13|133:12|133:12|177:20,1,80
393,44,276704,6,0,B|374:97|374:97|378:111|378:111|361:153|361:153|366:171|366:171|387:124|387:124|420:106,1,215.999993408203,0|0,3:0|0:0,0:0:0:0:
413,109,277041,2,0,B|432:162|432:162|428:176|428:176|445:218|445:218|440:236|440:236|419:189|419:189|386:171,1,215.999993408203,8|0,0:0|0:0,0:0:0:0:
413,110,277378,2,0,B|405:80|405:80|412:72|412:72|402:70|402:70|393:43,1,80,2|0,0:0|0:0,0:0:0:0:
228,33,277547,2,0,B|236:62|236:62|229:70|229:70|239:72|239:72|248:99,1,80,2|0,3:2|0:0,0:0:0:0:
333,272,277715,1,8,0:0:0:0:
392,174,277884,2,0,B|400:144|400:144|393:136|393:136|403:134|403:134|412:107,1,80,2|0,0:0|0:0,0:0:0:0:
333,272,278052,6,0,B|236:338|135:275|232:189|289:289,1,215.999993408203,0|0,3:0|0:0,0:0:0:0:
333,272,278389,2,0,B|302:266|302:266|299:258|299:258|292:264|292:264|254:255,1,80,10|0,0:0|0:0,0:0:0:0:
115,137,278558,2,0,B|146:143|146:143|149:151|149:151|156:145|156:145|194:154,1,80,2|0,0:0|0:0,0:0:0:0:
174,353,278726,2,0,B|137:344|137:344|106:350|106:350|49:342|49:342|69:340|87:327,1,160,0|0,0:0|3:0,0:0:0:0:
83,340,278979,1,0,0:0:0:0:
87,347,279064,2,0,P|76:305|87:265,1,80,8|0,0:0|0:0,0:0:0:0:
163,83,279232,2,0,P|121:66|59:90,1,71.9999978027344,2|0,0:0|0:0,0:0:0:0:
317,172,279401,6,0,B|414:252|520:174|439:106|386:173,1,240,0|0,3:0|0:0,0:0:0:0:
317,172,279738,2,0,P|353:157|400:171,1,80,10|2,0:0|0:0,0:0:0:0:
248,346,279906,2,0,P|212:361|165:347,1,80,2|0,0:0|0:0,0:0:0:0:
198,159,280075,2,2,B|189:205|189:205|204:286|204:286|206:264|232:226,1,160,2|0,0:1|3:0,0:1:0:0:
216,263,280328,1,0,0:0:0:0:
219,270,280412,5,8,0:0:0:0:
165,293,280496,1,0,0:0:0:0:
111,272,280580,1,0,0:0:0:0:
88,218,280664,1,0,0:0:0:0:
111,165,280749,6,0,B|124:130|124:130|117:57|117:57|110:83|94:102,1,143.999995605469,0|2,3:0|0:0,0:0:0:0:
89,93,281255,2,0,B|143:90|143:90|197:108|197:108|272:102,1,176.000005371094,0|2,3:0|0:0,0:0:0:0:
465,74,281760,1,0,3:0:0:0:
252,22,281929,1,0,0:0:0:0:
348,220,282097,5,4,3:2:0:0:
111,165,282266,1,0,0:0:0:0:
465,74,282434,1,8,0:0:0:0:
356,299,282603,2,0,B|351:270|351:270|352:252|352:252|347:216,1,80
252,22,282771,2,0,B|257:51|257:51|256:69|256:69|261:105,1,80
270,241,282940,1,0,3:0:0:0:
412,133,283108,2,0,B|383:138|383:138|365:137|365:137|329:142,1,80,8|0,0:0|0:0,0:0:0:0:
191,250,283276,2,0,B|220:245|220:245|238:246|238:246|274:241,1,80
95,12,283446,6,0,B|24:101|57:196|169:118|97:86,1,215.999993408203,0|0,3:0|0:0,0:0:0:0:
105,90,283783,1,8,0:0:0:0:
191,250,283951,2,0,B|189:218|189:218|183:205|183:205|181:171,1,80
95,12,284120,2,0,B|97:44|97:44|103:57|103:57|105:91,1,80
105,218,284288,1,0,3:0:0:0:
234,92,284457,1,8,0:0:0:0:
116,306,284625,1,0,0:0:0:0:
14,108,284794,5,0,3:0:0:0:
322,134,284962,1,0,0:0:0:0:
105,218,285131,1,8,0:0:0:0:
225,12,285299,2,0,B|230:48|230:48|229:60|229:60|234:94,1,80
105,218,285468,2,0,B|100:182|100:182|101:170|101:170|96:136,1,80
145,42,285637,1,0,3:0:0:0:
196,235,285805,2,0,B|232:230|232:230|244:231|244:231|278:226,1,80,8|0,0:0|0:0,0:0:0:0:
401,125,285974,2,0,B|365:130|365:130|353:129|353:129|319:134,1,80
255,328,286142,6,0,B|292:353|292:353|326:347|326:347|373:357|373:357|345:325,1,160,0|2,3:0|0:0,0:0:0:0:
356,337,286395,1,2,0:0:0:0:
362,342,286479,2,0,P|353:305|360:258,1,80,8|2,0:0|0:0,0:0:0:0:
401,125,286648,2,0,P|410:88|403:41,1,80,2|2,0:0|0:0,0:0:0:0:
251,177,286816,5,2,0:0:0:0:
209,209,286900,1,2,0:0:0:0:
157,210,286984,1,0,3:0:0:0:
114,179,287068,1,2,0:0:0:0:
182,139,287153,5,8,0:0:0:0:
189,197,287237,1,2,0:0:0:0:
155,245,287321,1,2,0:0:0:0:
98,257,287405,1,2,0:0:0:0:
47,228,287491,6,0,B|-28:160|-18:72|94:74|35:170,1,215.999993408203,0|0,3:0|0:0,0:0:0:0:
44,152,287828,2,0,B|119:84|109:-4|-3:-2|56:94,1,215.999993408203,8|0,0:0|0:0,0:0:0:0:
44,152,288165,2,0,B|44:184|44:184|38:190|38:190|45:197|45:197|46:233,1,80,2|0,0:0|0:0,0:0:0:0:
248,252,288333,2,0,B|249:220|249:220|255:214|255:214|249:206|249:206|250:170,1,80,2|0,3:2|0:0,0:0:0:0:
175,12,288502,1,8,0:0:0:0:
46,76,288670,2,0,B|45:108|45:108|39:114|39:114|45:122|45:122|44:158,1,80,2|0,0:0|0:0,0:0:0:0:
12,322,288839,6,0,B|66:339|66:339|132:326|132:326|78:308,1,160,0|0,3:0|3:0,0:0:0:0:
105,317,289092,1,0,0:0:0:0:
113,318,289176,2,0,P|99:273|117:217,1,80,8|0,0:0|0:0,0:0:0:0:
197,111,289344,2,0,P|173:142|166:182,1,80,0|0,3:0|0:0,0:0:0:0:
236,330,289513,2,0,B|242:296|242:296|241:285|241:285|249:240,1,80,0|0,3:0|0:0,0:0:0:0:
356,62,289682,2,0,B|350:96|350:96|351:107|351:107|343:152,1,80,0|0,3:0|0:0,0:0:0:0:
390,298,289850,2,0,B|353:304|353:304|320:295,1,71.9999978027344,8|0,0:0|0:0,0:0:0:0:
267,114,290019,2,0,B|234:105|234:105|193:111,1,71.9999978027344,0|0,3:0|0:0,0:0:0:0:
9,229,290187,5,0,3:0:0:0:
57,235,290271,1,0,3:0:0:0:
104,241,290355,1,0,3:0:0:0:
151,248,290439,1,0,3:0:0:0:
192,310,290524,5,8,0:0:0:0:
235,305,290608,1,0,3:0:0:0:
278,300,290692,1,0,3:0:0:0:
320,295,290776,1,0,3:0:0:0:
390,298,290861,5,2,3:1:0:0:
357,234,290945,1,0,3:0:0:0:
355,162,291029,1,0,3:0:0:0:
384,97,291113,1,0,3:0:0:0:
428,156,291198,5,8,0:0:0:0:
377,170,291282,1,0,3:0:0:0:
329,147,291366,1,0,3:0:0:0:
309,98,291450,1,0,3:0:0:0:
327,48,291535,5,8,0:0:0:0:
117,313,291704,1,0,3:0:0:0:
121,321,291873,1,0,3:0:0:0:
185,48,292041,5,8,0:0:0:0:
395,313,292210,1,0,3:0:0:0:
391,321,292379,1,0,3:0:0:0:
170,44,292547,2,0,P|174:80|176:120,1,60.0000022888184,8|0,0:0|0:0,0:0:0:0:
216,344,292715,2,0,P|221:309|237:263,1,60.0000022888184,0|0,3:0|0:0,0:0:0:0:
384,97,292884,5,4,3:2:0:0:
228,286,293052,1,0,0:0:0:0:
179,43,293221,1,8,0:0:0:0:
400,194,293389,2,0,B|387:254|387:254|395:291|395:291|377:366|377:366|362:341|362:341|371:302,1,240.000009155274,2|0,0:0|3:0,0:0:0:0:
373,317,293895,2,0,P|338:304|302:306,1,60.0000022888184,8|0,0:0|0:0,0:0:0:0:
112,194,294064,6,0,B|125:254|125:254|117:291|117:291|135:366|135:366|150:341|150:341|141:302,1,240.000009155274,2|0,0:0|0:0,0:0:0:0:
139,317,294569,1,8,0:0:0:0:
255,133,294738,1,0,0:0:0:0:
249,103,294822,1,2,0:0:0:0:
244,73,294906,2,0,L|257:15,1,60.0000022888184
138,96,295075,1,2,3:2:0:0:
343,63,295243,1,8,0:0:0:0:
250,267,295412,2,0,L|255:204,1,60.0000022888184
255,208,295580,6,0,B|155:178|179:247|65:217,1,180.000006866455,2|0,3:2|0:0,0:0:0:0:
73,229,295917,1,10,0:0:0:0:
242,66,296086,2,0,B|310:72|310:72|356:106|356:106|445:116,1,191.999994140625,2|0,0:0|3:0,0:0:0:0:
190,254,296592,1,8,0:0:0:0:
181,213,296676,1,0,0:0:0:0:
188,171,296760,1,2,0:0:0:0:
330,325,296929,6,0,B|279:345|279:345|242:338|242:338|152:340,1,143.999995605469,0|0,3:0|0:0,0:0:0:0:
177,340,297266,1,8,0:0:0:0:
354,235,297434,1,0,0:0:0:0:
354,235,297519,1,2,0:0:0:0:
354,235,297603,2,0,L|346:169,1,47.9999985351563
337,108,297771,1,2,3:2:0:0:
343,329,297940,1,8,0:0:0:0:
263,91,298108,2,0,L|250:151,1,47.9999985351563,2|0,0:0|0:0,0:0:0:0:
90,336,298277,5,4,3:2:0:0:
268,272,298446,1,0,0:0:0:0:
52,166,298614,1,8,0:0:0:0:
252,137,298783,2,0,B|343:257|198:288|202:208|234:208,1,191.999994140625,2|0,0:0|3:0,0:0:0:0:
145,216,299288,2,0,P|155:186|175:159,1,47.9999985351563,8|0,0:0|0:0,0:0:0:0:
431,135,299457,6,0,B|340:255|485:286|481:206|449:206,1,191.999994140625,2|0,0:0|0:0,0:0:0:0:
455,207,299962,1,8,0:0:0:0:
350,66,300131,1,0,0:0:0:0:
326,62,300215,1,2,0:0:0:0:
302,59,300299,2,0,L|234:72,1,47.9999985351563
165,88,300468,1,2,3:2:0:0:
437,123,300637,1,8,0:0:0:0:
232,206,300805,1,0,0:0:0:0:
330,20,300974,5,0,3:0:0:0:
354,274,301142,1,0,0:0:0:0:
151,98,301311,1,8,0:0:0:0:
355,132,301479,2,0,B|367:182|367:182|351:289,1,143.999995605469,2|0,0:0|0:0,0:0:0:0:
279,317,301816,1,0,3:0:0:0:
141,105,301985,1,8,0:0:0:0:
428,42,302153,2,0,L|425:109,1,47.9999985351563,2|0,0:0|0:0,0:0:0:0:
353,273,302322,6,0,B|286:256|263:165|333:120|391:137|391:137|359:168|366:198,1,300.000011444092,0|0,3:0|0:0,0:0:0:0:
366,198,303249,1,0,3:0:0:0:
366,198,303333,1,0,3:0:0:0:
252,74,303502,1,0,3:0:0:0:
82,255,303670,6,0,B|88:216|88:216|84:189|84:189|94:124,1,95.9999970703126,4|0,3:2|0:0,0:0:0:0:
111,60,304007,1,8,0:0:0:0:
274,169,304176,1,2,0:0:0:0:
271,180,304260,1,0,0:0:0:0:
269,192,304344,1,0,0:0:0:0:
267,204,304428,1,0,0:0:0:0:
265,216,304513,1,0,3:0:0:0:
159,182,304682,1,8,0:0:0:0:
161,158,304766,1,0,0:0:0:0:
164,134,304850,1,2,0:0:0:0:
374,59,305019,6,0,B|350:136|404:121|373:212,1,143.999995605469,0|0,3:0|0:0,0:0:0:0:
372,208,305356,1,8,0:0:0:0:
440,96,305524,1,0,0:0:0:0:
452,86,305608,2,0,L|501:91,1,47.9999985351563,2|0,0:0|0:0,0:0:0:0:
310,168,305777,1,0,0:0:0:0:
298,158,305861,2,0,L|249:163,1,47.9999985351563,2|0,3:2|0:0,0:0:0:0:
155,174,306030,1,8,0:0:0:0:
298,69,306198,1,0,0:0:0:0:
295,295,306367,6,0,P|266:306|188:297,1,95.9999970703126,0|0,3:0|0:0,0:0:0:0:
111,261,306704,1,8,0:0:0:0:
279,373,306873,1,2,0:0:0:0:
290,375,306957,1,0,0:0:0:0:
302,375,307041,1,0,0:0:0:0:
314,373,307125,1,0,0:0:0:0:
325,368,307210,1,0,3:0:0:0:
230,232,307378,1,8,0:0:0:0:
206,227,307462,1,0,0:0:0:0:
182,229,307546,1,2,0:0:0:0:
306,117,307715,6,0,B|356:107|356:107|393:129|393:129|453:129,1,143.999995605469,0|0,3:0|0:0,0:0:0:0:
455,128,308052,1,8,0:0:0:0:
339,195,308221,1,0,0:0:0:0:
322,200,308305,2,0,L|268:187,1,47.9999985351563,2|0,0:0|0:0,0:0:0:0:
400,44,308474,1,0,0:0:0:0:
417,49,308558,2,0,L|471:36,1,47.9999985351563,2|0,3:2|0:0,0:0:0:0:
308,108,308726,1,8,0:0:0:0:
441,248,308895,1,0,0:0:0:0:
103,195,309064,5,4,3:2:0:0:
105,202,309232,1,0,0:0:0:0:
297,110,309401,1,8,0:0:0:0:
245,274,309569,1,2,0:0:0:0:
247,281,309737,1,0,0:0:0:0:
305,200,309906,1,0,3:0:0:0:
107,209,310075,1,8,0:0:0:0:
109,216,310159,1,0,0:0:0:0:
111,223,310243,1,2,0:0:0:0:
225,36,310412,5,0,3:0:0:0:
228,49,310580,1,0,0:0:0:0:
113,230,310749,1,8,0:0:0:0:
308,215,310917,1,0,0:0:0:0:
311,228,311002,1,2,0:0:0:0:
314,241,311086,1,0,0:0:0:0:
231,62,311255,1,2,3:2:0:0:
116,243,311423,1,8,0:0:0:0:
119,256,311592,1,0,0:0:0:0:
83,117,311760,5,0,3:0:0:0:
111,124,311844,1,0,0:0:0:0:
139,131,311929,2,0,L|192:151,1,47.9999985351563
229,294,312097,1,8,0:0:0:0:
216,364,312181,1,0,0:0:0:0:
249,353,312266,5,0,0:0:0:0:
259,347,312350,1,0,0:0:0:0:
270,342,312434,1,0,0:0:0:0:
281,336,312518,1,0,0:0:0:0:
292,331,312603,2,0,L|304:265,1,47.9999985351563,0|0,3:0|0:0,0:0:0:0:
314,117,312771,5,8,0:0:0:0:
307,69,312855,1,0,0:0:0:0:
300,22,312939,1,0,0:0:0:0:
294,38,313024,1,0,0:0:0:0:
287,53,313108,6,0,L|251:48,16,23.9999992675781,0|0|0|0|0|0|0|0|0|0|0|0|0|0|0|0|0,3:0|3:0|3:0|3:0|3:0|3:0|3:0|3:0|3:0|3:0|3:0|3:0|3:0|3:0|3:0|3:0|3:0,3:0:0:0:
134,118,313951,5,2,0:0:0:0:
157,114,314035,1,0,3:0:0:0:
181,111,314119,1,0,3:0:0:0:
312,226,314288,2,0,L|256:226,1,47.9999985351563,2|0,0:0|0:0,0:0:0:0:
150,220,314457,6,0,B|182:209|182:209|212:225|212:225|254:225,1,95.9999970703126,4|0,3:2|0:0,0:0:0:0:
390,228,314794,1,8,0:0:0:0:
286,348,314962,1,2,0:0:0:0:
240,225,315130,1,2,0:0:0:0:
178,311,315299,1,0,3:0:0:0:
392,339,315468,1,8,0:0:0:0:
286,348,315637,1,2,0:0:0:0:
149,219,315805,5,0,3:0:0:0:
178,311,315974,1,0,0:0:0:0:
120,127,316142,1,8,0:0:0:0:
83,290,316311,2,0,L|27:309,2,47.9999985351563,2|0|2,0:0|0:0|0:0,0:0:0:0:
244,240,316648,1,0,3:0:0:0:
54,198,316816,1,8,0:0:0:0:
178,311,316985,1,2,0:0:0:0:
215,148,317153,6,0,L|194:55,1,95.9999970703126,0|0,3:0|0:0,0:0:0:0:
54,198,317491,1,8,0:0:0:0:
244,240,317659,1,2,0:0:0:0:
267,233,317743,1,0,0:0:0:0:
290,227,317827,1,2,0:0:0:0:
178,311,317996,1,0,3:0:0:0:
318,153,318165,2,0,L|304:102,1,47.9999985351563,8|0,0:0|0:0,0:0:0:0:
206,78,318333,2,0,L|201:129,1,47.9999985351563,2|0,0:0|0:0,0:0:0:0:
153,218,318502,6,0,L|180:322,1,95.9999970703126,0|0,3:0|0:0,0:0:0:0:
54,198,318839,1,8,0:0:0:0:
119,81,319007,1,2,0:0:0:0:
112,57,319091,1,0,0:0:0:0:
106,34,319176,1,2,0:0:0:0:
206,78,319344,1,0,3:0:0:0:
356,33,319513,1,8,0:0:0:0:
318,153,319682,1,2,0:0:0:0:
402,288,319850,6,0,B|410:305|410:305|371:297|371:297|327:311,1,95.9999970703126,0|0,3:0|0:0,0:0:0:0:
174,222,320187,1,8,0:0:0:0:
228,334,320356,1,2,0:0:0:0:
221,357,320440,1,0,0:0:0:0:
215,380,320524,1,2,0:0:0:0:
250,209,320693,2,0,L|243:159,1,47.9999985351563,0|0,3:0|0:0,0:0:0:0:
234,42,320861,2,0,B|239:80|239:80|234:98|234:98|239:143,1,95.9999970703126,8|2,0:0|0:0,0:0:0:0:
97,214,321198,5,0,3:0:0:0:
126,293,321367,1,0,0:0:0:0:
238,136,321535,1,8,0:0:0:0:
68,135,321704,2,0,L|24:108,2,47.9999985351563,2|0|2,0:0|0:0|0:0,0:0:0:0:
186,213,322041,1,0,3:0:0:0:
152,89,322210,2,0,L|146:159,1,47.9999985351563,8|0,0:0|0:0,0:0:0:0:
126,293,322378,1,2,0:0:0:0:
278,236,322547,6,0,B|242:223|242:223|216:222|216:222|172:209,1,95.9999970703126,0|0,3:0|0:0,0:0:0:0:
406,294,322884,1,8,0:0:0:0:
278,236,323052,1,2,0:0:0:0:
447,215,323221,1,2,0:0:0:0:
364,376,323389,1,0,3:0:0:0:
370,154,323558,2,0,L|361:90,2,47.9999985351563,8|0|2,0:0|0:0|0:0,0:0:0:0:
447,215,323895,6,0,B|441:175|441:175|444:157|444:157|434:98,1,95.9999970703126,0|0,3:0|0:0,0:0:0:0:
294,40,324232,1,8,0:0:0:0:
423,27,324401,1,2,0:0:0:0:
445,18,324485,1,0,0:0:0:0:
468,10,324569,1,2,0:0:0:0:
364,107,324738,1,0,3:0:0:0:
192,60,324906,2,0,L|202:119,1,47.9999985351563,8|0,0:0|0:0,0:0:0:0:
221,193,325075,1,2,0:0:0:0:
103,313,325243,6,0,B|150:304|150:304|200:313,1,95.9999970703126,4|0,3:2|0:0,0:0:0:0:
354,345,325580,1,8,0:0:0:0:
295,257,325749,2,0,L|307:205,2,47.9999985351563,2|0|2,0:0|0:0|0:0,0:0:0:0:
267,355,326086,1,0,3:0:0:0:
395,261,326255,2,0,L|385:211,1,47.9999985351563,8|0,0:0|0:0,0:0:0:0:
367,134,326423,1,2,0:0:0:0:
489,258,326592,6,0,B|454:268|454:268|377:258,1,95.9999970703126,0|0,3:0|0:0,0:0:0:0:
210,226,326929,1,8,0:0:0:0:
319,140,327097,2,0,L|369:133,2,47.9999985351563,2|0|2,0:0|0:0|0:0,0:0:0:0:
306,243,327434,1,0,3:0:0:0:
114,209,327603,1,8,0:0:0:0:
210,226,327771,2,0,L|205:169,1,47.9999985351563,2|0,0:0|0:0,0:0:0:0:
200,61,327940,6,0,B|204:98|204:98|198:120|198:120|204:167,1,95.9999970703126,0|0,3:0|0:0,0:0:0:0:
147,300,328277,1,8,0:0:0:0:
26,191,328446,1,2,0:0:0:0:
30,167,328530,1,0,0:0:0:0:
35,143,328614,1,2,0:0:0:0:
61,275,328783,1,0,3:0:0:0:
105,93,328951,1,8,0:0:0:0:
130,193,329120,1,2,0:0:0:0:
200,61,329288,6,0,B|232:70|232:70|252:62|252:62|299:67,1,95.9999970703126,0|0,3:0|0:0,0:0:0:0:
443,64,329625,1,8,0:0:0:0:
319,147,329794,2,0,L|330:200,2,47.9999985351563,2|0|2,0:0|0:0|0:0,0:0:0:0:
292,66,330131,1,0,3:0:0:0:
414,188,330299,1,8,0:0:0:0:
433,72,330468,1,2,0:0:0:0:
328,193,330637,6,0,P|294:204|227:191,1,95.9999970703126,0|0,3:0|0:0,0:0:0:0:
87,83,330974,1,8,0:0:0:0:
276,111,331142,2,0,L|294:59,2,47.9999985351563,2|0|2,0:0|0:0|0:0,0:0:0:0:
235,195,331479,2,0,L|240:248,1,47.9999985351563,0|0,3:0|0:0,0:0:0:0:
258,362,331648,1,8,0:0:0:0:
154,295,331816,1,2,0:0:0:0:
327,297,331985,6,0,L|425:299,1,95.9999970703126,0|0,3:0|0:0,0:0:0:0:
239,242,332322,1,8,0:0:0:0:
402,215,332491,2,0,L|413:151,2,47.9999985351563,2|0|2,0:0|0:0|0:0,0:0:0:0:
422,298,332828,1,0,3:0:0:0:
312,174,332996,1,8,0:0:0:0:
233,247,333165,2,0,L|173:241,1,47.9999985351563,2|0,0:0|0:0,0:0:0:0:
69,241,333333,6,0,B|109:244|109:244|130:236|130:236|170:239,1,95.9999970703126,0|0,3:0|0:0,0:0:0:0:
312,174,333670,1,8,0:0:0:0:
154,107,333839,1,2,0:0:0:0:
156,130,333923,1,0,0:0:0:0:
158,154,334007,1,2,0:0:0:0:
229,97,334176,1,0,3:0:0:0:
163,239,334344,1,8,0:0:0:0:
83,164,334513,1,2,0:0:0:0:
262,199,334682,6,0,B|296:201|296:201|317:198|317:198|366:205,1,95.9999970703126,0|0,3:0|0:0,0:0:0:0:
221,102,335019,1,8,0:0:0:0:
336,286,335187,2,0,L|323:335,2,47.9999985351563,2|0|2,0:0|0:0|0:0,0:0:0:0:
357,203,335524,1,0,3:0:0:0:
208,325,335693,1,8,0:0:0:0:
419,262,335861,1,2,0:0:0:0:
212,107,336030,5,4,3:2:0:0:
