osu file format v14

[General]
AudioFilename: audio.mp3
AudioLeadIn: 0
PreviewTime: 54787
Countdown: 0
SampleSet: Normal
StackLeniency: 0.7
Mode: 1
LetterboxInBreaks: 0
WidescreenStoryboard: 0

[Editor]
DistanceSpacing: 1.3
BeatDivisor: 4
GridSize: 32
TimelineZoom: 3.099999

[Metadata]
Title:SUPERNOVA
TitleUnicode:SUPERNOVA
Artist:USAO
ArtistUnicode:USAO
Creator:iceOC
Version:Inner Oni
Source:太鼓の達人
Tags:taiko no tatsujin nijiiro ニジイロ namco original ナムコオリジナル hardcore electronic instrumental
BeatmapID:3980066
BeatmapSetID:1927372

[Difficulty]
HPDrainRate:7
CircleSize:5
OverallDifficulty:7
ApproachRate:5
SliderMultiplier:1.4
SliderTickRate:1

[Events]
//Background and Video events
Video,0,"supernova.mp4"
0,0,"supernova.png",0,-10
//Break Periods
//Storyboard Layer 0 (Background)
//Storyboard Layer 1 (Fail)
//Storyboard Layer 2 (Pass)
//Storyboard Layer 3 (Foreground)
//Storyboard Layer 4 (Overlay)
//Storyboard Sound Samples

[TimingPoints]
199,283.018867924528,4,1,0,100,1,8
199,-10,4,1,0,100,0,0
483,283.018867924528,4,1,0,100,1,0
9504,-125,4,1,0,100,0,0
9645,-123.456790123457,4,1,0,100,0,0
9787,-121.951219512195,4,1,0,100,0,0
9928,-120.481927710843,4,1,0,100,0,0
10070,-119.047619047619,4,1,0,100,0,0
10211,-117.647058823529,4,1,0,100,0,0
10353,-116.279069767442,4,1,0,100,0,0
10494,-114.942528735632,4,1,0,100,0,0
10636,-113.636363636364,4,1,0,100,0,0
10777,-112.359550561798,4,1,0,100,0,0
10919,-111.111111111111,4,1,0,100,0,0
11060,-109.89010989011,4,1,0,100,0,0
11202,-108.695652173913,4,1,0,100,0,0
11343,-107.52688172043,4,1,0,100,0,0
11485,-106.382978723404,4,1,0,100,0,0
11626,-105.263157894737,4,1,0,100,0,0
11697,-104.712041884817,4,1,0,100,0,0
11768,-104.166666666667,4,1,0,100,0,0
11909,-103.092783505155,4,1,0,100,0,0
12051,-102.040816326531,4,1,0,100,0,0
12334,-100,4,1,0,100,0,0
12617,-98.0392156862745,4,1,0,100,0,0
12758,-97.0873786407767,4,1,0,100,0,0
12900,-50,4,1,0,100,0,0
14032,-100,4,1,0,100,0,0
14102,-101.010101010101,4,1,0,100,0,0
14173,-102.040816326531,4,1,0,100,0,0
14244,-103.092783505155,4,1,0,100,0,0
14315,-104.166666666667,4,1,0,100,0,0
14385,-105.263157894737,4,1,0,100,0,0
14456,-106.382978723404,4,1,0,100,0,0
14527,-107.52688172043,4,1,0,100,0,0
14598,-108.695652173913,4,1,0,100,0,0
14668,-109.89010989011,4,1,0,100,0,0
14739,-111.111111111111,4,1,0,100,0,0
14810,-112.359550561798,4,1,0,100,0,0
14881,-113.636363636364,4,1,0,100,0,0
14951,-114.942528735632,4,1,0,100,0,0
15022,-116.279069767442,4,1,0,100,0,0
15093,-117.647058823529,4,1,0,100,0,0
15164,-50,4,1,0,100,0,0
15447,-57.1428571428571,4,1,0,100,0,0
15730,-66.6666666666667,4,1,0,100,0,0
16013,-80,4,1,0,100,0,0
16296,-100,4,1,0,100,0,0
16366,-102.040816326531,4,1,0,100,0,0
16437,-104.166666666667,4,1,0,100,0,0
16508,-106.382978723404,4,1,0,100,0,0
16579,-108.695652173913,4,1,0,100,0,0
16649,-111.111111111111,4,1,0,100,0,0
16720,-113.636363636364,4,1,0,100,0,0
16791,-116.279069767442,4,1,0,100,0,0
16862,-119.047619047619,4,1,0,100,0,0
16932,-121.951219512195,4,1,0,100,0,0
17003,-125,4,1,0,100,0,0
17074,-128.205128205128,4,1,0,100,0,0
17145,-131.578947368421,4,1,0,100,0,0
17215,-135.135135135135,4,1,0,100,0,0
17286,-138.888888888889,4,1,0,100,0,0
17357,-142.857142857143,4,1,0,100,0,0
17428,-57.1428571428571,4,1,0,100,0,0
18277,-200,4,1,0,100,0,0
18560,-100,4,1,0,100,0,0
22806,-50,4,1,0,100,0,0
22876,-100,4,1,0,100,0,0
23124,-100,4,1,0,100,0,1
26485,-100,4,1,0,100,0,1
26520,-100,4,1,0,100,0,0
26555,-102.649790409504,4,1,0,100,0,0
26626,-105.369794711151,4,1,0,100,0,0
26697,-108.161873425921,4,1,0,100,0,0
26768,-111.0279363747,4,1,0,100,0,0
26838,-113.969943984627,4,1,0,100,0,0
26909,-116.989908630049,4,1,0,100,0,0
26980,-120.089896009015,4,1,0,100,0,0
27051,-123.272026556245,4,1,0,100,0,0
27121,-126.538476893534,4,1,0,100,0,0
27192,-129.891481318591,4,1,0,100,0,0
27263,-133.333333333333,4,1,0,100,0,0
27334,-50,4,1,0,100,0,0
27369,-50,4,1,0,100,0,1
27652,-100,4,1,0,100,0,0
31862,-133.333333333333,4,1,0,100,0,0
31933,-100,4,1,0,100,0,0
36391,-50,4,1,0,100,0,0
36461,-100,4,1,0,100,0,0
36674,-200,4,1,0,100,0,0
45730,-50,4,1,0,100,0,0
49692,-50,4,1,0,100,0,0
49834,-47.6190476190476,4,1,0,100,0,0
49905,-46.5116279069767,4,1,0,100,0,0
49975,-45.4545454545455,4,1,0,100,0,0
50258,-83.3333333333333,4,1,0,100,0,0
50541,-76.9230769230769,4,1,0,100,0,0
50824,-71.4285714285714,4,1,0,100,0,0
51107,-66.6666666666667,4,1,0,100,0,0
51391,-62.5,4,1,0,100,0,0
51674,-58.8235294117647,4,1,0,100,0,0
51957,-55.5555555555556,4,1,0,100,0,0
52240,-52.6315789473684,4,1,0,100,0,0
52381,-71.4285714285714,4,1,0,100,0,0
52451,-67.5675675675676,4,1,0,100,0,0
52522,-64.1025641025641,4,1,0,100,0,0
52593,-60.9756097560976,4,1,0,100,0,0
52664,-58.1395348837209,4,1,0,100,0,0
52734,-55.5555555555556,4,1,0,100,0,0
52805,-53.1914893617021,4,1,0,100,0,0
52876,-51.0204081632653,4,1,0,100,0,0
52947,-49.0196078431372,4,1,0,100,0,0
53017,-47.1698113207547,4,1,0,100,0,0
53088,-45.4545454545454,4,1,0,100,0,0
53159,-43.859649122807,4,1,0,100,0,0
53230,-42.3728813559322,4,1,0,100,0,0
53300,-40.983606557377,4,1,0,100,0,0
53371,-39.6825396825397,4,1,0,100,0,0
53442,-38.4615384615384,4,1,0,100,0,0
53513,-37.3134328358209,4,1,0,100,0,0
53583,-36.231884057971,4,1,0,100,0,0
53654,-35.2112676056338,4,1,0,100,0,0
54504,-33.3333333333333,4,1,0,100,0,0
54787,-100,4,1,0,100,0,0
59350,-100,4,1,0,100,0,1
64162,-100,4,1,0,100,0,0
67240,-33.3333333333333,4,1,0,100,0,0
68372,-142.857142857143,4,1,0,100,0,0
69079,-142.857142857143,4,1,0,100,0,0
69291,-133.333333333333,4,1,0,100,0,0
69521,-125,4,1,0,100,0,0
69698,-111.111111111111,4,1,0,100,0,0
69857,-100,4,1,0,100,0,0
69981,-90.0900900900901,4,1,0,100,0,0
70087,-81.3008130081301,4,1,0,100,0,0
70194,-76.5696784073507,4,1,0,100,0,0
70282,-68.0272108843537,4,1,0,100,0,0
70335,-60.6060606060606,4,1,0,100,0,0
70388,-54.054054054054,4,1,0,100,0,0
70441,-50.761421319797,4,1,0,100,0,0
70477,-45.045045045045,4,1,0,100,0,0
70512,-39.6825396825397,4,1,0,100,0,0
70653,-33.3333333333333,4,1,0,100,0,0
70689,-100,4,1,0,100,0,0
74881,-10,4,1,0,100,0,0
74987,-100,4,1,0,100,0,0
79728,-100,4,1,0,100,0,0
88749,-142.857142857143,4,1,0,100,0,0
93277,-125,4,1,0,100,0,0
97806,-111.111111111111,4,1,0,100,0,0
102334,-100,4,1,0,100,0,0
106579,-50,4,1,0,100,0,0
106650,-100,4,1,0,100,0,0
106862,-200,4,1,0,100,0,0
106932,-191.149148172862,4,1,0,100,0,0
107003,-182.869053220209,4,1,0,100,0,0
107074,-175.108200166303,4,1,0,100,0,0
107145,-167.821082401817,4,1,0,100,0,0
107215,-160.967350294034,4,1,0,100,0,0
107286,-154.511100582777,4,1,0,100,0,0
107357,-148.42028013024,4,1,0,100,0,0
107428,-142.666183116127,4,1,0,100,0,0
107498,-137.223025027368,4,1,0,100,0,0
107569,-132.067580098302,4,1,0,100,0,0
107640,-127.178871442979,4,1,0,100,0,0
107711,-122.537905156675,4,1,0,100,0,0
107781,-118.127441275886,4,1,0,100,0,0
107852,-113.931795770624,4,1,0,100,0,0
107923,-109.936668772108,4,1,0,100,0,0
107994,-106.128995068021,4,1,0,100,0,0
108064,-102.496813568862,4,1,0,100,0,0
108135,-99.0291529950511,4,1,0,100,0,0
108206,-95.7159314809165,4,1,0,100,0,0
108277,-92.5478681582121,4,1,0,100,0,0
108347,-89.5164050840288,4,1,0,100,0,0
108418,-86.6136381281541,4,1,0,100,0,0
108489,-83.8322556428646,4,1,0,100,0,0
108560,-81.1654839115956,4,1,0,100,0,0
108630,-78.6070385181504,4,1,0,100,0,0
108701,-76.151080900115,4,1,0,100,0,0
108772,-73.7921794529703,4,1,0,100,0,0
108843,-71.5252746383539,4,1,0,100,0,0
108913,-69.3456476236706,4,1,0,100,0,0
108984,-67.2488920429967,4,1,0,100,0,0
109055,-65.2308885227495,4,1,0,100,0,0
109126,-63.2877816613879,4,1,0,100,0,0
109196,-61.4159591916902,4,1,0,100,0,0
109267,-59.6120330879373,4,1,0,100,0,0
109338,-57.872822409454,4,1,0,100,0,0
109409,-56.1953376971302,4,1,0,100,0,0
109479,-54.5767667613489,4,1,0,100,0,0
109550,-53.0144617186758,4,1,0,100,0,0
109621,-51.5059271511369,4,1,0,100,0,0
109692,-50.0488092762718,4,1,0,100,0,0
109762,-48.6408860286985,4,1,0,100,0,0
109833,-47.2800579649128,4,1,0,100,0,0
109904,-45.9643399126802,4,1,0,100,0,0
109975,-44.6918532948495,4,1,0,100,0,0
110045,-43.4608190648726,4,1,0,100,0,0
110116,-42.2695511978931,4,1,0,100,0,0
110187,-41.1164506870765,4,1,0,100,0,0
110258,-40,4,1,0,100,0,0
111391,-66.6666666666667,4,1,0,100,0,0
111426,-66.6666666666667,4,1,0,100,0,1
111461,-68.6057731374437,4,1,0,100,0,1
111532,-70.5714288392867,4,1,0,100,0,1
111603,-72.5623014016659,4,1,0,100,0,1
111674,-74.5769761649178,4,1,0,100,0,1
111744,-76.6139592827605,4,1,0,100,0,1
111815,-78.6716813574683,4,1,0,100,0,1
111886,-80.7485015966419,4,1,0,100,0,1
111957,-82.842712474619,4,1,0,100,0,1
112027,-84.9525448756907,4,1,0,100,0,1
112098,-87.0761736904991,4,1,0,100,0,1
112169,-89.2117238314151,4,1,0,100,0,1
112240,-91.357276627411,4,1,0,100,0,1
112310,-93.5108765540789,4,1,0,100,0,1
112381,-95.6705382500611,4,1,0,100,0,1
112452,-97.8342537673774,4,1,0,100,0,1
112523,-100,4,1,0,100,0,1
112593,-102.165746232623,4,1,0,100,0,1
112664,-104.329461749939,4,1,0,100,0,1
112735,-106.489123445921,4,1,0,100,0,1
112806,-108.642723372589,4,1,0,100,0,1
112876,-110.788276168585,4,1,0,100,0,1
112947,-112.923826309501,4,1,0,100,0,1
113018,-115.047455124309,4,1,0,100,0,1
113089,-117.157287525381,4,1,0,100,0,1
113159,-119.251498403358,4,1,0,100,0,1
113230,-121.328318642532,4,1,0,100,0,1
113301,-123.38604071724,4,1,0,100,0,1
113372,-125.423023835082,4,1,0,100,0,1
113442,-127.437698598334,4,1,0,100,0,1
113513,-129.428571160713,4,1,0,100,0,1
113584,-131.394226862556,4,1,0,100,0,1
113655,-133.333333333333,4,1,0,100,0,1
113725,-120.9998735659,4,1,0,100,0,1
113796,-110.042663483233,4,1,0,100,0,1
113867,-100.268649673605,4,1,0,100,0,1
113938,-91.5185372138503,4,1,0,100,0,1
114008,-83.6597134247331,4,1,0,100,0,1
114079,-76.5808822243863,4,1,0,100,0,1
114150,-70.1879452551619,4,1,0,100,0,1
114221,-64.4008043210038,4,1,0,100,0,1
114291,-59.1508532710725,4,1,0,100,0,1
114362,-54.3789918334903,4,1,0,100,0,1
114433,-50.0340388434238,4,1,0,100,0,1
114504,-46.0714541261611,4,1,0,100,0,1
114574,-42.4523011129184,4,1,0,100,0,1
114645,-39.1423988269511,4,1,0,100,0,1
114716,-36.1116240303474,4,1,0,100,0,1
114787,-33.3333333333333,4,1,0,100,0,1
114822,-33.3333333333333,4,1,0,100,0,0
115636,-28.5714285714286,4,1,0,100,0,0
115671,-28.5714285714286,4,1,0,100,0,1
115813,-28.5714285714286,4,1,0,100,0,0
115919,-100,4,1,0,100,0,0
115954,-100,4,1,0,100,0,1
119350,-100,4,1,0,100,0,0
119598,-111.111111111111,4,1,0,100,0,0
119881,-125,4,1,0,100,0,0
120164,-33.3333333333333,4,1,0,100,0,1
120447,-80,4,1,0,100,0,0
120482,-80,4,1,0,100,0,1
128407,-80,4,1,0,100,0,0
129504,-200,4,1,0,100,0,0
129539,-200,4,1,0,100,0,1
134032,-66.6666666666667,4,1,0,100,0,0
134067,-66.6666666666667,4,1,0,100,0,1
137428,-10000,4,1,0,100,0,1
137464,-66.6666666666667,4,1,0,100,0,0

[HitObjects]
256,192,199,12,0,246,0:0:0:0:
256,192,483,5,4,0:0:0:0:
256,192,907,1,4,0:0:0:0:
256,192,1332,1,4,0:0:0:0:
256,192,2747,1,4,0:0:0:0:
256,192,3171,1,4,0:0:0:0:
256,192,3596,1,4,0:0:0:0:
256,192,4869,1,8,0:0:0:0:
256,192,4940,1,8,0:0:0:0:
256,192,5011,1,4,0:0:0:0:
256,192,5294,1,8,0:0:0:0:
256,192,5435,1,4,0:0:0:0:
256,192,5718,1,8,0:0:0:0:
256,192,5860,1,4,0:0:0:0:
256,192,6001,1,8,0:0:0:0:
256,192,6072,1,8,0:0:0:0:
256,192,6143,1,4,0:0:0:0:
256,192,6284,1,4,0:0:0:0:
256,192,6426,1,8,0:0:0:0:
256,192,6567,1,8,0:0:0:0:
256,192,6709,1,4,0:0:0:0:
256,192,6992,1,8,0:0:0:0:
256,192,7133,1,0,0:0:0:0:
256,192,7204,1,8,0:0:0:0:
256,192,7275,1,4,0:0:0:0:
256,192,7558,1,8,0:0:0:0:
256,192,7699,1,4,0:0:0:0:
256,192,7982,1,0,0:0:0:0:
256,192,8124,1,8,0:0:0:0:
256,192,8407,1,4,0:0:0:0:
256,192,9256,1,8,0:0:0:0:
256,192,9539,1,4,0:0:0:0:
256,192,9681,1,8,0:0:0:0:
256,192,9822,1,0,0:0:0:0:
256,192,9964,1,8,0:0:0:0:
256,192,10105,1,0,0:0:0:0:
256,192,10247,1,8,0:0:0:0:
256,192,10388,1,0,0:0:0:0:
256,192,10530,1,8,0:0:0:0:
256,192,10671,1,0,0:0:0:0:
256,192,10813,1,0,0:0:0:0:
256,192,10954,1,0,0:0:0:0:
256,192,11096,1,8,0:0:0:0:
256,192,11237,1,0,0:0:0:0:
256,192,11379,1,8,0:0:0:0:
256,192,11449,1,8,0:0:0:0:
256,192,11520,1,0,0:0:0:0:
256,192,11662,1,8,0:0:0:0:
256,192,11803,1,0,0:0:0:0:
256,192,11874,1,0,0:0:0:0:
256,192,11945,1,0,0:0:0:0:
256,192,12086,1,8,0:0:0:0:
256,192,12369,1,0,0:0:0:0:
256,192,12652,1,8,0:0:0:0:
256,192,12794,1,8,0:0:0:0:
256,192,12935,1,4,0:0:0:0:
256,192,13218,1,4,0:0:0:0:
256,192,13501,1,4,0:0:0:0:
256,192,13643,1,0,0:0:0:0:
256,192,13714,1,0,0:0:0:0:
256,192,13784,1,8,0:0:0:0:
256,192,14067,1,0,0:0:0:0:
256,192,14350,1,0,0:0:0:0:
256,192,14633,1,0,0:0:0:0:
256,192,14775,1,0,0:0:0:0:
256,192,14846,1,0,0:0:0:0:
256,192,14916,1,0,0:0:0:0:
256,192,15058,1,0,0:0:0:0:
256,192,15199,1,4,0:0:0:0:
256,192,15482,1,4,0:0:0:0:
256,192,15766,1,4,0:0:0:0:
256,192,16049,1,4,0:0:0:0:
256,192,16332,1,0,0:0:0:0:
256,192,16402,1,0,0:0:0:0:
256,192,16473,1,0,0:0:0:0:
256,192,16544,1,0,0:0:0:0:
256,192,16615,1,0,0:0:0:0:
256,192,16685,1,0,0:0:0:0:
256,192,16756,1,0,0:0:0:0:
256,192,16827,1,0,0:0:0:0:
256,192,16898,1,8,0:0:0:0:
256,192,16968,1,0,0:0:0:0:
256,192,17039,1,8,0:0:0:0:
256,192,17110,1,0,0:0:0:0:
256,192,17181,1,8,0:0:0:0:
256,192,17251,1,0,0:0:0:0:
256,192,17322,1,8,0:0:0:0:
256,192,17393,1,0,0:0:0:0:
256,192,17464,1,4,0:0:0:0:
256,192,18313,5,8,0:0:0:0:
256,192,18596,1,0,0:0:0:0:
256,192,18737,1,8,0:0:0:0:
256,192,18879,1,0,0:0:0:0:
256,192,19020,1,8,0:0:0:0:
256,192,19162,1,0,0:0:0:0:
256,192,19303,1,0,0:0:0:0:
256,192,19445,1,0,0:0:0:0:
256,192,19586,1,8,0:0:0:0:
256,192,19657,1,8,0:0:0:0:
256,192,19728,1,0,0:0:0:0:
256,192,20011,1,8,0:0:0:0:
256,192,20152,1,0,0:0:0:0:
256,192,20223,1,0,0:0:0:0:
256,192,20294,1,0,0:0:0:0:
256,192,20435,1,8,0:0:0:0:
256,192,20577,1,8,0:0:0:0:
256,192,20718,1,8,0:0:0:0:
256,192,20860,1,0,0:0:0:0:
256,192,20931,1,0,0:0:0:0:
256,192,21001,1,8,0:0:0:0:
256,192,21072,1,8,0:0:0:0:
256,192,21143,1,0,0:0:0:0:
256,192,21284,1,8,0:0:0:0:
256,192,21426,1,0,0:0:0:0:
256,192,21709,1,0,0:0:0:0:
256,192,21850,1,8,0:0:0:0:
256,192,21992,1,0,0:0:0:0:
256,192,22063,1,0,0:0:0:0:
256,192,22133,1,8,0:0:0:0:
256,192,22275,1,0,0:0:0:0:
256,192,22346,1,0,0:0:0:0:
256,192,22416,1,8,0:0:0:0:
256,192,22558,1,0,0:0:0:0:
256,192,22841,1,12,0:0:0:0:
256,192,23124,1,0,0:0:0:0:
256,192,23266,1,0,0:0:0:0:
256,192,23336,1,0,0:0:0:0:
256,192,23407,1,0,0:0:0:0:
256,192,23549,1,8,0:0:0:0:
256,192,23690,1,4,0:0:0:0:
256,192,23973,1,4,0:0:0:0:
256,192,24256,1,8,0:0:0:0:
256,192,24327,1,8,0:0:0:0:
256,192,24398,1,0,0:0:0:0:
256,192,24539,1,8,0:0:0:0:
256,192,24610,1,8,0:0:0:0:
256,192,24681,1,0,0:0:0:0:
256,192,24822,1,4,0:0:0:0:
256,192,24964,1,8,0:0:0:0:
256,192,25034,1,0,0:0:0:0:
256,192,25105,1,8,0:0:0:0:
256,192,25247,1,8,0:0:0:0:
256,192,25388,1,4,0:0:0:0:
256,192,25530,1,4,0:0:0:0:
256,192,25671,1,4,0:0:0:0:
256,192,25954,1,8,0:0:0:0:
256,192,26096,1,0,0:0:0:0:
256,192,26166,1,0,0:0:0:0:
256,192,26237,1,8,0:0:0:0:
256,192,26379,1,8,0:0:0:0:
256,192,26520,1,0,0:0:0:0:
256,192,26591,1,0,0:0:0:0:
256,192,26662,1,0,0:0:0:0:
256,192,26732,1,0,0:0:0:0:
256,192,26803,1,8,0:0:0:0:
256,192,26874,1,0,0:0:0:0:
256,192,26945,1,0,0:0:0:0:
256,192,27016,1,0,0:0:0:0:
256,192,27086,1,8,0:0:0:0:
256,192,27157,1,8,0:0:0:0:
256,192,27228,1,0,0:0:0:0:
256,192,27299,1,0,0:0:0:0:
256,192,27369,1,12,0:0:0:0:
256,192,27652,1,4,0:0:0:0:
256,192,27794,1,8,0:0:0:0:
256,192,27865,1,8,0:0:0:0:
256,192,27935,1,0,0:0:0:0:
256,192,28077,1,8,0:0:0:0:
256,192,28218,1,0,0:0:0:0:
256,192,28360,1,0,0:0:0:0:
256,192,28501,1,8,0:0:0:0:
256,192,28643,1,0,0:0:0:0:
256,192,28714,1,0,0:0:0:0:
256,192,28784,1,0,0:0:0:0:
256,192,28926,1,8,0:0:0:0:
256,192,28997,1,8,0:0:0:0:
256,192,29067,1,0,0:0:0:0:
256,192,29209,1,8,0:0:0:0:
256,192,29350,1,0,0:0:0:0:
256,192,29492,1,8,0:0:0:0:
256,192,29563,1,0,0:0:0:0:
256,192,29633,1,8,0:0:0:0:
256,192,29775,1,8,0:0:0:0:
256,192,29916,1,0,0:0:0:0:
256,192,29987,1,0,0:0:0:0:
256,192,30058,1,8,0:0:0:0:
256,192,30129,1,8,0:0:0:0:
256,192,30199,1,0,0:0:0:0:
256,192,30341,1,8,0:0:0:0:
256,192,30482,1,0,0:0:0:0:
256,192,30624,1,0,0:0:0:0:
256,192,30766,1,8,0:0:0:0:
256,192,30907,1,0,0:0:0:0:
256,192,30978,1,8,0:0:0:0:
256,192,31049,1,0,0:0:0:0:
256,192,31332,1,0,0:0:0:0:
256,192,31473,1,0,0:0:0:0:
256,192,31544,1,0,0:0:0:0:
256,192,31615,1,8,0:0:0:0:
256,192,31898,1,4,0:0:0:0:
256,192,32181,1,8,0:0:0:0:
256,192,32322,1,8,0:0:0:0:
256,192,32393,1,8,0:0:0:0:
256,192,32464,1,0,0:0:0:0:
256,192,32605,1,8,0:0:0:0:
256,192,32747,1,0,0:0:0:0:
256,192,32817,1,0,0:0:0:0:
256,192,32888,1,0,0:0:0:0:
256,192,33030,1,8,0:0:0:0:
256,192,33171,1,0,0:0:0:0:
256,192,33242,1,0,0:0:0:0:
256,192,33313,1,8,0:0:0:0:
256,192,33454,1,0,0:0:0:0:
256,192,33596,1,8,0:0:0:0:
256,192,33666,1,8,0:0:0:0:
256,192,33737,1,0,0:0:0:0:
256,192,33879,1,8,0:0:0:0:
256,192,33949,1,0,0:0:0:0:
256,192,34020,1,0,0:0:0:0:
256,192,34162,1,8,0:0:0:0:
256,192,34303,1,0,0:0:0:0:
256,192,34374,1,0,0:0:0:0:
256,192,34445,1,8,0:0:0:0:
256,192,34516,1,0,0:0:0:0:
256,192,34586,1,8,0:0:0:0:
256,192,34728,1,0,0:0:0:0:
256,192,34869,1,8,0:0:0:0:
256,192,34940,1,8,0:0:0:0:
256,192,35011,1,0,0:0:0:0:
256,192,35152,1,0,0:0:0:0:
256,192,35294,1,8,0:0:0:0:
256,192,35365,1,8,0:0:0:0:
256,192,35435,1,8,0:0:0:0:
256,192,35577,1,0,0:0:0:0:
256,192,36426,1,8,0:0:0:0:
256,192,36709,1,0,0:0:0:0:
256,192,36850,1,8,0:0:0:0:
256,192,37133,1,8,0:0:0:0:
256,192,37275,1,0,0:0:0:0:
256,192,37346,1,0,0:0:0:0:
256,192,37416,1,0,0:0:0:0:
256,192,37558,1,8,0:0:0:0:
256,192,37605,1,8,0:0:0:0:
256,192,37652,1,8,0:0:0:0:
256,192,37699,1,0,0:0:0:0:
256,192,37841,1,0,0:0:0:0:
256,192,37982,1,8,0:0:0:0:
256,192,38266,1,8,0:0:0:0:
256,192,38407,1,0,0:0:0:0:
256,192,38442,1,0,0:0:0:0:
256,192,38549,1,0,0:0:0:0:
256,192,38584,1,0,0:0:0:0:
256,192,38690,1,8,0:0:0:0:
256,192,38725,1,8,0:0:0:0:
256,192,38832,1,8,0:0:0:0:
256,192,38867,1,8,0:0:0:0:
256,192,38973,1,0,0:0:0:0:
256,192,39115,1,8,0:0:0:0:
256,192,39398,1,8,0:0:0:0:
256,192,39468,1,8,0:0:0:0:
256,192,39539,1,0,0:0:0:0:
256,192,39681,1,0,0:0:0:0:
256,192,39822,1,8,0:0:0:0:
256,192,39869,1,8,0:0:0:0:
256,192,39916,1,8,0:0:0:0:
256,192,39964,1,0,0:0:0:0:
256,192,40105,1,0,0:0:0:0:
256,192,40388,1,8,0:0:0:0:
256,192,40530,1,0,0:0:0:0:
256,192,40600,1,0,0:0:0:0:
256,192,40671,1,8,0:0:0:0:
256,192,40707,1,8,0:0:0:0:
256,192,40813,1,0,0:0:0:0:
256,192,40848,1,0,0:0:0:0:
256,192,40954,1,8,0:0:0:0:
256,192,41237,1,0,0:0:0:0:
256,192,41379,1,8,0:0:0:0:
256,192,41449,1,8,0:0:0:0:
256,192,41520,1,0,0:0:0:0:
256,192,41662,1,8,0:0:0:0:
256,192,41803,1,0,0:0:0:0:
256,192,41874,1,8,0:0:0:0:
256,192,41945,1,0,0:0:0:0:
256,192,42086,1,8,0:0:0:0:
256,192,42133,1,8,0:0:0:0:
256,192,42181,1,8,0:0:0:0:
256,192,42228,1,0,0:0:0:0:
256,192,42369,1,0,0:0:0:0:
256,192,42511,1,8,0:0:0:0:
256,192,42582,1,8,0:0:0:0:
256,192,42652,1,0,0:0:0:0:
256,192,42723,1,0,0:0:0:0:
256,192,42794,1,8,0:0:0:0:
256,192,42935,1,0,0:0:0:0:
256,192,42971,1,0,0:0:0:0:
256,192,43077,1,0,0:0:0:0:
256,192,43112,1,0,0:0:0:0:
256,192,43218,1,8,0:0:0:0:
256,192,43254,1,8,0:0:0:0:
256,192,43360,1,8,0:0:0:0:
256,192,43395,1,8,0:0:0:0:
256,192,43501,1,0,0:0:0:0:
256,192,43784,1,8,0:0:0:0:
256,192,43926,1,0,0:0:0:0:
256,192,43997,1,0,0:0:0:0:
256,192,44067,1,8,0:0:0:0:
256,192,44138,1,0,0:0:0:0:
256,192,44209,1,0,0:0:0:0:
256,192,44350,1,8,0:0:0:0:
256,192,44398,1,8,0:0:0:0:
256,192,44445,1,8,0:0:0:0:
256,192,44492,1,0,0:0:0:0:
256,192,44633,1,8,0:0:0:0:
256,192,44728,1,8,0:0:0:0:
256,192,44822,1,8,0:0:0:0:
256,192,44916,1,0,0:0:0:0:
256,192,45011,1,0,0:0:0:0:
256,192,45105,1,0,0:0:0:0:
256,192,45199,1,8,0:0:0:0:
256,192,45341,1,0,0:0:0:0:
256,192,45482,1,8,0:0:0:0:
256,192,45766,1,0,0:0:0:0:
256,192,46190,1,0,0:0:0:0:
256,192,46261,1,0,0:0:0:0:
256,192,46332,1,0,0:0:0:0:
256,192,46544,1,0,0:0:0:0:
256,192,46756,1,0,0:0:0:0:
256,192,46827,1,0,0:0:0:0:
256,192,46898,1,0,0:0:0:0:
256,192,46968,1,0,0:0:0:0:
256,192,47039,1,0,0:0:0:0:
256,192,47110,1,0,0:0:0:0:
256,192,47181,1,0,0:0:0:0:
256,192,47464,1,0,0:0:0:0:
256,192,47605,1,0,0:0:0:0:
256,192,47676,1,0,0:0:0:0:
256,192,47747,1,0,0:0:0:0:
256,192,47817,1,0,0:0:0:0:
256,192,47888,1,0,0:0:0:0:
256,192,48030,1,0,0:0:0:0:
256,192,48454,1,0,0:0:0:0:
256,192,48525,1,0,0:0:0:0:
256,192,48596,1,0,0:0:0:0:
256,192,48808,1,0,0:0:0:0:
256,192,49020,1,0,0:0:0:0:
256,192,49091,1,0,0:0:0:0:
256,192,49162,1,0,0:0:0:0:
256,192,49232,1,0,0:0:0:0:
256,192,49303,1,0,0:0:0:0:
256,192,49374,1,0,0:0:0:0:
256,192,49445,1,0,0:0:0:0:
256,192,49728,1,0,0:0:0:0:
256,192,49869,1,0,0:0:0:0:
256,192,49940,1,0,0:0:0:0:
256,192,50011,1,8,0:0:0:0:
256,192,50294,1,4,0:0:0:0:
256,192,50577,1,4,0:0:0:0:
256,192,50860,1,4,0:0:0:0:
256,192,51143,1,4,0:0:0:0:
256,192,51426,1,4,0:0:0:0:
256,192,51709,1,4,0:0:0:0:
256,192,51992,1,4,0:0:0:0:
256,192,52275,1,4,0:0:0:0:
256,192,52416,1,0,0:0:0:0:
256,192,52487,1,0,0:0:0:0:
256,192,52558,1,8,0:0:0:0:
256,192,52629,1,8,0:0:0:0:
256,192,52699,1,8,0:0:0:0:
256,192,52770,1,8,0:0:0:0:
256,192,52841,1,0,0:0:0:0:
256,192,52912,1,0,0:0:0:0:
256,192,52982,1,0,0:0:0:0:
256,192,53053,1,0,0:0:0:0:
256,192,53124,1,8,0:0:0:0:
256,192,53195,1,8,0:0:0:0:
256,192,53266,1,0,0:0:0:0:
256,192,53336,1,0,0:0:0:0:
256,192,53407,1,8,0:0:0:0:
256,192,53478,1,8,0:0:0:0:
256,192,53549,1,8,0:0:0:0:
256,192,53619,1,8,0:0:0:0:
256,192,54539,1,12,0:0:0:0:
256,192,54822,1,4,0:0:0:0:
256,192,54964,1,8,0:0:0:0:
256,192,55034,1,8,0:0:0:0:
256,192,55105,1,0,0:0:0:0:
256,192,55247,1,8,0:0:0:0:
256,192,55388,1,0,0:0:0:0:
256,192,55459,1,0,0:0:0:0:
256,192,55530,1,0,0:0:0:0:
256,192,55671,1,0,0:0:0:0:
256,192,55742,1,0,0:0:0:0:
256,192,55813,1,0,0:0:0:0:
256,192,55954,1,8,0:0:0:0:
256,192,56025,1,0,0:0:0:0:
256,192,56096,1,8,0:0:0:0:
256,192,56237,1,8,0:0:0:0:
256,192,56308,1,0,0:0:0:0:
256,192,56379,1,8,0:0:0:0:
256,192,56520,1,0,0:0:0:0:
256,192,56662,1,8,0:0:0:0:
256,192,56709,1,8,0:0:0:0:
256,192,56756,1,8,0:0:0:0:
256,192,56803,1,0,0:0:0:0:
256,192,56945,1,8,0:0:0:0:
256,192,56992,1,8,0:0:0:0:
256,192,57039,1,8,0:0:0:0:
256,192,57086,1,0,0:0:0:0:
256,192,57228,1,8,0:0:0:0:
256,192,57369,1,0,0:0:0:0:
256,192,57440,1,0,0:0:0:0:
256,192,57511,1,0,0:0:0:0:
256,192,57652,1,8,0:0:0:0:
256,192,57723,1,8,0:0:0:0:
256,192,57794,1,8,0:0:0:0:
256,192,57865,1,0,0:0:0:0:
256,192,57935,1,8,0:0:0:0:
256,192,58077,1,8,0:0:0:0:
256,192,58218,1,0,0:0:0:0:
256,192,58289,1,0,0:0:0:0:
256,192,58360,1,8,0:0:0:0:
256,192,58431,1,8,0:0:0:0:
256,192,58501,1,0,0:0:0:0:
256,192,58572,1,8,0:0:0:0:
256,192,58643,1,0,0:0:0:0:
256,192,58714,1,0,0:0:0:0:
256,192,58784,1,8,0:0:0:0:
256,192,58855,1,8,0:0:0:0:
256,192,58926,1,8,0:0:0:0:
256,192,59067,1,4,0:0:0:0:
256,192,59350,1,0,0:0:0:0:
256,192,59492,1,0,0:0:0:0:
256,192,59563,1,0,0:0:0:0:
256,192,59633,1,0,0:0:0:0:
256,192,59916,1,0,0:0:0:0:
256,192,60199,1,0,0:0:0:0:
256,192,60482,1,0,0:0:0:0:
256,192,60624,1,8,0:0:0:0:
256,192,60766,1,0,0:0:0:0:
256,192,60836,1,0,0:0:0:0:
256,192,60907,1,8,0:0:0:0:
256,192,61049,1,0,0:0:0:0:
256,192,61190,1,0,0:0:0:0:
256,192,61237,1,0,0:0:0:0:
256,192,61284,1,0,0:0:0:0:
256,192,61332,1,0,0:0:0:0:
256,192,61473,1,0,0:0:0:0:
256,192,61520,1,0,0:0:0:0:
256,192,61567,1,0,0:0:0:0:
256,192,61615,1,0,0:0:0:0:
256,192,61898,1,0,0:0:0:0:
256,192,62039,1,8,0:0:0:0:
256,192,62181,1,0,0:0:0:0:
256,192,62322,1,0,0:0:0:0:
256,192,62393,1,0,0:0:0:0:
256,192,62464,1,0,0:0:0:0:
256,192,62605,1,8,0:0:0:0:
256,192,62747,1,0,0:0:0:0:
256,192,62817,1,0,0:0:0:0:
256,192,62888,1,0,0:0:0:0:
256,192,62959,1,8,0:0:0:0:
256,192,63030,1,0,0:0:0:0:
256,192,63100,1,0,0:0:0:0:
256,192,63171,1,8,0:0:0:0:
256,192,63242,1,8,0:0:0:0:
256,192,63313,1,0,0:0:0:0:
256,192,63383,1,8,0:0:0:0:
256,192,63454,1,0,0:0:0:0:
256,192,63525,1,0,0:0:0:0:
256,192,63596,1,8,0:0:0:0:
256,192,63879,1,4,0:0:0:0:
256,192,64162,1,8,0:0:0:0:
256,192,64232,1,8,0:0:0:0:
256,192,64303,1,0,0:0:0:0:
256,192,64445,1,0,0:0:0:0:
256,192,64516,1,8,0:0:0:0:
256,192,64586,1,0,0:0:0:0:
256,192,64728,1,8,0:0:0:0:
256,192,64869,1,0,0:0:0:0:
256,192,64940,1,0,0:0:0:0:
256,192,65011,1,0,0:0:0:0:
256,192,65152,1,8,0:0:0:0:
256,192,65223,1,0,0:0:0:0:
256,192,65294,1,8,0:0:0:0:
256,192,65435,1,8,0:0:0:0:
256,192,65577,1,12,0:0:0:0:
256,192,65718,1,12,0:0:0:0:
256,192,65860,1,12,0:0:0:0:
256,192,66001,1,12,0:0:0:0:
256,192,66143,1,0,0:0:0:0:
256,192,66284,1,0,0:0:0:0:
256,192,66426,1,8,0:0:0:0:
256,192,66473,1,8,0:0:0:0:
256,192,66520,1,8,0:0:0:0:
256,192,66567,1,0,0:0:0:0:
256,192,66638,1,0,0:0:0:0:
256,192,66709,1,8,0:0:0:0:
256,192,66850,1,8,0:0:0:0:
256,192,66921,1,0,0:0:0:0:
256,192,67063,1,0,0:0:0:0:
256,192,67133,1,8,0:0:0:0:
256,192,67275,2,0,L|352:192,21,70
256,192,68407,1,4,0:0:0:0:
256,192,69115,5,8,0:0:0:0:
256,192,69327,1,8,0:0:0:0:
256,192,69539,1,8,0:0:0:0:
256,192,69716,1,8,0:0:0:0:
256,192,69875,1,8,0:0:0:0:
256,192,69999,1,8,0:0:0:0:
256,192,70105,1,8,0:0:0:0:
256,192,70211,1,8,0:0:0:0:
256,192,70300,1,8,0:0:0:0:
256,192,70353,1,8,0:0:0:0:
256,192,70406,1,8,0:0:0:0:
256,192,70459,1,8,0:0:0:0:
256,192,70494,1,8,0:0:0:0:
256,192,70530,1,8,0:0:0:0:
256,192,70671,1,4,0:0:0:0:
256,192,74916,12,0,74964,0:0:0:0:
256,192,79728,5,0,0:0:0:0:
256,192,80011,1,8,0:0:0:0:
256,192,80435,1,0,0:0:0:0:
256,192,80577,1,8,0:0:0:0:
256,192,80860,1,0,0:0:0:0:
256,192,81143,1,8,0:0:0:0:
256,192,81284,1,0,0:0:0:0:
256,192,81567,1,0,0:0:0:0:
256,192,81709,1,8,0:0:0:0:
256,192,81992,1,0,0:0:0:0:
256,192,82275,1,8,0:0:0:0:
256,192,82699,1,8,0:0:0:0:
256,192,82841,1,0,0:0:0:0:
256,192,82982,1,0,0:0:0:0:
256,192,83124,1,8,0:0:0:0:
256,192,83407,1,0,0:0:0:0:
256,192,83690,1,8,0:0:0:0:
256,192,83832,1,8,0:0:0:0:
256,192,83973,1,0,0:0:0:0:
256,192,84256,1,0,0:0:0:0:
256,192,84539,1,8,0:0:0:0:
256,192,84964,1,0,0:0:0:0:
256,192,85105,1,8,0:0:0:0:
256,192,85247,1,0,0:0:0:0:
256,192,85388,1,0,0:0:0:0:
256,192,85671,1,8,0:0:0:0:
256,192,85813,1,0,0:0:0:0:
256,192,85954,1,8,0:0:0:0:
256,192,86096,1,8,0:0:0:0:
256,192,86237,1,0,0:0:0:0:
256,192,86520,1,0,0:0:0:0:
256,192,86803,1,0,0:0:0:0:
256,192,86945,1,8,0:0:0:0:
256,192,87228,1,8,0:0:0:0:
256,192,87369,1,0,0:0:0:0:
256,192,87652,1,4,0:0:0:0:
256,192,88784,1,0,0:0:0:0:
256,192,88926,1,8,0:0:0:0:
256,192,89067,1,8,0:0:0:0:
256,192,89209,1,8,0:0:0:0:
256,192,89350,1,0,0:0:0:0:
256,192,89633,1,0,0:0:0:0:
256,192,89775,1,8,0:0:0:0:
256,192,89916,1,8,0:0:0:0:
256,192,90058,1,8,0:0:0:0:
256,192,90199,1,0,0:0:0:0:
256,192,90482,1,0,0:0:0:0:
256,192,90518,1,0,0:0:0:0:
256,192,90624,1,0,0:0:0:0:
256,192,90659,1,0,0:0:0:0:
256,192,90766,1,0,0:0:0:0:
256,192,90801,1,0,0:0:0:0:
256,192,90907,1,0,0:0:0:0:
256,192,90942,1,0,0:0:0:0:
256,192,91049,1,8,0:0:0:0:
256,192,91190,1,0,0:0:0:0:
256,192,91332,1,0,0:0:0:0:
256,192,91473,1,0,0:0:0:0:
256,192,91615,1,8,0:0:0:0:
256,192,91898,1,0,0:0:0:0:
256,192,92039,1,8,0:0:0:0:
256,192,92181,1,8,0:0:0:0:
256,192,92322,1,8,0:0:0:0:
256,192,92464,1,0,0:0:0:0:
256,192,92605,1,8,0:0:0:0:
256,192,92747,1,0,0:0:0:0:
256,192,92888,1,8,0:0:0:0:
256,192,92924,1,8,0:0:0:0:
256,192,93030,1,8,0:0:0:0:
256,192,93065,1,8,0:0:0:0:
256,192,93171,1,8,0:0:0:0:
256,192,93207,1,8,0:0:0:0:
256,192,93313,1,4,0:0:0:0:
256,192,93596,1,8,0:0:0:0:
256,192,93737,1,0,0:0:0:0:
256,192,94020,1,0,0:0:0:0:
256,192,94162,1,8,0:0:0:0:
256,192,94303,1,8,0:0:0:0:
256,192,94445,1,0,0:0:0:0:
256,192,94586,1,0,0:0:0:0:
256,192,94728,1,8,0:0:0:0:
256,192,95011,1,0,0:0:0:0:
256,192,95046,1,0,0:0:0:0:
256,192,95152,1,0,0:0:0:0:
256,192,95188,1,0,0:0:0:0:
256,192,95294,1,0,0:0:0:0:
256,192,95329,1,0,0:0:0:0:
256,192,95435,1,0,0:0:0:0:
256,192,95471,1,0,0:0:0:0:
256,192,95577,1,8,0:0:0:0:
256,192,95860,1,0,0:0:0:0:
256,192,96001,1,8,0:0:0:0:
256,192,96143,1,0,0:0:0:0:
256,192,96426,1,8,0:0:0:0:
256,192,96709,1,0,0:0:0:0:
256,192,96850,1,8,0:0:0:0:
256,192,96992,1,0,0:0:0:0:
256,192,97133,1,8,0:0:0:0:
256,192,97275,1,0,0:0:0:0:
256,192,97416,1,8,0:0:0:0:
256,192,97558,1,0,0:0:0:0:
256,192,97699,1,0,0:0:0:0:
256,192,97841,1,12,0:0:0:0:
256,192,97982,1,0,0:0:0:0:
256,192,98053,1,0,0:0:0:0:
256,192,98124,1,8,0:0:0:0:
256,192,98266,1,8,0:0:0:0:
256,192,98407,1,0,0:0:0:0:
256,192,98690,1,8,0:0:0:0:
256,192,98832,1,0,0:0:0:0:
256,192,98902,1,0,0:0:0:0:
256,192,98973,1,8,0:0:0:0:
256,192,99115,1,8,0:0:0:0:
256,192,99256,1,0,0:0:0:0:
256,192,99539,1,8,0:0:0:0:
256,192,99681,1,0,0:0:0:0:
256,192,99751,1,8,0:0:0:0:
256,192,99822,1,0,0:0:0:0:
256,192,100105,1,8,0:0:0:0:
256,192,100247,1,0,0:0:0:0:
256,192,100317,1,8,0:0:0:0:
256,192,100388,1,8,0:0:0:0:
256,192,100530,1,8,0:0:0:0:
256,192,100671,1,0,0:0:0:0:
256,192,100954,1,0,0:0:0:0:
256,192,101096,1,8,0:0:0:0:
256,192,101166,1,8,0:0:0:0:
256,192,101237,1,0,0:0:0:0:
256,192,101379,1,8,0:0:0:0:
256,192,101520,1,0,0:0:0:0:
256,192,101591,1,0,0:0:0:0:
256,192,101662,1,8,0:0:0:0:
256,192,101732,1,0,0:0:0:0:
256,192,101803,1,8,0:0:0:0:
256,192,101945,1,8,0:0:0:0:
256,192,102086,1,4,0:0:0:0:
256,192,102369,1,12,0:0:0:0:
256,192,102511,1,0,0:0:0:0:
256,192,102582,1,0,0:0:0:0:
256,192,102652,1,8,0:0:0:0:
256,192,102794,1,8,0:0:0:0:
256,192,102935,1,0,0:0:0:0:
256,192,103006,1,0,0:0:0:0:
256,192,103077,1,0,0:0:0:0:
256,192,103148,1,0,0:0:0:0:
256,192,103218,1,8,0:0:0:0:
256,192,103360,1,8,0:0:0:0:
256,192,103501,1,4,0:0:0:0:
256,192,103643,1,8,0:0:0:0:
256,192,103714,1,8,0:0:0:0:
256,192,103784,1,0,0:0:0:0:
256,192,103926,1,8,0:0:0:0:
256,192,103997,1,8,0:0:0:0:
256,192,104067,1,0,0:0:0:0:
256,192,104209,1,0,0:0:0:0:
256,192,104350,1,8,0:0:0:0:
256,192,104421,1,8,0:0:0:0:
256,192,104492,1,8,0:0:0:0:
256,192,104563,1,8,0:0:0:0:
256,192,104633,1,0,0:0:0:0:
256,192,104704,1,0,0:0:0:0:
256,192,104775,1,8,0:0:0:0:
256,192,104846,1,0,0:0:0:0:
256,192,104916,1,8,0:0:0:0:
256,192,104987,1,8,0:0:0:0:
256,192,105058,1,0,0:0:0:0:
256,192,105129,1,0,0:0:0:0:
256,192,105199,1,8,0:0:0:0:
256,192,105270,1,0,0:0:0:0:
256,192,105341,1,8,0:0:0:0:
256,192,105412,1,8,0:0:0:0:
256,192,105482,1,0,0:0:0:0:
256,192,105553,1,8,0:0:0:0:
256,192,105624,1,0,0:0:0:0:
256,192,105695,1,8,0:0:0:0:
256,192,105766,1,0,0:0:0:0:
256,192,106615,1,8,0:0:0:0:
256,192,106898,1,0,0:0:0:0:
256,192,106968,1,0,0:0:0:0:
256,192,107039,1,0,0:0:0:0:
256,192,107110,1,0,0:0:0:0:
256,192,107181,1,8,0:0:0:0:
256,192,107251,1,8,0:0:0:0:
256,192,107322,1,8,0:0:0:0:
256,192,107393,1,8,0:0:0:0:
256,192,107464,1,0,0:0:0:0:
256,192,107534,1,0,0:0:0:0:
256,192,107605,1,8,0:0:0:0:
256,192,107676,1,0,0:0:0:0:
256,192,107747,1,8,0:0:0:0:
256,192,107817,1,8,0:0:0:0:
256,192,107888,1,8,0:0:0:0:
256,192,107959,1,8,0:0:0:0:
256,192,108030,1,0,0:0:0:0:
256,192,108100,1,8,0:0:0:0:
256,192,108171,1,0,0:0:0:0:
256,192,108242,1,0,0:0:0:0:
256,192,108313,1,8,0:0:0:0:
256,192,108383,1,8,0:0:0:0:
256,192,108454,1,8,0:0:0:0:
256,192,108525,1,8,0:0:0:0:
256,192,108596,1,0,0:0:0:0:
256,192,108666,1,0,0:0:0:0:
256,192,108737,1,8,0:0:0:0:
256,192,108808,1,0,0:0:0:0:
256,192,108879,1,8,0:0:0:0:
256,192,108949,1,8,0:0:0:0:
256,192,109020,1,0,0:0:0:0:
256,192,109091,1,8,0:0:0:0:
256,192,109162,1,8,0:0:0:0:
256,192,109232,1,0,0:0:0:0:
256,192,109303,1,0,0:0:0:0:
256,192,109374,1,8,0:0:0:0:
256,192,109445,1,0,0:0:0:0:
256,192,109516,1,0,0:0:0:0:
256,192,109586,1,8,0:0:0:0:
256,192,109657,1,0,0:0:0:0:
256,192,109728,1,0,0:0:0:0:
256,192,109799,1,8,0:0:0:0:
256,192,109869,1,0,0:0:0:0:
256,192,109940,1,0,0:0:0:0:
256,192,110011,1,8,0:0:0:0:
256,192,110082,1,0,0:0:0:0:
256,192,110152,1,8,0:0:0:0:
256,192,110223,1,8,0:0:0:0:
256,192,110294,1,0,0:0:0:0:
256,192,110577,1,0,0:0:0:0:
256,192,110860,1,0,0:0:0:0:
256,192,111001,1,0,0:0:0:0:
256,192,111072,1,0,0:0:0:0:
256,192,111143,1,8,0:0:0:0:
256,192,111426,5,0,0:0:0:0:
256,192,111709,1,0,0:0:0:0:
256,192,111992,1,0,0:0:0:0:
256,192,112275,1,0,0:0:0:0:
256,192,112416,1,0,0:0:0:0:
256,192,112487,1,0,0:0:0:0:
256,192,112558,1,0,0:0:0:0:
256,192,112841,1,0,0:0:0:0:
256,192,113124,1,0,0:0:0:0:
256,192,113266,1,0,0:0:0:0:
256,192,113407,1,0,0:0:0:0:
256,192,113549,1,0,0:0:0:0:
256,192,113690,1,8,0:0:0:0:
256,192,113832,1,8,0:0:0:0:
256,192,113973,1,8,0:0:0:0:
256,192,114115,1,8,0:0:0:0:
256,192,114256,1,0,0:0:0:0:
256,192,114327,1,0,0:0:0:0:
256,192,114398,1,0,0:0:0:0:
256,192,114468,1,0,0:0:0:0:
256,192,114539,1,8,0:0:0:0:
256,192,114610,1,8,0:0:0:0:
256,192,114681,1,8,0:0:0:0:
256,192,114751,1,8,0:0:0:0:
256,192,115671,1,4,0:0:0:0:
256,192,115954,1,12,0:0:0:0:
256,192,116096,1,0,0:0:0:0:
256,192,116166,1,0,0:0:0:0:
256,192,116237,1,8,0:0:0:0:
256,192,116379,1,8,0:0:0:0:
256,192,116520,1,0,0:0:0:0:
256,192,116567,1,8,0:0:0:0:
256,192,116615,1,8,0:0:0:0:
256,192,116662,1,0,0:0:0:0:
256,192,116803,1,0,0:0:0:0:
256,192,116850,1,8,0:0:0:0:
256,192,116898,1,8,0:0:0:0:
256,192,116945,1,0,0:0:0:0:
256,192,117086,1,8,0:0:0:0:
256,192,117157,1,0,0:0:0:0:
256,192,117228,1,8,0:0:0:0:
256,192,117369,1,8,0:0:0:0:
256,192,117440,1,0,0:0:0:0:
256,192,117511,1,8,0:0:0:0:
256,192,117652,1,0,0:0:0:0:
256,192,117723,1,0,0:0:0:0:
256,192,117794,1,8,0:0:0:0:
256,192,117865,1,0,0:0:0:0:
256,192,117935,1,8,0:0:0:0:
256,192,118077,1,8,0:0:0:0:
256,192,118148,1,0,0:0:0:0:
256,192,118218,1,0,0:0:0:0:
256,192,118360,1,8,0:0:0:0:
256,192,118407,1,8,0:0:0:0:
256,192,118454,1,8,0:0:0:0:
256,192,118501,1,0,0:0:0:0:
256,192,118643,1,0,0:0:0:0:
256,192,118784,1,8,0:0:0:0:
256,192,118855,1,0,0:0:0:0:
256,192,118926,1,8,0:0:0:0:
256,192,118997,1,0,0:0:0:0:
256,192,119067,1,8,0:0:0:0:
256,192,119209,1,8,0:0:0:0:
256,192,119350,1,0,0:0:0:0:
256,192,119633,1,0,0:0:0:0:
256,192,119916,1,0,0:0:0:0:
256,192,120199,1,12,0:0:0:0:
256,192,120482,1,0,0:0:0:0:
256,192,120624,1,0,0:0:0:0:
256,192,120695,1,0,0:0:0:0:
256,192,120766,1,8,0:0:0:0:
256,192,120907,1,8,0:0:0:0:
256,192,121049,1,0,0:0:0:0:
256,192,121119,1,8,0:0:0:0:
256,192,121190,1,0,0:0:0:0:
256,192,121332,1,8,0:0:0:0:
256,192,121402,1,8,0:0:0:0:
256,192,121473,1,0,0:0:0:0:
256,192,121544,1,0,0:0:0:0:
256,192,121615,1,8,0:0:0:0:
256,192,121756,1,0,0:0:0:0:
256,192,121827,1,0,0:0:0:0:
256,192,121898,1,8,0:0:0:0:
256,192,122039,1,8,0:0:0:0:
256,192,122181,1,0,0:0:0:0:
256,192,122251,1,0,0:0:0:0:
256,192,122322,1,0,0:0:0:0:
256,192,122393,1,0,0:0:0:0:
256,192,122464,1,8,0:0:0:0:
256,192,122605,1,0,0:0:0:0:
256,192,122676,1,8,0:0:0:0:
256,192,122747,1,0,0:0:0:0:
256,192,122888,1,0,0:0:0:0:
256,192,123030,1,8,0:0:0:0:
256,192,123100,1,8,0:0:0:0:
256,192,123171,1,0,0:0:0:0:
256,192,123242,1,8,0:0:0:0:
256,192,123313,1,0,0:0:0:0:
256,192,123454,1,0,0:0:0:0:
256,192,123525,1,0,0:0:0:0:
256,192,123596,1,8,0:0:0:0:
256,192,123666,1,0,0:0:0:0:
256,192,123737,1,8,0:0:0:0:
256,192,123808,1,8,0:0:0:0:
256,192,123879,1,0,0:0:0:0:
256,192,124020,1,0,0:0:0:0:
256,192,124091,1,8,0:0:0:0:
256,192,124162,1,8,0:0:0:0:
256,192,124303,1,0,0:0:0:0:
256,192,124374,1,0,0:0:0:0:
256,192,124445,1,8,0:0:0:0:
256,192,124516,1,0,0:0:0:0:
256,192,124586,1,8,0:0:0:0:
256,192,124728,1,0,0:0:0:0:
256,192,124869,1,8,0:0:0:0:
256,192,125011,1,4,0:0:0:0:
256,192,125152,1,4,0:0:0:0:
256,192,125294,1,4,0:0:0:0:
256,192,125435,1,8,0:0:0:0:
256,192,125577,1,0,0:0:0:0:
256,192,125648,1,0,0:0:0:0:
256,192,125718,1,0,0:0:0:0:
256,192,125860,1,8,0:0:0:0:
256,192,126001,1,0,0:0:0:0:
256,192,126072,1,0,0:0:0:0:
256,192,126143,1,8,0:0:0:0:
256,192,126214,1,8,0:0:0:0:
256,192,126284,1,0,0:0:0:0:
256,192,126426,1,8,0:0:0:0:
256,192,126497,1,8,0:0:0:0:
256,192,126567,1,0,0:0:0:0:
256,192,126709,1,8,0:0:0:0:
256,192,126780,1,0,0:0:0:0:
256,192,126850,1,0,0:0:0:0:
256,192,126921,1,0,0:0:0:0:
256,192,126992,1,8,0:0:0:0:
256,192,127133,1,0,0:0:0:0:
256,192,127204,1,8,0:0:0:0:
256,192,127275,1,0,0:0:0:0:
256,192,127346,1,0,0:0:0:0:
256,192,127416,1,0,0:0:0:0:
256,192,127558,1,8,0:0:0:0:
256,192,127629,1,0,0:0:0:0:
256,192,127699,1,0,0:0:0:0:
256,192,127770,1,8,0:0:0:0:
256,192,127841,1,8,0:0:0:0:
256,192,127982,1,8,0:0:0:0:
256,192,128053,1,0,0:0:0:0:
256,192,128124,1,8,0:0:0:0:
256,192,128266,1,8,0:0:0:0:
256,192,128407,1,4,0:0:0:0:
256,192,128549,1,4,0:0:0:0:
256,192,128619,1,4,0:0:0:0:
256,192,128690,1,4,0:0:0:0:
256,192,128973,1,4,0:0:0:0:
256,192,129256,1,8,0:0:0:0:
256,192,129539,1,4,0:0:0:0:
256,192,129681,1,0,0:0:0:0:
256,192,129751,1,0,0:0:0:0:
256,192,129822,1,8,0:0:0:0:
256,192,129964,1,8,0:0:0:0:
256,192,130105,1,0,0:0:0:0:
256,192,130176,1,0,0:0:0:0:
256,192,130247,1,0,0:0:0:0:
256,192,130388,1,8,0:0:0:0:
256,192,130459,1,0,0:0:0:0:
256,192,130530,1,8,0:0:0:0:
256,192,130600,1,8,0:0:0:0:
256,192,130671,1,0,0:0:0:0:
256,192,130813,1,8,0:0:0:0:
256,192,130954,1,0,0:0:0:0:
256,192,131025,1,0,0:0:0:0:
256,192,131096,1,8,0:0:0:0:
256,192,131237,1,0,0:0:0:0:
256,192,131379,1,8,0:0:0:0:
256,192,131414,1,8,0:0:0:0:
256,192,131520,1,8,0:0:0:0:
256,192,131556,1,8,0:0:0:0:
256,192,131662,1,8,0:0:0:0:
256,192,131697,1,8,0:0:0:0:
256,192,131803,1,0,0:0:0:0:
256,192,131874,1,8,0:0:0:0:
256,192,132016,1,8,0:0:0:0:
256,192,132086,1,0,0:0:0:0:
256,192,132228,1,8,0:0:0:0:
256,192,132299,1,8,0:0:0:0:
256,192,132369,1,0,0:0:0:0:
256,192,132511,1,0,0:0:0:0:
256,192,132582,1,0,0:0:0:0:
256,192,132652,1,8,0:0:0:0:
256,192,132723,1,0,0:0:0:0:
256,192,132794,1,8,0:0:0:0:
256,192,132935,1,8,0:0:0:0:
256,192,132982,1,0,0:0:0:0:
256,192,133030,1,0,0:0:0:0:
256,192,133077,1,8,0:0:0:0:
256,192,133218,1,8,0:0:0:0:
256,192,133266,1,0,0:0:0:0:
256,192,133313,1,0,0:0:0:0:
256,192,133360,1,8,0:0:0:0:
256,192,133501,1,8,0:0:0:0:
256,192,133549,1,0,0:0:0:0:
256,192,133596,1,0,0:0:0:0:
256,192,133643,1,8,0:0:0:0:
256,192,133714,1,8,0:0:0:0:
256,192,133784,1,0,0:0:0:0:
256,192,133926,1,8,0:0:0:0:
256,192,134067,1,4,0:0:0:0:
256,192,134209,1,8,0:0:0:0:
256,192,134280,1,8,0:0:0:0:
256,192,134350,1,0,0:0:0:0:
256,192,134421,1,0,0:0:0:0:
256,192,134492,1,8,0:0:0:0:
256,192,134633,1,0,0:0:0:0:
256,192,134704,1,0,0:0:0:0:
256,192,134775,1,8,0:0:0:0:
256,192,134846,1,0,0:0:0:0:
256,192,134916,1,0,0:0:0:0:
256,192,135011,1,8,0:0:0:0:
256,192,135105,1,8,0:0:0:0:
256,192,135199,1,0,0:0:0:0:
256,192,135270,1,8,0:0:0:0:
256,192,135341,1,0,0:0:0:0:
256,192,135412,1,0,0:0:0:0:
256,192,135482,1,8,0:0:0:0:
256,192,135530,1,8,0:0:0:0:
256,192,135577,1,8,0:0:0:0:
256,192,135624,1,0,0:0:0:0:
256,192,135695,1,0,0:0:0:0:
256,192,135766,1,8,0:0:0:0:
256,192,135836,1,8,0:0:0:0:
256,192,135907,1,0,0:0:0:0:
256,192,136049,1,0,0:0:0:0:
256,192,136096,1,0,0:0:0:0:
256,192,136143,1,0,0:0:0:0:
256,192,136190,1,8,0:0:0:0:
256,192,136261,1,0,0:0:0:0:
256,192,136332,1,0,0:0:0:0:
256,192,136402,1,8,0:0:0:0:
256,192,136473,1,8,0:0:0:0:
256,192,136544,1,8,0:0:0:0:
256,192,136615,1,0,0:0:0:0:
256,192,136709,1,0,0:0:0:0:
256,192,136803,1,8,0:0:0:0:
256,192,136898,1,0,0:0:0:0:
256,192,136968,1,0,0:0:0:0:
256,192,137039,1,8,0:0:0:0:
256,192,137110,1,0,0:0:0:0:
256,192,137181,1,8,0:0:0:0:
256,192,137228,1,8,0:0:0:0:
256,192,137275,1,8,0:0:0:0:
256,192,137322,1,0,0:0:0:0:
256,192,137463,12,0,138454,0:0:0:0:
