osu file format v14

[General]
AudioFilename: audio.mp3
AudioLeadIn: 0
PreviewTime: 89027
Countdown: 1
SampleSet: Soft
StackLeniency: 0.7
Mode: 0
LetterboxInBreaks: 0
WidescreenStoryboard: 0

[Editor]
Bookmarks: 951,5874,10797,15720,18181,20643,25566,30489,40335,50181,60027,69874,79720,88020,89566,99412,109258,119104
DistanceSpacing: 0.8
BeatDivisor: 4
GridSize: 32
TimelineZoom: 2.999999

[Metadata]
Title:Outbreak
TitleUnicode:Outbreak
Artist:USAO
ArtistUnicode:USAO
Creator:Jeffrey
Version:Apocalypse
Source:beatmania IIDX 23 copula
Tags:beatmania iidx copula bemani konami electro rhythm game
BeatmapID:1505960
BeatmapSetID:712410

[Difficulty]
HPDrainRate:6.5
CircleSize:4
OverallDifficulty:8.5
ApproachRate:9.4
SliderMultiplier:1.7
SliderTickRate:1

[Events]
//Background and Video events
0,0,"40036565-apocalypse-wallpapers.jpg",0,0
//Break Periods
2,72528,74250
//Storyboard Layer 0 (Background)
//Storyboard Layer 1 (Fail)
//Storyboard Layer 2 (Pass)
//Storyboard Layer 3 (Foreground)
//Storyboard Sound Samples

[TimingPoints]
944,307.692307692308,4,2,0,100,1,0
944,-200,4,2,0,100,0,0
1251,-200,4,2,0,30,0,0
2174,-125,4,2,0,30,0,0
3405,-100,4,2,0,30,0,0
5867,-200,4,2,0,30,0,0
7097,-125,4,2,0,30,0,0
8867,-125,4,2,0,5,0,0
8944,-100,4,2,0,30,0,0
9559,-125,4,2,0,30,0,0
10097,-125,4,2,0,5,0,0
10174,-100,4,2,0,30,0,0
10790,-100,4,2,0,100,0,0
11097,-100,4,2,0,35,0,0
13251,-83.3333333333333,4,2,0,35,0,0
15867,-83.3333333333333,4,2,0,35,0,0
17867,-125,4,2,0,35,0,0
18174,-125,4,2,0,40,0,0
19405,-66.6666666666667,4,2,0,40,0,0
19713,-83.3333333333333,4,2,0,40,0,0
20020,-66.6666666666667,4,2,0,40,0,0
20328,-50,4,2,0,40,0,0
20636,-66.6666666666667,4,2,0,45,0,0
22790,-83.3333333333333,4,2,0,45,0,0
23097,-66.6666666666667,4,2,0,45,0,0
25251,-55.5555555555556,4,2,0,45,0,0
26174,-66.6666666666667,4,2,0,45,0,0
26790,-76.9230769230769,4,2,0,45,0,0
27713,-76.9230769230769,4,2,0,45,0,0
28636,-100,4,2,0,45,0,0
29251,-76.9230769230769,4,2,0,45,0,0
29559,-58.8235294117647,4,2,0,45,0,0
30482,-83.3333333333333,4,2,0,50,0,0
35097,-62.5,4,2,0,50,0,0
35405,-83.3333333333333,4,2,0,50,0,0
39097,-66.6666666666667,4,2,0,50,0,0
39405,-66.6666666666667,4,2,0,50,0,0
39713,-58.8235294117647,4,2,0,50,0,0
40328,-83.3333333333333,4,2,0,50,0,0
44251,-62.5,4,2,0,50,0,0
45251,-83.3333333333333,4,2,0,50,0,0
46944,-66.6666666666667,4,2,0,50,0,0
47713,-83.3333333333333,4,2,0,50,0,0
48944,-66.6666666666667,4,2,0,50,0,0
49867,-100,4,2,0,50,0,0
50174,-76.9230769230769,4,2,0,60,0,1
52020,-66.6666666666667,4,2,0,60,0,1
52636,-76.9230769230769,4,2,0,60,0,1
54482,-111.111111111111,4,2,0,60,0,1
54790,-200,4,2,0,60,0,1
55097,-76.9230769230769,4,2,0,60,0,1
57251,-90.9090909090909,4,2,0,60,0,1
57559,-76.9230769230769,4,2,0,60,0,1
60020,-66.6666666666667,4,2,0,50,0,0
61251,-55.5555555555556,4,2,0,50,0,0
61559,-66.6666666666667,4,2,0,50,0,0
66174,-55.5555555555556,4,2,0,50,0,0
66482,-66.6666666666667,4,2,0,50,0,0
67405,-200,4,2,0,40,0,0
74790,-111.111111111111,4,2,0,50,0,0
75097,-66.6666666666667,4,2,0,70,0,0
75405,-111.111111111111,4,2,0,50,0,0
75713,-66.6666666666667,4,2,0,70,0,0
76020,-90.9090909090909,4,2,0,50,0,0
76328,-52.6315789473684,4,2,0,70,0,0
76636,-90.9090909090909,4,2,0,50,0,0
76944,-52.6315789473684,4,2,0,70,0,0
77251,-83.3333333333333,4,2,0,50,0,0
78482,-71.4285714285714,4,2,0,50,0,0
79097,-62.5,4,2,0,50,0,0
79713,-76.9230769230769,4,2,0,80,0,0
80328,-76.9230769230769,4,2,0,60,0,0
80944,-62.5,4,2,0,80,0,0
81559,-62.5,4,2,0,60,0,0
82174,-62.5,4,2,0,80,0,0
82790,-62.5,4,2,0,60,0,0
83405,-62.5,4,2,0,80,0,0
84020,-62.5,4,2,0,60,0,0
84636,-83.3333333333333,4,2,0,60,0,0
85867,-83.3333333333333,4,2,0,65,0,0
87097,-83.3333333333333,4,2,0,70,0,0
88328,-66.6666666666667,4,2,0,70,0,0
88636,-55.5555555555556,4,2,0,70,0,0
88944,-66.6666666666667,4,2,0,70,0,0
89559,-62.5,4,2,0,75,0,1
91713,-55.5555555555556,4,2,0,75,0,1
92020,-62.5,4,2,0,75,0,1
93559,-83.3333333333333,4,2,0,75,0,1
93867,-62.5,4,2,0,75,0,1
94174,-83.3333333333333,4,2,0,75,0,1
94482,-55.5555555555556,4,2,0,75,0,1
94790,-62.5,4,2,0,75,0,1
95713,-55.5555555555556,4,2,0,75,0,1
96328,-62.5,4,2,0,75,0,1
96636,-71.4285714285714,4,2,0,75,0,1
96944,-200,4,2,0,60,0,1
99405,-62.5,4,2,0,75,0,1
100636,-55.5555555555556,4,2,0,75,0,1
100944,-62.5,4,2,0,75,0,1
101559,-55.5555555555556,4,2,0,75,0,1
101867,-62.5,4,2,0,75,0,1
103405,-83.3333333333333,4,2,0,75,0,1
103713,-62.5,4,2,0,75,0,1
104020,-83.3333333333333,4,2,0,75,0,1
104328,-55.5555555555556,4,2,0,75,0,1
104636,-62.5,4,2,0,75,0,1
106790,-200,4,2,0,60,0,1
109251,-71.4285714285714,4,2,0,70,0,0
111405,-55.5555555555556,4,2,0,70,0,0
112328,-71.4285714285714,4,2,0,70,0,0
114174,-71.4285714285714,4,2,0,75,0,0
117867,-62.5,4,2,0,75,0,0

[Colours]
Combo1 : 248,199,3
Combo2 : 219,79,32
Combo3 : 255,0,0
Combo4 : 199,113,35

[HitObjects]
80,56,944,6,0,P|56:88|48:136,3,85
136,120,2174,6,0,P|168:128|208:152,2,68
112,328,2790,2,0,B|128:296|128:296|120:232|120:232|136:200,1,136
56,280,3405,6,0,P|128:256|184:320,1,170
432,280,4020,2,0,P|360:256|304:320,1,170
112,328,4636,2,0,B|144:200|144:200|168:232,1,170
376,328,5251,2,0,B|344:200|344:200|320:232,1,170
392,144,5867,6,0,P|352:128|296:144,3,85
344,200,7097,6,0,P|344:240|328:288,2,68
136,216,7713,2,0,B|169:227|169:227|232:210|232:210|266:221,1,136
464,48,8328,5,0,0:0:0:0:
464,48,8636,2,0,B|432:32|393:33|393:33|400:80,1,102
316,28,8944,6,0,L|332:120,1,85
344,184,9251,1,0,0:0:0:0:
48,48,9559,5,0,0:0:0:0:
48,48,9867,2,0,B|80:32|119:33|119:33|112:80,1,102
196,28,10175,6,0,L|180:120,1,85
168,184,10482,1,0,0:0:0:0:
36,268,10790,6,0,B|72:292|88:336|88:336|120:292|176:276,1,170
500,216,11405,2,0,B|468:220|440:200|440:200|412:228|412:228|384:212|340:220,1,170
164,364,12020,5,0,0:0:0:0:
368,292,12328,1,0,0:0:0:0:
164,364,12636,1,0,0:0:0:0:
368,292,12944,1,0,0:0:0:0:
76,200,13251,6,0,B|84:140|68:68|68:68|112:120|160:132,1,203.999993774414
424,216,13867,2,0,P|480:136|404:68,1,203.999993774414
120,115,14482,1,0,0:0:0:0:
404,144,14790,1,0,0:0:0:0:
120,115,15097,1,0,0:0:0:0:
404,144,15405,1,0,0:0:0:0:
127,294,15713,6,0,P|158:330|206:350,1,101.999996887207
201,268,16020,2,0,P|250:280|299:268,1,101.999996887207
127,90,16328,2,0,P|158:53|206:33,1,101.999996887207
201,116,16635,2,0,P|250:103|299:116,1,101.999996887207
424,300,16944,5,0,0:0:0:0:
424,300,17097,1,0,0:0:0:0:
269,60,17251,1,0,0:0:0:0:
269,60,17405,1,0,0:0:0:0:
76,336,17559,6,0,P|56:264|80:188,1,152.999995330811
112,216,17867,6,0,P|100:276|124:332,1,102
176,264,18174,5,0,0:0:0:0:
296,100,18328,1,0,0:0:0:0:
304,272,18482,1,0,0:0:0:0:
168,92,18636,1,0,0:0:0:0:
380,180,18790,1,0,0:0:0:0:
112,208,18944,1,0,0:0:0:0:
344,56,19097,1,0,0:0:0:0:
400,320,19251,1,0,0:0:0:0:
111,207,19405,6,0,B|147:176|159:128|159:128|183:172|227:196,1,191.250007295609
244,116,19713,6,0,P|276:136|300:164,1,50.9999984436036
304,220,19867,2,0,P|332:204|352:184,1,50.9999984436036
384,120,20020,6,0,B|472:176|376:252|456:304,1,191.250007295609
496,244,20328,6,0,P|444:364|368:312,1,255.000009727478
369,316,20636,5,0,0:0:0:0:
112,344,20790,2,0,P|144:352|176:348,1,63.7500024318696
144,280,20944,2,0,P|176:274|204:256,1,63.7500024318696
148,208,21097,2,0,P|175:190|196:160,1,63.7500024318696
420,72,21251,5,0,0:0:0:0:
288,304,21405,2,0,P|288:268|304:232,1,63.7500024318696
496,64,21559,2,0,P|488:104|472:128,1,63.7500024318696
232,208,21713,2,0,P|260:180|296:168,1,63.7500024318696
112,224,21867,5,0,0:0:0:0:
48,32,22020,2,0,B|40:64|40:64|48:112,1,63.7500024318696
176,32,22174,2,0,B|184:64|184:64|176:112,1,63.7500024318696
112,224,22328,2,0,L|112:160,1,63.7500024318696
40,244,22482,6,0,P|116:300|184:240,1,191.250007295609
112,224,22790,6,0,P|144:312|236:304,1,152.999995330811
184,248,23097,5,0,0:0:0:0:
476,156,23251,2,0,L|412:180,1,63.7500024318696
272,168,23405,2,0,L|331:145,1,63.7500024318696
452,40,23559,2,0,L|388:64,1,63.7500024318696
352,304,23713,5,0,0:0:0:0:
131,231,23867,2,0,B|123:195|123:195|135:163,1,63.7500024318696
28,40,24020,2,0,B|63:51|63:51|84:77,1,63.7500024318696
260,56,24174,2,0,B|232:80|232:80|199:86,1,63.7500024318696
408,40,24328,5,0,0:0:0:0:
476,208,24482,2,0,L|408:184,1,63.7500024318696
401,268,24636,2,0,L|333:244,1,63.7500024318696
330,331,24790,2,0,L|262:307,1,63.7500024318696
231,234,24944,6,0,B|187:258|175:302|175:302|143:270|75:266,1,191.250007295609
67,188,25251,6,0,B|-1:232|-5:328|59:348|115:324|107:260|51:244,1,229.499992996216
181,140,25559,5,0,0:0:0:0:
257,336,25713,1,0,0:0:0:0:
321,140,25867,1,0,0:0:0:0:
253,336,26020,1,0,0:0:0:0:
386,195,26174,6,0,P|401:163|402:125,1,63.7500024318696
257,91,26328,2,0,P|241:122|240:160,1,63.7500024318696
358,30,26482,1,0,0:0:0:0:
358,30,26559,1,0,0:0:0:0:
358,30,26636,1,0,0:0:0:0:
60,116,26790,6,0,B|120:132|120:132|184:112,1,110.499994941712
452,116,27097,2,0,B|392:132|392:132|328:112,1,110.499994941712
308,104,27328,1,0,0:0:0:0:
272,92,27405,1,0,0:0:0:0:
300,304,27559,1,0,0:0:0:0:
52,216,27713,5,0,0:0:0:0:
93,206,27789,1,0,0:0:0:0:
135,197,27867,2,0,L|128:240,1,27.6249987354279
176,188,27944,2,0,L|168:230,1,27.6249987354279
218,179,28020,6,0,B|300:160|300:160|284:192,1,110.499994941712
116,336,28328,2,0,B|34:355|34:355|50:323,1,110.499994941712
72,84,28636,5,0,0:0:0:0:
111,67,28712,1,0,0:0:0:0:
153,65,28789,1,0,0:0:0:0:
195,73,28866,1,0,0:0:0:0:
236,83,28943,1,0,0:0:0:0:
278,91,29020,1,0,0:0:0:0:
320,93,29097,1,0,0:0:0:0:
362,86,29174,1,0,0:0:0:0:
400,67,29251,6,0,B|428:56|456:36|456:36|448:88|472:168,1,165.749992412568
495,225,29559,6,0,B|451:237|419:217|419:217|399:249|399:249|347:217|295:241,1,216.750004134178
343,305,29867,6,0,P|347:177|225:266,1,289.000005512238
496,340,30482,6,0,B|448:352|448:352|380:332,1,101.999996887207
216,336,30790,2,0,B|264:348|264:348|332:328,1,101.999996887207
360,188,31097,1,0,0:0:0:0:
168,236,31251,1,0,0:0:0:0:
128,248,31328,1,0,0:0:0:0:
88,256,31405,2,0,P|36:248|-12:216,1,101.999996887207
157,70,31713,5,0,0:0:0:0:
256,96,31867,2,0,L|149:68,1,101.999996887207
456,148,32174,2,0,L|358:123,1,101.999996887207
456,260,32482,1,0,0:0:0:0:
456,260,32559,1,0,0:0:0:0:
456,260,32636,2,0,L|472:320,1,50.9999984436036
400,376,32790,2,0,L|386:326,1,50.9999984436036
316,180,32944,6,0,P|268:188|216:180,1,101.999996887207
20,180,33251,2,0,P|68:188|120:180,1,101.999996887207
176,320,33559,1,0,0:0:0:0:
268,112,33713,1,0,0:0:0:0:
296,88,33790,1,0,0:0:0:0:
324,68,33867,2,0,B|368:48|424:48|424:48,1,101.999996887207
376,260,34174,5,0,0:0:0:0:
289,314,34328,2,0,L|385:254,1,101.999996887207
96,304,34636,2,0,L|164:264,1,50.9999984436036
256,212,34790,5,0,0:0:0:0:
256,212,35097,6,0,P|328:216|256:224,1,204
198,142,35405,6,0,P|242:106|306:102,1,101.999996887207
116,142,35713,2,0,P|72:106|8:102,1,101.999996887207
160,268,36020,1,0,0:0:0:0:
160,268,36174,1,0,0:0:0:0:
160,80,36328,1,0,0:0:0:0:
160,80,36482,1,0,0:0:0:0:
320,256,36636,6,0,B|372:272|372:272|424:256,1,101.999996887207
420,64,36944,2,0,B|374:50|374:50|322:66,1,101.999996887207
344,176,37251,2,0,P|381:190|340:160,1,152.999995330811
264,116,37559,6,0,B|248:96|244:64,1,50.9999984436036
244,128,37713,2,0,B|228:108|224:76,1,50.9999984436036
244,247,37867,2,0,B|208:283|184:339,1,101.999996887207
48,160,38174,2,0,P|108:170|165:158,1,101.999996887207
32,292,38482,1,0,0:0:0:0:
104,92,38636,1,0,0:0:0:0:
304,163,38790,1,0,0:0:0:0:
233,363,38944,1,0,0:0:0:0:
384,248,39097,6,0,P|416:228|436:208,1,63.7500024318696
396,260,39251,2,0,P|428:240|448:220,1,63.7500024318696
480,148,39405,6,0,B|444:128|408:140|408:140|420:80|384:24,1,191.250007295609
268,68,39713,6,0,P|332:100|252:96,1,216.750004134178
192,48,40020,6,0,B|164:24|164:24|144:164|144:164|184:140,1,216.750004134178
232,200,40328,6,0,B|164:240|164:240|192:248,1,101.999996887207
404,164,40636,2,0,B|472:124|472:124|444:116,1,101.999996887207
292,32,40944,1,0,0:0:0:0:
332,240,41097,1,0,0:0:0:0:
184,84,41251,1,0,0:0:0:0:
192,288,41405,1,0,0:0:0:0:
160,304,41482,1,0,0:0:0:0:
128,320,41559,6,0,P|84:332|8:320,1,101.999996887207
272,232,41867,2,0,P|316:220|392:232,1,101.999996887207
184,116,42174,1,0,0:0:0:0:
76,256,42328,1,0,0:0:0:0:
12,64,42482,2,0,P|40:44|80:36,1,50.9999984436036
164,32,42636,2,0,P|196:32|228:40,1,50.9999984436036
248,48,42790,5,0,0:0:0:0:
412,216,42944,1,0,0:0:0:0:
424,48,43097,1,0,0:0:0:0:
268,208,43251,1,0,0:0:0:0:
72,104,43405,2,0,P|128:112|180:100,1,101.999996887207
444,100,43713,2,0,P|388:108|336:96,1,101.999996887207
340,260,44020,6,0,L|328:312,1,50.9999984436036
260,276,44174,2,0,L|248:328,1,50.9999984436036
180,292,44328,2,0,L|168:344,1,50.9999984436036
120,208,44482,6,0,P|48:192|124:180,1,204
120,171,44790,1,0,0:0:0:0:
204,152,44944,1,0,0:0:0:0:
280,124,45097,1,0,0:0:0:0:
380,288,45251,6,0,B|400:240|400:240|384:180,1,101.999996887207
256,64,45559,2,0,B|287:105|287:105|347:121,1,101.999996887207
512,72,45867,2,0,B|460:78|460:78|416:122,1,101.999996887207
316,232,46174,1,0,0:0:0:0:
240,96,46328,1,0,0:0:0:0:
116,280,46482,6,0,L|60:328,1,50.9999984436036
84,208,46636,2,0,L|45:241,1,50.9999984436036
60,128,46790,2,0,L|21:161,1,50.9999984436036
168,96,46944,6,0,B|200:104|228:96|228:96|260:136|260:136|300:64|300:64|332:104|332:104|372:92|408:108,1,318.750012159348
403,106,47405,1,0,0:0:0:0:
368,188,47559,1,0,0:0:0:0:
168,96,47713,6,0,B|136:132|140:176|140:176|176:156,1,101.999996887207
344,96,48020,2,0,B|376:132|372:176|372:176|336:156,1,101.999996887207
192,296,48328,1,0,0:0:0:0:
152,168,48482,1,0,0:0:0:0:
304,300,48636,1,0,0:0:0:0:
359,168,48790,1,0,0:0:0:0:
116,248,48944,5,0,0:0:0:0:
48,32,49097,2,0,P|44:64|48:96,1,63.7500024318696
192,32,49251,2,0,P|196:64|192:96,1,63.7500024318696
84,176,49405,2,0,P|120:172|168:180,1,63.7500024318696
256,180,49559,2,0,P|300:232|244:188,1,191.250007295609
164,240,49867,6,0,P|176:268|192:288,1,42.5
148,248,50020,2,0,P|160:276|176:296,1,42.5
212,124,50174,6,0,P|264:104|316:116,1,110.499994941712
148,248,50482,2,0,P|96:268|44:256,1,110.499994941712
268,180,50790,1,0,0:0:0:0:
308,340,50944,1,0,0:0:0:0:
352,340,51020,1,0,0:0:0:0:
396,340,51097,2,0,B|480:340|480:340|452:304,1,110.499994941712
480,84,51405,6,0,P|476:120|464:144,1,55.2499974708558
344,84,51559,2,0,P|348:120|360:144,1,55.2499974708558
428,220,51713,1,0,0:0:0:0:
428,220,51790,1,0,0:0:0:0:
428,220,51867,2,0,P|400:216|356:224,1,55.2499974708558
328,280,52020,6,0,B|300:260|296:224|296:224|284:312|228:356,1,191.250007295609
176,356,52328,2,0,P|176:324|200:280,1,63.7500024318696
156,348,52482,2,0,P|156:316|180:272,1,63.7500024318696
216,232,52636,6,0,B|156:252|100:228,1,110.499994941712
0,48,52944,2,0,P|12:76|32:100,1,55.2499974708558
72,36,53097,2,0,P|97:52|127:61,1,55.2499974708558,0|0,3:0|3:0,3:0:0:0:
192,60,53251,5,0,0:0:0:0:
464,20,53405,2,0,L|444:72,1,55.2499974708558
384,232,53559,1,0,0:0:0:0:
344,52,53713,2,0,L|324:104,1,55.2499974708558
264,264,53867,1,0,0:0:0:0:
432,224,54020,1,0,0:0:0:0:
344,52,54174,6,0,P|272:24|168:40,1,165.749992412568
208,72,54482,6,0,P|268:68|328:88,1,114.749996498108
288,120,54790,6,0,P|256:112|220:112,1,63.75
248,184,55097,6,0,B|304:196|304:196|360:184,1,110.499994941712
152,184,55405,2,0,B|96:172|96:172|40:184,1,110.499994941712
196,312,55713,1,0,0:0:0:0:
304,116,55867,1,0,0:0:0:0:
332,80,55944,1,0,0:0:0:0:
372,64,56020,2,0,P|424:48|492:64,1,110.499994941712
508,244,56328,6,0,L|496:300,1,55.2499974708558
400,356,56482,2,0,L|411:301,1,55.2499974708558
428,224,56636,1,0,0:0:0:0:
428,224,56713,1,0,0:0:0:0:
428,224,56790,1,0,0:0:0:0:
296,304,56944,6,0,B|248:316|224:344|224:344|192:312|140:300,1,165.749992412568
168,272,57251,6,0,B|196:281|224:309|224:309|248:285|284:269,1,140.25000428009
348,232,57559,6,0,P|324:208|288:196,1,55.2499974708558
264,188,57713,1,0,0:0:0:0:
96,80,57867,2,0,B|56:52|56:52|72:104|72:176,1,165.749992412568
72,212,58174,1,0,0:0:0:0:
156,180,58328,1,0,0:0:0:0:
144,268,58482,1,0,0:0:0:0:
280,144,58636,1,0,0:0:0:0:
280,144,58713,1,0,0:0:0:0:
280,144,58790,6,0,P|310:159|350:167,1,55.2499974708558
476,132,58944,2,0,P|446:117|406:109,1,55.2499974708558
424,188,59097,2,0,B|412:212|408:264|408:264|352:240|284:260,1,165.749992412568
284,260,59405,1,0,0:0:0:0:
232,332,59559,1,0,0:0:0:0:
188,256,59713,1,0,0:0:0:0:
144,180,59867,1,0,0:0:0:0:
396,44,60020,6,0,P|364:52|324:48,1,63.7500024318696
208,32,60174,1,0,0:0:0:0:
208,32,60251,1,0,0:0:0:0:
208,32,60328,2,0,P|220:68|220:104,1,63.7500024318696
80,36,60482,2,0,P|68:72|68:108,1,63.7500024318696
12,212,60636,6,0,L|96:192,1,63.7500024318696
276,212,60790,2,0,L|192:192,1,63.7500024318696
8,244,60944,2,0,L|92:224,1,63.7500024318696
272,244,61098,2,0,L|188:224,1,63.7500024318696
288,176,61251,6,0,P|344:248|252:312,1,229.499992996216
272,244,61559,6,0,P|220:196|244:120,1,127.500004863739
272,52,61867,1,0,0:0:0:0:
372,28,62020,1,0,0:0:0:0:
468,60,62174,1,0,0:0:0:0:
504,156,62328,1,0,0:0:0:0:
440,348,62482,6,0,L|388:300,1,63.7500024318696
352,168,62636,1,0,0:0:0:0:
352,168,62713,1,0,0:0:0:0:
352,168,62790,2,0,B|320:172|320:172|276:168,1,63.7500024318696
80,168,62944,2,0,B|112:172|112:172|156:168,1,63.7500024318696
320,248,63097,6,0,L|336:316,1,63.7500024318696
104,248,63251,2,0,L|88:316,1,63.7500024318696
332,296,63405,6,0,L|348:364,1,63.7500024318696
96,292,63559,2,0,L|80:360,1,63.7500024318696
216,240,63713,1,0,0:0:0:0:
216,240,63790,1,0,0:0:0:0:
216,240,63867,1,0,0:0:0:0:
60,124,64020,6,0,P|68:84|84:56,1,63.7500024318696
84,128,64174,2,0,P|92:88|108:60,1,63.7500024318696
132,40,64328,1,0,0:0:0:0:
232,24,64482,1,0,0:0:0:0:
332,32,64636,1,0,0:0:0:0:
428,68,64790,1,0,0:0:0:0:
384,256,64944,6,0,P|348:260|300:256,1,63.7500024318696
80,256,65097,2,0,P|116:260|164:256,1,63.7500024318696
373,223,65251,6,0,P|344:244|300:266,1,63.7500024318696
90,223,65405,2,0,P|118:244|162:266,1,63.7500024318696
347,201,65559,6,0,P|333:234|307:275,1,63.7500024318696
115,200,65713,2,0,P|128:233|154:274,1,63.7500024318696
313,195,65867,6,0,P|318:230|317:278,1,63.7500024318696
148,194,66020,2,0,P|142:229|143:277,1,63.7500024318696
136,348,66174,6,0,B|200:332|232:284|232:284|272:336|324:348,1,229.499992996216
396,352,66482,6,0,P|388:312|364:284,1,63.7500024318696
420,348,66636,2,0,P|412:308|388:280,1,63.7500024318696
372,260,66790,1,0,0:0:0:0:
296,192,66944,1,0,0:0:0:0:
384,140,67097,1,0,0:0:0:0:
300,84,67251,1,0,0:0:0:0:
36,240,67405,6,0,P|72:244|104:252,1,63.75
96,144,67713,2,0,P|132:140|164:132,1,63.75
256,80,68020,1,0,0:0:0:0:
252,200,68174,1,0,0:0:0:0:
252,320,68328,1,0,0:0:0:0:
372,228,68482,1,0,0:0:0:0:
372,228,68559,1,0,0:0:0:0:
372,228,68636,6,0,P|376:188|388:152,1,63.75
252,200,68944,2,0,P|248:160|240:128,1,63.75
196,64,69251,1,0,0:0:0:0:
316,64,69405,1,0,0:0:0:0:
436,68,69559,1,0,0:0:0:0:
448,68,69636,1,0,0:0:0:0:
460,68,69713,1,0,0:0:0:0:
472,68,69790,1,0,0:0:0:0:
484,68,69867,1,0,0:0:0:0:
256,192,70020,12,0,72328,0:0:0:0:
126,88,74790,6,0,P|178:92|126:123,1,114.749996498108
96,105,75097,6,0,P|126:174|131:256,1,127.500004863739
385,88,75405,6,0,P|333:92|385:123,1,114.749996498108
415,105,75713,6,0,P|385:174|380:256,1,127.500004863739
144,252,76020,6,0,B|101:212|53:216|53:216|61:256,1,140.25000428009
111,356,76328,6,0,B|84:379|84:379|60:255,1,161.499995687485
368,252,76636,6,0,B|410:212|458:216|458:216|450:256,1,140.25000428009
401,356,76944,6,0,B|427:379|427:379|451:255,1,161.499995687485
252,48,77251,6,0,P|240:108|252:156,1,101.999996887207
252,336,77559,2,0,P|264:276|252:228,1,101.999996887207
316,100,77867,1,0,0:0:0:0:
188,280,78020,1,0,0:0:0:0:
196,100,78174,1,0,0:0:0:0:
324,280,78327,1,0,0:0:0:0:
400,52,78482,6,0,P|440:108|376:80,1,178.499994552612
304,28,78790,2,0,L|300:92,1,59.4999981842042
292,220,78944,2,0,L|295:160,1,59.4999981842042
224,32,79097,6,0,B|220:92|220:92|196:120|196:120|220:156|220:156|216:240,1,204
144,180,79405,6,0,P|120:112|160:52,1,136
88,276,79713,6,0,B|96:316|84:356|84:356|152:320|220:340,1,220.999989883423
219,339,80328,1,0,0:0:0:0:
12,312,80636,1,0,0:0:0:0:
324,112,80944,6,0,B|288:40|348:12|400:32|388:120|324:220,1,272
333,204,81559,1,0,0:0:0:0:
176,120,81867,1,0,0:0:0:0:
288,280,82174,6,0,B|336:292|388:280|388:280|364:340|364:340|428:328|496:348,1,272
472,344,82790,1,0,0:0:0:0:
288,280,83097,1,0,0:0:0:0:
108,124,83405,6,0,B|152:96|120:28|56:72|56:72|92:152|80:228,1,272
82,204,84020,1,0,0:0:0:0:
228,124,84328,1,0,0:0:0:0:
360,248,84636,6,0,B|376:304|376:304|360:364,1,101.999996887207
292,188,84944,1,0,0:0:0:0:
292,188,85097,2,0,B|236:176|236:176|192:132,1,101.999996887207
412,180,85405,1,0,0:0:0:0:
412,180,85558,2,0,B|452:140|452:140|508:120,1,101.999996887207
288,300,85867,6,0,P|240:280|200:240,1,101.999996887207
24,300,86174,1,0,0:0:0:0:
24,300,86328,2,0,P|72:280|112:240,1,101.999996887207
156,72,86636,1,0,0:0:0:0:
156,72,86790,2,0,L|156:184,1,101.999996887207
344,100,87097,5,0,0:0:0:0:
383,79,87173,1,0,0:0:0:0:
426,92,87250,1,0,0:0:0:0:
448,132,87327,1,0,0:0:0:0:
436,175,87404,5,0,0:0:0:0:
396,200,87482,1,0,0:0:0:0:
353,216,87558,1,0,0:0:0:0:
307,218,87635,1,0,0:0:0:0:
264,205,87712,5,0,0:0:0:0:
220,192,87790,1,0,0:0:0:0:
177,175,87866,1,0,0:0:0:0:
131,173,87943,1,0,0:0:0:0:
88,186,88020,5,0,0:0:0:0:
48,204,88097,1,0,0:0:0:0:
24,240,88173,1,0,0:0:0:0:
20,284,88250,1,0,0:0:0:0:
32,328,88328,6,0,P|112:352|168:272,1,191.250007295609
92,280,88636,6,0,B|68:248|68:248|92:208|92:208|72:172|72:172|88:124|88:124|80:68,1,229.499992996216
8,92,88944,6,0,B|24:148|80:168|140:144|152:92|152:92|176:140|224:160,1,255.000009727478
152,92,89559,6,0,P|168:120|196:144,1,68
316,48,89713,1,0,0:0:0:0:
348,36,89790,1,0,0:0:0:0:
384,36,89867,2,0,P|420:36|460:48,1,68
503,178,90020,1,0,0:0:0:0:
499,211,90097,1,0,0:0:0:0:
496,244,90174,2,0,B|488:342|488:342|446:302|375:320,1,204
340,298,90482,2,0,P|371:352|334:298,1,204
253,229,90790,6,0,P|223:216|186:210,1,68
194,289,90944,2,0,P|161:285|124:291,1,68
55,319,91097,1,0,0:0:0:0:
55,319,91174,1,0,0:0:0:0:
55,319,91251,2,0,P|37:285|43:248,1,68
29,179,91405,2,0,B|50:255|168:242|198:157|99:177,1,204
159,88,91713,6,0,P|192:61|233:52,1,76.4999976654053
171,109,91867,2,0,P|204:82|245:73,1,76.4999976654053
319,46,92020,6,0,B|291:111|303:180|303:180|330:161|369:168,1,204
345,240,92328,2,0,B|293:269|246:229|246:229|198:257|198:257|105:226,1,204
11,217,92636,2,0,P|16:257|32:288,1,68
239,338,92790,2,0,P|234:298|218:267,1,68
0,244,92944,2,0,P|14:282|36:308,1,68
249,310,93098,2,0,P|235:272|213:246,1,68
134,239,93251,6,0,P|160:174|84:218,1,204
83,209,93559,2,0,P|133:173|119:241,1,152.999995330811
83,300,93867,6,0,B|149:326|149:326|220:300|220:300|283:326,1,204
254,330,94174,2,0,B|219:315|219:315|148:341|148:341|98:319,1,152.999995330811
19,260,94482,6,0,P|17:219|26:183,1,76.4999976654053
41,260,94636,2,0,P|39:219|48:183,1,76.4999976654053
52,85,94790,6,0,P|87:103|122:110,1,68
234,73,94944,1,0,0:0:0:0:
265,60,95020,1,0,0:0:0:0:
298,56,95097,2,0,B|346:35|400:56|400:56|404:111|376:156,1,204
306,156,95405,2,0,B|319:221|388:228|388:228|372:288|291:327,1,204
274,331,95713,6,0,P|310:364|358:369,1,76.4999976654053
339,297,95867,2,0,P|387:294|425:264,1,76.4999976654053
475,212,96020,1,0,0:0:0:0:
475,212,96097,1,0,0:0:0:0:
475,212,96174,2,0,B|486:169|474:130,1,76.4999976654053
494,52,96328,2,0,B|472:144|336:147|363:26|434:71,1,204
387,131,96636,2,0,B|352:160|342:200|342:200|297:171|241:169,1,178.499994552612
165,126,96944,6,0,L|176:207,1,63.75
13,168,97251,2,0,L|2:249,1,63.75
0,326,97559,1,0,0:0:0:0:
117,375,97713,1,0,0:0:0:0:
227,313,97867,1,0,0:0:0:0:
324,171,98020,1,0,0:0:0:0:
324,171,98097,1,0,0:0:0:0:
324,171,98174,6,0,L|332:240,1,63.75
511,208,98482,2,0,L|503:277,1,63.75
495,371,98790,1,0,0:0:0:0:
420,153,98944,1,0,0:0:0:0:
359,369,99097,1,0,0:0:0:0:
420,153,99251,1,0,0:0:0:0:
301,228,99405,6,0,B|277:260|229:272|229:272|229:280|229:280|229:272|229:272|195:220|130:224,1,204
98,267,99713,2,0,B|152:221|163:114|94:103|29:168|85:219,1,204
27,95,100020,1,0,0:0:0:0:
27,95,100097,1,0,0:0:0:0:
27,95,100174,2,0,P|57:73|103:66,1,68
170,62,100328,2,0,B|197:88|197:88|228:66|228:66|279:104|361:79,1,204
418,35,100636,6,0,P|426:77|422:125,1,76.4999976654053
438,32,100790,2,0,P|446:74|442:122,1,76.4999976654053
498,165,100944,2,0,B|429:204|364:158|364:158|348:203|307:239,1,204
282,216,101251,2,0,P|333:215|267:238,1,204
195,325,101559,6,0,P|177:285|182:234,1,76.4999976654053
174,335,101713,2,0,P|156:295|161:244,1,76.4999976654053
44,214,101867,2,0,B|61:99|134:78|134:78|111:152,1,204
129,194,102174,2,0,B|155:222|155:222|187:212|213:207|213:207|212:191|212:191|213:207|213:207|269:204|336:229,1,204
343,283,102482,2,0,P|367:248|378:215,1,68
512,41,102636,2,0,P|483:75|468:109,1,68
511,283,102790,2,0,P|494:248|472:218,1,68
348,44,102944,2,0,P|361:77|382:106,1,68
257,104,103097,6,0,B|238:22|93:29|126:128|163:106,1,204
257,104,103405,2,0,B|156:130|178:212|256:198|238:131,1,152.999995330811
363,149,103713,6,0,B|411:132|411:132|440:202|369:322,1,204
363,149,104020,2,0,B|399:164|399:164|396:215|306:258,1,152.999995330811
221,279,104328,6,0,P|209:238|209:199,1,76.4999976654053
198,285,104482,2,0,P|186:244|186:205,1,76.4999976654053
207,102,104636,6,0,B|163:155|101:134|101:134|51:160|56:239,1,204
101,227,104944,2,0,P|20:238|103:257,1,204
132,337,105251,2,0,B|157:313|154:276|154:276|219:323|295:304,1,204
387,358,105559,1,0,0:0:0:0:
387,358,105636,1,0,0:0:0:0:
387,358,105713,2,0,P|395:321|380:268,1,68
415,172,105867,6,0,B|303:251|330:118|173:225,1,204
281,233,106174,2,0,P|267:141|168:154,1,204
93,120,106482,2,0,B|118:263|118:263|132:235|160:215,1,204
255,161,106790,6,0,L|323:141,1,63.75
327,295,107097,2,0,L|395:315,1,63.75
474,333,107405,1,0,0:0:0:0:
482,212,107559,1,0,0:0:0:0:
490,91,107713,1,0,0:0:0:0:
344,160,107867,1,0,0:0:0:0:
344,160,107944,1,0,0:0:0:0:
344,160,108020,6,0,L|267:186,1,63.75
252,39,108328,2,0,L|175:13,1,63.75
103,2,108636,1,0,0:0:0:0:
48,191,108790,1,0,0:0:0:0:
103,2,108944,1,0,0:0:0:0:
48,191,109097,1,0,0:0:0:0:
203,133,109251,6,0,P|257:119|337:116,1,118.999996368408
485,248,109559,2,0,P|431:262|351:265,1,118.999996368408
248,208,109867,1,0,0:0:0:0:
359,43,110020,1,0,0:0:0:0:
422,308,110174,1,0,0:0:0:0:
281,89,110328,1,0,0:0:0:0:
281,89,110405,1,0,0:0:0:0:
281,89,110482,6,0,B|230:58|230:58|164:66,1,118.999996368408
403,204,110790,2,0,B|454:235|454:235|520:227,1,118.999996368408
273,205,111097,2,0,B|225:238|225:238|167:223|167:223|90:256,1,178.499994552612
14,209,111405,6,0,P|13:173|29:123,1,76.4999976654053
131,58,111559,2,0,P|132:94|116:144,1,76.4999976654053
98,231,111713,1,0,0:0:0:0:
230,80,111867,1,0,0:0:0:0:
202,323,112020,1,0,0:0:0:0:
126,102,112174,1,0,0:0:0:0:
305,210,112328,6,0,P|363:226|421:223,1,118.999996368408
118,208,112636,2,0,P|60:224|2:221,1,118.999996368408
245,68,112944,2,0,P|271:36|307:15,1,59.4999981842042
323,95,113097,2,0,P|363:87|404:94,1,59.4999981842042
364,162,113251,2,0,P|400:182|426:213,1,59.4999981842042
475,297,113405,2,0,B|436:307|406:295|406:295|389:320|389:320|347:300|273:316,1,178.499994552612
312,309,113713,1,0,0:0:0:0:
181,351,113867,2,0,P|162:301|182:215,1,118.999996368408
254,17,114174,6,0,B|277:69|277:69|267:131,1,118.999996368408
158,73,114482,1,0,0:0:0:0:
158,73,114636,2,0,B|106:96|106:96|44:86,1,118.999996368408
375,75,114944,1,0,0:0:0:0:
375,75,115098,2,0,B|426:98|426:98|488:88,1,118.999996368408
499,237,115405,6,0,L|477:365,1,118.999996368408
148,234,115713,1,0,0:0:0:0:
148,234,115867,2,0,L|170:362,1,118.999996368408
334,233,116174,1,0,0:0:0:0:
334,233,116328,2,0,L|334:380,1,118.999996368408
147,96,116636,5,0,0:0:0:0:
433,171,116790,1,0,0:0:0:0:
111,192,116944,1,0,0:0:0:0:
457,94,117097,1,0,0:0:0:0:
337,286,117251,5,0,0:0:0:0:
304,320,117327,1,0,0:0:0:0:
263,344,117404,1,0,0:0:0:0:
217,356,117481,1,0,0:0:0:0:
170,355,117558,1,0,0:0:0:0:
125,340,117635,1,0,0:0:0:0:
86,313,117712,1,0,0:0:0:0:
55,277,117789,1,0,0:0:0:0:
46,229,117867,6,0,B|21:153|44:89|44:89|61:127|111:152,1,204
134,190,118174,2,0,B|165:159|155:109|155:109|208:133|208:133|262:104,1,204
218,46,118482,2,0,P|301:48|312:160,1,204
319,150,118790,1,0,0:0:0:0:
263,335,119097,1,0,0:0:0:0:
