osu file format v14

[General]
AudioFilename: twopizzas.mp3
AudioLeadIn: 0
PreviewTime: 71507
Countdown: 0
SampleSet: Soft
StackLeniency: 0.3
Mode: 0
LetterboxInBreaks: 0
WidescreenStoryboard: 1

[Editor]
DistanceSpacing: 0.5
BeatDivisor: 4
GridSize: 8
TimelineZoom: 1.8

[Metadata]
Title:Night sky
TitleUnicode:Night sky
Artist:USAO
ArtistUnicode:USAO
Creator:sukiNathan
Version:handsome's Master
Source:beatmania IIDX 22 PENDUAL
Tags:pumpcore bemani captin1 captin handsome kevin kevincela -kevincela- bonzi asphyxia asahina momoko mokori m_o_k_o_r_i len fast deetz
BeatmapID:863542
BeatmapSetID:396994

[Difficulty]
HPDrainRate:7
CircleSize:4
OverallDifficulty:8
ApproachRate:9.4
SliderMultiplier:1.4
SliderTickRate:1

[Events]
//Background and Video events
0,0,"[tylercafe].jpg",0,0
//Break Periods
//Storyboard Layer 0 (Background)
//Storyboard Layer 1 (Fail)
//Storyboard Layer 2 (Pass)
//Storyboard Layer 3 (Foreground)
//Storyboard Sound Samples

[TimingPoints]
1820,312.5,4,2,2,30,1,0
1820,-200,4,2,2,30,0,0
6820,-142.857142857143,4,2,2,40,0,0
8070,-111.111111111111,4,2,2,50,0,0
9945,-111.111111111111,4,2,2,60,0,0
10570,-100,4,2,2,45,0,0
11820,-83.3333333333333,4,2,2,60,0,0
15570,-100,4,2,2,45,0,0
16820,-83.3333333333333,4,2,2,60,0,0
19320,-83.3333333333333,4,3,2,50,0,0
19632,-71.4285714285714,4,3,2,55,0,0
19945,-62.5,4,3,2,60,0,0
20257,-55.5555555555556,4,3,2,65,0,0
21195,-50,4,3,2,70,0,0
21507,-55.5555555555556,4,2,2,50,0,0
21820,-83.3333333333333,4,2,2,60,0,0
25570,-83.3333333333333,4,2,2,45,0,0
26820,-83.3333333333333,4,2,2,60,0,0
31820,-200,4,2,2,30,0,0
40570,-142.857142857143,4,3,2,40,0,0
41820,-100,4,2,2,50,0,0
49320,-111.111111111111,4,2,2,60,0,0
50570,-100,4,2,2,70,0,0
51195,-100,4,2,2,45,0,0
51507,-200,4,2,2,60,0,0
51820,-62.5,4,1,2,70,0,1
54320,-166.666666666667,4,1,2,70,0,1
55570,-62.5,4,1,2,70,0,1
59320,-166.666666666667,4,1,2,70,0,1
60570,-62.5,4,1,2,60,0,0
61195,-83.3333333333333,4,2,2,60,0,0
61820,-55.5555555555556,4,1,2,70,0,1
71820,-83.3333333333333,4,2,2,60,0,0
76820,-83.3333333333333,4,2,2,60,0,0
79320,-83.3333333333333,4,2,2,60,0,0
80570,-62.5,4,1,2,60,0,0
80882,-83.3333333333333,4,1,2,60,0,0
81195,-250,4,2,2,45,0,0
81507,-62.5,4,2,2,30,0,0
81820,-83.3333333333333,4,2,2,60,0,0
86507,-200,4,2,2,45,0,0
86820,-83.3333333333333,4,2,2,60,0,0
89320,-100,4,2,2,60,0,0
90570,-50,4,2,2,60,0,0
91820,-100,4,2,2,60,0,0
110648,-100,4,2,2,30,0,0
111820,-200,4,2,2,30,0,0

[Colours]
Combo1 : 18,124,255
Combo2 : 84,214,162

[HitObjects]
254,123,1820,6,0,B|195:144|195:144|148:144|122:103|122:103|121:143|157:164,1,210,0|0,0:0|0:0,0:0:0:0:
220,236,3070,2,0,P|142:237|212:202,1,210,0|0,0:0|0:0,0:0:0:0:
261,328,4320,6,0,P|321:332|391:209,1,210,2|0,0:0|0:0,0:0:0:0:
473,210,5570,2,0,L|255:201,1,210,2|0,0:0|0:0,0:0:0:0:
233,200,6820,6,0,P|215:221|206:254,1,48.9999985046387,0|0,1:0|0:0,0:0:0:0:
208,131,7132,2,0,P|182:120|148:122,1,48.9999985046387,0|0,1:0|0:0,0:0:0:0:
265,85,7445,2,0,P|267:57|255:25,1,48.9999985046387,0|0,1:0|0:0,0:0:0:0:
325,126,7757,2,0,P|351:119|378:98,1,48.9999985046387,0|0,1:0|0:0,0:0:0:0:
347,238,8070,6,0,P|320:221|303:195,1,62.9999980773926,0|0,1:0|0:0,0:0:0:0:
205,254,8382,2,0,P|212:223|232:199,1,62.9999980773926,0|0,1:0|0:0,0:0:0:0:
147,121,8695,2,0,P|178:118|207:130,1,62.9999980773926,0|0,1:0|0:0,0:0:0:0:
255,24,9007,2,0,P|266:53|264:84,1,62.9999980773926,0|0,1:0|0:0,0:0:0:0:
232,201,9320,5,0,0:0:0:0:
236,200,9398,1,0,0:0:0:0:
240,199,9476,1,0,0:0:0:0:
245,199,9554,1,0,0:0:0:0:
274,175,9632,5,0,0:0:0:0:
269,174,9710,1,0,0:0:0:0:
265,173,9788,1,0,0:0:0:0:
260,173,9866,1,0,0:0:0:0:
223,161,9945,5,0,0:0:0:0:
232,201,10023,1,0,0:0:0:0:
241,242,10101,1,0,0:0:0:0:
251,283,10179,1,0,0:0:0:0:
208,309,10257,5,0,0:0:0:0:
241,242,10335,1,0,0:0:0:0:
274,175,10413,1,0,0:0:0:0:
307,108,10491,1,0,0:0:0:0:
296,109,10570,5,0,0:0:0:0:
62,138,11820,6,0,P|89:100|170:114,1,125.999996154785,4|0,1:0|0:0,0:0:0:0:
243,84,12132,2,0,L|258:176,1,83.9999974365235,8|0,1:0|0:0,0:0:0:0:
90,274,12445,1,0,1:0:0:0:
182,181,12601,1,0,0:0:0:0:
216,307,12757,1,8,1:0:0:0:
163,254,12913,1,0,0:0:0:0:
365,240,13070,6,0,L|238:235,1,125.999996154785,0|0,1:0|0:0,0:0:0:0:
216,307,13382,2,0,L|304:310,1,83.9999974365235,8|0,1:0|0:0,0:0:0:0:
475,247,13695,1,0,1:0:0:0:
478,353,13851,1,0,0:0:0:0:
365,240,14007,1,8,1:0:0:0:
369,347,14163,1,0,0:0:0:0:
459,181,14320,6,0,P|417:217|345:178,1,125.999996154785,0|0,1:0|0:0,0:0:0:0:
395,117,14632,2,0,L|290:107,1,83.9999974365235,8|0,1:0|0:0,0:0:0:0:
212,18,14945,2,0,P|229:48|227:85,1,41.9999987182618,0|0,1:0|0:0,0:0:0:0:
227,145,15101,2,0,P|209:174|176:191,1,41.9999987182618,0|0,0:0|0:0,0:0:0:0:
69,90,15257,2,0,L|174:100,1,83.9999974365235,8|0,1:0|0:0,0:0:0:0:
90,239,15570,5,2,0:0:0:0:
48,172,15726,2,0,L|54:226,1,35,2|0,0:0|0:0,0:0:0:0:
169,236,15882,5,2,0:0:0:0:
127,169,16038,2,0,L|133:223,1,35,2|0,0:0|0:0,0:0:0:0:
248,233,16195,5,0,0:0:0:0:
206,166,16351,2,0,L|212:220,1,35,2|0,0:0|0:0,0:0:0:0:
259,337,16507,2,0,L|244:202,1,105,0|0,0:0|0:0,0:0:0:0:
294,161,16820,6,0,P|346:195|416:176,1,125.999996154785,0|0,1:0|0:0,0:0:0:0:
335,73,17132,2,0,L|214:79,1,83.9999974365235,8|0,1:0|0:0,0:0:0:0:
94,70,17445,1,0,1:0:0:0:
176,16,17601,1,0,0:0:0:0:
217,170,17757,1,8,1:0:0:0:
119,164,17913,1,0,0:0:0:0:
212,295,18070,6,0,L|217:170,1,125.999996154785,0|0,1:0|0:0,0:0:0:0:
160,93,18382,2,0,P|112:83|66:102,1,83.9999974365235,8|0,1:0|0:0,0:0:0:0:
66,252,18695,1,0,1:0:0:0:
119,164,18851,1,0,0:0:0:0:
212,295,19007,1,8,1:0:0:0:
159,383,19163,1,0,0:0:0:0:
33,276,19320,6,0,P|78:267|93:271,1,41.9999987182618,0|0,1:0|0:0,0:0:0:0:
66,252,19476,2,0,L|112:258,1,41.9999987182618,0|0,0:0|0:0,0:0:0:0:
136,232,19632,6,0,P|183:229|201:221,1,48.9999985046387,8|0,1:0|0:0,0:0:0:0:
212,295,19788,2,0,P|230:300|256:325,1,48.9999985046387,0|0,0:0|0:0,0:0:0:0:
251,187,19945,6,0,P|273:159|281:110,1,56,0|0,1:0|0:0,0:0:0:0:
325,340,20101,2,0,P|309:373|274:391,1,56,0|0,0:0|0:0,0:0:0:0:
313,135,20257,6,0,L|389:130,1,62.9999980773926,8|0,1:0|0:0,0:0:0:0:
512,329,20413,2,0,L|449:324,1,62.9999980773926,0|0,0:0|0:0,0:0:0:0:
365,270,20570,5,0,1:0:0:0:
360,249,20648,1,0,0:0:0:0:
355,229,20726,1,0,0:0:0:0:
351,208,20804,1,0,0:0:0:0:
453,140,20882,1,0,1:0:0:0:
448,119,20960,1,0,0:0:0:0:
443,99,21038,1,0,0:0:0:0:
439,78,21116,1,0,0:0:0:0:
365,40,21195,6,0,L|299:39,6,35,4|0|0|0|0|0|0,1:0|0:0|0:0|0:0|0:0|0:0|0:0,0:0:0:0:
446,18,21507,2,0,P|449:49|439:79,1,62.9999980773926,2|0,0:0|0:0,0:0:0:0:
365,120,21663,2,0,L|294:119,1,62.9999980773926,2|0,0:0|0:0,0:0:0:0:
188,113,21820,5,4,1:0:0:0:
212,234,21976,1,0,0:0:0:0:
227,226,22054,1,0,0:0:0:0:
272,241,22132,2,0,P|302:201|295:147,1,83.9999974365235,8|0,1:0|0:0,0:0:0:0:
134,37,22445,6,0,L|31:43,1,83.9999974365235,0|0,1:0|0:0,0:0:0:0:
32,70,22679,1,0,0:0:0:0:
104,118,22757,2,0,L|187:113,1,83.9999974365235,8|0,1:0|0:0,0:0:0:0:
343,108,23070,5,0,1:0:0:0:
290,217,23226,1,0,0:0:0:0:
306,224,23304,1,0,0:0:0:0:
333,256,23382,2,0,P|333:304|378:350,1,83.9999974365235,8|0,1:0|0:0,0:0:0:0:
483,370,23695,5,0,1:0:0:0:
410,156,23851,1,0,1:0:0:0:
261,326,24007,2,0,L|154:324,1,83.9999974365235,8|0,1:0|0:0,0:0:0:0:
18,363,24320,5,0,1:0:0:0:
91,206,24476,1,0,0:0:0:0:
108,204,24554,1,0,0:0:0:0:
146,231,24632,2,0,P|167:272|157:317,1,83.9999974365235,8|0,1:0|0:0,0:0:0:0:
15,120,24945,6,0,P|-6:79|4:34,1,83.9999974365235,0|0,1:0|0:0,0:0:0:0:
11,24,25179,1,0,0:0:0:0:
87,72,25257,2,0,L|197:72,1,83.9999974365235,8|0,1:0|0:0,0:0:0:0:
265,144,25570,5,8,1:3:0:0:
263,137,25648,1,0,0:0:0:0:
261,131,25726,1,0,0:0:0:0:
259,125,25804,1,0,0:0:0:0:
335,95,25882,5,8,1:3:0:0:
334,101,25960,1,0,0:0:0:0:
333,107,26038,1,0,0:0:0:0:
332,114,26116,1,0,0:0:0:0:
381,168,26195,5,8,1:3:0:0:
265,144,26351,1,8,1:3:0:0:
355,307,26507,5,0,1:0:0:0:
346,233,26585,1,0,1:0:0:0:
274,218,26663,1,0,1:0:0:0:
239,283,26741,1,0,1:0:0:0:
288,337,26820,6,0,L|377:333,1,83.9999974365235,4|0,1:0|0:0,0:0:0:0:
400,331,27054,1,0,0:0:0:0:
445,260,27132,2,0,P|480:226|487:182,1,83.9999974365235,8|0,1:0|0:0,0:0:0:0:
417,20,27445,5,0,1:0:0:0:
402,186,27601,1,0,0:0:0:0:
407,169,27679,1,0,0:0:0:0:
433,136,27757,2,0,L|317:134,1,83.9999974365235,8|0,1:0|0:0,0:0:0:0:
173,64,28070,6,0,P|187:111|161:167,1,83.9999974365235,0|0,1:0|0:0,0:0:0:0:
164,167,28304,1,0,0:0:0:0:
228,214,28382,2,0,L|344:216,1,83.9999974365235,8|0,1:0|0:0,0:0:0:0:
259,34,28695,5,0,1:0:0:0:
85,124,28851,1,0,0:0:0:0:
68,126,28929,1,0,0:0:0:0:
39,103,29007,2,0,L|28:198,1,83.9999974365235,8|0,1:0|0:0,0:0:0:0:
96,295,29320,6,0,P|62:316|19:311,1,55.9999982910157,0|0,1:0|0:0,0:0:0:0:
43,226,29528,1,0,1:0:0:0:
124,216,29632,2,0,P|158:234|176:274,1,55.9999982910157,8|0,1:0|0:0,0:0:0:0:
182,332,29840,5,0,0:0:0:0:
182,332,29945,2,0,L|247:339,1,55.9999982910157,0|0,1:0|0:0,0:0:0:0:
387,245,30153,1,0,0:0:0:0:
305,256,30257,2,0,L|240:263,1,55.9999982910157,8|0,1:0|0:0,0:0:0:0:
180,184,30465,1,0,0:0:0:0:
266,108,30570,5,4,0:0:0:0:
118,131,31820,6,0,B|109:181|142:237|179:250|179:250|138:244|120:217,1,210,0|0,0:0|0:0,0:0:0:0:
273,148,33070,2,0,P|196:153|266:123,1,210,0|0,0:0|0:0,0:0:0:0:
480,176,34320,6,0,P|383:223|299:175,1,210
327,286,35570,1,0,0:0:0:0:
256,48,36195,1,0,0:0:0:0:
86,229,36820,6,0,B|122:236|138:251|152:287|152:287|186:316|228:320|267:294,1,210,0|0,0:0|0:0,0:0:0:0:
360,185,38070,2,0,P|270:147|213:226,1,210,0|0,0:0|0:0,0:0:0:0:
343,267,39320,6,0,B|384:279|384:279|420:275|461:239|464:184|442:145,1,210,0|0,0:0|0:0,0:0:0:0:
308,75,40570,1,0,0:0:0:0:
292,100,40726,2,0,L|298:168,1,48.9999985046387
349,225,41038,6,0,L|352:259,4,24.4999992523194,0|0|0|0|0,0:0|0:0|0:0|0:0|0:0,0:0:0:0:
271,253,41507,2,0,L|192:250,1,73.4999977569581
158,245,41820,6,0,P|145:197|155:158,1,70,0|0,1:0|1:0,0:0:0:0:
256,192,42132,2,0,L|248:241,1,35,8|0,0:0|0:0,0:0:0:0:
162,323,42288,2,0,P|133:277|131:209,1,105,0|0,1:0|0:0,0:0:0:0:
148,141,42601,1,0,1:0:0:0:
352,115,42757,2,0,L|332:243,1,105,8|0,0:0|0:0,0:0:0:0:
351,251,43070,6,0,P|315:286|277:297,1,70,0|0,1:0|1:0,0:0:0:0:
256,192,43382,2,0,L|302:174,1,35,8|0,0:0|0:0,0:0:0:0:
417,208,43538,2,0,P|391:256|333:291,1,105,0|0,1:0|0:0,0:0:0:0:
266,311,43851,1,8,0:0:0:0:
141,147,44007,2,0,L|261:100,1,105,0|0,1:0|0:0,0:0:0:0:
260,80,44320,6,0,P|308:92|336:120,1,70,0|0,1:0|0:0,0:0:0:0:
256,192,44632,2,0,L|217:160,1,35,8|0,0:0|0:0,0:0:0:0:
189,44,44788,2,0,P|243:41|303:74,1,105,0|0,1:0|0:0,0:0:0:0:
354,124,45101,1,0,1:0:0:0:
275,314,45257,2,0,L|174:232,1,105,8|0,0:0|0:0,0:0:0:0:
119,84,45570,5,0,1:0:0:0:
43,92,45727,1,0,0:0:0:0:
27,168,45883,1,8,0:0:0:0:
94,206,46039,1,0,1:0:0:0:
151,154,46195,1,0,0:0:0:0:
297,116,46351,1,8,0:0:0:0:
377,242,46507,1,0,1:0:0:0:
280,360,46663,1,0,0:0:0:0:
141,303,46820,6,0,P|178:299|234:262,1,70,0|0,1:0|0:0,0:0:0:0:
217,36,47132,2,0,P|201:71|206:137,1,70,8|0,0:0|0:0,0:0:0:0:
409,236,47445,2,0,P|388:205|327:176,1,70,0|0,1:0|1:0,0:0:0:0:
256,192,47757,1,0,1:0:0:0:
256,192,47913,1,8,0:0:0:0:
102,147,48070,6,0,P|123:178|184:207,1,70,0|0,1:0|0:0,0:0:0:0:
294,347,48382,2,0,P|309:315|313:281,1,70,8|0,0:0|1:0,0:0:0:0:
371,81,48695,2,0,P|336:83|304:97,1,70,0|0,0:0|1:0,0:0:0:0:
256,192,49007,1,0,0:0:0:0:
256,192,49163,1,0,0:0:0:0:
316,270,49320,5,0,1:0:0:0:
308,305,49476,1,0,1:0:0:0:
253,92,49633,5,8,1:2:0:0:
280,69,49789,1,0,1:0:0:0:
200,273,49945,5,0,0:0:0:0:
163,276,50101,1,0,1:0:0:0:
349,158,50258,5,8,1:2:0:0:
380,177,50414,1,0,1:0:0:0:
161,164,50570,5,0,1:0:0:0:
146,132,50648,1,0,1:0:0:0:
145,97,50726,1,0,1:0:0:0:
156,64,50804,1,0,1:0:0:0:
178,37,50882,1,0,1:0:0:0:
192,68,50961,1,0,0:0:0:0:
193,103,51039,1,0,1:0:0:0:
182,136,51117,1,0,1:0:0:0:
161,164,51195,5,0,0:0:0:0:
161,164,51507,2,0,P|144:193|143:215,1,52.5,0|0,0:0|0:0,0:0:0:0:
161,164,51820,6,0,P|104:180|86:89,1,168,4|0,1:0|0:0,0:0:0:0:
136,39,52132,2,0,L|9:48,1,112,0|0,0:0|0:0,0:0:0:0:
23,231,52445,5,8,0:1:0:0:
225,298,52601,1,0,0:0:0:0:
386,162,52757,2,0,B|322:137|322:137|276:141|244:173|230:226,1,168,0|0,0:0|0:0,0:0:0:0:
322,223,53070,6,0,L|379:245,1,56,0|0,1:0|0:0,0:0:0:0:
512,215,53226,2,0,L|459:194,1,56,0|0,0:0|0:0,0:0:0:0:
369,78,53382,5,0,0:0:0:0:
444,275,53538,1,0,1:0:0:0:
476,118,53695,1,8,0:1:0:0:
476,118,54007,6,0,L|376:108,1,56,0|0,1:0|0:0,0:0:0:0:
292,41,54163,1,8,0:1:0:0:
273,53,54241,1,0,0:0:0:0:
243,132,54320,6,0,P|247:96|186:32,1,125.999996154785,8|0,1:3|0:0,0:0:0:0:
10,162,54945,6,0,L|64:156,1,41.9999987182618,8|0,0:1|0:0,0:0:0:0:
172,109,55257,2,0,L|130:112,1,41.9999987182618,0|0,0:0|0:0,0:0:0:0:
17,71,55570,5,0,1:0:0:0:
261,201,55726,2,0,L|267:269,1,56,0|0,0:0|0:0,0:0:0:0:
269,298,55882,5,0,0:0:0:0:
160,324,56038,1,0,1:0:0:0:
49,351,56195,1,8,0:1:0:0:
61,204,56507,6,0,L|65:148,1,56,0|0,1:0|2:0,0:0:0:0:
65,149,56820,6,0,B|76:274|76:274|101:225,1,168,4|0,1:2|0:0,0:0:0:0:
115,215,57132,2,0,P|173:194|237:254,1,112,0|0,0:0|0:0,0:0:0:0:
291,291,57445,5,8,0:1:0:0:
145,109,57601,1,0,0:0:0:0:
314,45,57757,2,0,B|307:111|307:111|317:146|317:146|307:221,1,168
291,291,58070,6,0,L|219:286,1,56,0|0,1:0|0:0,0:0:0:0:
115,215,58226,2,0,L|59:211,1,56,0|0,0:0|0:0,0:0:0:0:
213,140,58382,5,0,1:0:0:0:
130,337,58538,1,0,1:0:0:0:
1,167,58695,1,8,0:1:0:0:
1,167,59007,6,0,L|81:157,1,56,0|0,1:0|0:0,0:0:0:0:
213,140,59163,1,8,0:1:0:0:
232,128,59241,1,0,0:0:0:0:
256,55,59320,6,0,L|387:57,1,125.999996154785,8|0,1:3|0:0,0:0:0:0:
369,201,59945,6,0,L|370:145,1,41.9999987182618,8|0,0:1|0:0,0:0:0:0:
471,36,60257,2,0,L|470:77,1,41.9999987182618,0|8,0:0|0:1,0:0:0:0:
451,198,60570,6,0,P|427:263|316:262,1,168,0|0,1:0|0:0,0:0:0:0:
227,186,60882,2,0,B|257:180|285:155|285:155|324:152|355:167|372:208,1,168,0|0,0:0|0:0,0:0:0:0:
356,325,61195,6,0,L|368:199,1,125.999996154785,8|0,0:1|0:0,0:0:0:0:
451,198,61507,2,0,L|439:323,1,125.999996154785,0|0,0:0|0:0,0:0:0:0:
463,354,61820,6,0,B|339:346|339:346|316:352|316:352|216:347,1,188.999994232178,4|0,1:0|0:0,0:0:0:0:
194,343,62132,1,8,0:1:0:0:
305,272,62288,2,0,L|233:267,1,62.9999980773926,0|0,0:0|0:0,0:0:0:0:
107,340,62445,2,0,L|44:336,1,62.9999980773926,0|0,0:0|0:0,0:0:0:0:
247,192,62601,5,0,1:0:0:0:
99,261,62757,2,0,L|162:265,1,62.9999980773926,8|0,0:1|0:0,0:0:0:0:
372,203,62913,2,0,L|434:206,1,62.9999980773926,0|0,0:0|0:0,0:0:0:0:
162,114,63070,6,0,B|-2:105|-2:105|42:126,1,188.999994232178,0|0,1:0|0:0,0:0:0:0:
84,151,63382,1,8,0:1:0:0:
277,150,63538,1,0,0:0:0:0:
272,138,63616,1,0,0:0:0:0:
242,119,63695,6,0,L|304:122,1,62.9999980773926,0|0,0:0|0:0,0:0:0:0:
475,187,63851,1,0,0:0:0:0:
480,199,63929,1,0,0:0:0:0:
486,210,64007,5,10,0:1:0:0:
413,204,64085,1,2,0:1:0:0:
342,201,64163,1,2,0:1:0:0:
270,196,64241,1,2,0:1:0:0:
199,192,64320,2,0,B|158:153|158:153|21:147,1,188.999994232178,6|0,1:1|0:0,0:0:0:0:
38,71,64632,6,0,L|182:77,1,125.999996154785,8|0,0:1|0:0,0:0:0:0:
460,91,64945,1,0,0:0:0:0:
259,83,65101,1,0,1:0:0:0:
486,210,65257,2,0,L|343:201,1,125.999996154785,8|0,0:1|0:0,0:0:0:0:
128,279,65570,6,0,P|206:246|125:199,1,188.999994232178,0|0,1:0|0:0,0:0:0:0:
78,161,65882,2,0,P|50:88|93:32,1,125.999996154785,8|0,0:1|0:0,0:0:0:0:
259,83,66195,5,0,0:0:0:0:
134,102,66351,1,0,1:0:0:0:
227,286,66507,1,0,1:0:0:0:
114,228,66663,1,0,0:0:0:0:
316,197,66820,6,0,L|94:183,1,188.999994232178,4|0,1:0|0:0,0:0:0:0:
47,178,67132,1,8,0:1:0:0:
310,112,67288,2,0,L|233:107,1,62.9999980773926,0|0,0:0|0:0,0:0:0:0:
162,21,67445,2,0,L|100:16,1,62.9999980773926,0|0,0:0|0:0,0:0:0:0:
263,26,67601,1,0,1:0:0:0:
33,95,67757,6,0,L|96:99,1,62.9999980773926,8|0,0:1|0:0,0:0:0:0:
305,231,67913,2,0,L|243:226,1,62.9999980773926
86,373,68070,6,0,B|-1:364|-1:364|39:335|39:335|126:339,1,188.999994232178,0|0,1:0|0:0,0:0:0:0:
175,338,68382,1,8,0:1:0:0:
285,283,68538,1,0,0:0:0:0:
280,271,68616,1,0,0:0:0:0:
305,231,68695,6,0,L|243:226,1,62.9999980773926
51,113,68851,1,0,0:0:0:0:
56,125,68929,1,0,0:0:0:0:
61,137,69007,5,10,0:1:0:0:
132,140,69086,1,2,0:1:0:0:
204,145,69164,1,2,0:1:0:0:
274,149,69242,1,2,0:1:0:0:
347,154,69320,2,0,P|401:100|320:87,1,188.999994232178,6|0,1:1|0:0,0:0:0:0:
265,27,69632,2,0,L|406:34,1,125.999996154785,8|0,0:1|0:0,0:0:0:0:
480,207,69945,5,0,1:0:0:0:
480,207,70023,1,0,0:0:0:0:
480,207,70101,2,0,L|408:204,1,62.9999980773926,0|0,0:0|0:0,0:0:0:0:
324,81,70257,5,8,0:0:0:0:
324,81,70335,1,0,0:0:0:0:
324,81,70413,2,0,L|252:78,1,62.9999980773926,0|0,0:0|0:0,0:0:0:0:
147,116,70570,5,0,0:0:0:0:
147,119,70648,1,0,0:0:0:0:
147,122,70726,1,0,0:0:0:0:
147,125,70804,1,0,0:0:0:0:
144,164,70882,5,0,0:0:0:0:
144,167,70960,1,0,0:0:0:0:
144,170,71038,1,0,0:0:0:0:
144,173,71116,1,0,0:0:0:0:
118,161,71195,5,0,0:0:0:0:
144,164,71273,1,0,0:0:0:0:
170,168,71351,1,0,0:0:0:0:
196,172,71429,1,0,0:0:0:0:
221,143,71507,5,0,0:0:0:0:
170,152,71585,1,0,0:0:0:0:
118,161,71663,1,0,0:0:0:0:
66,170,71741,1,0,0:0:0:0:
15,179,71820,6,0,P|18:276|54:280,1,125.999996154785,4|0,1:0|0:0,0:0:0:0:
73,346,72132,2,0,L|180:324,1,83.9999974365235,8|0,1:0|0:0,0:0:0:0:
264,218,72445,1,0,1:0:0:0:
296,316,72601,1,0,0:0:0:0:
152,208,72757,1,8,1:0:0:0:
239,124,72913,2,0,L|286:126,1,41.9999987182618,0|0,0:0|0:0,0:0:0:0:
384,92,73070,6,0,P|399:44|383:6,1,83.9999974365235,0|0,1:0|0:0,0:0:0:0:
264,218,73382,2,0,P|224:248|215:288,1,83.9999974365235,8|0,1:0|0:0,0:0:0:0:
436,186,73695,2,0,P|487:185|517:158,1,83.9999974365235,0|0,1:0|0:0,0:0:0:0:
280,110,74007,1,8,1:0:0:0:
261,89,74085,1,0,0:0:0:0:
236,79,74163,1,0,0:0:0:0:
208,80,74241,1,0,0:0:0:0:
138,52,74320,6,0,P|166:89|132:57,1,125.999996154785,0|0,1:0|0:0,0:0:0:0:
40,88,74632,2,0,P|17:124|19:192,1,83.9999974365235,8|0,1:0|0:0,0:0:0:0:
233,313,74945,1,0,1:0:0:0:
37,287,75101,1,0,0:0:0:0:
126,365,75257,1,8,1:0:0:0:
143,236,75413,1,0,0:0:0:0:
233,313,75570,6,0,L|326:312,1,83.9999974365235,0|0,1:0|0:0,0:0:0:0:
504,279,75882,2,0,L|420:280,1,83.9999974365235,8|0,1:0|0:0,0:0:0:0:
228,225,76195,2,0,L|321:224,1,83.9999974365235,0|0,1:0|0:0,0:0:0:0:
499,191,76507,2,0,L|415:192,1,83.9999974365235,8|0,1:0|0:0,0:0:0:0:
223,137,76820,6,0,L|366:136,1,125.999996154785,0|0,1:0|0:0,0:0:0:0:
432,114,77132,2,0,P|434:64|464:27,1,83.9999974365235,8|0,1:0|0:0,0:0:0:0:
499,191,77445,1,0,1:0:0:0:
351,171,77601,1,0,0:0:0:0:
378,319,77757,1,8,1:0:0:0:
230,299,77913,2,0,L|225:256,1,41.9999987182618,0|0,0:0|0:0,0:0:0:0:
161,117,78070,6,0,P|189:165|239:187,1,83.9999974365235,0|0,1:0|0:0,0:0:0:0:
378,319,78382,2,0,P|383:264|356:217,1,83.9999974365235,8|0,1:0|0:0,0:0:0:0:
321,29,78695,2,0,P|284:71|278:125,1,83.9999974365235,0|0,1:0|0:0,0:0:0:0:
195,297,79007,1,8,1:0:0:0:
222,296,79085,1,0,0:0:0:0:
248,286,79163,1,0,0:0:0:0:
270,268,79241,1,0,0:0:0:0:
205,213,79320,6,0,L|334:137,1,125.999996154785,0|0,0:0|0:0,0:0:0:0:
392,117,79632,2,0,P|441:128|478:174,1,83.9999974365235,8|0,0:0|0:0,0:0:0:0:
463,371,79945,6,0,L|475:314,1,41.9999987182618,0|0,0:0|0:0,0:0:0:0:
392,241,80101,2,0,L|404:184,1,41.9999987182618,0|0,0:0|0:0,0:0:0:0:
281,365,80257,6,0,L|293:308,1,41.9999987182618,8|0,0:0|0:0,0:0:0:0:
210,235,80413,2,0,L|222:178,1,41.9999987182618,0|0,0:0|0:0,0:0:0:0:
99,359,80570,6,0,L|110:308,4,37.3333333333333,4|0|0|0|0,0:0|0:0|0:0|0:0|0:0,0:0:0:0:
28,229,80882,2,0,L|40:172,3,41.9999987182618,0|0|0|0,0:0|0:0|0:0|0:0,0:0:0:0:
131,121,81195,6,0,L|143:64,1,41.9999987182618,0|0,0:0|2:0,0:0:0:0:
172,51,81507,6,0,L|143:191,1,112
196,301,81820,6,0,P|151:309|102:290,1,83.9999974365235,4|0,1:0|0:0,0:0:0:0:
313,176,82132,2,0,P|358:168|407:187,1,83.9999974365235,8|0,1:0|0:0,0:0:0:0:
345,339,82445,2,0,L|352:251,1,83.9999974365235,0|0,1:0|0:0,0:0:0:0:
441,86,82757,2,0,L|435:169,1,83.9999974365235,8|0,1:0|0:0,0:0:0:0:
199,76,83070,6,0,B|305:86|305:86|283:96,1,125.999996154785,0|0,1:0|0:0,0:0:0:0:
267,106,83382,2,0,P|236:144|237:202,1,83.9999974365235,8|0,0:1|0:0,0:0:0:0:
348,353,83695,1,0,1:0:0:0:
483,233,83851,1,0,1:0:0:0:
313,176,84007,1,8,1:0:0:0:
382,254,84163,1,0,0:0:0:0:
362,48,84320,6,0,P|418:38|476:61,1,83.9999974365235,0|0,1:0|0:0,0:0:0:0:
293,264,84632,2,0,P|237:274|179:251,1,83.9999974365235,8|0,1:0|0:0,0:0:0:0:
112,79,84945,2,0,L|121:177,1,83.9999974365235,0|0,0:0|0:0,0:0:0:0:
38,301,85257,2,0,L|47:399,1,83.9999974365235,8|0,1:0|0:0,0:0:0:0:
156,242,85570,6,0,P|211:238|236:320,1,125.999996154785,0|0,1:0|0:0,0:0:0:0:
239,332,85882,2,0,L|151:325,1,83.9999974365235,8|0,1:0|0:0,0:0:0:0:
347,259,86195,6,0,P|402:255|427:337,1,125.999996154785,0|0,1:0|0:0,0:0:0:0:
430,348,86507,2,0,L|368:342,1,52.5,8|0,0:1|0:0,0:0:0:0:
347,259,86820,6,0,L|233:249,1,83.9999974365235,4|0,1:0|0:0,0:0:0:0:
88,318,87132,2,0,P|134:324|189:288,1,83.9999974365235,8|0,1:0|0:0,0:0:0:0:
79,107,87445,2,0,P|33:101|-22:137,1,83.9999974365235,0|0,1:0|0:0,0:0:0:0:
205,167,87757,2,0,L|289:173,1,83.9999974365235,8|0,1:0|0:0,0:0:0:0:
467,244,88070,6,0,L|454:108,1,125.999996154785,0|0,1:0|0:0,0:0:0:0:
472,34,88382,2,0,P|422:43|371:29,1,83.9999974365235,8|0,1:0|0:0,0:0:0:0:
155,61,88695,1,0,1:0:0:0:
205,167,88851,1,0,1:0:0:0:
295,45,89007,1,8,1:0:0:0:
345,151,89163,1,0,0:0:0:0:
191,271,89320,5,0,0:0:0:0:
192,264,89398,1,0,0:0:0:0:
193,257,89476,1,0,0:0:0:0:
194,250,89554,1,0,0:0:0:0:
195,243,89632,1,0,0:0:0:0:
196,236,89710,1,0,0:0:0:0:
197,229,89788,1,0,0:0:0:0:
198,222,89866,1,0,0:0:0:0:
199,215,89945,6,0,L|264:219,1,35,0|0,0:0|0:0,0:0:0:0:
312,222,90101,2,0,L|377:226,1,35,0|0,0:0|0:0,0:0:0:0:
399,127,90257,6,0,L|334:131,1,35,0|0,0:0|0:0,0:0:0:0:
286,134,90413,2,0,L|221:138,1,35,0|0,0:0|0:0,0:0:0:0:
172,142,90570,6,0,L|116:147,6,35,0|0|0|0|0|0|0,0:0|0:0|0:0|0:0|0:0|0:0|0:0,0:0:0:0:
320,45,90882,2,0,L|355:41,6,35,0|0|0|0|0|0|0,0:0|0:0|0:0|0:0|0:0|0:0|0:0,0:0:0:0:
239,4,91195,5,0,0:0:0:0:
230,37,91273,1,0,0:0:0:0:
233,71,91351,1,0,0:0:0:0:
250,102,91429,1,0,0:0:0:0:
262,134,91507,1,0,0:0:0:0:
260,168,91585,1,0,0:0:0:0:
244,199,91663,1,0,0:0:0:0:
217,220,91741,1,0,0:0:0:0:
129,192,91820,6,0,L|29:188,1,70,4|0,0:0|0:0,0:0:0:0:
33,214,92054,1,0,2:0:0:0:
41,238,92132,1,8,0:0:0:0:
124,104,92288,1,0,0:0:0:0:
217,220,92445,6,0,P|219:174|201:135,1,70,0|0,0:0|0:0,0:0:0:0:
165,20,92757,2,0,L|254:22,1,70,8|0,0:0|0:0,0:0:0:0:
432,67,93070,6,0,L|363:65,1,70,0|0,0:0|0:0,0:0:0:0:
328,102,93304,1,0,0:0:0:0:
334,120,93382,2,0,P|344:153|340:188,1,70,8|0,0:0|0:0,0:0:0:0:
241,331,93695,5,0,0:0:0:0:
249,162,93851,1,0,0:0:0:0:
371,288,94007,1,8,0:0:0:0:
370,264,94085,1,0,0:0:0:0:
368,241,94163,1,0,0:0:0:0:
367,218,94241,1,0,0:0:0:0:
402,179,94320,6,0,L|360:256,1,70,0|0,0:0|0:0,0:0:0:0:
371,288,94554,1,0,0:0:0:0:
358,310,94632,1,8,0:0:0:0:
481,279,94788,1,0,0:0:0:0:
257,227,94945,6,0,P|214:225|163:245,1,70,0|0,0:0|0:0,0:0:0:0:
440,114,95257,2,0,P|483:116|534:96,1,70,8|0,0:0|0:0,0:0:0:0:
303,31,95570,6,0,L|311:140,1,105,0|0,0:0|0:0,0:0:0:0:
235,187,95882,2,0,L|229:102,1,70,8|0,0:0|0:0,0:0:0:0:
440,114,96195,6,0,L|448:223,1,105,0|0,0:0|0:0,0:0:0:0:
372,270,96507,2,0,L|366:185,1,70,8|0,0:0|0:0,0:0:0:0:
480,301,96820,5,4,0:2:0:0:
293,314,96976,2,0,L|289:268,1,35,0|0,0:0|0:0,0:0:0:0:
287,177,97132,2,0,P|231:198|197:187,1,70,8|0,0:0|0:0,0:0:0:0:
36,133,97445,5,0,0:0:0:0:
234,117,97601,1,0,0:0:0:0:
91,33,97757,1,8,0:0:0:0:
79,52,97835,1,0,0:0:0:0:
71,74,97913,1,0,0:0:0:0:
70,97,97991,1,0,0:0:0:0:
36,133,98070,5,0,0:0:0:0:
106,225,98226,1,0,0:0:0:0:
128,226,98304,1,0,0:0:0:0:
170,205,98382,5,8,0:0:0:0:
185,84,98538,2,0,L|183:138,1,35,0|0,0:0|0:0,0:0:0:0:
230,262,98695,5,0,0:0:0:0:
106,225,98851,1,0,0:0:0:0:
198,352,99007,2,0,L|204:269,1,70,8|0,0:0|0:0,0:0:0:0:
185,84,99320,6,0,P|157:124|159:152,1,46.6666666666667,0|0,1:0|0:0,0:0:0:0:
170,205,99528,1,0,0:0:0:0:
253,187,99632,2,0,P|233:142|208:130,1,46.6666666666667,8|0,0:0|0:0,0:0:0:0:
86,169,99840,5,0,0:0:0:0:
86,169,99945,2,0,L|73:232,1,46.6666666666667,0|0,1:0|0:0,0:0:0:0:
198,332,100153,1,0,0:0:0:0:
180,250,100257,2,0,L|171:204,1,46.6666666666667,8|0,0:0|0:0,0:0:0:0:
241,103,100465,1,0,0:0:0:0:
340,190,100570,5,4,0:0:0:0:
455,140,101820,5,4,0:0:0:0:
455,140,102132,2,0,L|443:229,1,70,8|0,0:0|0:0,0:0:0:0:
315,297,102445,2,0,L|325:227,1,70,0|0,0:0|0:0,0:0:0:0:
496,341,102757,2,0,P|439:366|402:358,1,70,8|0,0:0|0:0,0:0:0:0:
215,356,103070,6,0,L|225:286,1,70,0|0,0:0|0:0,0:0:0:0:
293,174,103382,1,8,0:0:0:0:
303,199,103538,1,0,0:0:0:0:
122,345,103695,6,0,L|132:275,1,70,0|0,0:0|0:0,0:0:0:0:
200,163,104007,1,8,0:0:0:0:
210,188,104163,1,0,0:0:0:0:
120,129,104320,6,0,P|157:86|230:91,1,105,0|0,0:0|0:0,0:0:0:0:
236,78,104632,2,0,L|333:73,1,70,8|0,0:0|0:0,0:0:0:0:
290,227,104945,6,0,P|253:270|180:265,1,105,0|0,0:0|0:0,0:0:0:0:
174,278,105257,2,0,L|77:283,1,70,8|0,0:0|0:0,0:0:0:0:
225,36,105570,6,0,P|298:27|346:60,1,105,0|0,0:0|0:0,0:0:0:0:
407,20,105882,2,0,L|501:32,1,70,8|0,0:0|0:0,0:0:0:0:
287,348,106195,6,0,P|214:357|166:324,1,105,0|0,0:0|0:0,0:0:0:0:
105,364,106507,2,0,L|11:352,1,70,8|0,0:0|0:0,0:0:0:0:
311,248,106820,5,4,0:0:0:0:
311,248,107132,2,0,P|269:253|232:237,1,70,8|0,0:0|0:0,0:0:0:0:
46,289,107445,2,0,P|88:284|125:300,1,70,0|0,0:0|0:0,0:0:0:0:
140,136,107757,2,0,L|233:143,1,70,8|0,0:0|0:0,0:0:0:0:
479,38,108070,6,0,L|410:32,1,70,4|0,0:0|0:0,0:0:0:0:
270,85,108382,1,8,0:0:0:0:
245,55,108538,1,0,0:0:0:0:
409,154,108695,6,0,L|340:148,1,70,0|0,0:0|0:0,0:0:0:0:
200,201,109007,1,8,0:0:0:0:
175,171,109163,1,0,0:0:0:0:
291,237,109320,5,0,1:0:0:0:
292,242,109398,1,0,1:0:0:0:
292,247,109476,1,0,1:0:0:0:
293,252,109554,1,0,1:0:0:0:
248,289,109632,5,8,1:0:0:0:
248,294,109710,1,0,1:0:0:0:
248,299,109788,1,0,1:0:0:0:
247,304,109866,1,0,1:0:0:0:
240,334,109945,5,0,1:0:0:0:
241,327,110023,1,0,1:0:0:0:
241,319,110101,1,0,1:0:0:0:
241,312,110179,1,0,1:0:0:0:
308,257,110257,5,8,1:0:0:0:
307,249,110335,1,0,1:0:0:0:
307,241,110413,1,0,1:0:0:0:
306,234,110491,1,0,1:0:0:0:
220,169,110570,6,0,L|229:130,12,35,4|0|0|0|0|0|0|0|0|0|0|0|0,1:0|1:0|1:0|1:0|1:0|1:0|1:0|1:0|1:0|1:0|1:0|1:0|1:0,1:0:0:0:
300,177,111820,6,0,P|390:223|480:176,1,210
260,117,113070,2,0,P|197:159|273:148,1,210,0|0,0:0|0:0,0:0:0:0:
121,219,114320,6,0,B|138:244|179:250|179:250|142:237|109:181|118:131,1,210,0|0,0:0|0:0,0:0:0:0:
263,201,115570,2,0,L|473:210,1,210,0|0,0:0|0:0,0:0:0:0:
393,217,116820,6,0,P|359:312|261:328,1,210,0|0,0:0|0:0,0:0:0:0:
208,198,118070,2,0,P|142:239|220:236,1,210,0|0,0:0|0:0,0:0:0:0:
145,155,119320,6,0,B|121:143|122:103|122:103|148:144|195:144|195:144|254:123,1,210,0|0,0:0|0:0,0:0:0:0:
339,94,120570,1,0,0:0:0:0:
256,192,120648,12,0,121820,0:0:0:0:
