osu file format v14

[General]
AudioFilename: twopizzas.mp3
AudioLeadIn: 0
PreviewTime: 71507
Countdown: 0
SampleSet: Soft
StackLeniency: 0.7
Mode: 0
LetterboxInBreaks: 0
WidescreenStoryboard: 1

[Editor]
DistanceSpacing: 1
BeatDivisor: 4
GridSize: 4
TimelineZoom: 1.8

[Metadata]
Title:Night sky
TitleUnicode:Night sky
Artist:USAO
ArtistUnicode:USAO
Creator:sukiNathan
Version:deetz' Insane
Source:beatmania IIDX 22 PENDUAL
Tags:pumpcore bemani captin1 captin handsome kevin kevincela -kevincela- bonzi asphyxia asahina momoko mokori m_o_k_o_r_i len fast deetz
BeatmapID:863541
BeatmapSetID:396994

[Difficulty]
HPDrainRate:6
CircleSize:4
OverallDifficulty:8
ApproachRate:9
SliderMultiplier:1.7
SliderTickRate:1

[Events]
//Background and Video events
0,0,"nightsky.jpg",0,0
//Break Periods
2,32020,41220
//Storyboard Layer 0 (Background)
//Storyboard Layer 1 (Fail)
//Storyboard Layer 2 (Pass)
//Storyboard Layer 3 (Foreground)
//Storyboard Sound Samples

[TimingPoints]
1820,312.5,4,2,1,60,1,0
1820,-133.333333333333,4,2,1,60,0,0
10257,-90.9090909090909,4,2,1,60,0,0
11820,-100,4,2,1,60,0,0
51195,-71.4285714285714,4,2,1,60,0,0
51820,-83.3333333333333,4,2,1,60,0,1
52132,-83.3333333333333,4,2,1,60,0,0
61507,-83.3333333333333,4,2,1,60,0,0
61820,-76.9230769230769,4,2,1,60,0,1
62132,-76.9230769230769,4,2,1,60,0,1
70570,-76.9230769230769,4,2,1,60,0,0
71820,-100,4,2,1,60,0,0
86195,-133.333333333333,4,2,1,60,0,0
86820,-100,4,2,1,60,0,0
91820,-90.9090909090909,4,2,1,60,0,1
100570,-133.333333333333,4,2,1,60,0,0
101820,-90.9090909090909,4,2,1,60,0,1
110570,-76.9230769230769,4,2,1,60,0,1
111820,-100,4,2,1,60,0,0

[Colours]
Combo1 : 255,62,62
Combo2 : 191,85,232
Combo3 : 67,81,250

[HitObjects]
96,168,1820,6,0,P|168:156|228:192,1,127.500004863739,0|0,0:0|0:0,0:0:0:0:
308,164,2288,2,0,L|316:244,1,63.7500024318696,2|0,0:0|0:0,0:0:0:0:
188,156,2601,2,0,L|194:92,1,63.7500024318696,0|0,0:0|0:0,0:0:0:0:
332,176,2913,6,0,L|348:312,2,127.500004863739,2|0|2,0:0|0:0|0:0,0:0:0:0:
408,120,3695,1,0,0:0:0:0:
280,104,3851,2,0,P|228:104|196:96,1,63.7500024318696
80,158,4163,2,0,P|111:159|143:155,1,63.7500024318696,0|2,0:0|0:0,0:0:0:0:
448,264,5413,5,0,0:0:0:0:
404,179,5570,2,0,L|336:199,1,63.7500024318696,2|0,0:0|0:0,0:0:0:0:
268,260,5882,1,0,0:0:0:0:
420,192,6038,2,0,L|276:180,1,127.500004863739,2|0,0:0|0:0,0:0:0:0:
160,144,6507,2,0,P|160:204|168:224,1,63.7500024318696,0|0,0:0|0:0,0:0:0:0:
248,280,6820,5,0,1:0:0:0:
248,280,7132,2,0,L|327:250,1,63.7500024318696,0|0,1:0|0:0,0:0:0:0:
162,253,7445,2,0,L|144:187,1,63.7500024318696,0|0,1:0|0:0,0:0:0:0:
101,319,7757,2,0,L|17:333,1,63.7500024318696,0|0,1:0|0:0,0:0:0:0:
277,267,8070,6,0,L|356:237,1,63.7500024318696,0|0,1:0|0:0,0:0:0:0:
153,222,8383,2,0,L|135:156,1,63.7500024318696,0|0,1:0|0:0,0:0:0:0:
69,323,8695,2,0,L|-14:337,1,63.7500024318696,0|0,1:0|0:0,0:0:0:0:
193,369,9007,1,0,1:0:0:0:
193,369,9163,1,0,0:0:0:0:
268,296,9320,5,0,1:0:0:0:
242,277,9398,1,0,1:0:0:0:
212,266,9476,1,0,1:0:0:0:
180,266,9554,1,0,1:0:0:0:
144,276,9632,1,0,1:0:0:0:
164,247,9710,1,0,1:0:0:0:
174,214,9788,1,0,1:0:0:0:
174,179,9866,1,0,1:0:0:0:
164,146,9945,1,0,1:0:0:0:
146,112,10023,1,0,1:0:0:0:
147,74,10101,1,0,1:0:0:0:
166,41,10179,1,0,1:0:0:0:
198,22,10257,6,0,L|270:29,1,46.7500014266968,0|0,1:0|1:0,1:0:0:0:
300,101,10413,2,0,L|371:94,1,46.7500014266968,0|0,1:0|1:0,1:0:0:0:
443,128,11820,6,0,P|375:131|301:102,1,127.5,4|0,1:0|0:0,0:0:0:0:
244,76,12132,2,0,L|232:168,1,85,8|0,1:0|0:0,0:0:0:0:
122,266,12445,2,0,L|111:181,1,85,0|0,1:0|0:0,0:0:0:0:
260,297,12757,1,8,1:0:0:0:
260,297,12913,1,0,0:0:0:0:
61,327,13070,6,0,P|133:350|194:310,1,127.5,0|0,1:0|0:0,0:0:0:0:
200,242,13382,2,0,P|205:197|200:140,1,85,8|0,1:0|0:0,0:0:0:0:
315,52,13695,2,0,P|312:94|317:136,1,85,0|0,1:0|0:0,0:0:0:0:
432,169,14007,1,8,1:0:0:0:
432,169,14163,1,0,0:0:0:0:
299,224,14320,6,0,B|241:213|241:213|135:231,1,127.5,0|0,1:0|0:0,0:0:0:0:
90,241,14632,2,0,P|84:207|94:150,1,85,8|0,1:0|0:0,0:0:0:0:
235,95,14945,2,0,P|241:129|231:186,1,85,0|0,1:0|0:0,0:0:0:0:
35,68,15257,1,8,1:0:0:0:
146,79,15413,1,0,0:0:0:0:
146,79,15491,1,0,0:0:0:0:
146,79,15570,1,2,0:0:0:0:
256,192,15648,12,0,16507,0:0:0:0:
93,229,16820,6,0,L|86:319,1,85,0|0,1:0|0:0,0:0:0:0:
182,182,17132,2,0,L|189:272,1,85,8|0,1:0|0:0,0:0:0:0:
280,233,17445,2,0,L|273:323,1,85,0|0,1:0|0:0,0:0:0:0:
369,186,17757,2,0,L|376:276,1,85,8|0,1:0|0:0,0:0:0:0:
444,165,18070,6,0,P|438:126|442:76,1,85,0|0,1:0|0:0,0:0:0:0:
318,35,18382,2,0,P|324:74|320:124,1,85,8|0,1:0|0:0,0:0:0:0:
292,127,18616,1,0,0:0:0:0:
261,126,18695,1,0,1:0:0:0:
56,184,18851,1,0,0:0:0:0:
128,72,19007,1,8,1:0:0:0:
192,188,19163,1,0,0:0:0:0:
128,296,19320,5,0,1:0:0:0:
166,279,19398,1,0,0:0:0:0:
208,275,19476,1,0,0:0:0:0:
250,285,19554,1,0,0:0:0:0:
284,312,19632,1,8,1:0:0:0:
324,322,19710,1,0,0:0:0:0:
366,318,19788,1,0,0:0:0:0:
404,299,19866,1,0,0:0:0:0:
433,268,19945,6,0,L|428:200,1,42.5,0|0,1:0|0:0,0:0:0:0:
388,156,20101,2,0,L|382:87,1,42.5,0|0,0:0|0:0,0:0:0:0:
328,248,20257,6,0,L|322:179,1,42.5,8|0,1:0|0:0,0:0:0:0:
282,135,20413,2,0,L|276:66,1,42.5,0|0,0:0|0:0,0:0:0:0:
218,184,20570,6,0,L|168:192,3,42.5,0|0|0|0,0:0|0:0|0:0|0:0,0:0:0:0:
28,184,20882,2,0,L|78:192,3,42.5,0|0|0|0,0:0|0:0|0:0|0:0,0:0:0:0:
124,256,21195,2,0,L|124:288,6,21.25,0|0|0|0|0|0|0,0:0|0:0|0:0|0:0|0:0|0:0|0:0,0:0:0:0:
124,328,21507,1,0,0:0:0:0:
248,308,21663,1,0,0:0:0:0:
373,284,21820,6,0,P|365:212|369:192,1,85,4|0,1:0|0:0,0:0:0:0:
408,116,22054,1,0,0:0:0:0:
408,116,22132,2,0,L|308:108,1,85,8|0,1:0|0:0,0:0:0:0:
232,84,22366,1,0,0:0:0:0:
232,84,22445,2,0,P|240:156|236:176,1,85,0|0,1:0|0:0,0:0:0:0:
188,248,22679,1,0,0:0:0:0:
188,248,22757,1,8,1:0:0:0:
308,288,22913,1,0,0:0:0:0:
350,291,22991,1,0,0:0:0:0:
392,295,23069,5,0,1:0:0:0:
328,196,23226,1,0,0:0:0:0:
370,199,23304,1,0,0:0:0:0:
412,203,23382,1,8,1:0:0:0:
348,104,23538,1,0,0:0:0:0:
390,107,23616,1,0,0:0:0:0:
432,111,23694,5,0,1:0:0:0:
328,196,23851,1,0,1:0:0:0:
256,80,24007,2,0,P|204:68|160:72,1,85,8|0,1:0|0:0,0:0:0:0:
100,116,24241,1,0,0:0:0:0:
100,116,24320,6,0,L|96:208,1,85,0|0,1:0|0:0,0:0:0:0:
156,260,24554,1,0,0:0:0:0:
156,260,24632,2,0,P|208:272|252:268,1,85,8|0,1:0|0:0,0:0:0:0:
312,224,24866,1,0,0:0:0:0:
312,224,24945,2,0,L|316:132,1,85,0|0,1:0|0:0,0:0:0:0:
364,72,25179,1,0,0:0:0:0:
404,64,25257,1,8,1:0:0:0:
256,64,25413,1,0,0:0:0:0:
214,54,25491,1,0,0:0:0:0:
172,45,25570,5,0,1:0:0:0:
256,192,25648,12,0,26663,1:0:0:0:
112,72,26820,6,0,L|104:172,1,85,4|0,1:0|0:0,0:0:0:0:
68,232,27054,1,0,0:0:0:0:
68,232,27132,2,0,P|120:240|160:220,1,85,8|0,1:0|0:0,0:0:0:0:
192,156,27366,1,0,0:0:0:0:
192,156,27444,2,0,P|244:148|284:168,1,85,0|0,1:0|0:0,0:0:0:0:
344,208,27679,1,0,0:0:0:0:
344,208,27757,2,0,L|350:292,1,85,8|0,1:0|0:0,0:0:0:0:
416,348,27991,1,0,0:0:0:0:
416,348,28070,5,0,1:0:0:0:
296,356,28226,1,0,0:0:0:0:
254,349,28304,1,0,0:0:0:0:
212,342,28382,1,8,1:0:0:0:
264,240,28538,1,0,0:0:0:0:
222,247,28616,1,0,0:0:0:0:
180,255,28694,1,0,1:0:0:0:
203,137,28851,1,0,0:0:0:0:
164,154,28929,1,0,0:0:0:0:
126,173,29007,1,8,1:0:0:0:
7,127,29163,1,0,0:0:0:0:
7,127,29241,1,0,0:0:0:0:
7,127,29320,6,0,P|35:123|79:127,2,56.6666666666667,0|0|0,1:0|0:0|1:0,0:0:0:0:
53,249,29632,2,0,P|109:251|165:241,1,113.333333333333,8|0,1:0|0:0,0:0:0:0:
338,330,29945,2,0,L|326:270,2,56.6666666666667,0|0|0,0:0|0:0|0:0,0:0:0:0:
250,238,30257,2,0,P|246:174|250:94,1,113.333333333333,8|0,1:0|0:0,0:0:0:0:
350,42,30570,5,4,0:0:0:0:
256,192,30648,12,0,31820,0:0:0:0:
200,224,41820,6,0,L|192:136,1,85,0|0,1:0|1:0,0:0:0:0:
180,56,42132,1,8,0:0:0:0:
152,288,42288,2,0,P|208:256|288:276,1,127.5,0|0,1:0|0:0,0:0:0:0:
268,263,42601,1,0,1:0:0:0:
88,188,42757,1,8,0:0:0:0:
88,188,43070,6,0,P|56:120|84:24,1,170,0|8,1:0|0:0,0:0:0:0:
160,272,43538,2,0,L|24:264,1,127.5,0|0,1:0|0:0,0:0:0:0:
32,264,43851,1,8,0:0:0:0:
248,340,44007,2,0,L|244:244,1,85,0|0,1:0|0:0,0:0:0:0:
356,120,44320,6,0,L|344:292,1,170,0|8,1:0|0:0,0:0:0:0:
140,172,44788,2,0,P|208:176|300:168,1,127.5,0|0,1:0|0:0,0:0:0:0:
267,172,45101,1,0,1:0:0:0:
132,284,45257,2,0,P|84:280|32:284,1,85,8|0,0:0|0:0,0:0:0:0:
244,352,45570,6,0,L|240:256,1,85,0|0,1:0|0:0,0:0:0:0:
228,96,45882,1,8,0:0:0:0:
368,204,46038,2,0,L|364:288,1,85,0|0,1:0|0:0,0:0:0:0:
116,180,46351,5,8,0:0:0:0:
244,112,46507,1,0,1:0:0:0:
240,256,46663,1,0,0:0:0:0:
96,152,46820,6,0,L|288:136,1,170,0|8,1:0|0:0,0:0:0:0:
48,312,47288,2,0,P|32:232|36:212,1,85,0|0,1:0|0:0,0:0:0:0:
172,60,47601,1,0,1:0:0:0:
184,196,47757,2,0,B|185:196|195:244|179:291,1,85
184,196,48070,6,0,L|-8:180,1,170,0|8,1:0|0:0,0:0:0:0:
268,296,48538,2,0,L|380:280,1,85,0|0,1:0|0:0,0:0:0:0:
456,132,48851,1,0,1:0:0:0:
304,108,49007,1,0,0:0:0:0:
304,108,49320,5,0,1:0:0:0:
160,160,49476,1,0,1:0:0:0:
304,108,49632,5,8,1:2:0:0:
104,64,49788,1,0,1:0:0:0:
304,108,49945,5,0,0:0:0:0:
56,144,50101,1,0,1:0:0:0:
240,288,50257,1,8,1:2:0:0:
204,40,50413,1,0,1:0:0:0:
52,232,50570,5,0,1:0:0:0:
93,224,50648,1,0,1:0:0:0:
135,217,50726,1,0,1:0:0:0:
177,209,50804,1,0,1:0:0:0:
219,202,50882,2,0,L|224:152,1,42.5,0|0,1:0|0:0,0:0:0:0:
300,280,51038,1,0,1:0:0:0:
300,280,51116,1,0,1:0:0:0:
300,280,51195,2,0,L|312:88,1,178.499994552612,0|0,0:0|0:0,0:0:0:0:
311,101,51507,5,0,0:0:0:0:
311,101,51820,6,0,B|244:100|244:100|220:112|220:112|136:108,1,152.999995330811,4|0,1:0|0:0,0:0:0:0:
92,76,52132,2,0,P|80:120|116:176,1,101.999996887207,0|0,0:0|0:0,0:0:0:0:
176,272,52445,2,0,P|200:228|188:179,1,101.999996887207,8|0,0:1|0:0,0:0:0:0:
64,348,52757,2,0,L|184:352,1,101.999996887207,0|0,0:0|0:0,0:0:0:0:
276,236,53070,5,0,1:0:0:0:
74,268,53226,2,0,L|176:272,1,101.999996887207,0|0,0:0|0:0,0:0:0:0:
360,284,53538,1,0,1:0:0:0:
360,284,53616,1,0,0:0:0:0:
360,284,53695,2,0,P|372:224|360:180,1,101.999996887207,8|0,0:1|0:0,0:0:0:0:
288,48,54007,2,0,P|276:108|288:152,1,101.999996887207,0|8,1:0|0:1,0:0:0:0:
285,146,54241,1,0,0:0:0:0:
285,146,54320,6,0,B|248:136|220:148|220:148|184:128|184:128|152:180|152:180|116:144|116:144|80:168|0:144,1,305.999990661621,0|0,1:0|0:0,0:0:0:0:
388,192,54945,2,0,L|400:68,1,101.999996887207,8|0,0:1|0:0,0:0:0:0:
256,224,55257,2,0,L|268:348,1,101.999996887207,0|0,0:0|0:0,0:0:0:0:
136,64,55570,5,0,1:0:0:0:
172,200,55726,2,0,L|184:128,1,50.9999984436036
84,184,55882,2,0,L|92:234,1,50.9999984436036,0|0,0:0|0:0,0:0:0:0:
164,280,56038,1,0,1:0:0:0:
282,153,56195,2,0,L|162:149,1,101.999996887207,8|0,0:1|0:0,0:0:0:0:
96,68,56429,1,0,0:0:0:0:
96,68,56507,1,0,1:0:0:0:
96,68,56820,6,0,L|88:228,1,152.999995330811,4|0,1:2|0:0,0:0:0:0:
148,268,57132,2,0,P|200:264|268:264,1,101.999996887207,0|0,0:0|0:0,0:0:0:0:
372,172,57445,2,0,P|324:172|252:168,1,101.999996887207,8|0,0:1|0:0,0:0:0:0:
460,320,57757,2,0,L|456:200,1,101.999996887207,0|0,0:0|0:0,0:0:0:0:
432,68,58070,5,0,1:0:0:0:
375,273,58226,2,0,L|371:153,1,101.999996887207,0|0,0:0|1:0,0:0:0:0:
232,64,58538,1,0,1:0:0:0:
232,64,58616,1,0,0:0:0:0:
232,64,58695,2,0,P|232:116|216:168,1,101.999996887207,8|0,0:1|0:0,0:0:0:0:
72,320,59007,2,0,P|72:268|88:216,1,101.999996887207,0|8,1:0|0:1,0:0:0:0:
86,220,59241,1,0,0:0:0:0:
86,220,59320,6,0,B|128:204|160:220|160:220|184:200|184:200|224:216|224:216|260:184|260:184|312:212|376:200,1,305.999990661621,0|0,1:0|0:0,0:0:0:0:
132,132,59945,2,0,P|80:136|16:128,1,101.999996887207,8|0,0:1|0:0,0:0:0:0:
300,52,60257,2,0,P|356:56|416:48,1,101.999996887207,0|8,0:0|0:1,0:0:0:0:
136,36,60570,5,0,1:0:0:0:
220,224,60726,2,0,L|228:160,1,50.9999984436036,0|0,0:0|0:0,0:0:0:0:
132,132,60882,2,0,L|140:196,1,50.9999984436036,0|0,0:0|0:0,0:0:0:0:
144,272,61038,1,0,1:0:0:0:
31,151,61195,6,0,L|135:131,1,101.999996887207,8|0,0:1|0:0,0:0:0:0:
320,243,61507,2,0,L|219:223,1,101.999996887207,0|0,0:0|0:0,0:0:0:0:
416,176,61820,6,0,P|437:247|399:331,1,165.749992412568,4|0,1:0|0:0,0:0:0:0:
320,324,62132,2,0,L|204:324,1,110.499994941712,8|0,0:1|0:0,0:0:0:0:
100,324,62445,5,0,0:0:0:0:
76,208,62601,1,0,1:0:0:0:
288,112,62757,1,8,0:1:0:0:
260,232,62913,6,0,L|136:232,1,110.499994941712,0|0,0:0|1:0,0:0:0:0:
0,180,63226,1,0,0:0:0:0:
60,68,63382,2,0,L|192:68,1,110.499994941712,8|0,0:1|0:0,0:0:0:0:
248,36,63616,1,0,0:0:0:0:
248,36,63695,1,0,0:0:0:0:
244,220,63851,1,0,1:0:0:0:
244,220,63929,1,0,0:0:0:0:
248,224,64007,2,0,P|232:164|240:96,1,110.499994941712,8|0,0:1|0:0,0:0:0:0:
316,84,64241,1,0,0:0:0:0:
316,84,64320,6,0,B|448:84|448:84|400:108,1,165.749992412568,0|0,1:0|0:0,0:0:0:0:
368,164,64632,2,0,P|370:218|354:271,1,110.499994941712,8|0,0:1|0:0,0:0:0:0:
192,320,64945,1,0,0:0:0:0:
248,224,65101,1,0,1:0:0:0:
300,372,65257,1,8,0:1:0:0:
108,316,65413,6,0,P|100:276|112:204,1,110.499994941712,0|0,0:0|1:0,0:0:0:0:
250,115,65726,2,0,P|258:155|246:227,1,110.499994941712,0|8,0:0|0:1,0:0:0:0:
28,88,66038,2,0,L|152:88,1,110.499994941712,0|0,0:0|0:0,0:0:0:0:
352,68,66351,1,0,1:0:0:0:
352,68,66507,1,0,1:0:0:0:
352,68,66663,1,0,1:0:0:0:
286,271,66820,6,0,P|258:219|250:111,1,165.749992412568,4|0,1:0|0:0,0:0:0:0:
352,68,67132,2,0,P|412:64|464:68,1,110.499994941712,8|0,0:1|0:0,0:0:0:0:
408,240,67445,5,0,0:0:0:0:
336,156,67601,1,0,1:0:0:0:
492,168,67757,1,8,0:1:0:0:
400,336,67913,6,0,P|348:328|268:324,1,110.499994941712,0|0,0:0|1:0,0:0:0:0:
144,356,68226,1,0,0:0:0:0:
124,248,68382,2,0,P|176:242|254:225,1,110.499994941712,8|0,0:1|0:0,0:0:0:0:
256,152,68616,1,0,0:0:0:0:
256,152,68694,1,0,0:0:0:0:
364,288,68851,1,0,1:0:0:0:
364,288,68929,1,0,0:0:0:0:
364,288,69007,2,0,L|388:172,1,110.499994941712,8|0,0:1|0:0,0:0:0:0:
392,96,69241,1,0,0:0:0:0:
392,96,69320,6,0,L|320:104,3,55.2499974708558,0|0|0|0,1:0|1:0|1:0|1:0,1:0:0:0:
272,52,69632,2,0,L|200:44,3,55.2499974708558,8|0|0|0,1:1|1:0|1:0|1:0,1:0:0:0:
160,108,69945,1,0,1:0:0:0:
146,144,70023,1,0,1:0:0:0:
144,182,70101,1,0,1:0:0:0:
155,219,70179,1,0,1:0:0:0:
177,251,70257,2,0,L|248:252,1,55.2499974708558,8|0,1:0|1:0,1:0:0:0:
92,304,70413,2,0,L|21:304,1,55.2499974708558,0|0,1:0|1:0,1:0:0:0:
220,352,70570,5,0,1:0:0:0:
256,192,70648,12,0,71663,0:0:0:0:
101,193,71820,6,0,P|152:201|248:164,1,127.5,4|0,1:0|0:0,0:0:0:0:
224,181,72132,2,0,P|220:231|250:285,1,85,8|0,1:0|0:0,0:0:0:0:
71,298,72445,2,0,P|125:280|177:275,1,85,0|0,1:0|0:0,0:0:0:0:
289,327,72757,1,8,1:0:0:0:
142,195,72913,6,0,L|28:186,1,85,0|0,0:0|1:0,0:0:0:0:
285,93,73226,2,0,L|293:183,1,85,0|8,0:0|1:0,0:0:0:0:
213,351,73538,1,0,0:0:0:0:
213,351,73616,1,0,0:0:0:0:
213,351,73695,2,0,L|220:266,1,85,0|0,1:0|0:0,0:0:0:0:
296,249,73929,1,0,0:0:0:0:
331,246,74007,2,0,L|407:238,1,42.5,8|0,1:0|0:0,0:0:0:0:
454,191,74163,1,0,0:0:0:0:
454,148,74241,1,0,0:0:0:0:
454,106,74320,6,0,B|412:113|412:113|355:95,1,85,0|0,1:0|0:0,0:0:0:0:
160,142,74632,2,0,B|202:135|202:135|259:153,1,85,8|0,1:0|0:0,0:0:0:0:
310,191,74866,1,0,0:0:0:0:
310,191,74945,5,0,1:0:0:0:
264,64,75101,1,0,0:0:0:0:
408,180,75257,1,8,1:0:0:0:
224,256,75413,1,0,0:0:0:0:
380,336,75570,6,0,L|372:252,1,85,0|0,1:0|0:0,0:0:0:0:
433,107,75882,1,8,1:0:0:0:
488,212,76038,2,0,B|439:211|439:211|404:180|404:180|317:177,1,170,0|0,0:0|0:0,0:0:0:0:
89,145,76507,2,0,P|142:140|179:129,1,85,8|0,1:0|0:0,0:0:0:0:
274,31,76820,6,0,P|252:88|262:164,1,127.5,0|0,1:0|0:0,0:0:0:0:
257,153,77132,2,0,L|225:244,1,85,8|0,1:0|0:0,0:0:0:0:
399,244,77445,2,0,P|357:231|300:228,1,85,0|0,1:0|0:0,0:0:0:0:
155,275,77757,1,8,1:0:0:0:
322,144,77913,6,0,L|415:130,1,85,0|0,0:0|1:0,0:0:0:0:
133,112,78226,2,0,L|40:98,1,85,0|8,0:0|1:0,0:0:0:0:
248,31,78538,1,0,0:0:0:0:
248,31,78616,1,0,0:0:0:0:
248,31,78695,2,0,L|237:120,1,85,0|0,1:0|0:0,0:0:0:0:
164,157,78929,1,0,0:0:0:0:
167,192,79007,2,0,L|175:268,1,42.5,8|0,1:0|0:0,0:0:0:0:
222,315,79163,1,0,0:0:0:0:
265,315,79241,1,0,0:0:0:0:
307,316,79320,6,0,L|299:251,3,42.5,0|0|0|0,0:0|0:0|0:0|0:0,0:0:0:0:
400,266,79632,2,0,L|408:201,3,42.5,8|0|0|0,0:0|0:0|0:0|0:0,0:0:0:0:
296,241,79945,6,0,L|288:176,1,42.5
410,194,80101,2,0,L|418:129,1,42.5,0|0,0:0|0:0,0:0:0:0:
286,167,80257,2,0,L|278:102,1,42.5,8|0,0:0|0:0,0:0:0:0:
420,121,80413,2,0,L|428:56,1,42.5,0|0,0:0|0:0,0:0:0:0:
327,29,80570,5,4,0:0:0:0:
256,192,80648,12,0,81507,0:0:0:0:
313,284,81820,6,0,P|359:277|415:277,1,85,4|0,1:0|0:0,0:0:0:0:
190,202,82132,2,0,P|144:195|88:195,1,85,8|0,1:0|0:0,0:0:0:0:
323,71,82445,2,0,L|305:166,1,85,0|0,1:0|0:0,0:0:0:0:
227,276,82757,1,8,1:0:0:0:
441,281,82913,6,0,P|366:277|291:343,1,170
137,207,83382,2,0,P|200:235|222:274,1,85,8|0,0:1|0:0,0:0:0:0:
368,85,83695,1,0,1:0:0:0:
305,224,83851,1,0,1:0:0:0:
210,78,84007,2,0,L|366:84,1,127.5,8|0,1:0|0:0,0:0:0:0:
436,47,84320,6,0,B|450:90|450:90|434:130,1,85,0|0,1:0|0:0,0:0:0:0:
347,273,84632,2,0,B|333:230|333:230|349:190,1,85,8|0,1:0|0:0,0:0:0:0:
427,340,84945,1,0,1:0:0:0:
262,336,85101,2,0,P|202:332|170:336,1,85,0|8,0:0|1:0,0:0:0:0:
102,204,85413,6,0,P|155:229|275:168,1,170
404,121,85882,2,0,L|403:224,1,85,8|0,1:0|0:0,0:0:0:0:
297,328,86195,6,0,L|289:250,1,63.7500024318696,0|0,1:0|0:0,0:0:0:0:
212,168,86507,1,8,0:1:0:0:
212,168,86663,1,0,0:0:0:0:
403,205,86820,6,0,B|338:200|338:200|309:176|309:176|229:170,1,170,4|8,1:0|1:0,0:0:0:0:
187,246,87288,1,0,0:0:0:0:
68,131,87445,2,0,P|83:168|77:216,1,85,0|0,1:0|0:0,0:0:0:0:
194,33,87757,2,0,P|179:70|185:118,1,85,8|0,1:0|0:0,0:0:0:0:
257,155,87991,1,0,0:0:0:0:
257,155,88070,6,0,B|321:145|321:145|403:160,1,127.5,0|0,1:0|0:0,0:0:0:0:
495,189,88382,1,8,1:0:0:0:
440,89,88538,1,0,0:0:0:0:
400,243,88695,1,0,1:0:0:0:
400,243,88851,1,0,1:0:0:0:
463,66,89007,2,0,L|371:55,1,85,8|0,1:0|0:0,0:0:0:0:
238,26,89320,5,0,1:0:0:0:
218,63,89398,1,0,1:0:0:0:
212,105,89476,1,0,1:0:0:0:
222,146,89554,1,0,1:0:0:0:
256,172,89632,1,0,1:0:0:0:
266,213,89710,1,0,1:0:0:0:
260,255,89788,1,0,1:0:0:0:
241,293,89866,1,0,1:0:0:0:
205,316,89945,6,0,P|181:316|154:322,1,42.5,0|0,1:0|1:0,1:0:0:0:
92,257,90101,2,0,P|73:247|53:242,1,42.5,0|0,1:0|1:0,1:0:0:0:
198,181,90257,2,0,P|209:162|221:145,1,42.5,0|0,1:0|1:0,1:0:0:0:
95,112,90413,2,0,P|90:91|81:73,1,42.5,0|0,1:0|1:0,1:0:0:0:
210,31,90570,5,0,1:0:0:0:
256,192,90648,12,0,91507,0:0:0:0:
59,218,91820,6,0,P|119:211|221:231,1,140.25000428009,4|0,0:0|2:0,0:0:0:0:
235,152,92132,2,0,P|279:180|326:184,1,93.5000028533936,8|0,0:0|0:0,0:0:0:0:
498,155,92445,1,0,0:0:0:0:
378,133,92601,1,0,0:0:0:0:
358,252,92757,1,8,0:0:0:0:
478,274,92913,1,0,0:0:0:0:
493,122,93070,6,0,P|399:122|323:111,1,140.25000428009,0|0,0:0|0:0,0:0:0:0:
284,164,93382,2,0,P|229:155|177:158,1,93.5000028533936,8|0,0:0|0:0,0:0:0:0:
91,56,93695,1,0,0:0:0:0:
91,56,93851,1,0,0:0:0:0:
16,259,94007,1,8,0:0:0:0:
47,265,94085,1,0,0:0:0:0:
80,265,94163,1,0,0:0:0:0:
112,259,94241,1,0,0:0:0:0:
142,246,94320,6,0,P|212:235|309:246,1,140.25000428009,0|0,0:0|0:0,0:0:0:0:
359,210,94632,2,0,L|369:322,1,93.5000028533936,8|0,0:0|0:0,0:0:0:0:
425,75,94945,1,0,0:0:0:0:
449,193,95101,1,0,0:0:0:0:
347,20,95257,1,8,0:0:0:0:
323,138,95413,1,0,0:0:0:0:
145,93,95570,6,0,B|198:69|198:69|301:70,1,140.25000428009
345,135,95882,2,0,P|351:183|348:238,1,93.5000028533936,8|0,0:0|0:0,0:0:0:0:
297,349,96195,1,0,0:0:0:0:
422,313,96351,1,0,0:0:0:0:
235,251,96507,2,0,P|185:251|125:261,1,93.5000028533936,8|0,0:0|0:0,0:0:0:0:
67,298,96741,1,0,0:0:0:0:
67,298,96820,6,0,P|66:248|57:199,1,93.5000028533936,4|0,0:2|0:0,0:0:0:0:
295,95,97132,2,0,P|286:140|285:188,1,93.5000028533936,8|0,0:0|0:0,0:0:0:0:
92,42,97445,1,0,0:0:0:0:
92,42,97601,1,0,0:0:0:0:
181,150,97757,1,8,0:0:0:0:
184,103,97835,1,0,0:0:0:0:
187,56,97913,1,0,0:0:0:0:
111,234,98070,6,0,L|211:227,1,93.5000028533936
297,196,98304,1,0,0:0:0:0:
297,196,98382,2,0,P|299:244|293:303,1,93.5000028533936,8|0,0:0|0:0,0:0:0:0:
466,239,98695,1,0,0:0:0:0:
466,239,98851,1,0,0:0:0:0:
385,177,99007,2,0,P|378:244|403:353,1,140.25000428009,8|0,0:0|0:0,0:0:0:0:
389,315,99320,6,0,L|474:322,2,62.3333352355958,0|0|0,0:0|0:0|0:0,0:0:0:0:
254,348,99632,2,0,P|265:285|248:168,1,124.666670471192,8|0,0:0|0:0,0:0:0:0:
166,143,99945,2,0,L|97:148,2,62.3333352355958,0|0|0,0:0|0:0|0:0,0:0:0:0:
314,82,100257,2,0,L|383:87,2,62.3333352355958,8|0|0,0:0|0:0|0:0,0:0:0:0:
204,33,100570,5,4,0:0:0:0:
256,192,100648,12,0,101507,2:0:0:0:
350,206,101820,6,0,P|285:231|217:163,1,140.25000428009,4|0,0:0|0:0,0:0:0:0:
170,257,102132,2,0,P|95:250|75:252,1,93.5000028533936,8|0,0:0|0:0,0:0:0:0:
292,63,102445,2,0,L|291:166,1,93.5000028533936,0|0,0:0|0:0,0:0:0:0:
291,324,102757,1,8,0:0:0:0:
441,249,102913,6,0,L|468:144,1,93.5000028533936,0|0,0:0|0:0,0:0:0:0:
316,246,103226,2,0,L|286:141,1,93.5000028533936,0|8,0:0|0:0,0:0:0:0:
203,300,103538,2,0,L|125:224,1,93.5000028533936,0|0,0:0|0:0,0:0:0:0:
34,137,103851,1,0,0:0:0:0:
34,137,103929,1,0,0:0:0:0:
34,137,104007,1,8,0:0:0:0:
179,154,104163,1,0,0:0:0:0:
2,260,104320,6,0,P|51:236|169:247,1,140.25000428009,0|0,0:0|0:0,0:0:0:0:
205,281,104632,2,0,P|269:286|330:272,1,93.5000028533936,8|0,0:0|0:0,0:0:0:0:
442,195,104945,5,0,0:0:0:0:
462,333,105101,1,0,0:0:0:0:
301,195,105257,1,8,0:0:0:0:
468,207,105413,1,0,0:0:0:0:
377,61,105570,6,0,L|375:160,1,93.5000028533936
370,257,105882,1,8,0:0:0:0:
116,183,106038,2,0,B|156:142|156:142|273:135,1,140.25000428009,0|0,0:0|0:0,0:0:0:0:
301,195,106351,1,0,0:0:0:0:
195,311,106507,1,8,0:0:0:0:
382,277,106663,1,0,0:0:0:0:
227,242,106820,6,0,B|151:221|165:275|74:253,1,140.25000428009,4|0,0:0|0:0,0:0:0:0:
39,189,107132,2,0,L|32:84,1,93.5000028533936,8|0,0:0|0:0,0:0:0:0:
295,133,107445,2,0,P|235:151|198:148,1,93.5000028533936,0|0,0:0|0:0,0:0:0:0:
138,71,107757,1,8,0:0:0:0:
140,291,107913,6,0,L|113:186,1,93.5000028533936,0|4,0:0|0:0,0:0:0:0:
265,288,108226,2,0,L|295:183,1,93.5000028533936,0|8,0:0|0:0,0:0:0:0:
378,342,108538,2,0,L|456:266,1,93.5000028533936,0|0,0:0|0:0,0:0:0:0:
421,120,108851,1,0,0:0:0:0:
421,120,108929,1,0,0:0:0:0:
421,120,109007,1,8,0:0:0:0:
395,215,109163,1,0,0:0:0:0:
499,96,109320,5,0,0:0:0:0:
473,57,109398,1,0,0:0:0:0:
430,39,109476,1,0,0:0:0:0:
385,47,109554,1,0,0:0:0:0:
352,79,109632,1,8,0:0:0:0:
322,114,109710,1,0,0:0:0:0:
278,129,109788,1,0,0:0:0:0:
233,119,109866,1,0,0:0:0:0:
206,80,109945,6,0,L|194:20,1,46.7500014266968,0|0,0:0|0:0,0:0:0:0:
112,147,110101,2,0,L|102:192,1,46.7500014266968,0|0,0:0|0:0,0:0:0:0:
250,243,110257,2,0,L|238:183,1,46.7500014266968,8|0,0:0|0:0,0:0:0:0:
88,296,110413,2,0,L|78:341,1,46.7500014266968,0|0,0:0|0:0,0:0:0:0:
266,365,110570,5,4,0:0:0:0:
288,351,111507,6,0,B|352:355|380:304|380:304|419:349|483:334,1,220.999989883423,0|4,0:0|0:0,0:0:0:0:
